osu file format v14

[General]
AudioFilename: point of no return.mp3
AudioLeadIn: 0
PreviewTime: 40364
Countdown: 0
SampleSet: Soft
StackLeniency: 0.7
Mode: 0
LetterboxInBreaks: 0
WidescreenStoryboard: 1

[Editor]
DistanceSpacing: 0.9
BeatDivisor: 4
GridSize: 16
TimelineZoom: 1.7

[Metadata]
Title:Point of No Return
TitleUnicode:Point of No Return
Artist:Starset
ArtistUnicode:Starset
Creator:Net0
Version:Collab Normal
Source:
Tags:rock english time freeze _Sh1ro DoAcre xunni maot kalindraz SrSkyPlayer Transmissions 2014 alternative eletronic progressive
BeatmapID:2170351
BeatmapSetID:1033381

[Difficulty]
HPDrainRate:3
CircleSize:3.5
OverallDifficulty:4
ApproachRate:5
SliderMultiplier:1.25
SliderTickRate:1

[Events]
//Background and Video events
0,0,"starsetbg.jpg",0,0
//Break Periods
2,69921,71950
2,159064,164007
//Storyboard Layer 0 (Background)
//Storyboard Layer 1 (Fail)
//Storyboard Layer 2 (Pass)
//Storyboard Layer 3 (Foreground)
//Storyboard Layer 4 (Overlay)
//Storyboard Sound Samples

[TimingPoints]
1150,428.571428571429,4,2,3,60,1,0
1150,-100,4,2,3,60,0,0
42292,-100,4,2,3,80,0,1
69721,-100,4,2,3,60,0,0
110864,-100,4,2,3,80,0,1
138292,-100,4,2,3,70,0,0
166042,-100,4,2,3,80,0,1
186292,-100,4,2,3,60,0,0

[Colours]
Combo1 : 252,115,128
Combo2 : 172,85,178
Combo3 : 74,120,196
Combo4 : 151,188,201

[HitObjects]
62,86,1150,6,0,P|113:58|200:87,1,125,2|2,3:2|0:0,0:0:0:0:
266,136,2007,2,0,L|250:276,1,125,8|0,0:0|3:0,0:0:0:0:
232,371,2864,1,0,3:0:0:0:
129,171,3721,1,8,0:0:0:0:
302,27,4578,6,0,P|365:17|421:53,1,125,2|2,3:2|0:0,0:0:0:0:
468,146,5435,2,0,L|458:275,1,125,8|0,0:0|3:2,0:0:0:0:
441,381,6292,1,0,3:2:0:0:
51,155,8007,6,0,P|98:129|178:154,1,125,2|2,3:2|0:0,0:0:0:0:
240,226,8864,2,0,L|380:222,1,125,8|0,0:0|3:0,0:0:0:0:
477,220,9721,1,0,3:0:0:0:
283,334,10578,1,8,0:0:0:0:
202,255,11007,1,2,0:0:0:0:
126,337,11435,6,0,P|56:346|9:304,1,125,2|0,3:2|0:0,0:0:0:0:
87,228,12292,2,0,L|77:95,1,125,8|0,0:0|3:0,0:0:0:0:
15,8,13150,1,0,3:0:0:0:
337,111,14435,1,2,3:2:0:0:
441,150,14864,6,0,P|439:112|415:28,1,125,2|2,3:2|0:0,0:0:0:0:
337,111,15721,2,0,P|345:155|343:259,2,125,8|2|2,0:0|3:2|3:2,0:0:0:0:
281,12,17007,1,2,0:0:0:0:
235,114,17435,2,0,P|177:138|115:105,1,125,8|0,0:0|0:0,0:0:0:0:
37,40,18292,6,0,P|20:82|27:172,1,125,2|2,3:2|0:0,0:0:0:0:
113,228,19149,2,0,P|115:288|107:374,2,125,8|0|0,0:0|3:0|3:0,0:0:0:0:
104,119,20435,1,0,0:0:0:0:
196,183,20863,2,0,P|262:201|310:153,1,125,8|2,0:0|0:0,0:0:0:0:
365,75,21721,6,0,P|377:118|422:326,1,250,2|8,3:2|0:0,0:0:0:0:
324,376,23007,1,0,3:0:0:0:
308,264,23435,2,0,P|283:141|250:11,1,250,2|8,3:2|0:0,0:0:0:0:
145,52,24721,1,0,3:0:0:0:
54,118,25150,6,0,P|23:239|-1:361,2,250,2|8|0,3:2|0:0|3:0,0:0:0:0:
130,35,27292,2,0,P|197:20|258:40,1,125,0|8,0:0|0:0,0:0:0:0:
304,133,28150,1,0,3:0:0:0:
361,36,28578,6,0,P|418:24|490:64,1,125,2|2,3:2|0:0,0:0:0:0:
403,135,29435,1,10,0:0:0:0:
455,234,29864,1,2,0:0:0:0:
392,327,30292,2,0,P|331:335|265:291,1,125,2|2,3:2|0:0,0:0:0:0:
353,223,31149,1,10,0:0:0:0:
302,122,31578,1,2,3:0:0:0:
341,16,32007,6,0,P|280:11|217:46,1,125,2|2,3:2|0:0,0:0:0:0:
189,145,32864,1,10,0:0:0:0:
233,248,33293,1,2,3:2:0:0:
179,347,33721,2,0,P|239:361|297:342,1,125,2|2,3:2|0:0,0:0:0:0:
397,289,34578,2,0,P|402:221|402:140,1,125,8|0,0:0|3:0,0:0:0:0:
393,51,35435,5,2,3:2:0:0:
307,121,35864,1,2,0:0:0:0:
215,55,36292,2,0,P|162:47|84:86,1,125,8|2,0:0|3:2,0:0:0:0:
54,177,37150,1,2,3:2:0:0:
138,251,37579,1,2,0:0:0:0:
76,345,38007,2,0,P|137:362|198:346,1,125,8|2,0:0|3:2,0:0:0:0:
302,312,38864,5,2,3:2:0:0:
402,363,39293,1,2,0:0:0:0:
480,283,39721,2,0,P|481:217|455:142,1,125,8|2,0:0|0:0,0:0:0:0:
376,91,40578,5,0,1:1:0:0:
69,79,42292,6,0,P|166:60|267:93,1,187.5,6|0,3:2|3:0,0:0:0:0:
282,129,43150,1,10,0:0:0:0:
341,224,43578,2,0,P|379:229|428:217,1,62.5,0|0,0:0|3:0,0:0:0:0:
452,198,44007,2,0,P|473:108|407:24,1,187.5,6|0,3:2|3:0,0:0:0:0:
367,26,44865,1,10,0:0:0:0:
284,102,45293,2,0,L|217:106,1,62.5,0|0,0:0|3:0,0:0:0:0:
170,83,45721,6,0,P|124:70|68:81,2,93.75,6|2|2,3:2|3:2|3:2,0:0:0:0:
152,136,46578,2,0,P|105:147|62:185,2,93.75,10|8|2,0:0|3:2|3:2,0:0:0:0:
198,167,47435,2,0,P|272:175|383:132,1,187.5,2|2,3:2|3:2,0:0:0:0:
415,95,48292,2,0,L|516:96,2,93.75,14|0|2,0:0|1:0|3:2,0:0:0:0:
379,50,49150,6,0,P|293:14|200:19,1,187.5,6|0,3:2|3:0,0:0:0:0:
157,56,50008,1,10,0:0:0:0:
103,155,50436,2,0,L|114:241,1,62.5,0|0,0:0|3:0,0:0:0:0:
153,254,50865,2,0,P|241:282|340:226,1,187.5,6|0,3:2|3:0,0:0:0:0:
363,204,51721,1,10,0:0:0:0:
471,231,52151,2,0,L|489:297,1,62.5,0|0,0:0|3:0,0:0:0:0:
459,340,52579,6,0,P|419:357|348:371,2,93.75,6|2|2,3:2|3:2|3:2,0:0:0:0:
423,296,53435,2,0,P|379:290|311:267,2,93.75,10|10|2,0:0|3:2|3:2,0:0:0:0:
441,242,54293,2,0,P|445:163|403:65,1,187.5,2|2,3:2|3:2,0:0:0:0:
351,41,55150,1,10,0:0:0:0:
241,64,55578,1,0,1:1:0:0:
178,157,56007,6,0,P|118:158|82:143,2,93.75,6|2|2,3:2|3:2|3:2,0:0:0:0:
229,179,56864,2,0,B|268:207|319:179|319:179|356:213|404:200,1,187.5,10|2,0:0|3:2,0:0:0:0:
457,182,57721,2,0,P|470:228|451:281,2,93.75,6|2|2,3:2|3:2|3:2,0:0:0:0:
432,131,58578,1,12,0:0:0:0:
339,66,59007,1,2,0:0:0:0:
235,109,59435,6,0,P|187:101|147:75,2,93.75,6|2|2,3:2|3:2|3:2,0:0:0:0:
281,140,60292,2,0,B|313:222|313:222|290:324,1,187.5,10|0,0:0|3:0,0:0:0:0:
278,374,61150,2,0,P|229:380|186:356,2,93.75,6|2|2,3:2|3:2|3:2,0:0:0:0:
334,378,62006,1,10,0:0:0:0:
424,311,62435,1,0,1:1:0:0:
510,238,62864,6,0,P|411:200|336:237,1,187.5,6|0,3:2|3:0,0:0:0:0:
304,274,63722,1,10,0:0:0:0:
220,348,64150,2,0,L|207:265,1,62.5,0|0,0:0|3:0,0:0:0:0:
195,231,64579,2,0,P|107:213|10:258,1,187.5,6|0,3:2|3:0,0:0:0:0:
3,304,65435,1,10,0:0:0:0:
81,383,65865,2,0,L|157:382,1,62.5,6|2,0:0|3:2,0:0:0:0:
191,353,66292,6,0,B|250:315|262:250|262:250|305:296|383:306,1,250,6|8,3:2|0:0,0:0:0:0:
424,295,67364,2,0,P|422:225|388:175,1,125,2|2,0:0|3:2,0:0:0:0:
350,143,68007,2,0,L|274:142,1,62.5,6|0,3:2|0:0,0:0:0:0:
235,164,68435,1,2,0:0:0:0:
192,200,68650,2,0,P|138:222|75:197,1,125,2|0,3:2|0:0,0:0:0:0:
37,161,69292,2,0,L|47:96,1,62.5,10|2,0:0|0:0,0:0:0:0:
79,53,69721,5,2,0:0:0:0:
478,71,73150,6,0,P|425:49|341:67,1,125,6|2,3:2|0:0,0:0:0:0:
291,147,74007,2,0,P|223:166|160:146,1,125,8|2,0:0|0:3,0:0:0:0:
82,83,74864,1,0,3:0:0:0:
167,9,75292,2,0,P|229:-13|290:2,2,125,2|8|2,0:3|0:0|0:0,0:0:0:0:
233,100,76579,6,0,P|240:163|227:238,1,125,6|2,3:2|3:2,0:0:0:0:
170,318,77436,2,0,P|111:327|57:296,1,125,8|2,0:0|0:3,0:0:0:0:
34,185,78292,1,2,3:2:0:0:
129,125,78721,2,0,L|121:-11,2,125,2|8|2,0:3|0:0|0:0,0:0:0:0:
204,208,80007,6,0,P|266:227|328:195,1,125,0|2,3:0|0:3,0:0:0:0:
412,140,80864,2,0,L|406:275,1,125,8|2,0:0|0:3,0:0:0:0:
399,377,81722,1,2,3:0:0:0:
302,318,82150,2,0,L|147:324,1,125,2|8,0:3|0:0,0:0:0:0:
77,375,83007,1,2,0:0:0:0:
11,283,83435,6,0,P|4:245|35:148,1,125,6|2,3:2|3:2,0:0:0:0:
97,76,84292,2,0,P|145:36|223:22,2,125,8|2|2,0:0|0:0|3:2,0:0:0:0:
92,188,85578,1,2,3:2:0:0:
167,271,86006,2,0,P|240:275|293:229,1,125,8|2,0:0|0:3,0:0:0:0:
348,156,86863,6,0,P|350:88|311:45,1,125,2|2,3:2|3:2,0:0:0:0:
204,23,87721,2,0,P|130:20|79:57,2,125,8|0|2,0:0|3:0|0:3,0:0:0:0:
251,125,89006,1,0,3:0:0:0:
323,210,89435,2,0,P|374:216|449:171,1,125,8|8,0:0|0:0,0:0:0:0:
468,75,90292,6,0,P|382:30|217:55,1,250,6|8,3:2|0:0,0:0:0:0:
140,108,91578,1,2,0:3:0:0:
244,150,92007,2,0,P|289:236|264:401,1,250,2|8,3:2|0:0,0:0:0:0:
176,327,93292,1,8,0:2:0:0:
130,224,93721,6,0,P|146:122|285:31,2,250,2|10|2,3:2|0:0|0:3,0:0:0:0:
174,327,95863,2,0,P|221:346|301:309,1,125,2|8,0:3|0:0,0:0:0:0:
368,242,96721,1,4,0:0:0:0:
304,149,97150,6,0,P|317:84|371:33,1,125,6|2,3:2|0:0,0:0:0:0:
465,18,98007,1,10,0:0:0:0:
498,125,98436,1,2,0:0:0:0:
419,205,98864,2,0,P|359:226|282:240,1,125,2|2,1:2|0:0,0:0:0:0:
186,231,99721,1,10,0:0:0:0:
132,131,100150,1,2,3:2:0:0:
200,41,100579,6,0,L|342:49,1,125,6|2,1:2|0:0,0:0:0:0:
436,59,101436,1,10,0:0:0:0:
486,159,101865,1,2,3:2:0:0:
432,257,102292,2,0,P|365:267|303:224,1,125,2|2,1:2|0:0,0:0:0:0:
293,189,102935,2,0,P|237:161|177:172,1,125,8|0,0:0|1:1,0:0:0:0:
121,171,103578,2,0,P|86:181|57:204,1,62.5
41,247,104007,5,6,3:2:0:0:
111,334,104436,1,2,0:0:0:0:
213,288,104864,2,0,L|344:273,1,125,8|2,0:0|3:2,0:0:0:0:
449,262,105722,1,2,3:2:0:0:
479,153,106151,1,2,0:0:0:0:
380,99,106578,2,0,L|249:114,1,125,8|2,0:0|3:2,0:0:0:0:
143,126,107436,5,6,3:2:0:0:
68,210,107865,1,2,0:0:0:0:
152,285,108293,2,0,P|145:341|82:378,1,125,8|0,0:0|1:1,0:0:0:0:
43,347,108935,1,0,0:0:0:0:
42,290,109150,5,4,3:2:0:0:
447,70,110864,6,0,P|360:37|250:46,1,187.5,6|0,3:2|3:0,0:0:0:0:
232,86,111722,1,10,0:0:0:0:
201,194,112150,2,0,L|207:273,1,62.5,0|0,0:0|3:0,0:0:0:0:
168,298,112579,2,0,P|80:295|42:207,1,187.5,6|0,3:2|3:0,0:0:0:0:
60,160,113435,1,10,0:0:0:0:
171,150,113865,2,0,L|162:76,1,62.5,0|0,0:0|3:0,0:0:0:0:
156,32,114293,6,0,P|202:19|251:18,2,93.75,6|2|2,3:2|3:2|3:2,0:0:0:0:
102,49,115150,2,0,P|57:61|10:63,2,93.75,10|8|2,0:0|3:2|3:2,0:0:0:0:
135,94,116007,2,0,P|155:191|146:297,1,187.5,2|2,3:2|3:2,0:0:0:0:
119,326,116864,2,0,P|69:324|27:308,2,93.75,14|0|2,0:0|1:0|3:2,0:0:0:0:
169,351,117722,6,0,L|368:345,1,187.5,6|0,3:2|3:0,0:0:0:0:
407,320,118578,1,10,0:0:0:0:
451,216,119008,2,0,L|445:137,1,62.5,2|0,0:3|3:0,0:0:0:0:
411,109,119435,2,0,P|310:82|235:123,1,187.5,6|0,3:2|3:0,0:0:0:0:
217,169,120292,1,10,0:0:0:0:
139,250,120721,2,0,L|64:250,1,62.5,0|0,0:0|3:0,0:0:0:0:
26,228,121150,6,0,P|1:180|-1:127,2,93.75,6|2|2,3:2|3:2|3:2,0:0:0:0:
70,193,122007,2,0,P|98:146|142:118,2,93.75,10|8|2,0:0|3:2|3:2,0:0:0:0:
76,250,122865,2,0,P|166:282|273:237,1,187.5,2|2,3:2|3:2,0:0:0:0:
269,202,123722,1,10,0:0:0:0:
342,116,124150,1,8,0:0:0:0:
416,201,124579,6,0,L|530:187,2,93.75,6|2|2,3:2|3:2|3:2,0:0:0:0:
379,243,125435,2,0,B|331:269|318:311|318:311|289:268|232:256,1,187.5,10|2,0:0|3:2,0:0:0:0:
187,245,126293,2,0,P|145:265|90:269,2,93.75,6|2|2,3:2|3:2|3:2,0:0:0:0:
209,193,127150,1,12,0:0:0:0:
179,84,127579,1,2,0:3:0:0:
91,13,128007,6,0,P|41:3|-21:16,2,93.75,6|2|2,3:2|3:2|3:2,0:0:0:0:
147,12,128864,2,0,B|243:12|243:12|262:55|315:74,1,187.5,10|0,0:0|3:0,0:0:0:0:
364,63,129721,2,0,P|403:48|477:44,2,93.75,6|2|2,3:2|3:2|3:2,0:0:0:0:
357,119,130578,1,10,0:0:0:0:
390,226,131007,2,0,P|349:263|318:273,1,62.5,8|0,0:0|0:0,0:0:0:0:
291,284,131436,6,0,P|181:280|93:235,1,187.5,6|0,3:2|3:0,0:0:0:0:
81,200,132292,1,10,0:0:0:0:
57,90,132722,2,0,L|74:25,1,62.5,2|0,0:3|3:0,0:0:0:0:
125,9,133150,2,0,P|224:12|305:53,1,187.5,6|0,3:2|3:0,0:0:0:0:
323,103,134007,1,10,0:0:0:0:
349,212,134435,2,0,L|345:282,1,62.5,6|2,0:0|3:2,0:0:0:0:
303,311,134864,6,0,B|232:307|185:352|185:352|177:290|120:236,1,250,6|8,3:2|0:0,0:0:0:0:
77,237,135936,2,0,P|65:175|88:102,1,125,2|2,0:0|3:2,0:0:0:0:
123,80,136579,2,0,L|187:91,1,62.5,6|0,3:2|0:0,0:0:0:0:
229,124,137007,1,2,0:0:0:0:
267,82,137222,2,0,P|327:71|386:92,1,125,2|0,3:2|3:0,0:0:0:0:
419,138,137864,2,0,L|409:203,1,62.5,0|2,1:1|3:2,0:0:0:0:
439,247,138292,6,0,P|448:273|478:379,2,125,6|2|10,3:2|0:0|0:0,0:0:0:0:
331,214,139578,2,0,P|290:215|261:225,1,62.5,2|2,0:0|3:2,0:0:0:0:
222,252,140007,2,0,P|181:258|90:245,2,125,2|2|10,3:2|0:0|0:0,0:0:0:0:
333,270,141293,2,0,L|325:331,1,62.5,2|0,0:0|0:0,0:0:0:0:
271,349,141721,6,0,L|128:360,1,125,6|2,3:2|0:0,0:0:0:0:
42,313,142578,1,10,0:0:0:0:
0,208,143007,2,0,P|-3:168|10:130,1,62.5,2|2,0:0|3:2,0:0:0:0:
40,105,143435,1,2,3:2:0:0:
119,25,143864,1,2,0:0:0:0:
219,75,144292,1,8,0:0:0:0:
202,186,144721,1,0,1:1:0:0:
108,248,145150,6,0,P|81:293|66:377,2,125,2|2|10,3:2|0:0|0:0,0:0:0:0:
169,153,146436,2,0,L|166:77,1,62.5,2|2,0:0|3:2,0:0:0:0:
193,40,146865,2,0,P|252:20|325:34,2,125,2|2|8,3:2|0:0|0:0,0:0:0:0:
90,87,148151,2,0,P|56:108|31:138,1,62.5,2|0,0:0|0:0,0:0:0:0:
24,178,148579,6,0,L|32:310,1,125,6|2,3:2|0:0,0:0:0:0:
117,375,149436,1,10,0:0:0:0:
209,311,149865,2,0,P|241:308|283:319,1,62.5,2|2,0:0|3:2,0:0:0:0:
312,350,150293,1,2,3:2:0:0:
419,316,150722,1,2,3:2:0:0:
410,204,151150,1,10,0:0:0:0:
312,148,151578,2,0,P|278:142|230:145,1,62.5,2|2,1:2|3:2,0:0:0:0:
201,113,152007,6,0,P|123:182|256:380,1,375,2|2,3:2|0:0,0:0:0:0:
283,349,153507,1,2,3:2:0:0:
339,353,153721,1,2,0:0:0:0:
419,273,154150,2,0,L|340:265,1,62.5,2|2,3:2|3:2,0:0:0:0:
319,224,154578,2,0,L|240:216,1,62.5,10|2,0:0|3:2,0:0:0:0:
219,175,155007,2,0,L|140:167,1,62.5,2|2,0:0|3:2,0:0:0:0:
104,147,155435,5,6,3:2:0:0:
8,86,155864,1,6,3:2:0:0:
97,18,156292,1,4,1:2:0:0:
197,68,156721,1,2,3:2:0:0:
242,171,157150,2,0,P|274:171|313:152,1,62.5,2|0,3:2|1:0,0:0:0:0:
341,120,157578,1,2,0:0:0:0:
396,110,157792,1,2,3:2:0:0:
442,141,158007,2,0,P|453:170|452:201,1,62.5,0|2,1:0|3:2,0:0:0:0:
414,241,158435,2,0,P|403:270|404:301,1,62.5,8|8,0:0|0:0,0:0:0:0:
430,342,158864,5,2,0:0:0:0:
97,243,165721,6,0,B|84:199|84:199|93:153,2,93.75,2|2|2,0:0|3:2|3:2,0:0:0:0:
123,293,166578,1,6,3:2:0:0:
207,367,167008,2,0,L|276:347,1,62.5,0|0,0:0|3:0,0:0:0:0:
322,361,167435,2,0,P|404:345|492:282,1,187.5,6|2,3:2|3:2,0:0:0:0:
505,232,168292,1,10,0:0:0:0:
501,119,168721,2,0,L|465:53,1,62.5,0|2,0:0|3:2,0:0:0:0:
420,38,169151,6,0,P|374:25|316:20,2,93.75,6|2|2,3:2|3:2|3:2,0:0:0:0:
390,85,170007,2,0,P|343:96|290:121,2,93.75,10|10|2,3:2|3:2|3:2,0:0:0:0:
423,130,170865,2,0,P|432:223|408:314,1,187.5,6|2,3:2|3:2,0:0:0:0:
363,346,171722,1,10,0:0:0:0:
267,287,172150,1,8,0:0:0:0:
162,329,172579,6,0,P|116:337|58:337,2,93.75,6|2|2,3:2|3:2|3:2,0:0:0:0:
165,272,173436,2,0,B|161:226|177:178|177:178|146:137|163:69,1,187.5,10|2,0:0|3:2,0:0:0:0:
179,38,174292,2,0,P|225:30|283:30,2,93.75,6|2|2,3:2|3:2|3:2,0:0:0:0:
124,23,175150,1,10,0:0:0:0:
39,97,175579,1,2,0:3:0:0:
108,185,176007,6,0,L|105:278,2,93.75,6|2|2,3:2|3:2|3:2,0:0:0:0:
136,136,176864,2,0,B|225:113|225:113|321:156,1,187.5,10|0,0:0|3:0,0:0:0:0:
347,195,177721,2,0,L|350:297,2,93.75,2|2|2,3:2|3:2|3:2,0:0:0:0:
386,155,178578,1,10,0:0:0:0:
449,62,179007,1,0,1:1:0:0:
347,13,179435,6,0,P|253:4|160:32,1,187.5,6|2,3:2|3:2,0:0:0:0:
144,82,180292,1,10,0:0:0:0:
102,186,180722,2,0,L|107:256,1,62.5,2|0,0:3|3:0,0:0:0:0:
133,297,181151,2,0,P|202:324|326:298,1,187.5,6|2,3:2|3:2,0:0:0:0:
343,260,182007,1,10,0:0:0:0:
380,153,182435,2,0,L|372:72,1,62.5,2|2,0:3|3:2,0:0:0:0:
326,60,182864,6,0,B|288:111|292:174|292:174|237:138|169:155,1,250,6|8,3:2|0:0,0:0:0:0:
160,212,183936,2,0,P|101:214|43:162,1,125,2|2,3:2|3:2,0:0:0:0:
21,126,184579,2,0,L|29:55,1,62.5,2|0,3:2|3:0,0:0:0:0:
65,22,185007,1,2,3:2:0:0:
114,48,185222,2,0,L|256:43,1,125,2|0,3:2|3:0,0:0:0:0:
291,63,185864,2,0,L|291:131,1,62.5,2|2,3:2|3:2,0:0:0:0:
319,174,186292,6,0,P|361:182|443:149,1,125,6|2,3:2|0:0,0:0:0:0:
488,139,186935,1,2,3:2:0:0:
511,190,187150,2,0,P|515:261|505:323,1,125,10|2,0:0|0:0,0:0:0:0:
408,368,188007,2,0,P|360:379|284:345,1,125,6|2,3:2|3:2,0:0:0:0:
249,320,188650,1,2,3:2:0:0:
209,279,188864,2,0,L|139:285,2,62.5,10|2|2,0:0|3:2|3:2,0:0:0:0:
241,233,189507,1,2,3:2:0:0:
280,192,189721,6,0,L|350:198,1,62.5,6|0,3:2|0:0,0:0:0:0:
386,93,190364,1,2,3:2:0:0:
356,44,190578,2,0,P|301:17|245:41,1,125,10|2,0:0|0:0,0:0:0:0:
215,90,191221,1,2,3:2:0:0:
215,146,191435,2,0,P|162:170|92:120,1,125,6|2,3:2|3:2,0:0:0:0:
70,98,192078,2,0,L|74:21,2,62.5,2|0|2,3:2|1:1|3:2,0:0:0:0:
24,131,192721,1,2,3:2:0:0:
36,243,193150,6,0,P|78:289|134:317,1,125,6|2,3:2|3:2,0:0:0:0:
161,367,193793,1,2,3:2:0:0:
215,382,194008,2,0,L|359:380,1,125,8|2,0:0|3:2,0:0:0:0:
433,328,194865,2,0,P|431:257|412:182,1,125,2|2,3:2|3:2,0:0:0:0:
377,166,195508,1,2,3:2:0:0:
337,125,195721,2,0,L|246:130,2,62.5,10|2|2,0:0|3:2|3:2,0:0:0:0:
368,78,196365,1,4,3:2:0:0:
405,36,196578,6,0,L|496:41,2,62.5,2|0|2,3:2|0:0|3:2,0:0:0:0:
292,33,197436,2,0,L|145:37,1,125,10|2,0:0|3:2,0:0:0:0:
117,63,198079,1,2,3:2:0:0:
81,104,198292,2,0,P|72:177|83:241,1,125,6|2,3:2|3:2,0:0:0:0:
116,270,198936,2,0,L|108:352,2,62.5,2|10|2,3:2|0:0|3:2,0:0:0:0:
154,228,199579,1,2,0:0:0:0:
203,201,199792,6,0,P|235:202|268:203,1,62.5,6|0,3:2|0:0,0:0:0:0:
