osu file format v14

[General]
AudioFilename: point of no return.mp3
AudioLeadIn: 0
PreviewTime: 40364
Countdown: 0
SampleSet: Soft
StackLeniency: 0.2
Mode: 0
LetterboxInBreaks: 0
WidescreenStoryboard: 1

[Editor]
DistanceSpacing: 1.4
BeatDivisor: 4
GridSize: 16
TimelineZoom: 1.6

[Metadata]
Title:Point of No Return
TitleUnicode:Point of No Return
Artist:Starset
ArtistUnicode:Starset
Creator:Net0
Version:Collab Insane
Source:
Tags:rock english time freeze _Sh1ro DoAcre xunni maot kalindraz SrSkyPlayer Transmissions 2014 alternative eletronic progressive
BeatmapID:2160560
BeatmapSetID:1033381

[Difficulty]
HPDrainRate:5
CircleSize:4
OverallDifficulty:8
ApproachRate:9
SliderMultiplier:1.5
SliderTickRate:1

[Events]
//Background and Video events
0,0,"starsetbg.jpg",0,0
//Break Periods
2,159064,164007
//Storyboard Layer 0 (Background)
//Storyboard Layer 1 (Fail)
//Storyboard Layer 2 (Pass)
//Storyboard Layer 3 (Foreground)
//Storyboard Layer 4 (Overlay)
//Storyboard Sound Samples

[TimingPoints]
1150,428.571428571429,4,2,3,60,1,0
1150,-100,4,2,3,60,0,0
28578,-200,4,2,3,60,0,0
42292,-76.9230769230769,4,2,3,80,0,1
69721,-100,4,2,3,60,0,0
97150,-200,4,2,3,60,0,0
110864,-71.4285714285714,4,2,3,80,0,1
138292,-200,4,2,3,70,0,0
155435,-76.9230769230769,4,2,3,70,0,0
155864,-66.6666666666667,4,2,3,70,0,0
165721,-100,4,2,3,70,0,0
166042,-66.6666666666667,4,2,3,80,0,1
186292,-100,4,2,3,60,0,0
200007,-83.3333333333333,4,2,3,60,0,0

[Colours]
Combo1 : 252,115,128
Combo2 : 172,85,178
Combo3 : 74,120,196
Combo4 : 151,188,201

[HitObjects]
46,60,1150,6,0,P|61:113|36:203,1,150,2|2,3:2|0:0,0:0:0:0:
36,202,2007,2,0,P|69:207|122:233,1,75,8|0,0:0|0:0,0:0:0:0:
185,281,2435,1,0,3:0:0:0:
227,113,2864,5,0,3:0:0:0:
227,113,3721,2,0,P|265:105|316:83,1,75,8|2,0:0|0:0,0:0:0:0:
368,50,4149,1,2,0:0:0:0:
273,4,4364,1,2,0:0:0:0:
356,160,4578,6,0,B|330:207|330:207|348:322,1,150,2|2,3:2|0:0,0:0:0:0:
344,302,5435,2,0,L|270:315,1,75,8|0,0:0|0:0,0:0:0:0:
171,270,5863,1,0,3:2:0:0:
43,377,6292,5,0,3:2:0:0:
43,377,7577,1,0,3:0:0:0:
80,289,7792,1,0,3:0:0:0:
144,363,8007,2,0,L|125:206,1,150,2|2,3:2|0:0,0:0:0:0:
125,214,8864,2,0,L|156:132,1,75,8|0,0:0|0:0,0:0:0:0:
175,66,9292,1,0,3:0:0:0:
16,152,9721,5,0,3:0:0:0:
16,152,10578,2,0,L|110:132,1,75,8|2,0:0|0:0,0:0:0:0:
175,66,11006,1,2,0:0:0:0:
332,127,11221,1,2,0:0:0:0:
289,37,11435,6,0,P|255:77|249:188,1,150,2|0,3:2|0:0,0:0:0:0:
243,171,12292,2,0,P|286:167|316:176,1,75,8|0,0:0|0:0,0:0:0:0:
410,250,12720,1,0,3:0:0:0:
450,120,13149,5,0,3:0:0:0:
450,120,14006,2,0,L|423:203,1,75,2|0,0:0|1:0,0:0:0:0:
369,341,14434,1,2,3:2:0:0:
493,293,14649,1,2,3:2:0:0:
340,248,14864,6,0,B|256:246|291:298|203:299,1,150,2|2,3:2|0:0,0:0:0:0:
134,252,15507,1,0,0:0:0:0:
39,286,15721,2,0,P|60:325|102:350,1,75,8|0,0:0|0:0,0:0:0:0:
134,252,16150,1,2,3:2:0:0:
22,145,16578,6,0,B|0:40|0:40|20:-11,1,150,2|2,3:2|0:0,0:0:0:0:
91,48,17221,1,0,0:0:0:0:
182,77,17435,2,0,L|269:64,1,75,8|0,0:0|0:0,0:0:0:0:
444,91,18078,1,2,0:0:0:0:
436,0,18292,6,0,P|363:52|363:136,1,150,2|2,3:2|0:0,0:0:0:0:
413,179,18935,1,0,0:0:0:0:
454,265,19149,2,0,P|456:301|430:349,1,75,8|0,0:0|0:0,0:0:0:0:
372,287,19578,1,0,3:0:0:0:
170,361,20007,6,0,B|139:334|132:299|132:299|113:326|59:345,1,150,0|0,3:0|0:0,0:0:0:0:
157,191,20864,2,0,L|143:264,1,75,8|0,0:0|0:0,0:0:0:0:
213,285,21292,1,2,0:0:0:0:
66,255,21507,1,2,0:0:0:0:
84,145,21721,6,0,L|234:177,1,150,2|0,3:2|0:0,0:0:0:0:
321,193,22364,1,0,0:0:0:0:
292,106,22578,1,8,0:0:0:0:
361,289,23007,1,0,3:0:0:0:
361,289,23435,6,0,L|403:139,1,150,2|0,3:2|0:0,0:0:0:0:
420,62,24078,1,0,0:0:0:0:
512,141,24292,1,8,0:0:0:0:
293,83,24721,1,0,3:0:0:0:
293,83,25150,6,0,L|128:124,1,150,2|2,3:2|0:0,0:0:0:0:
65,138,25793,1,0,0:0:0:0:
107,28,26007,1,8,0:0:0:0:
107,28,26864,2,0,P|124:58|141:109,1,75,0|0,3:0|0:0,0:0:0:0:
172,275,27507,1,2,0:0:0:0:
172,275,27614,1,0,0:0:0:0:
172,275,27721,2,0,L|92:289,1,75,8|0,0:0|0:0,0:0:0:0:
33,219,28150,1,0,3:0:0:0:
22,332,28578,6,0,L|0:282,3,37.5,2|2|2|2,3:2|0:0|0:0|0:0,0:0:0:0:
113,322,29435,2,0,L|91:272,1,37.5,10|2,0:0|0:0,0:0:0:0:
203,312,29864,1,2,0:0:0:0:
350,218,30292,6,0,L|404:223,3,37.5,2|2|2|2,3:2|0:0|0:0|0:0,0:0:0:0:
313,301,31149,2,0,L|367:306,1,37.5,10|2,0:0|0:0,0:0:0:0:
276,384,31578,1,2,3:0:0:0:
212,179,32007,6,0,L|179:223,3,37.5,2|2|2|2,3:2|0:0|0:0|0:0,0:0:0:0:
158,105,32864,2,0,L|125:149,1,37.5,10|2,0:0|0:0,0:0:0:0:
105,31,33293,1,2,3:2:0:0:
285,45,33721,6,0,L|367:34,1,75,2|2,3:2|0:0,0:0:0:0:
459,58,34364,1,2,0:0:0:0:
512,148,34578,2,0,L|472:149,1,37.5,8|2,0:0|0:0,0:0:0:0:
328,155,35007,1,0,3:0:0:0:
195,297,35435,6,0,L|173:247,3,37.5,2|2|2|2,3:2|0:0|0:0|0:0,0:0:0:0:
134,384,36292,2,0,L|174:367,1,37.5,8|2,0:0|0:0,0:0:0:0:
267,333,36721,1,2,3:2:0:0:
332,208,37150,6,0,L|354:158,3,37.5,2|2|2|2,3:2|0:0|0:0|0:0,0:0:0:0:
393,295,38007,2,0,L|353:278,1,37.5,8|2,0:0|0:0,0:0:0:0:
260,244,38436,1,2,3:2:0:0:
181,118,38864,6,0,L|159:68,3,37.5,2|2|2|2,3:2|0:0|0:0|0:0,0:0:0:0:
120,205,39721,2,0,L|160:188,1,37.5,8|2,0:0|0:0,0:0:0:0:
253,154,40150,1,2,0:0:0:0:
320,269,40578,6,0,L|273:268,2,25,0|0|0,1:1|1:1|1:1,0:0:0:0:
403,296,41007,2,0,L|450:295,2,25,0|0|0,1:1|1:1|1:1,0:0:0:0:
386,216,41435,1,2,1:2:0:0:
336,364,41650,1,2,1:2:0:0:
391,202,41864,1,2,1:2:0:0:
341,350,42078,1,2,1:2:0:0:
187,223,42292,6,0,P|132:227|108:259,1,97.4999955368044,6|0,3:2|0:0,0:0:0:0:
172,384,42614,2,0,P|196:334|180:297,1,97.4999955368044,0|2,3:0|0:0,0:0:0:0:
54,323,42935,2,0,L|133:351,1,48.7499977684022,0|0,3:0|0:0,0:0:0:0:
276,370,43150,6,0,B|297:339|297:339|345:329|345:329|357:320|357:320|424:309|424:309|442:270,1,194.999991073609,10|0,0:0|0:0,0:0:0:0:
459,196,43792,1,0,3:0:0:0:
362,140,44007,2,0,B|285:134|285:134|261:115,1,97.4999955368044,6|0,3:2|0:0,0:0:0:0:
217,36,44328,2,0,B|293:41|293:41|318:61,1,97.4999955368044,0|2,3:0|0:0,0:0:0:0:
241,202,44650,2,0,L|197:164,1,48.7499977684022,0|0,3:0|0:0,0:0:0:0:
132,85,44864,6,0,B|80:93|44:53|44:53|63:103|32:146,1,194.999991073609,10|0,0:0|0:0,0:0:0:0:
48,292,45721,5,6,3:2:0:0:
194,255,46042,1,2,3:2:0:0:
28,297,46364,1,2,3:2:0:0:
213,250,46578,6,0,L|328:226,1,97.4999955368044,10|0,0:0|0:0,0:0:0:0:
321,324,46900,2,0,L|226:344,1,97.4999955368044,8|0,3:2|0:0,0:0:0:0:
151,305,47221,1,2,3:2:0:0:
384,268,47435,5,2,3:2:0:0:
133,309,47756,1,0,3:0:0:0:
371,269,48078,1,2,3:2:0:0:
284,114,48292,6,0,P|277:165|303:202,1,97.4999955368044,14|0,0:0|0:0,0:0:0:0:
396,179,48614,2,0,P|403:128|377:91,1,97.4999955368044,0|0,1:0|0:0,0:0:0:0:
311,26,48935,1,2,3:2:0:0:
311,26,49042,1,0,3:0:0:0:
311,26,49150,6,0,B|255:20|255:20|197:47,1,97.4999955368044,6|0,3:2|0:0,0:0:0:0:
190,125,49471,2,0,B|246:131|246:131|304:104,1,97.4999955368044,0|2,3:0|0:0,0:0:0:0:
137,62,49792,2,0,P|115:81|105:106,1,48.7499977684022,0|0,3:0|0:0,0:0:0:0:
183,214,50007,6,0,B|162:173|162:173|110:163|110:163|110:161|110:161|105:163|105:163|54:155|54:155|21:184,1,194.999991073609,10|0,0:0|0:0,0:0:0:0:
93,251,50650,1,0,3:0:0:0:
172,316,50865,6,0,B|172:338|172:338|101:383,1,97.4999955368044,6|0,3:2|0:0,0:0:0:0:
33,362,51185,2,0,B|-9:300|-9:300|0:279,1,97.4999955368044,0|2,3:0|0:0,0:0:0:0:
93,251,51508,2,0,L|85:302,1,48.7499977684022,0|0,3:0|0:0,0:0:0:0:
260,366,51721,6,0,B|247:310|247:310|250:299|250:299|230:208|230:208|227:279,1,194.999991073609,10|0,0:0|0:0,0:0:0:0:
509,230,52578,5,6,3:2:0:0:
311,151,52899,1,2,3:2:0:0:
467,38,53221,1,2,3:2:0:0:
392,182,53435,6,0,P|382:134|419:96,1,97.4999955368044,10|0,0:0|0:0,0:0:0:0:
473,158,53757,2,0,P|437:190|385:176,1,97.4999955368044,10|0,3:2|0:0,0:0:0:0:
411,99,54078,1,2,3:2:0:0:
509,230,54292,5,2,3:2:0:0:
311,151,54613,1,2,3:2:0:0:
467,38,54935,1,2,3:2:0:0:
234,92,55149,2,0,L|216:202,1,97.4999955368044,10|0,0:0|3:0,0:0:0:0:
109,260,55578,1,0,1:1:0:0:
109,260,55685,1,0,1:1:0:0:
109,260,55792,1,2,3:2:0:0:
139,376,56007,6,0,P|93:341|-13:304,2,146.249993305207,6|2|2,3:2|3:2|3:2,0:0:0:0:
236,359,56864,5,10,0:0:0:0:
38,228,57185,1,2,3:2:0:0:
225,277,57507,1,2,3:2:0:0:
0,146,57721,6,0,L|30:87,1,48.7499977684022,6|0,3:2|0:0,0:0:0:0:
133,87,58042,2,0,L|183:44,1,48.7499977684022,2|2,3:2|0:0,0:0:0:0:
278,84,58364,2,0,L|341:64,1,48.7499977684022,2|0,3:2|0:0,0:0:0:0:
466,45,58578,2,0,B|466:21|441:-9|391:-1|366:51|390:98|426:152,1,194.999991073609,12|2,0:0|0:0,0:0:0:0:
354,264,59435,6,0,P|446:246|520:249,2,146.249993305207,6|2|2,3:2|3:2|3:2,0:0:0:0:
434,336,60292,1,10,0:0:0:0:
380,164,60613,1,0,1:1:0:0:
443,349,60935,1,0,3:0:0:0:
290,194,61149,6,0,P|272:212|258:239,1,48.7499977684022,6|0,3:2|0:0,0:0:0:0:
145,224,61471,2,0,P|140:249|143:279,1,48.7499977684022,2|2,3:2|0:0,0:0:0:0:
45,331,61792,2,0,P|55:354|74:377,1,48.7499977684022,2|0,3:2|0:0,0:0:0:0:
162,365,62007,5,10,0:0:0:0:
42,226,62221,1,0,1:1:0:0:
42,226,62328,1,0,1:1:0:0:
42,226,62435,1,0,1:1:0:0:
140,94,62650,1,0,3:0:0:0:
140,94,62757,1,0,3:0:0:0:
140,94,62864,6,0,B|186:124|220:118|220:118|245:82,1,97.4999955368044,6|0,3:2|0:0,0:0:0:0:
301,37,63185,2,0,B|254:6|220:12|220:12|196:49,1,97.4999955368044,0|2,3:0|0:0,0:0:0:0:
310,115,63507,2,0,P|320:136|329:174,1,48.7499977684022,0|0,3:0|0:0,0:0:0:0:
247,226,63721,6,0,B|217:251|217:251|191:226|175:174|235:98,1,194.999991073609,10|0,0:0|0:0,0:0:0:0:
327,160,64364,1,0,3:0:0:0:
491,251,64579,6,0,B|504:240|504:240|478:174|478:174|454:185,1,97.4999955368044,6|0,3:2|0:0,0:0:0:0:
389,215,64900,2,0,B|376:226|376:226|401:291|401:291|426:281,1,97.4999955368044,0|2,3:0|0:0,0:0:0:0:
400,129,65222,2,0,L|353:143,1,48.7499977684022,0|0,3:0|0:0,0:0:0:0:
285,231,65436,6,0,P|219:262|165:311,1,146.249993305207,10|0,0:0|0:0,0:0:0:0:
148,347,65864,1,6,0:0:0:0:
271,347,66078,1,2,3:2:0:0:
187,259,66292,6,0,B|120:230|120:230|119:206,1,97.4999955368044,6|0,3:2|0:0,0:0:0:0:
215,84,66614,2,0,B|222:156|222:156|202:169,1,97.4999955368044,0|0,3:0|0:0,0:0:0:0:
80,135,66935,2,0,P|108:125|135:124,1,48.7499977684022,0|0,3:0|0:0,0:0:0:0:
301,93,67150,5,10,0:0:0:0:
325,1,67364,1,2,0:0:0:0:
386,65,67578,1,10,0:0:0:0:
238,27,67792,1,2,3:2:0:0:
369,149,68007,6,0,P|408:176|431:270,1,146.249993305207,6|0,3:2|0:0,0:0:0:0:
362,282,68435,2,0,P|389:243|418:222,1,48.7499977684022,2|0,0:0|0:0,0:0:0:0:
407,350,68650,2,0,P|350:361|281:249,1,194.999991073609,2|0,3:2|0:0,0:0:0:0:
267,182,69292,1,10,0:0:0:0:
63,71,69721,2,0,L|41:372,1,300,2|0,0:0|0:0,0:0:0:0:
69,87,72292,6,0,P|77:118|77:187,1,75,0|0,3:0|0:0,0:0:0:0:
151,76,72721,2,0,P|159:107|160:174,1,75,2|0,0:0|0:0,0:0:0:0:
151,76,73150,6,0,P|228:73|310:127,1,150,6|2,3:2|0:0,0:0:0:0:
291,106,74007,2,0,L|380:87,1,75,8|0,0:0|0:0,0:0:0:0:
447,70,74435,1,2,0:3:0:0:
473,146,74650,1,0,3:0:0:0:
409,288,74864,6,0,P|449:247|518:216,2,112.5,0|0|0,3:0|3:0|3:0,0:0:0:0:
350,349,75721,2,0,L|275:339,1,75,8|2,0:0|0:0,0:0:0:0:
189,326,76149,1,2,0:0:0:0:
114,372,76364,1,2,3:2:0:0:
275,339,76578,6,0,P|286:264|294:190,1,150,6|2,3:2|3:2,0:0:0:0:
411,119,77435,2,0,L|495:108,1,75,8|0,0:0|0:0,0:0:0:0:
298,42,77864,2,0,L|224:25,1,75,2|0,0:3|3:0,0:0:0:0:
405,39,78292,2,0,B|482:32|482:32|519:-1,2,112.5,2|0|0,3:2|3:0|3:0,0:0:0:0:
324,125,79150,1,8,0:0:0:0:
324,125,79577,1,2,0:0:0:0:
434,111,79792,1,2,3:2:0:0:
512,183,80007,6,0,L|357:210,1,150,0|2,3:0|0:3,0:0:0:0:
199,249,80864,2,0,P|245:246|275:267,1,75,8|0,0:0|0:0,0:0:0:0:
248,352,81292,2,0,P|201:354|172:334,1,75,2|2,0:3|3:0,0:0:0:0:
332,323,81721,1,2,3:0:0:0:
332,323,82150,1,2,0:3:0:0:
294,184,82364,1,0,3:0:0:0:
175,220,82578,2,0,L|101:208,1,75,8|2,0:0|0:0,0:0:0:0:
17,191,83006,1,2,0:0:0:0:
53,301,83221,1,2,0:0:0:0:
149,367,83435,6,0,L|175:219,1,150,6|2,3:2|3:2,0:0:0:0:
204,104,84292,2,0,L|298:91,1,75,8|2,0:0|0:0,0:0:0:0:
396,192,84721,2,0,L|321:181,1,75,2|2,0:0|3:2,0:0:0:0:
365,104,85149,1,2,3:2:0:0:
208,206,85578,1,2,3:2:0:0:
378,308,86006,2,0,P|391:261|411:222,1,75,8|0,0:0|0:0,0:0:0:0:
443,164,86434,1,2,0:3:0:0:
487,285,86649,1,2,0:0:0:0:
289,251,86864,5,2,3:2:0:0:
68,359,87292,1,2,3:2:0:0:
222,199,87721,2,0,L|209:280,1,75,8|0,0:0|0:0,0:0:0:0:
123,274,88150,1,0,3:0:0:0:
145,126,88364,2,0,L|122:285,1,150,2|0,3:2|3:0,0:0:0:0:
53,206,89007,1,0,3:0:0:0:
145,126,89221,1,2,0:0:0:0:
254,156,89435,2,0,L|229:66,1,75,8|2,0:0|3:2,0:0:0:0:
84,20,89864,2,0,L|63:92,1,75,8|2,0:0|3:2,0:0:0:0:
202,0,90292,6,0,P|262:3|320:72,1,150,6|0,3:2|0:0,0:0:0:0:
417,106,90935,1,0,0:0:0:0:
396,22,91149,1,8,0:0:0:0:
326,252,91578,1,2,0:3:0:0:
326,252,92006,2,0,B|269:255|269:255|241:278|241:278|176:283,1,150,2|2,3:2|0:3,0:0:0:0:
103,288,92649,1,0,0:0:0:0:
190,370,92863,1,8,0:0:0:0:
170,179,93292,1,8,0:2:0:0:
170,179,93721,6,0,P|146:134|221:83,1,150,2|2,3:2|0:0,0:0:0:0:
295,101,94364,1,2,0:0:0:0:
340,181,94578,1,10,0:0:0:0:
318,11,95007,1,2,0:3:0:0:
259,182,95435,2,0,L|247:343,1,150,2|2,0:3|0:3,0:0:0:0:
391,370,96078,1,2,0:0:0:0:
391,370,96185,1,0,0:0:0:0:
391,370,96292,2,0,L|381:283,1,75,8|2,0:0|0:0,0:0:0:0:
371,203,96721,1,4,0:0:0:0:
257,215,97150,6,0,L|235:165,3,37.5,6|2|2|2,3:2|0:0|0:0|3:2,0:0:0:0:
323,151,98007,2,0,L|345:195,1,37.5,10|2,0:0|0:0,0:0:0:0:
329,266,98436,1,2,0:0:0:0:
329,266,98650,1,2,3:2:0:0:
431,278,98864,6,0,L|481:256,3,37.5,2|2|2|2,1:2|0:0|0:0|3:2,0:0:0:0:
495,344,99721,2,0,L|451:366,1,37.5,10|2,0:0|0:0,0:0:0:0:
380,350,100150,1,2,3:2:0:0:
380,350,100364,1,2,3:2:0:0:
278,338,100578,6,0,L|228:360,3,37.5,6|2|2|2,1:2|0:0|0:0|3:2,0:0:0:0:
214,272,101435,2,0,L|258:250,1,37.5,10|2,0:0|0:0,0:0:0:0:
329,266,101864,1,2,3:2:0:0:
329,266,102078,1,2,3:2:0:0:
377,171,102293,6,0,L|399:100,1,75,2|2,1:2|0:0,0:0:0:0:
424,22,102935,1,2,3:2:0:0:
330,51,103150,2,0,L|290:52,1,37.5,8|2,0:0|3:2,0:0:0:0:
474,101,103578,2,0,L|512:101,1,37.5,0|2,1:1|3:2,0:0:0:0:
377,171,104007,6,0,L|355:121,3,37.5,6|2|2|2,3:2|0:0|0:0|3:2,0:0:0:0:
275,164,104864,2,0,L|253:114,1,37.5,8|2,0:0|0:0,0:0:0:0:
197,72,105293,1,2,3:2:0:0:
113,89,105507,1,2,3:2:0:0:
74,168,105721,6,0,L|96:218,3,37.5,2|2|2|2,3:2|0:0|0:0|3:2,0:0:0:0:
176,175,106578,2,0,L|198:225,1,37.5,8|2,0:0|0:0,0:0:0:0:
254,267,107007,1,2,3:2:0:0:
338,250,107221,1,2,3:2:0:0:
421,295,107436,6,0,L|437:330,3,37.5,6|2|2|2,3:2|0:0|0:0|3:2,0:0:0:0:
457,219,108293,2,0,L|502:206,1,37.5,8|2,0:0|3:2,0:0:0:0:
373,165,108721,1,0,1:1:0:0:
373,165,108828,1,0,1:1:0:0:
373,165,108935,1,2,3:2:0:0:
458,81,109150,5,4,3:2:0:0:
458,81,110435,1,0,1:1:0:0:
316,0,110650,1,0,3:0:0:0:
210,137,110864,6,0,B|167:131|133:159|133:159|105:152,1,104.999996795654,6|0,3:2|0:0,0:0:0:0:
76,247,111185,2,0,B|102:212|95:169|95:169|115:148,1,104.999996795654,0|2,3:0|0:0,0:0:0:0:
193,225,111507,2,0,L|237:261,1,52.4999983978272,0|0,3:0|0:0,0:0:0:0:
352,266,111721,6,0,B|393:271|422:235|418:198|362:153|267:196,1,209.999993591309,10|0,0:0|0:0,0:0:0:0:
193,225,112364,1,0,3:0:0:0:
168,140,112578,6,0,B|161:144|161:144|177:93|177:93|185:91|185:91|196:57,1,104.999996795654,6|0,3:2|0:0,0:0:0:0:
29,55,112900,2,0,B|22:50|22:50|38:101|38:101|46:103|46:103|57:137,1,104.999996795654,0|0,3:0|0:0,0:0:0:0:
116,255,113222,2,0,L|110:202,1,52.4999983978272,0|0,3:0|0:0,0:0:0:0:
29,55,113435,6,0,B|52:90|52:90|85:90|85:90|107:76|107:76|132:90|132:90|176:87|176:87|205:45,1,209.999993591309,10|0,0:0|0:0,0:0:0:0:
106,0,114293,5,6,3:2:0:0:
282,85,114614,1,2,3:2:0:0:
111,169,114936,1,2,3:2:0:0:
240,219,115150,6,0,B|310:173|310:173|355:202,1,104.999996795654,10|0,0:0|0:0,0:0:0:0:
372,260,115471,2,0,B|302:306|302:306|257:277,1,104.999996795654,8|0,3:2|0:0,0:0:0:0:
202,295,115793,1,2,3:2:0:0:
270,384,116007,5,2,3:2:0:0:
86,295,116328,1,0,3:0:0:0:
240,219,116650,1,2,3:2:0:0:
102,375,116864,6,0,P|40:365|12:334,1,104.999996795654,14|0,0:0|0:0,0:0:0:0:
75,198,117185,2,0,P|97:256|84:296,1,104.999996795654,0|0,1:0|0:0,0:0:0:0:
0,124,117507,1,2,3:2:0:0:
0,124,117614,1,0,3:0:0:0:
0,124,117722,6,0,L|118:106,1,104.999996795654,6|0,3:2|0:0,0:0:0:0:
123,0,118042,2,0,L|19:15,1,104.999996795654,0|0,3:0|0:0,0:0:0:0:
184,58,118365,2,0,L|248:51,1,52.4999983978272,0|0,3:0|0:0,0:0:0:0:
327,105,118578,6,0,B|451:116|380:175|521:191,1,209.999993591309,10|2,0:0|0:3,0:0:0:0:
501,89,119222,1,0,3:0:0:0:
335,207,119435,6,0,B|318:200|318:200|260:236|260:236|238:231,1,104.999996795654,6|0,3:2|0:0,0:0:0:0:
153,172,119757,2,0,B|170:179|170:179|228:143|228:143|250:148,1,104.999996795654,0|0,3:0|0:0,0:0:0:0:
151,277,120078,2,0,L|130:332,1,52.4999983978272,0|0,3:0|0:0,0:0:0:0:
254,342,120292,6,0,B|290:306|290:306|100:330,1,209.999993591309,10|0,0:0|0:0,0:0:0:0:
75,278,120935,1,0,3:0:0:0:
17,229,121150,5,6,3:2:0:0:
207,151,121471,1,2,3:2:0:0:
46,42,121793,1,2,3:2:0:0:
50,122,122007,6,0,B|43:157|43:157|73:193|73:193|105:189|105:189|122:168,1,104.999996795654,10|0,0:0|0:0,0:0:0:0:
131,116,122328,2,0,B|104:92|104:92|58:100|58:100|45:130|45:130|55:155,1,104.999996795654,8|0,3:2|0:0,0:0:0:0:
95,190,122650,1,2,3:2:0:0:
207,151,122864,5,2,3:2:0:0:
46,42,123185,1,2,3:2:0:0:
17,229,123507,1,2,3:2:0:0:
207,151,123721,2,0,L|322:126,1,104.999996795654,10|2,0:0|0:0,0:0:0:0:
368,51,124150,1,8,0:0:0:0:
368,51,124257,1,0,0:0:0:0:
368,51,124364,1,2,3:2:0:0:
414,209,124579,6,0,P|465:132|519:84,2,157.499995193482,6|2|2,3:2|3:2|3:2,0:0:0:0:
395,102,125436,1,10,0:0:0:0:
512,223,125757,1,0,1:1:0:0:
290,197,126079,1,2,3:2:0:0:
445,288,126293,6,0,P|433:311|426:337,1,52.4999983978272,6|0,3:2|0:0,0:0:0:0:
297,312,126614,2,0,P|274:325|254:342,1,52.4999983978272,2|2,3:2|0:3,0:0:0:0:
161,246,126935,2,0,P|134:244|108:246,1,52.4999983978272,2|0,3:2|0:0,0:0:0:0:
44,161,127150,6,0,B|63:150|89:160|89:160|109:141|109:141|140:148|140:148|169:139|169:139|190:158|190:158|221:151|255:160,1,209.999993591309,12|2,0:0|0:3,0:0:0:0:
369,256,128007,6,0,B|361:284|361:284|291:344|291:344|279:404,2,157.499995193482,6|2|2,3:2|3:2|3:2,0:0:0:0:
244,263,128864,1,10,0:0:0:0:
421,359,129185,1,0,1:1:0:0:
197,327,129507,1,0,3:0:0:0:
434,274,129721,6,0,P|452:244|471:226,1,52.4999983978272,6|0,3:2|0:0,0:0:0:0:
348,159,130042,2,0,P|382:151|408:152,1,52.4999983978272,2|2,3:2|0:3,0:0:0:0:
370,17,130364,2,0,P|399:36|416:55,1,52.4999983978272,2|0,3:2|0:0,0:0:0:0:
498,112,130578,5,10,0:0:0:0:
291,92,130792,1,0,1:1:0:0:
280,94,130900,1,0,1:1:0:0:
269,96,131007,1,0,1:1:0:0:
258,98,131114,1,0,1:1:0:0:
247,100,131221,1,0,1:1:0:0:
236,102,131328,1,0,1:1:0:0:
225,104,131435,6,0,B|190:36|190:36|200:6,1,104.999996795654,6|0,3:2|0:0,0:0:0:0:
66,10,131757,2,0,B|75:37|75:37|40:105,1,104.999996795654,0|0,3:0|0:0,0:0:0:0:
143,163,132079,2,0,L|128:97,1,52.4999983978272,0|0,3:0|0:0,0:0:0:0:
247,227,132292,6,0,B|200:229|175:255|175:255|133:241|133:241|95:270|46:242,1,209.999993591309,10|2,0:0|0:3,0:0:0:0:
161,354,132936,1,0,3:0:0:0:
263,312,133150,6,0,B|314:319|314:319|322:327|322:327|367:333|367:333|374:318,1,104.999996795654,6|0,3:2|0:0,0:0:0:0:
331,234,133471,2,0,B|299:274|299:274|288:277|288:277|260:313|260:313|270:327,1,104.999996795654,0|0,3:0|0:0,0:0:0:0:
413,258,133792,2,0,P|413:229|403:204,1,52.4999983978272,0|0,3:0|0:0,0:0:0:0:
305,127,134007,6,0,B|386:138|386:138|443:72,1,157.499995193482,10|0,0:0|0:0,0:0:0:0:
450,65,134436,1,6,0:0:0:0:
346,24,134650,1,2,3:2:0:0:
215,147,134864,2,0,L|111:156,1,104.999996795654,6|0,3:2|0:0,0:0:0:0:
30,100,135185,2,0,P|94:127|113:174,1,104.999996795654,0|0,3:0|0:0,0:0:0:0:
28,186,135507,1,0,3:0:0:0:
139,266,135722,2,0,L|89:287,1,52.4999983978272,8|0,0:0|0:0,0:0:0:0:
13,328,135936,1,2,0:0:0:0:
131,379,136150,1,2,0:3:0:0:
235,305,136364,1,2,3:2:0:0:
336,219,136579,6,0,P|393:208|461:279,1,157.499995193482,6|0,3:2|3:0,0:0:0:0:
363,343,137007,2,0,L|381:294,1,52.4999983978272,2|0,0:0|0:0,0:0:0:0:
417,180,137221,6,0,B|435:133|435:133|451:129|451:129|472:77|472:77|467:57|467:57|483:13|483:13|455:20,1,209.999993591309,2|0,3:2|3:0,0:0:0:0:
361,98,137864,1,0,1:1:0:0:
345,94,137971,1,0,1:1:0:0:
326,98,138078,1,2,3:2:0:0:
240,48,138292,6,0,L|244:23,3,18.75,6|0|0|0,3:2|0:0|0:0|0:0,0:0:0:0:
144,64,138721,2,0,L|148:39,3,18.75,2|0|0|0,0:0|0:0|0:0|0:0,0:0:0:0:
48,80,139150,2,0,L|52:55,3,18.75,10|0|0|0,0:0|0:0|0:0|0:0,0:0:0:0:
0,144,139578,1,2,0:0:0:0:
128,240,139792,1,2,3:2:0:0:
176,160,140007,6,0,L|172:135,3,18.75,2|0|0|0,3:2|0:0|0:0|0:0,0:0:0:0:
272,176,140436,2,0,L|268:151,3,18.75,2|0|0|0,0:0|0:0|0:0|0:0,0:0:0:0:
368,192,140865,2,0,L|364:167,3,18.75,10|0|0|0,0:0|0:0|0:0|0:0,0:0:0:0:
416,256,141293,1,2,0:0:0:0:
320,384,141507,1,0,0:0:0:0:
240,320,141721,6,0,P|228:333|222:347,3,18.75,6|0|0|0,3:2|0:0|0:0|0:0,0:0:0:0:
154,271,142150,2,0,P|136:271|122:277,3,18.75,2|0|0|0,0:0|0:0|0:0|0:0,0:0:0:0:
128,176,142578,2,0,P|115:164|100:158,3,18.75,10|0|0|0,0:0|0:0|0:0|0:0,0:0:0:0:
206,199,143007,5,2,0:0:0:0:
358,222,143221,1,2,3:2:0:0:
358,222,143328,1,0,0:0:0:0:
358,222,143435,1,2,3:2:0:0:
479,162,143650,1,0,0:0:0:0:
479,162,143757,1,0,0:0:0:0:
479,162,143864,1,2,0:0:0:0:
333,118,144078,1,2,3:2:0:0:
333,118,144185,1,0,0:0:0:0:
333,118,144292,1,8,0:0:0:0:
436,57,144507,1,2,3:2:0:0:
436,57,144614,1,0,0:0:0:0:
436,57,144721,2,0,L|429:87,1,18.75,0|2,1:1|0:0,0:0:0:0:
347,15,144935,2,0,L|340:45,1,18.75,2|0,3:2|0:0,0:0:0:0:
246,77,145150,6,0,P|243:89|240:101,3,18.75,2|0|0|0,3:2|0:0|0:0|0:0,0:0:0:0:
164,122,145578,2,0,P|154:130|145:138,3,18.75,2|0|0|0,0:0|0:0|0:0|0:0,0:0:0:0:
70,113,146007,2,0,P|57:114|45:116,3,18.75,10|0|0|0,0:0|0:0|0:0|0:0,0:0:0:0:
120,43,146435,1,2,0:0:0:0:
65,200,146650,1,2,3:2:0:0:
160,228,146864,6,0,P|163:240|166:252,3,18.75,2|0|0|0,3:2|0:0|0:0|0:0,0:0:0:0:
242,273,147292,2,0,P|251:281|260:289,3,18.75,2|0|2|0,0:0|0:0|0:0|0:0,0:0:0:0:
336,264,147721,2,0,P|348:265|360:267,3,18.75,8|0|0|0,0:0|0:0|0:0|0:0,0:0:0:0:
286,194,148149,1,2,0:0:0:0:
341,351,148364,1,0,0:0:0:0:
421,318,148578,6,0,L|451:326,3,18.75,6|0|0|0,3:2|0:0|0:0|0:0,0:0:0:0:
451,241,149007,2,0,L|481:249,3,18.75,2|0|0|0,0:0|0:0|0:0|0:0,0:0:0:0:
488,166,149435,2,0,L|518:174,3,18.75,10|0|0|0,0:0|0:0|0:0|0:0,0:0:0:0:
401,169,149864,5,2,0:0:0:0:
388,30,150078,1,2,3:2:0:0:
388,30,150185,1,0,0:0:0:0:
388,30,150292,1,2,3:2:0:0:
488,84,150507,1,2,0:0:0:0:
488,84,150614,1,0,0:0:0:0:
488,84,150721,1,2,3:2:0:0:
312,109,150935,1,2,3:2:0:0:
312,109,151042,1,0,0:0:0:0:
312,109,151149,1,10,0:0:0:0:
261,218,151364,1,2,3:2:0:0:
261,218,151471,1,0,0:0:0:0:
261,218,151578,2,0,L|258:246,1,18.75,2|0,1:2|3:0,0:0:0:0:
167,271,151792,2,0,L|164:299,1,18.75,2|0,3:2|0:0,0:0:0:0:
82,219,152007,5,2,3:2:0:0:
66,216,152114,1,0,0:0:0:0:
51,211,152221,1,0,0:0:0:0:
39,207,152328,1,0,0:0:0:0:
25,203,152435,2,0,L|23:177,3,18.75,2|0|0|0,0:0|0:0|0:0|0:0,0:0:0:0:
95,144,152864,5,10,0:0:0:0:
111,147,152971,1,0,0:0:0:0:
126,152,153078,1,0,0:0:0:0:
138,156,153185,1,0,0:0:0:0:
152,160,153292,2,0,L|154:186,3,18.75,2|0|2|0,0:0|0:0|3:2|0:0,0:0:0:0:
235,166,153721,5,2,0:0:0:0:
233,147,153828,1,0,0:0:0:0:
232,128,153935,1,2,0:0:0:0:
225,56,154150,1,2,3:2:0:0:
315,83,154364,1,2,3:2:0:0:
303,0,154578,1,10,0:0:0:0:
338,163,154792,1,2,3:2:0:0:
389,32,155007,1,2,0:0:0:0:
248,147,155221,1,2,3:2:0:0:
410,116,155435,6,0,L|381:268,1,146.249993305207,6|0,3:2|0:0,0:0:0:0:
468,280,155864,2,0,B|374:277|410:337|300:335,1,168.750006437302,6|0,3:2|0:0,0:0:0:0:
246,210,156292,2,0,P|288:172|320:252,1,168.750006437302,4|0,1:2|0:0,0:0:0:0:
236,295,156721,5,2,3:2:0:0:
121,219,156935,1,0,1:0:0:0:
128,348,157150,1,2,3:2:0:0:
128,348,157257,1,0,0:0:0:0:
128,348,157364,1,0,1:0:0:0:
31,280,157578,5,2,0:0:0:0:
121,219,157792,1,2,3:2:0:0:
121,219,157900,1,0,0:0:0:0:
121,219,158007,2,0,L|136:101,1,112.500004291535,0|2,1:0|3:2,0:0:0:0:
147,27,158435,1,8,0:0:0:0:
43,87,158650,1,8,0:0:0:0:
220,110,158864,5,2,0:0:0:0:
29,172,165507,5,2,0:0:0:0:
29,172,165721,1,2,0:0:0:0:
150,67,166043,2,0,L|278:52,1,112.500004291535,6|0,3:2|0:0,0:0:0:0:
297,136,166364,2,0,L|222:147,1,56.2500021457673,2|0,3:2|0:0,0:0:0:0:
104,192,166578,6,0,B|157:192|157:192|155:195|155:195|218:217|181:250|251:270|251:270|248:266|248:266|306:264,1,225.000008583069,6|0,3:2|0:0,0:0:0:0:
381,256,167221,1,0,3:0:0:0:
486,164,167435,6,0,B|478:155|478:155|387:155|387:155|381:163,1,112.500004291535,6|0,3:2|0:0,0:0:0:0:
381,256,167757,2,0,B|388:264|388:264|479:264|479:264|485:256,1,112.500004291535,2|0,3:2|0:0,0:0:0:0:
486,164,168078,2,0,P|465:138|456:105,1,56.2500021457673,2|0,3:2|0:0,0:0:0:0:
435,27,168292,6,0,B|447:17|447:17|410:25|410:25|367:59|367:59|361:58|361:58|319:91|319:91|286:80|257:91,1,225.000008583069,10|0,0:0|0:0,0:0:0:0:
163,80,168935,1,2,3:2:0:0:
104,167,169149,5,6,3:2:0:0:
256,285,169471,1,2,3:2:0:0:
61,358,169792,1,2,3:2:0:0:
120,225,170007,6,0,P|155:222|194:280,1,112.500004291535,10|0,3:2|0:0,0:0:0:0:
110,316,170328,2,0,P|89:287|120:224,1,112.500004291535,10|0,3:2|0:0,0:0:0:0:
193,280,170650,1,2,3:2:0:0:
61,358,170863,5,6,3:2:0:0:
256,285,171184,1,2,3:2:0:0:
104,167,171506,1,2,3:2:0:0:
9,275,171720,2,0,L|129:248,1,112.500004291535,10|0,0:0|3:0,0:0:0:0:
232,167,172149,1,8,0:0:0:0:
232,167,172256,1,0,3:0:0:0:
232,167,172363,1,2,3:2:0:0:
337,128,172578,6,0,P|302:89|190:53,2,168.750006437302,6|2|2,3:2|3:2|3:2,0:0:0:0:
177,136,173435,1,10,0:0:0:0:
320,0,173756,1,2,1:2:0:0:
358,216,174078,1,2,3:2:0:0:
475,85,174292,6,0,P|460:105|448:138,1,56.2500021457673,6|0,3:2|0:0,0:0:0:0:
341,162,174614,2,0,P|344:186|359:218,1,56.2500021457673,2|0,3:2|0:0,0:0:0:0:
300,311,174935,2,0,P|320:326|353:338,1,56.2500021457673,2|0,3:2|0:0,0:0:0:0:
466,295,175150,6,0,B|486:273|516:263|516:263|431:187|346:278,1,225.000008583069,10|2,0:0|0:3,0:0:0:0:
168,336,176007,6,0,P|121:297|-1:262,2,168.750006437302,6|2|2,3:2|3:2|3:2,0:0:0:0:
62,362,176863,1,10,0:0:0:0:
253,319,177184,1,2,1:2:0:0:
118,183,177506,1,0,3:0:0:0:
314,267,177720,6,0,P|326:242|347:217,1,56.2500021457673,2|0,3:2|0:0,0:0:0:0:
202,177,178042,2,0,P|228:167|260:164,1,56.2500021457673,2|0,3:2|0:0,0:0:0:0:
186,34,178364,2,0,P|211:46|236:67,1,56.2500021457673,2|0,3:2|0:0,0:0:0:0:
311,93,178578,1,10,0:0:0:0:
139,117,178792,1,0,3:0:0:0:
71,230,179006,1,0,1:1:0:0:
139,117,179221,1,0,3:0:0:0:
71,230,179435,6,0,B|81:273|81:273|76:293|76:293|89:332|89:332|116:351,1,112.500004291535,6|0,3:2|0:0,0:0:0:0:
176,206,179757,2,0,B|133:216|133:216|113:211|113:211|73:224|73:224|55:251,1,112.500004291535,2|0,3:2|0:0,0:0:0:0:
167,294,180078,2,0,L|233:276,1,56.2500021457673,2|0,3:2|0:0,0:0:0:0:
289,348,180292,6,0,B|335:331|335:331|334:298|360:286|349:256|349:256|302:218|307:159,1,225.000008583069,10|2,0:0|0:3,0:0:0:0:
398,180,180935,1,0,3:0:0:0:
490,257,181150,6,0,B|452:265|452:265|450:262|450:262|421:267|421:267|420:270|420:270|367:282,1,112.500004291535,6|0,3:2|0:0,0:0:0:0:
512,364,181471,2,0,B|504:326|504:326|507:324|507:324|502:295|502:295|499:294|499:294|487:241,1,112.500004291535,2|0,3:2|0:0,0:0:0:0:
372,360,181793,2,0,L|447:344,1,56.2500021457673,2|0,3:2|0:0,0:0:0:0:
490,257,182007,6,0,B|415:239|415:239|394:211|394:211|401:169|401:169|367:207|298:206,1,225.000008583069,10|2,0:0|0:3,0:0:0:0:
251,234,182649,1,2,3:2:0:0:
334,111,182863,2,0,L|362:-20,1,112.500004291535,6|0,3:2|0:0,0:0:0:0:
436,31,183292,1,0,3:0:0:0:
256,52,183507,1,0,3:0:0:0:
178,117,183721,2,0,L|120:127,1,56.2500021457673,10|0,0:0|0:0,0:0:0:0:
35,148,183935,1,2,3:2:0:0:
65,50,184149,1,2,3:2:0:0:
102,216,184363,1,2,3:2:0:0:
102,216,184578,6,0,P|159:227|265:360,1,225.000008583069,2|2,3:2|3:2,0:0:0:0:
148,356,185221,2,0,P|160:292|194:250,1,112.500004291535,2|10,3:2|0:0,0:0:0:0:
280,207,185650,1,0,3:0:0:0:
280,207,185757,1,0,3:0:0:0:
280,207,185863,2,0,L|336:215,1,56.2500021457673,2|0,3:2|3:0,0:0:0:0:
418,177,186078,2,0,L|474:185,1,56.2500021457673,2|0,3:2|3:0,0:0:0:0:
506,107,186292,6,0,P|503:88|501:70,3,37.5,6|0|0|0,3:2|0:0|0:0|0:0,0:0:0:0:
424,47,186721,1,2,0:0:0:0:
361,110,186935,2,0,L|299:120,1,37.5,2|0,3:2|0:0,0:0:0:0:
250,80,187150,2,0,L|242:25,3,37.5,10|0|0|0,0:0|0:0|0:0|0:0,0:0:0:0:
196,151,187578,1,2,0:0:0:0:
91,59,187792,1,2,3:2:0:0:
20,112,188007,6,0,L|26:155,3,37.5,6|0|0|0,3:2|0:0|0:0|0:0,0:0:0:0:
107,157,188435,2,0,L|115:206,1,37.5,2|0,3:2|0:0,0:0:0:0:
43,256,188650,1,2,3:2:0:0:
140,333,188864,1,10,0:0:0:0:
46,353,189078,1,2,3:2:0:0:
137,236,189293,1,2,3:2:0:0:
220,365,189507,1,2,3:2:0:0:
243,275,189721,6,0,L|238:238,3,37.5,6|0|0|0,3:2|0:0|0:0|0:0,0:0:0:0:
313,198,190150,1,2,0:0:0:0:
390,247,190364,2,0,L|427:241,1,37.5,2|0,3:2|0:0,0:0:0:0:
396,163,190578,2,0,L|433:157,1,37.5,10|0,0:0|0:0,0:0:0:0:
512,202,190792,1,2,0:0:0:0:
512,202,191007,1,2,0:0:0:0:
484,83,191221,1,2,3:2:0:0:
394,66,191435,6,0,L|384:14,1,37.5,6|0,3:2|0:0,0:0:0:0:
265,102,191650,2,0,L|275:50,1,37.5,2|0,3:2|0:0,0:0:0:0:
377,83,191864,6,0,L|367:31,1,37.5,2|0,3:2|0:0,0:0:0:0:
248,119,192079,2,0,L|258:67,1,37.5,2|0,3:2|0:0,0:0:0:0:
337,164,192292,5,0,1:1:0:0:
98,197,192507,1,2,3:2:0:0:
186,83,192721,1,2,3:2:0:0:
218,219,192935,1,2,3:2:0:0:
92,96,193150,5,6,3:2:0:0:
92,96,193257,1,0,0:0:0:0:
92,96,193364,2,0,L|36:109,1,37.5
73,10,193578,2,0,L|3:24,1,37.5,2|0,3:2|0:0,0:0:0:0:
162,32,193792,2,0,L|207:24,1,37.5,2|0,3:2|0:0,0:0:0:0:
278,13,194007,5,8,0:0:0:0:
373,0,194221,1,2,3:2:0:0:
289,104,194435,1,2,3:2:0:0:
385,92,194650,1,2,3:2:0:0:
242,182,194864,5,6,3:2:0:0:
242,182,194971,1,0,0:0:0:0:
242,182,195078,2,0,L|186:195,1,37.5
152,256,195292,2,0,L|146:301,1,37.5,2|0,3:2|0:0,0:0:0:0:
67,260,195507,2,0,L|62:297,1,37.5,2|0,3:2|0:0,0:0:0:0:
101,378,195721,5,10,0:0:0:0:
103,181,195935,1,2,3:2:0:0:
243,266,196149,1,2,3:2:0:0:
67,260,196364,1,4,3:2:0:0:
191,360,196578,5,6,3:2:0:0:
191,360,196685,1,0,0:0:0:0:
191,360,196792,2,0,L|247:347,1,37.5
297,307,197006,2,0,L|307:252,1,37.5,2|0,3:2|0:0,0:0:0:0:
381,288,197221,2,0,L|391:233,1,37.5,2|0,3:2|0:0,0:0:0:0:
404,162,197435,1,10,0:0:0:0:
512,235,197649,1,2,3:2:0:0:
305,185,197863,1,2,3:2:0:0:
305,185,198078,1,2,3:2:0:0:
494,150,198292,5,6,3:2:0:0:
381,298,198507,1,0,1:0:0:0:
331,50,198721,1,2,3:2:0:0:
463,241,198935,1,2,3:2:0:0:
246,165,199150,1,10,0:0:0:0:
438,50,199364,1,2,3:2:0:0:
336,254,199578,1,2,0:0:0:0:
232,47,199792,2,0,L|221:-4,1,37.5,6|0,3:2|0:0,0:0:0:0:
134,8,200007,6,0,L|181:367,1,359.999989013672
