osu file format v14

[General]
AudioFilename: It Has Begun.mp3
AudioLeadIn: 0
PreviewTime: 97978
Countdown: 0
SampleSet: Soft
StackLeniency: 0.7
Mode: 0
LetterboxInBreaks: 0
EpilepsyWarning: 1
WidescreenStoryboard: 0

[Editor]
Bookmarks: 24540,46103,53603,68603,76103,83603,91103,94853,98603,106103,113603,120790,121103,128603
DistanceSpacing: 1.2
BeatDivisor: 4
GridSize: 4
TimelineZoom: 1.8

[Metadata]
Title:It Has Begun
TitleUnicode:It Has Begun
Artist:Starset
ArtistUnicode:Starset
Creator:Net0
Version:Collab Light Insane
Source:
Tags:rock transmission amv fate grand order Kuroame Kowari Enerugii DoAcre HowRengar
BeatmapID:1777108
BeatmapSetID:811195

[Difficulty]
HPDrainRate:5.5
CircleSize:3.6
OverallDifficulty:7.5
ApproachRate:8.5
SliderMultiplier:1.49999990463257
SliderTickRate:1

[Events]
//Background and Video events
0,0,"fate-grand-order-arcade-characters-112.jpg",0,0
Video,-156,"video.avi"
//Break Periods
//Storyboard Layer 0 (Background)
//Storyboard Layer 1 (Fail)
//Storyboard Layer 2 (Pass)
//Storyboard Layer 3 (Foreground)
//Storyboard Sound Samples

[TimingPoints]
1091,312.5,3,2,1,60,1,0
1091,-153.846153846153,3,2,1,30,0,0
16872,-153.846153846153,3,2,1,5,0,0
17028,-153.846153846153,3,2,1,40,0,0
31091,-222.22222222222,3,2,1,30,0,0
38591,-117.647058823529,3,2,1,50,0,0
45153,-105.263157894737,3,2,1,50,0,0
45466,-95.2380952380954,3,2,1,50,0,0
45778,-86.9565217391304,3,2,1,50,0,0
46091,-79.9999999999998,3,2,1,60,0,1
60466,-100,3,2,1,60,0,1
61091,-117.647058823529,3,2,1,40,0,0
76091,-117.647058823529,3,2,1,50,0,0
91091,-153.846153846153,3,2,1,30,0,0
97653,-153.846153846153,3,2,1,35,0,0
97966,-153.846153846153,3,2,1,40,0,0
98278,-153.846153846153,3,2,1,45,0,0
98591,-117.647058823529,3,2,1,50,0,0
106091,-79.9999999999998,3,2,1,60,0,1
121091,-80,3,2,2,70,0,0
128434,-80,3,2,3,80,0,0
128591,-80,3,2,2,80,0,0
132341,-80,3,2,2,90,0,0
134216,-80,3,2,3,90,0,0
135153,-80,3,2,3,70,0,0
135778,-80,3,2,4,60,0,0
136091,-80,3,2,53,100,0,0

[Colours]
Combo1 : 252,115,128
Combo2 : 172,85,178
Combo3 : 74,120,196
Combo4 : 151,188,201

[HitObjects]
34,64,1091,6,0,P|110:59|169:162,1,194.999978675843,2|0,0:0|0:0,0:0:0:0:
214,291,2028,2,0,P|168:305|121:285,1,97.4999893379217,0|0,0:0|0:0,0:0:0:0:
172,225,2653,1,0,0:0:0:0:
299,138,2966,6,0,P|384:173|387:266,1,194.999978675843,2|0,0:0|0:0,0:0:0:0:
297,237,3903,2,0,B|392:228|364:295|484:292,1,194.999978675843,2|0,0:0|0:0,0:0:0:0:
497,371,4841,2,0,P|418:348|498:212,1,292.499968013765,2|0,0:0|0:0,0:0:0:0:
283,83,6403,6,0,L|216:87,1,48.7499946689609,0|0,0:0|0:0,0:0:0:0:
178,159,6716,2,0,P|246:169|273:165,1,97.4999893379217,2|0,0:0|0:0,0:0:0:0:
353,244,7184,2,0,L|246:248,1,97.4999893379217,0|0,0:0|0:0,0:0:0:0:
182,305,7653,2,0,P|239:337|283:332,1,97.4999893379217,2|0,0:0|0:0,0:0:0:0:
512,367,8278,1,0,0:0:0:0:
512,367,8591,6,0,P|517:301|505:272,1,97.4999893379217,2|0,0:0|0:0,0:0:0:0:
455,158,9216,2,0,L|456:86,1,48.7499946689609,0|0,0:0|0:0,0:0:0:0:
440,11,9528,2,0,P|416:36|346:39,1,97.4999893379217,0|0,0:0|0:0,0:0:0:0:
253,27,9997,2,0,L|258:131,1,97.4999893379217,0|0,0:0|0:0,0:0:0:0:
269,244,10466,6,0,B|277:387|277:387|245:337,1,194.999978675843,2|0,0:0|0:0,0:0:0:0:
329,187,11403,2,0,B|414:159|422:221|502:202|502:202|482:182,1,194.999978675843,2|0,0:0|0:0,0:0:0:0:
397,94,12341,2,0,B|276:72|284:150|203:135|163:118|163:118|190:119|230:108,1,292.499968013765,2|0,0:0|0:0,0:0:0:0:
69,163,13903,6,0,L|75:225,1,48.7499946689609,0|0,0:0|0:0,0:0:0:0:
99,343,14216,2,0,B|143:318|196:332,1,97.4999893379217,2|0,0:0|0:0,0:0:0:0:
349,359,14684,2,0,P|398:363|451:344,1,97.4999893379217,2|0,0:0|0:0,0:0:0:0:
379,178,15153,2,0,P|364:219|386:278,1,97.4999893379217,2|0,0:0|0:0,0:0:0:0:
462,77,15778,2,0,B|465:13,1,48.7499946689609,2|0,0:3|0:0,0:0:0:0:
288,158,16091,6,0,B|243:158|243:158|219:177|219:177|183:154|183:154|155:154|155:154|125:127|125:127|98:150|98:150|56:150,1,243.749973344804,4|0,0:1|0:0,0:0:0:0:
197,45,17028,6,0,B|302:46,1,97.4999893379217,2|0,0:0|0:0,0:0:0:0:
422,51,17653,2,0,P|466:50|478:54,1,48.7499946689609,0|0,0:0|0:0,0:0:0:0:
407,73,17966,2,0,L|406:344,1,268.124970679285,0|0,0:0|0:0,0:0:0:0:
292,215,19216,6,0,P|246:198|195:202,1,97.4999893379217,0|0,0:0|0:0,0:0:0:0:
221,375,19841,2,0,L|230:278,2,97.4999893379217,2|0|0,0:0|0:0|0:0,0:0:0:0:
198,201,20778,6,0,P|246:198|292:215,1,97.4999893379217,0|0,0:0|0:0,0:0:0:0:
291,214,21403,1,0,0:0:0:0:
281,72,21716,6,0,P|230:68|174:77,1,97.4999893379217,2|0,0:0|0:0,0:0:0:0:
103,219,22341,2,0,L|110:271,1,48.7499946689609,0|0,0:0|0:0,0:0:0:0:
194,231,22653,2,0,L|301:215,1,97.4999893379217,2|0,0:0|0:0,0:0:0:0:
373,229,23278,2,0,B|360:163,1,48.7499946689609,0|0,0:0|0:0,0:0:0:0:
263,62,23591,6,0,B|236:62|236:62|217:56|217:56|186:73|186:73|137:51|137:51|108:67|108:67|66:62|66:62|26:67,1,243.749973344804,4|0,0:1|0:0,0:0:0:0:
140,154,24528,6,0,B|244:163,1,97.4999893379217,2|0,0:0|0:0,0:0:0:0:
319,172,24997,1,0,0:0:0:0:
381,226,25153,2,0,P|384:250|380:274,1,48.7499946689609,0|0,0:0|0:0,0:0:0:0:
332,340,25466,2,0,P|380:333|429:341,2,97.4999893379217,0|0|0,0:0|0:0|0:0,0:0:0:0:
164,353,26403,2,0,P|115:346|67:353,2,97.4999893379217,2|0|0,0:0|0:0|0:0,0:0:0:0:
245,259,27341,6,0,P|238:195|250:61,1,194.999978675843,2|0,0:3|0:0,0:0:0:0:
249,65,28278,1,2,0:0:0:0:
150,160,28591,1,0,0:0:0:0:
344,164,28903,1,0,0:0:0:0:
245,259,29216,6,0,P|148:247|51:254,1,194.999978675843,2|0,0:0|0:0,0:0:0:0:
51,254,30153,1,2,0:0:0:0:
34,123,30466,2,0,L|41:172,1,48.7499946689609,2|0,0:3|0:0,0:0:0:0:
132,86,30779,2,0,L|114:132,1,48.7499946689609,2|0,0:3|0:0,0:0:0:0:
36,30,31091,6,0,P|131:47|242:44,1,202.499980945588,4|0,0:2|0:0,0:0:0:0:
499,13,32653,5,0,0:0:0:0:
499,13,32966,2,0,L|492:82,1,67.4999936485293,2|0,0:0|0:0,0:0:0:0:
491,115,33434,1,0,0:0:0:0:
376,120,33903,2,0,L|382:189,1,67.4999936485293,2|0,0:0|0:0,0:0:0:0:
384,222,34371,1,0,0:0:0:0:
476,352,34841,6,0,P|380:334|269:337,1,202.499980945588,2|0,0:0|0:0,0:0:0:0:
13,369,36091,1,0,0:0:0:0:
144,344,36403,1,0,0:0:0:0:
57,244,36716,6,0,L|51:176,2,67.4999936485293,2|0|0,0:0|0:0|0:0,0:0:0:0:
188,219,37966,1,2,0:0:0:0:
225,172,38278,1,2,0:0:0:0:
230,143,38591,6,0,L|241:270,1,127.499994325638,4|0,0:0|0:0,0:0:0:0:
210,347,39059,1,0,1:0:0:0:
261,66,39372,1,0,1:0:0:0:
379,132,39528,6,0,P|347:133|316:126,1,63.7499971628189,8|0,0:1|0:0,0:0:0:0:
230,143,39841,1,0,1:0:0:0:
157,182,39997,2,0,P|125:188|93:187,2,63.7499971628189,0|2|0,1:0|0:3|1:0,0:0:0:0:
35,245,40466,6,0,P|47:182|45:119,1,127.499994325638,4|2,0:0|0:0,0:0:0:0:
109,0,40934,2,0,P|102:29|104:61,1,63.7499971628189,0|0,1:0|0:0,0:0:0:0:
186,74,41247,1,0,1:0:0:0:
45,119,41403,1,8,0:1:0:0:
120,329,41716,6,0,L|112:242,1,63.7499971628189,0|0,1:0|1:0,0:0:0:0:
199,386,42028,2,0,L|206:299,1,63.7499971628189,8|0,0:1|1:0,0:0:0:0:
414,305,42341,6,0,L|287:316,1,127.499994325638,4|2,0:0|0:0,0:0:0:0:
240,247,42809,1,0,1:0:0:0:
460,374,43122,1,0,1:0:0:0:
414,305,43278,6,0,P|410:273|414:241,1,63.7499971628189,8|0,0:1|0:0,0:0:0:0:
453,167,43591,1,0,1:0:0:0:
491,92,43747,2,0,P|495:60|492:29,2,63.7499971628189,0|2|0,1:0|0:3|1:0,0:0:0:0:
378,128,44216,6,0,L|251:139,1,127.499994325638,4|2,1:2|0:0,0:0:0:0:
157,57,44684,2,0,P|189:54|220:62,1,63.7499971628189,0|2,1:0|0:0,0:0:0:0:
113,127,44997,1,0,0:0:0:0:
139,209,45153,6,0,L|69:197,1,71.249993567467,8|0,0:1|1:0,0:0:0:0:
61,283,45466,6,0,L|139:297,1,78.7499925899509,8|0,0:3|1:0,0:0:0:0:
138,384,45778,6,0,L|53:369,1,86.2499961614609,8|0,0:1|1:0,0:0:0:0:
226,342,46091,6,0,P|311:305|405:299,1,187.499988079071,4|0,0:0|1:0,0:0:0:0:
499,310,46559,1,0,1:0:0:0:
499,310,46872,1,0,1:0:0:0:
392,168,47028,6,0,P|386:115|396:74,1,93.7499940395356,8|0,0:1|0:0,0:0:0:0:
487,199,47341,2,0,P|448:235|409:252,1,93.7499940395356,0|0,1:0|0:0,0:0:0:0:
361,326,47653,2,0,P|407:334|454:328,1,93.7499940395356,0|0,1:0|0:0,0:0:0:0:
228,264,47966,6,0,P|159:240|46:310,1,187.499988079071,4|0,0:0|1:0,0:0:0:0:
3,371,48434,1,2,1:2:0:0:
3,371,48747,1,0,1:0:0:0:
153,331,48903,6,0,P|153:270|127:217,1,93.7499940395356,8|0,0:1|0:0,0:0:0:0:
68,122,49216,2,0,P|52:76|69:31,1,93.7499940395356,0|0,1:0|0:0,0:0:0:0:
213,34,49528,2,0,P|226:78|211:122,1,93.7499940395356,0|0,1:0|0:0,0:0:0:0:
308,21,49841,2,0,B|336:67|307:147|307:147|260:247|307:312,1,281.249982118607,4|2,0:0|0:3,0:0:0:0:
367,228,50466,1,2,0:0:0:0:
206,185,50622,1,0,1:0:0:0:
161,269,50778,6,0,L|167:372,2,93.7499940395356,8|0|2,0:1|0:0|0:0,0:0:0:0:
111,185,51247,1,2,0:3:0:0:
12,182,51403,1,2,0:0:0:0:
61,267,51559,1,0,1:0:0:0:
69,86,51716,6,0,B|137:85|137:85|190:63|190:63|257:62,1,187.499988079071,4|2,1:2|0:0,0:0:0:0:
415,65,52184,1,2,0:3:0:0:
332,167,52340,1,2,0:0:0:0:
415,291,52496,1,0,1:0:0:0:
415,291,52653,6,0,P|306:312|246:266,1,187.499988079071,12|0,0:1|1:0,0:0:0:0:
175,176,53122,1,0,1:0:0:0:
238,260,53278,1,8,0:1:0:0:
177,345,53434,1,8,0:1:0:0:
77,323,53591,6,0,P|71:229|33:144,1,187.499988079071,4|0,0:0|1:0,0:0:0:0:
92,48,54059,1,0,1:0:0:0:
92,48,54372,1,0,1:0:0:0:
175,176,54528,6,0,P|206:133|218:92,1,93.7499940395356,8|0,0:1|0:0,0:0:0:0:
364,134,54841,2,0,P|330:165|287:183,1,93.7499940395356,0|0,1:0|0:0,0:0:0:0:
380,245,55153,2,0,P|433:251|473:241,1,93.7499940395356,0|0,1:0|0:0,0:0:0:0:
318,339,55466,6,0,P|231:303|138:299,1,187.499988079071,4|0,1:2|1:0,0:0:0:0:
36,346,55934,1,0,1:0:0:0:
36,346,56247,1,0,1:0:0:0:
91,197,56403,6,0,P|99:144|91:102,1,93.7499940395356,8|0,0:1|0:0,0:0:0:0:
196,241,56716,2,0,L|290:233,1,93.7499940395356,0|0,1:0|0:0,0:0:0:0:
289,68,57028,2,0,L|196:60,1,93.7499940395356,0|0,1:0|0:0,0:0:0:0:
389,18,57341,6,0,B|414:74|383:132|383:132|402:161|402:161|369:212|403:291,1,281.249982118607,4|2,0:0|0:3,0:0:0:0:
497,223,57966,1,2,0:0:0:0:
295,236,58122,1,0,1:0:0:0:
295,236,58278,6,0,L|201:227,2,93.7499940395356,8|0|2,0:1|0:0|0:0,0:0:0:0:
400,283,58747,1,2,0:3:0:0:
292,152,58903,1,2,0:0:0:0:
233,312,59059,1,0,1:0:0:0:
233,312,59216,6,0,B|152:305|152:305|126:318|126:318|45:312,1,187.499988079071,4|2,1:2|0:0,0:0:0:0:
295,236,59684,1,2,0:3:0:0:
400,283,59841,1,2,0:0:0:0:
394,172,59997,1,0,1:0:0:0:
394,172,60153,6,0,P|400:119|390:78,1,93.7499940395356,8|0,0:1|0:0,0:0:0:0:
152,124,60466,6,0,P|223:146|295:129,1,149.999990463257,2|0,0:0|0:0,0:0:0:0:
300,22,60934,1,0,1:0:0:0:
454,82,61091,6,0,P|422:84|390:80,1,63.7499971628189,4|0,1:2|0:0,0:0:0:0:
390,80,61872,1,0,1:0:0:0:
385,156,62028,2,0,L|373:292,1,127.499994325638,8|0,0:1|0:0,0:0:0:0:
369,363,62497,1,0,3:0:0:0:
369,363,62653,1,2,0:0:0:0:
231,296,62966,6,0,L|95:308,1,127.499994325638,0|2,1:0|0:0,0:0:0:0:
62,242,63434,2,0,L|-1:236,2,63.7499971628189,0|2|0,0:0|0:0|1:0,0:0:0:0:
103,176,63903,6,0,L|231:188,1,127.499994325638,8|2,0:1|0:0,0:0:0:0:
272,122,64372,2,0,L|335:116,2,63.7499971628189,0|2|0,0:0|0:0|3:0,0:0:0:0:
231,188,64841,2,0,L|243:324,1,127.499994325638,2|0,1:2|0:0,0:0:0:0:
322,306,65310,1,0,3:0:0:0:
322,306,65466,2,0,P|354:308|386:302,1,63.7499971628189,2|0,0:0|1:0,0:0:0:0:
441,355,65778,6,0,P|441:275|461:227,1,127.499994325638,8|0,0:1|0:0,0:0:0:0:
491,162,66247,1,2,0:0:0:0:
491,162,66403,1,2,0:0:0:0:
356,234,66716,6,0,P|299:205|257:157,1,127.499994325638,2|0,1:2|3:0,0:0:0:0:
282,85,67184,2,0,P|240:132|181:154,1,127.499994325638,2|0,3:2|1:0,0:0:0:0:
123,211,67653,6,0,P|144:151|141:88,1,127.499994325638,8|0,0:1|1:0,0:0:0:0:
64,82,68122,1,0,1:0:0:0:
104,17,68278,1,8,0:1:0:0:
49,226,68591,6,0,P|110:238|159:279,1,127.499994325638,0|0,1:0|0:0,0:0:0:0:
214,347,69059,1,2,0:0:0:0:
214,347,69216,2,0,P|225:319|263:281,1,63.7499971628189,2|0,0:0|1:0,0:0:0:0:
303,240,69528,6,0,P|374:232|436:202,1,127.499994325638,8|0,0:1|0:0,0:0:0:0:
495,171,69997,1,0,3:0:0:0:
495,171,70153,1,2,0:0:0:0:
342,105,70466,6,0,P|282:102|203:124,1,127.499994325638,2|2,1:2|0:0,0:0:0:0:
160,63,70934,2,0,L|91:63,2,63.7499971628189,0|2|0,0:0|0:0|1:0,0:0:0:0:
144,138,71403,6,0,P|147:198|125:277,1,127.499994325638,8|2,0:1|0:0,0:0:0:0:
203,288,71871,2,0,L|203:357,2,63.7499971628189,0|2|0,0:0|0:0|3:0,0:0:0:0:
247,217,72341,6,0,P|236:161|242:86,1,127.499994325638,2|0,1:2|0:0,0:0:0:0:
295,34,72809,2,0,P|320:88|320:117,1,63.7499971628189,0|2,3:0|0:0,0:0:0:0:
341,163,73122,1,0,1:0:0:0:
389,225,73278,6,0,P|415:284|473:328,1,127.499994325638,8|0,0:1|0:0,0:0:0:0:
309,238,73903,2,0,P|274:235|233:237,1,63.7499971628189,2|0,0:0|0:0,0:0:0:0:
167,259,74216,6,0,P|104:258|43:215,1,127.499994325638,2|8,1:2|0:3,0:0:0:0:
0,163,74684,1,8,0:1:0:0:
0,163,74997,1,8,3:0:0:0:
124,216,75153,6,0,P|194:205|232:167,1,127.499994325638,8|8,0:1|3:0,0:0:0:0:
156,136,75622,1,8,3:0:0:0:
79,152,75778,1,4,3:0:0:0:
50,224,75934,1,4,3:0:0:0:
93,291,76091,6,0,P|153:309|191:360,1,127.499994325638,4|0,1:2|0:0,0:0:0:0:
105,378,76559,1,8,0:1:0:0:
251,299,76872,1,0,1:0:0:0:
286,372,77028,2,0,L|430:359,1,127.499994325638,8|0,0:1|0:0,0:0:0:0:
413,362,77653,2,0,P|385:323|379:283,1,63.7499971628189,2|0,0:3|0:0,0:0:0:0:
425,172,77966,6,0,P|413:201|392:225,1,63.7499971628189,2|0,1:2|0:0,0:0:0:0:
313,202,78278,1,0,0:0:0:0:
232,121,78434,2,0,P|263:116|294:122,1,63.7499971628189,8|0,0:1|0:0,0:0:0:0:
313,202,78746,1,0,1:0:0:0:
285,314,78903,2,0,P|265:289|254:259,1,63.7499971628189,8|0,0:1|0:0,0:0:0:0:
194,315,79216,1,0,1:0:0:0:
194,315,79372,1,0,1:0:0:0:
129,367,79528,2,0,P|98:368|60:366,1,63.7499971628189,8|0,0:1|0:0,0:0:0:0:
16,298,79841,6,0,P|15:267|17:229,1,63.7499971628189,2|0,1:2|0:0,0:0:0:0:
93,278,80153,1,0,0:0:0:0:
171,234,80309,2,0,P|172:203|170:165,1,63.7499971628189,8|0,0:1|0:0,0:0:0:0:
94,199,80622,1,0,1:0:0:0:
16,170,80778,6,0,P|15:139|17:101,1,63.7499971628189,8|0,0:1|0:0,0:0:0:0:
94,75,81091,1,2,0:0:0:0:
246,138,81403,1,2,0:0:0:0:
398,75,81716,6,0,P|397:106|410:206,1,127.499994325638,2|0,1:2|0:0,0:0:0:0:
490,185,82184,1,8,0:1:0:0:
383,312,82497,1,0,1:0:0:0:
340,241,82653,2,0,L|204:229,1,127.499994325638,8|0,0:1|0:0,0:0:0:0:
158,292,83122,1,8,0:1:0:0:
226,338,83278,1,8,0:1:0:0:
307,344,83434,1,8,0:1:0:0:
381,326,83591,6,0,P|435:295|458:220,1,127.499994325638,4|0,0:1|0:0,0:0:0:0:
478,162,84059,1,2,0:0:0:0:
502,10,84372,1,0,1:0:0:0:
438,51,84528,6,0,P|374:52|307:45,1,127.499994325638,8|0,0:1|0:0,0:0:0:0:
168,32,85153,2,0,P|130:31|86:46,1,63.7499971628189,2|0,0:3|0:0,0:0:0:0:
3,130,85466,6,0,P|-3:161|0:192,1,63.7499971628189,0|0,1:0|0:0,0:0:0:0:
34,57,85778,1,2,0:0:0:0:
79,171,85934,2,0,P|110:174|141:167,1,63.7499971628189,8|0,0:1|0:0,0:0:0:0:
194,279,86247,1,0,1:0:0:0:
219,161,86403,6,0,P|254:161|284:173,1,63.7499971628189,8|0,0:1|0:0,0:0:0:0:
352,212,86716,1,2,1:2:0:0:
352,212,86872,1,0,1:0:0:0:
412,260,87028,2,0,P|467:255|485:244,1,63.7499971628189,2|0,0:0|3:0,0:0:0:0:
488,167,87341,6,0,P|481:131|488:92,1,63.7499971628189,2|0,1:2|0:0,0:0:0:0:
501,30,87653,1,0,0:0:0:0:
380,72,87809,2,0,P|349:74|305:57,1,63.7499971628189,0|0,0:3|0:0,0:0:0:0:
245,41,88122,1,0,1:0:0:0:
326,147,88278,6,0,P|328:204|322:224,1,63.7499971628189,8|0,0:1|0:0,0:0:0:0:
256,289,88591,2,0,P|210:308|185:305,1,63.7499971628189,2|0,0:0|0:0,0:0:0:0:
140,359,88903,2,0,P|121:323|121:289,1,63.7499971628189,2|0,0:0|0:0,0:0:0:0:
52,260,89216,6,0,P|99:227|178:250,1,127.499994325638,2|2,1:2|0:0,0:0:0:0:
239,244,89684,1,2,0:0:0:0:
310,208,89841,2,0,P|346:190|375:159,1,63.7499971628189,0|0,0:0|1:0,0:0:0:0:
447,100,90153,6,0,L|440:249,1,127.499994325638,8|2,0:1|0:0,0:0:0:0:
436,307,90622,1,0,1:0:0:0:
356,331,90778,2,0,P|355:299|362:263,1,63.7499971628189,8|0,0:1|1:0,0:0:0:0:
310,208,91091,6,0,B|155:208|155:369|24:369,1,341.249962682726,4|0,1:2|0:0,0:0:0:0:
23,369,92653,2,0,L|26:301,1,48.7499946689609,0|0,0:0|0:0,0:0:0:0:
33,238,92966,2,0,P|35:163|18:92,1,146.249984006883,2|0,0:0|0:0,0:0:0:0:
167,0,93903,2,0,P|165:75|182:146,1,146.249984006883,2|2,0:0|0:0,0:0:0:0:
217,316,94841,6,0,B|282:301|352:356|352:356|425:330|493:367,1,292.499968013765,2|0,0:0|0:0,0:0:0:0:
493,367,96091,1,0,0:0:0:0:
456,255,96403,1,0,0:0:0:0:
425,141,96716,2,0,P|423:91|434:43,2,97.4999893379217,2|0|0,0:0|0:0|0:0,0:0:0:0:
425,141,97653,1,8,0:1:0:0:
456,226,97809,1,0,1:0:0:0:
369,206,97966,2,0,L|300:197,1,48.7499946689609,8|0,0:1|1:0,0:0:0:0:
219,138,98278,2,0,L|268:132,1,48.7499946689609,8|0,0:1|1:0,0:0:0:0:
188,263,98591,6,0,L|47:242,1,127.499994325638,4|0,1:2|0:0,0:0:0:0:
12,187,99059,1,0,1:0:0:0:
250,309,99372,1,0,1:0:0:0:
376,354,99528,6,0,P|344:357|312:357,1,63.7499971628189,8|0,0:1|0:0,0:0:0:0:
250,309,99841,1,0,1:0:0:0:
177,340,99997,2,0,P|145:340|113:336,2,63.7499971628189,0|2|0,1:0|0:3|1:0,0:0:0:0:
295,242,100466,6,0,L|427:226,1,127.499994325638,0|0,1:0|1:0,0:0:0:0:
288,163,100934,2,0,L|224:171,1,63.7499971628189,0|0,1:0|0:0,0:0:0:0:
154,135,101247,1,0,1:0:0:0:
167,263,101403,5,8,0:1:0:0:
220,31,101716,2,0,L|219:110,1,63.7499971628189,0|0,1:0|1:0,0:0:0:0:
130,0,102028,2,0,L|144:89,1,63.7499971628189,8|0,0:1|1:0,0:0:0:0:
61,237,102341,6,0,L|68:109,1,127.499994325638,4|0,0:0|0:0,0:0:0:0:
72,34,102809,1,0,1:0:0:0:
3,290,103122,1,0,1:0:0:0:
62,345,103278,6,0,L|132:343,1,63.7499971628189,8|0,0:1|0:0,0:0:0:0:
197,306,103591,1,0,1:0:0:0:
270,273,103747,2,0,P|317:272|353:284,2,63.7499971628189,0|2|0,1:0|0:3|1:0,0:0:0:0:
176,196,104216,2,0,P|237:161|310:162,1,127.499994325638,0|2,1:0|0:0,0:0:0:0:
415,192,104684,2,0,P|454:188|499:170,1,63.7499971628189,0|2,1:0|0:0,0:0:0:0:
368,119,104997,1,0,1:0:0:0:
290,36,105153,5,8,0:1:0:0:
280,49,105309,1,8,0:1:0:0:
210,113,105466,1,10,0:1:0:0:
196,98,105622,1,8,0:1:0:0:
122,55,105778,1,10,0:1:0:0:
16,51,105934,1,8,0:1:0:0:
117,160,106091,6,0,P|126:208|125:257,1,93.7499940395356,4|0,1:2|0:0,0:0:0:0:
27,285,106403,1,0,1:0:0:0:
227,267,106559,2,0,P|273:266|319:274,1,93.7499940395356,0|0,1:0|0:0,0:0:0:0:
132,340,106872,1,0,1:0:0:0:
117,160,107028,6,0,P|125:206|125:253,1,93.7499940395356,8|0,0:1|0:0,0:0:0:0:
205,2,107341,2,0,P|197:48|198:95,1,93.7499940395356,0|0,1:0|0:0,0:0:0:0:
227,267,107653,1,0,1:0:0:0:
245,286,107966,6,0,P|253:240|252:193,1,93.7499940395356,4|0,0:0|0:0,0:0:0:0:
197,94,108278,1,0,1:0:0:0:
382,60,108434,2,0,P|339:76|299:101,1,93.7499940395356,0|0,1:0|0:0,0:0:0:0:
484,81,108747,1,0,1:0:0:0:
416,245,108903,6,0,P|404:199|385:157,1,93.7499940395356,8|0,0:1|0:0,0:0:0:0:
480,372,109216,2,0,P|491:327|511:285,1,93.7499940395356,0|0,1:0|0:0,0:0:0:0:
338,363,109528,1,0,1:0:0:0:
317,374,109841,6,0,B|220:362|220:362|152:305|152:305|46:292,1,281.249982118607,8|2,0:1|0:3,0:0:0:0:
113,383,110466,1,2,0:0:0:0:
261,284,110622,1,0,1:0:0:0:
351,290,110778,6,0,L|365:189,2,93.7499940395356,8|0|2,0:1|0:0|0:0,0:0:0:0:
317,374,111247,1,2,0:3:0:0:
261,284,111403,1,2,0:0:0:0:
156,288,111559,1,0,1:0:0:0:
42,316,111716,6,0,B|154:322|103:361|217:370,1,187.499988079071,4|2,1:2|0:0,0:0:0:0:
317,374,112184,1,2,0:3:0:0:
201,206,112341,1,2,0:0:0:0:
351,290,112497,1,0,1:0:0:0:
351,290,112653,2,0,P|362:197|353:99,1,187.499988079071,8|0,0:1|1:0,0:0:0:0:
265,30,113122,1,0,1:0:0:0:
354,83,113278,1,8,0:1:0:0:
432,14,113434,1,8,0:1:0:0:
265,128,113591,6,0,P|228:168|209:208,1,93.7499940395356,4|0,0:0|0:0,0:0:0:0:
168,291,113903,1,0,1:0:0:0:
315,319,114059,2,0,P|317:272|307:225,1,93.7499940395356,0|0,1:0|0:0,0:0:0:0:
229,359,114372,1,0,1:0:0:0:
404,330,114528,6,0,P|450:329|495:342,1,93.7499940395356,8|0,0:1|0:0,0:0:0:0:
396,242,114841,2,0,P|393:194|412:130,1,93.7499940395356,0|0,1:0|0:0,0:0:0:0:
461,6,115153,1,0,1:0:0:0:
449,24,115466,6,0,P|412:53|368:67,1,93.7499940395356,4|0,1:2|1:0,0:0:0:0:
269,71,115778,1,0,1:0:0:0:
260,222,115934,2,0,P|204:217|161:196,1,93.7499940395356,0|0,1:0|0:0,0:0:0:0:
79,164,116247,1,0,1:0:0:0:
145,20,116403,6,0,P|151:85|150:124,1,93.7499940395356,8|0,0:1|0:0,0:0:0:0:
101,247,116716,2,0,P|95:312|96:351,1,93.7499940395356,0|0,1:0|0:0,0:0:0:0:
281,355,117028,1,0,1:0:0:0:
310,321,117341,6,0,B|416:278|383:362|486:315|486:315|498:269|475:218,1,281.249982118607,4|2,0:0|0:3,0:0:0:0:
485,132,117966,1,2,0:0:0:0:
363,185,118122,1,0,1:0:0:0:
297,133,118278,6,0,P|250:138|203:141,2,93.7499940395356,8|0|2,0:1|0:0|0:0,0:0:0:0:
374,76,118747,1,2,0:3:0:0:
455,126,118903,1,2,0:0:0:0:
476,220,119059,1,0,1:0:0:0:
397,321,119216,6,0,B|297:290|294:384|182:326,1,187.499988079071,4|2,0:0|0:0,0:0:0:0:
122,325,119684,1,2,0:3:0:0:
13,179,119841,1,2,0:0:0:0:
40,272,119997,1,0,1:0:0:0:
176,186,120153,6,0,P|224:185|271:191,1,93.7499940395356,8|0,0:1|0:0,0:0:0:0:
361,161,120466,1,0,1:0:0:0:
425,90,120622,1,8,0:1:0:0:
354,25,120778,1,8,0:1:0:0:
289,95,120934,1,8,0:1:0:0:
269,190,121091,6,0,L|276:291,1,93.7499940395356,4|0,1:2|0:0,0:0:0:0:
179,244,121403,2,0,L|186:345,1,93.7499940395356,4|0,1:2|0:0,0:0:0:0:
89,294,121716,2,0,L|96:395,1,93.7499940395356,4|0,1:2|0:0,0:0:0:0:
98,204,122028,6,0,L|91:103,1,93.7499940395356,12|0,1:0|0:0,0:0:0:0:
188,150,122340,2,0,L|181:49,1,93.7499940395356,4|0,1:2|0:0,0:0:0:0:
278,100,122653,2,0,L|271:6,1,93.7499940395356,4|0,1:2|0:0,0:0:0:0:
360,155,122966,6,0,L|453:161,1,93.7499940395356,4|0,1:2|0:0,0:0:0:0:
269,190,123278,2,0,L|175:196,1,93.7499940395356,4|0,1:2|0:0,0:0:0:0:
345,255,123591,2,0,L|438:261,1,93.7499940395356,4|0,1:2|0:0,0:0:0:0:
257,379,123903,6,0,L|251:286,1,93.7499940395356,12|0,1:0|0:0,0:0:0:0:
175,196,124216,2,0,P|159:281|161:388,1,187.499988079071,0|0,1:0|1:0,0:0:0:0:
257,379,124684,1,0,0:0:0:0:
345,255,124841,6,0,P|346:206|351:161,1,93.7499940395356,4|0,1:2|0:0,0:0:0:0:
251,286,125153,2,0,P|252:237|249:192,1,93.7499940395356,4|0,1:2|0:0,0:0:0:0:
158,287,125466,2,0,P|161:334|160:381,1,93.7499940395356,4|0,1:2|0:0,0:0:0:0:
351,161,125778,6,0,P|352:112|357:67,1,93.7499940395356,12|0,1:0|0:0,0:0:0:0:
249,192,126091,2,0,P|250:143|247:98,1,93.7499940395356,4|0,1:2|0:0,0:0:0:0:
156,193,126403,2,0,P|159:239|157:286,1,93.7499940395356,4|0,1:2|0:0,0:0:0:0:
52,96,126716,6,0,P|98:94|145:97,1,93.7499940395356,4|0,1:2|0:0,0:0:0:0:
294,273,127028,2,0,P|269:233|248:191,1,93.7499940395356,4|0,1:2|0:0,0:0:0:0:
295,18,127341,2,0,P|272:59|246:98,1,93.7499940395356,4|0,1:2|0:0,0:0:0:0:
62,191,127653,6,0,P|108:189|155:192,1,93.7499940395356,12|0,1:0|0:0,0:0:0:0:
294,273,127966,2,0,P|253:206|253:78,1,187.499988079071,0|0,1:0|1:0,0:0:0:0:
155,192,128434,1,2,0:1:0:0:
375,252,128591,6,0,P|374:312|353:343,1,93.7499940395356,4|0,1:2|0:0,0:0:0:0:
358,160,128903,2,0,P|434:137|470:146,1,93.7499940395356,4|0,1:2|0:0,0:0:0:0:
496,38,129216,2,0,P|453:19|407:20,1,93.7499940395356,4|0,1:2|0:0,0:0:0:0:
288,230,129528,6,0,P|336:255|399:238,1,93.7499940395356,12|0,1:0|0:0,0:0:0:0:
221,154,129841,2,0,P|157:152|120:172,1,93.7499940395356,4|0,1:2|0:0,0:0:0:0:
187,344,130153,2,0,P|195:281|188:233,1,93.7499940395356,4|0,1:2|0:0,0:0:0:0:
66,57,130466,6,0,P|32:110|33:179,1,93.7499940395356,4|0,1:0|0:0,0:0:0:0:
225,69,130778,2,0,P|172:35|133:36,1,93.7499940395356,4|0,1:2|0:0,0:0:0:0:
303,149,131091,2,0,P|351:159|396:143,1,93.7499940395356,4|0,1:2|0:0,0:0:0:0:
196,169,131403,6,0,P|185:255|197:287,1,93.7499940395356,12|0,1:0|0:0,0:0:0:0:
408,327,131716,2,0,P|356:250|259:227,1,187.499988079071,4|4,1:2|1:2,0:0:0:0:
286,358,132184,1,2,0:1:0:0:
196,169,132341,6,0,P|191:124|199:71,1,93.7499940395356,4|0,1:2|0:0,0:0:0:0:
380,151,132653,2,0,P|409:221|393:264,1,93.7499940395356,4|0,1:2|0:0,0:0:0:0:
173,246,132966,2,0,P|118:205|109:165,1,93.7499940395356,4|0,1:2|0:0,0:0:0:0:
289,273,133278,6,0,P|295:342|283:374,1,93.7499940395356,12|0,1:0|0:0,0:0:0:0:
263,166,133591,1,0,1:0:0:0:
317,82,133747,1,8,0:1:0:0:
417,95,133903,2,0,P|476:105|516:94,1,93.7499940395356,4|0,1:2|0:0,0:0:0:0:
376,19,134216,5,2,0:0:0:0:
357,4,134372,1,2,0:0:0:0:
226,48,134528,1,2,0:0:0:0:
247,36,134684,1,2,0:0:0:0:
90,57,134841,1,2,0:0:0:0:
61,46,134997,1,2,0:0:0:0:
147,200,135153,6,0,P|167:133|153:89,1,93.7499940395356,4|0,0:0|0:0,0:0:0:0:
245,223,135466,2,0,L|361:242,1,93.7499940395356,4|0,1:0|0:0,0:0:0:0:
469,148,135778,2,0,L|353:167,1,93.7499940395356,8|8,0:1|0:1,0:0:0:0:
147,200,136091,1,6,0:0:0:0:
