osu file format v14

[General]
AudioFilename: audio.mp3
AudioLeadIn: 0
PreviewTime: 92358
Countdown: 0
SampleSet: Normal
StackLeniency: 0.7
Mode: 1
LetterboxInBreaks: 0
WidescreenStoryboard: 1

[Editor]
DistanceSpacing: 2.3
BeatDivisor: 2
GridSize: 32
TimelineZoom: 1.2

[Metadata]
Title:as you were before.
TitleUnicode:as you were before.
Artist:Stars Hollow
ArtistUnicode:Stars Hollow
Creator:Mirabel
Version:Futsuu
Source:
Tags:happy again midwest emo math rock post-hardcore post hardcore screamo english
BeatmapID:3096713
BeatmapSetID:1509638

[Difficulty]
HPDrainRate:7
CircleSize:2
OverallDifficulty:4
ApproachRate:10
SliderMultiplier:1.4
SliderTickRate:1

[Events]
//Background and Video events
0,0,"happyagain.jpg",0,40
//Break Periods
//Storyboard Layer 0 (Background)
//Storyboard Layer 1 (Fail)
//Storyboard Layer 2 (Pass)
//Storyboard Layer 3 (Foreground)
//Storyboard Layer 4 (Overlay)
//Storyboard Sound Samples

[TimingPoints]
1435,307.692307692308,4,1,0,75,1,0
92358,-100,4,1,0,85,0,1
116665,-100,4,1,0,85,0,0
118111,428.571428571429,6,1,0,85,1,0
118111,-71.4285714285714,4,1,0,85,0,0
118968,-100,4,1,0,60,0,0
148968,-100,4,1,0,60,0,1
168253,-99.009900990099,4,1,0,62,0,1
168468,-98.0392156862745,4,1,0,64,0,1
168682,-97.0873786407767,4,1,0,66,0,1
168896,-96.1538461538461,4,1,0,68,0,1
169111,-95.2380952380952,4,1,0,70,0,1
169539,402.68456375839,4,1,0,70,1,0
169539,-100,4,1,0,70,0,0

[HitObjects]
256,192,1435,5,8,0:0:0:0:
256,192,2665,1,0,0:0:0:0:
256,192,3896,1,8,0:0:0:0:
256,192,6358,1,8,0:0:0:0:
256,192,7588,1,0,0:0:0:0:
256,192,8819,1,8,0:0:0:0:
256,192,10819,1,0,0:0:0:0:
256,192,11127,1,4,0:0:0:0:
256,192,11896,1,8,0:0:0:0:
256,192,12204,1,0,0:0:0:0:
256,192,12511,1,8,0:0:0:0:
256,192,12665,1,8,0:0:0:0:
256,192,12819,1,0,0:0:0:0:
256,192,12973,1,0,0:0:0:0:
256,192,13127,1,8,0:0:0:0:
256,192,13435,1,0,0:0:0:0:
256,192,13588,1,8,0:0:0:0:
256,192,14050,1,0,0:0:0:0:
256,192,14358,1,8,0:0:0:0:
256,192,14511,1,8,0:0:0:0:
256,192,14819,1,4,0:0:0:0:
256,192,15281,1,8,0:0:0:0:
256,192,15588,1,0,0:0:0:0:
256,192,15742,1,0,0:0:0:0:
256,192,16050,1,12,0:0:0:0:
256,192,16819,1,0,0:0:0:0:
256,192,17127,1,8,0:0:0:0:
256,192,17434,1,0,0:0:0:0:
256,192,17588,1,0,0:0:0:0:
256,192,17742,1,8,0:0:0:0:
256,192,17896,1,8,0:0:0:0:
256,192,18050,1,0,0:0:0:0:
256,192,18358,1,8,0:0:0:0:
256,192,18511,1,0,0:0:0:0:
256,192,18973,1,0,0:0:0:0:
256,192,19281,1,8,0:0:0:0:
256,192,19435,1,8,0:0:0:0:
256,192,19742,1,4,0:0:0:0:
256,192,20204,1,8,0:0:0:0:
256,192,20511,1,0,0:0:0:0:
256,192,20665,1,0,0:0:0:0:
256,192,20973,1,12,0:0:0:0:
256,192,21743,1,8,0:0:0:0:
256,192,22051,1,0,0:0:0:0:
256,192,22358,1,8,0:0:0:0:
256,192,22511,1,8,0:0:0:0:
256,192,22665,1,0,0:0:0:0:
256,192,22973,1,8,0:0:0:0:
256,192,23282,1,8,0:0:0:0:
256,192,23435,1,0,0:0:0:0:
256,192,23896,1,0,0:0:0:0:
256,192,24204,1,8,0:0:0:0:
256,192,24358,1,8,0:0:0:0:
256,192,24665,1,4,0:0:0:0:
256,192,25127,1,8,0:0:0:0:
256,192,25434,1,0,0:0:0:0:
256,192,25588,1,0,0:0:0:0:
256,192,25896,1,12,0:0:0:0:
256,192,26665,1,0,0:0:0:0:
256,192,26973,1,8,0:0:0:0:
256,192,27281,1,0,0:0:0:0:
256,192,27435,1,0,0:0:0:0:
256,192,27588,1,8,0:0:0:0:
256,192,27896,1,0,0:0:0:0:
256,192,28204,1,8,0:0:0:0:
256,192,28358,1,0,0:0:0:0:
256,192,28819,1,0,0:0:0:0:
256,192,29127,1,8,0:0:0:0:
256,192,29281,1,8,0:0:0:0:
256,192,29588,1,4,0:0:0:0:
256,192,30050,1,8,0:0:0:0:
256,192,30357,1,0,0:0:0:0:
256,192,30511,1,0,0:0:0:0:
256,192,30819,1,12,0:0:0:0:
256,192,31281,1,0,0:0:0:0:
256,192,31896,1,0,0:0:0:0:
256,192,32511,1,8,0:0:0:0:
256,192,32819,1,0,0:0:0:0:
256,192,32973,1,0,0:0:0:0:
256,192,33281,1,12,0:0:0:0:
256,192,33742,1,0,0:0:0:0:
256,192,34358,1,0,0:0:0:0:
256,192,34973,1,8,0:0:0:0:
256,192,35281,1,0,0:0:0:0:
256,192,35435,1,0,0:0:0:0:
256,192,35742,1,12,0:0:0:0:
256,192,36204,1,0,0:0:0:0:
256,192,36819,1,0,0:0:0:0:
256,192,37127,1,8,0:0:0:0:
256,192,37281,1,0,0:0:0:0:
256,192,37435,1,8,0:0:0:0:
256,192,37588,1,0,0:0:0:0:
256,192,37742,1,8,0:0:0:0:
256,192,38050,1,8,0:0:0:0:
256,192,38204,1,0,0:0:0:0:
256,192,38665,1,8,0:0:0:0:
256,192,39281,1,0,0:0:0:0:
256,192,39588,1,8,0:0:0:0:
256,192,39742,1,8,0:0:0:0:
256,192,39896,1,0,0:0:0:0:
256,192,40050,1,0,0:0:0:0:
256,192,40204,1,8,0:0:0:0:
256,192,40665,1,4,0:0:0:0:
256,192,41435,1,0,0:0:0:0:
256,192,41742,1,8,0:0:0:0:
256,192,42050,1,0,0:0:0:0:
256,192,42358,1,8,0:0:0:0:
256,192,42511,1,8,0:0:0:0:
256,192,42665,1,0,0:0:0:0:
256,192,42973,1,8,0:0:0:0:
256,192,43127,1,0,0:0:0:0:
256,192,43896,1,8,0:0:0:0:
256,192,44204,1,0,0:0:0:0:
256,192,44511,1,8,0:0:0:0:
256,192,44819,1,0,0:0:0:0:
256,192,44973,1,8,0:0:0:0:
256,192,45281,1,8,0:0:0:0:
256,192,45435,1,8,0:0:0:0:
256,192,45588,1,0,0:0:0:0:
256,192,46358,1,0,0:0:0:0:
256,192,46665,1,8,0:0:0:0:
256,192,46973,1,0,0:0:0:0:
256,192,47127,1,0,0:0:0:0:
256,192,47281,1,0,0:0:0:0:
256,192,47435,1,0,0:0:0:0:
256,192,47588,1,8,0:0:0:0:
256,192,47896,1,8,0:0:0:0:
256,192,48050,1,0,0:0:0:0:
256,192,48819,1,8,0:0:0:0:
256,192,49127,1,0,0:0:0:0:
256,192,49435,1,8,0:0:0:0:
256,192,49742,1,0,0:0:0:0:
256,192,49896,1,0,0:0:0:0:
256,192,50050,1,8,0:0:0:0:
256,192,50358,1,0,0:0:0:0:
256,192,50665,1,4,0:0:0:0:
256,192,50973,1,4,0:0:0:0:
256,192,51281,1,8,0:0:0:0:
256,192,51896,1,4,0:0:0:0:
256,192,52204,1,4,0:0:0:0:
256,192,52511,1,8,0:0:0:0:
256,192,53127,1,4,0:0:0:0:
256,192,53435,1,4,0:0:0:0:
256,192,54050,1,8,0:0:0:0:
256,192,54358,1,0,0:0:0:0:
256,192,54665,1,8,0:0:0:0:
256,192,54819,1,8,0:0:0:0:
256,192,54973,1,0,0:0:0:0:
256,192,55127,1,0,0:0:0:0:
256,192,55281,1,8,0:0:0:0:
256,192,55588,1,4,0:0:0:0:
256,192,55896,1,4,0:0:0:0:
256,192,56204,1,8,0:0:0:0:
256,192,56819,1,4,0:0:0:0:
256,192,57127,1,4,0:0:0:0:
256,192,57435,1,8,0:0:0:0:
256,192,58050,1,4,0:0:0:0:
256,192,58358,1,4,0:0:0:0:
256,192,58973,1,8,0:0:0:0:
256,192,59281,1,0,0:0:0:0:
256,192,59435,1,0,0:0:0:0:
256,192,59588,1,8,0:0:0:0:
256,192,59742,1,8,0:0:0:0:
256,192,59896,1,0,0:0:0:0:
256,192,60204,1,8,0:0:0:0:
256,192,60511,1,4,0:0:0:0:
256,192,60819,1,4,0:0:0:0:
256,192,61127,1,8,0:0:0:0:
256,192,61742,1,4,0:0:0:0:
256,192,62050,1,4,0:0:0:0:
256,192,62358,1,8,0:0:0:0:
256,192,62973,1,4,0:0:0:0:
256,192,63281,1,4,0:0:0:0:
256,192,63896,1,0,0:0:0:0:
256,192,64204,1,8,0:0:0:0:
256,192,64511,1,0,0:0:0:0:
256,192,64665,1,0,0:0:0:0:
256,192,64819,1,8,0:0:0:0:
256,192,65127,1,8,0:0:0:0:
256,192,65435,1,4,0:0:0:0:
256,192,65742,1,4,0:0:0:0:
256,192,66050,1,8,0:0:0:0:
256,192,66665,1,4,0:0:0:0:
256,192,66973,1,4,0:0:0:0:
256,192,67281,1,8,0:0:0:0:
256,192,67896,1,4,0:0:0:0:
256,192,68204,1,4,0:0:0:0:
256,192,68819,1,8,0:0:0:0:
256,192,69127,1,0,0:0:0:0:
256,192,69281,1,0,0:0:0:0:
256,192,69435,1,8,0:0:0:0:
256,192,69742,1,8,0:0:0:0:
256,192,70050,1,8,0:0:0:0:
256,192,70204,1,0,0:0:0:0:
256,192,70973,1,8,0:0:0:0:
256,192,71281,1,0,0:0:0:0:
256,192,71435,1,0,0:0:0:0:
256,192,72204,1,0,0:0:0:0:
256,192,72511,1,8,0:0:0:0:
256,192,72665,1,8,0:0:0:0:
256,192,73127,1,8,0:0:0:0:
256,192,73281,1,8,0:0:0:0:
256,192,73435,1,0,0:0:0:0:
256,192,73742,1,8,0:0:0:0:
256,192,74204,1,8,0:0:0:0:
256,192,74511,1,0,0:0:0:0:
256,192,74665,1,0,0:0:0:0:
256,192,74819,1,8,0:0:0:0:
256,192,75127,1,4,0:0:0:0:
256,192,75742,1,0,0:0:0:0:
256,192,75896,1,0,0:0:0:0:
256,192,76358,1,12,0:0:0:0:
256,192,76973,1,8,0:0:0:0:
256,192,77127,1,8,0:0:0:0:
256,192,77588,1,4,0:0:0:0:
256,192,78050,1,0,0:0:0:0:
256,192,78204,1,0,0:0:0:0:
256,192,78358,1,8,0:0:0:0:
256,192,78665,1,0,0:0:0:0:
256,192,79127,1,0,0:0:0:0:
256,192,79434,1,8,0:0:0:0:
256,192,79588,1,8,0:0:0:0:
256,192,79742,1,0,0:0:0:0:
256,192,80050,1,12,0:0:0:0:
256,192,80665,1,0,0:0:0:0:
256,192,80819,1,0,0:0:0:0:
256,192,81281,1,12,0:0:0:0:
256,192,81896,1,8,0:0:0:0:
256,192,82050,1,8,0:0:0:0:
256,192,82511,1,4,0:0:0:0:
256,192,82973,1,0,0:0:0:0:
256,192,83127,1,0,0:0:0:0:
256,192,83281,1,8,0:0:0:0:
256,192,83588,1,0,0:0:0:0:
256,192,84050,1,0,0:0:0:0:
256,192,84358,1,8,0:0:0:0:
256,192,84511,1,0,0:0:0:0:
256,192,84665,1,0,0:0:0:0:
256,192,84973,1,12,0:0:0:0:
256,192,85588,1,0,0:0:0:0:
256,192,85742,1,0,0:0:0:0:
256,192,86204,1,12,0:0:0:0:
256,192,86819,1,8,0:0:0:0:
256,192,86973,1,8,0:0:0:0:
256,192,87435,1,4,0:0:0:0:
256,192,87896,1,8,0:0:0:0:
256,192,88050,1,8,0:0:0:0:
256,192,88204,1,0,0:0:0:0:
256,192,88511,1,8,0:0:0:0:
256,192,88973,1,8,0:0:0:0:
256,192,89281,1,0,0:0:0:0:
256,192,89435,1,8,0:0:0:0:
256,192,89588,1,8,0:0:0:0:
256,192,89896,1,4,0:0:0:0:
256,192,91127,1,12,0:0:0:0:
256,192,92358,1,4,0:0:0:0:
256,192,92819,1,8,0:0:0:0:
256,192,93127,1,0,0:0:0:0:
256,192,93281,1,0,0:0:0:0:
256,192,93435,1,8,0:0:0:0:
256,192,93588,1,8,0:0:0:0:
256,192,93742,1,0,0:0:0:0:
256,192,94050,1,0,0:0:0:0:
256,192,94358,1,8,0:0:0:0:
256,192,94511,1,8,0:0:0:0:
256,192,94665,1,0,0:0:0:0:
256,192,95281,1,8,0:0:0:0:
256,192,95588,1,0,0:0:0:0:
256,192,95742,1,0,0:0:0:0:
256,192,95896,1,8,0:0:0:0:
256,192,96204,1,0,0:0:0:0:
256,192,96511,1,8,0:0:0:0:
256,192,96665,1,0,0:0:0:0:
256,192,96819,1,0,0:0:0:0:
256,192,96973,1,8,0:0:0:0:
256,192,97281,1,4,0:0:0:0:
256,192,97742,1,8,0:0:0:0:
256,192,98050,1,8,0:0:0:0:
256,192,98358,1,0,0:0:0:0:
256,192,98511,1,0,0:0:0:0:
256,192,98665,1,8,0:0:0:0:
256,192,98819,1,0,0:0:0:0:
256,192,98973,1,0,0:0:0:0:
256,192,99281,1,8,0:0:0:0:
256,192,99435,1,8,0:0:0:0:
256,192,99742,1,4,0:0:0:0:
256,192,100358,1,12,0:0:0:0:
256,192,100973,1,4,0:0:0:0:
256,192,101435,1,8,0:0:0:0:
256,192,101588,1,8,0:0:0:0:
256,192,101742,1,0,0:0:0:0:
256,192,102204,1,4,0:0:0:0:
256,192,102665,1,8,0:0:0:0:
256,192,102973,1,0,0:0:0:0:
256,192,103127,1,0,0:0:0:0:
256,192,103281,1,8,0:0:0:0:
256,192,103434,1,8,0:0:0:0:
256,192,103588,1,0,0:0:0:0:
256,192,103896,1,0,0:0:0:0:
256,192,104204,1,8,0:0:0:0:
256,192,104357,1,8,0:0:0:0:
256,192,104511,1,0,0:0:0:0:
256,192,105127,1,8,0:0:0:0:
256,192,105434,1,0,0:0:0:0:
256,192,105588,1,0,0:0:0:0:
256,192,105742,1,8,0:0:0:0:
256,192,106050,1,0,0:0:0:0:
256,192,106357,1,8,0:0:0:0:
256,192,106511,1,0,0:0:0:0:
256,192,106665,1,0,0:0:0:0:
256,192,106819,1,8,0:0:0:0:
256,192,107127,1,4,0:0:0:0:
256,192,107588,1,8,0:0:0:0:
256,192,107896,1,8,0:0:0:0:
256,192,108204,1,0,0:0:0:0:
256,192,108357,1,0,0:0:0:0:
256,192,108511,1,8,0:0:0:0:
256,192,108665,1,0,0:0:0:0:
256,192,108819,1,0,0:0:0:0:
256,192,109127,1,8,0:0:0:0:
256,192,109281,1,8,0:0:0:0:
256,192,109588,1,4,0:0:0:0:
256,192,110204,1,12,0:0:0:0:
256,192,110819,1,4,0:0:0:0:
256,192,111127,1,8,0:0:0:0:
256,192,111281,1,8,0:0:0:0:
256,192,111435,1,0,0:0:0:0:
256,192,111742,1,8,0:0:0:0:
256,192,112050,1,4,0:0:0:0:
256,192,112665,1,12,0:0:0:0:
256,192,113281,1,4,0:0:0:0:
256,192,113589,1,8,0:0:0:0:
256,192,113742,1,8,0:0:0:0:
256,192,113896,1,0,0:0:0:0:
256,192,114204,1,8,0:0:0:0:
256,192,114512,1,4,0:0:0:0:
256,192,115127,1,4,0:0:0:0:
256,192,115742,1,12,0:0:0:0:
256,192,116050,1,12,0:0:0:0:
256,192,116358,1,12,0:0:0:0:
256,192,116665,1,12,0:0:0:0:
256,192,118111,1,4,0:0:0:0:
256,192,120682,1,0,0:0:0:0:
256,192,123253,1,0,0:0:0:0:
256,192,125825,1,0,0:0:0:0:
256,192,128396,1,0,0:0:0:0:
256,192,129682,1,8,0:0:0:0:
256,192,130539,1,0,0:0:0:0:
256,192,130968,1,0,0:0:0:0:
256,192,132253,1,8,0:0:0:0:
256,192,132682,1,8,0:0:0:0:
256,192,133111,1,0,0:0:0:0:
256,192,133539,1,0,0:0:0:0:
256,192,134396,1,0,0:0:0:0:
256,192,134825,1,8,0:0:0:0:
256,192,135682,1,8,0:0:0:0:
256,192,136111,1,0,0:0:0:0:
256,192,138682,1,0,0:0:0:0:
256,192,139968,1,8,0:0:0:0:
256,192,141253,1,0,0:0:0:0:
256,192,142539,1,8,0:0:0:0:
256,192,142968,1,8,0:0:0:0:
256,192,143396,1,0,0:0:0:0:
256,192,143825,1,0,0:0:0:0:
256,192,144682,1,0,0:0:0:0:
256,192,145111,1,8,0:0:0:0:
256,192,145968,1,8,0:0:0:0:
256,192,146396,1,0,0:0:0:0:
256,192,147682,1,8,0:0:0:0:
256,192,148111,1,0,0:0:0:0:
256,192,148325,1,0,0:0:0:0:
256,192,148539,1,8,0:0:0:0:
256,192,148968,1,12,0:0:0:0:
256,192,149825,1,0,0:0:0:0:
256,192,150253,1,8,0:0:0:0:
256,192,150682,1,8,0:0:0:0:
256,192,150896,1,8,0:0:0:0:
256,192,151111,1,0,0:0:0:0:
256,192,151539,1,0,0:0:0:0:
256,192,152396,1,8,0:0:0:0:
256,192,152825,1,0,0:0:0:0:
256,192,153039,1,0,0:0:0:0:
256,192,153253,1,8,0:0:0:0:
256,192,153468,1,8,0:0:0:0:
256,192,153682,1,0,0:0:0:0:
256,192,154111,1,8,0:0:0:0:
256,192,154968,1,0,0:0:0:0:
256,192,155396,1,8,0:0:0:0:
256,192,155825,1,8,0:0:0:0:
256,192,156253,1,0,0:0:0:0:
256,192,156682,1,8,0:0:0:0:
256,192,157539,1,0,0:0:0:0:
256,192,157968,1,8,0:0:0:0:
256,192,158182,1,8,0:0:0:0:
256,192,158396,1,8,0:0:0:0:
256,192,158825,1,8,0:0:0:0:
256,192,159253,1,4,0:0:0:0:
256,192,160111,1,0,0:0:0:0:
256,192,160539,1,8,0:0:0:0:
256,192,160968,1,8,0:0:0:0:
256,192,161182,1,8,0:0:0:0:
256,192,161397,1,0,0:0:0:0:
256,192,161825,1,0,0:0:0:0:
256,192,162682,1,8,0:0:0:0:
256,192,163111,1,0,0:0:0:0:
256,192,163325,1,0,0:0:0:0:
256,192,163539,1,8,0:0:0:0:
256,192,163753,1,8,0:0:0:0:
256,192,163968,1,0,0:0:0:0:
256,192,164396,1,8,0:0:0:0:
256,192,165254,1,0,0:0:0:0:
256,192,165682,1,8,0:0:0:0:
256,192,166111,1,8,0:0:0:0:
256,192,166539,1,0,0:0:0:0:
256,192,166968,1,8,0:0:0:0:
256,192,167825,1,0,0:0:0:0:
256,192,168253,1,8,0:0:0:0:
256,192,168468,1,8,0:0:0:0:
256,192,168682,1,8,0:0:0:0:
256,192,168896,1,8,0:0:0:0:
256,192,169111,1,8,0:0:0:0:
256,192,169539,1,4,0:0:0:0:
256,192,169941,1,8,0:0:0:0:
256,192,170747,1,8,0:0:0:0:
256,192,171149,1,0,0:0:0:0:
256,192,171552,1,0,0:0:0:0:
256,192,171955,1,8,0:0:0:0:
256,192,172559,1,0,0:0:0:0:
256,192,172961,1,8,0:0:0:0:
256,192,173163,1,8,0:0:0:0:
256,192,173364,1,0,0:0:0:0:
256,192,173565,1,0,0:0:0:0:
256,192,173968,1,8,0:0:0:0:
256,192,174371,1,4,0:0:0:0:
256,192,174773,1,8,0:0:0:0:
256,192,175579,1,8,0:0:0:0:
256,192,175981,1,0,0:0:0:0:
256,192,176183,1,0,0:0:0:0:
256,192,176384,1,8,0:0:0:0:
256,192,176787,1,8,0:0:0:0:
256,192,177391,1,0,0:0:0:0:
256,192,177995,1,8,0:0:0:0:
256,192,178398,1,0,0:0:0:0:
256,192,178599,1,0,0:0:0:0:
256,192,178800,1,8,0:0:0:0:
256,192,179002,1,8,0:0:0:0:
256,192,179203,1,4,0:0:0:0:
256,192,179606,1,8,0:0:0:0:
256,192,180411,1,8,0:0:0:0:
256,192,180814,1,0,0:0:0:0:
256,192,181216,1,0,0:0:0:0:
256,192,181619,1,8,0:0:0:0:
256,192,182223,1,0,0:0:0:0:
256,192,182626,1,8,0:0:0:0:
256,192,182827,1,8,0:0:0:0:
256,192,183028,1,0,0:0:0:0:
256,192,183230,1,0,0:0:0:0:
256,192,183632,1,8,0:0:0:0:
256,192,184035,1,4,0:0:0:0:
256,192,184438,1,8,0:0:0:0:
256,192,185243,1,8,0:0:0:0:
256,192,185646,1,0,0:0:0:0:
256,192,185847,1,0,0:0:0:0:
256,192,186049,1,8,0:0:0:0:
256,192,186451,1,8,0:0:0:0:
256,192,187055,1,0,0:0:0:0:
256,192,187659,1,8,0:0:0:0:
256,192,188062,1,0,0:0:0:0:
256,192,188263,1,0,0:0:0:0:
256,192,188465,1,8,0:0:0:0:
256,192,188666,1,8,0:0:0:0:
256,192,188867,1,4,0:0:0:0:
256,192,189270,1,8,0:0:0:0:
256,192,190075,1,8,0:0:0:0:
256,192,190478,1,0,0:0:0:0:
256,192,190679,1,0,0:0:0:0:
256,192,190881,1,8,0:0:0:0:
256,192,191283,1,8,0:0:0:0:
256,192,191686,1,0,0:0:0:0:
256,192,192089,1,4,0:0:0:0:
256,192,192492,1,8,0:0:0:0:
256,192,193297,1,8,0:0:0:0:
256,192,193700,1,8,0:0:0:0:
256,192,193901,1,8,0:0:0:0:
256,192,194102,1,0,0:0:0:0:
256,192,194505,1,8,0:0:0:0:
256,192,194908,1,0,0:0:0:0:
256,192,195310,1,8,0:0:0:0:
256,192,195713,1,4,0:0:0:0:
256,192,196518,1,0,0:0:0:0:
256,192,196921,1,8,0:0:0:0:
256,192,197726,1,0,0:0:0:0:
256,192,198129,1,8,0:0:0:0:
256,192,198532,1,8,0:0:0:0:
256,192,198934,1,4,0:0:0:0:
256,192,199740,1,0,0:0:0:0:
256,192,200142,1,8,0:0:0:0:
256,192,200545,1,0,0:0:0:0:
256,192,200948,1,8,0:0:0:0:
256,192,201149,1,8,0:0:0:0:
256,192,201350,1,0,0:0:0:0:
256,192,201753,1,8,0:0:0:0:
256,192,202156,1,8,0:0:0:0:
256,192,202559,1,4,0:0:0:0:
