osu file format v14

[General]
AudioFilename: audio.mp3
AudioLeadIn: 0
PreviewTime: 47614
Countdown: 0
SampleSet: Normal
StackLeniency: 0
Mode: 1
LetterboxInBreaks: 0
WidescreenStoryboard: 0

[Editor]
DistanceSpacing: 1
BeatDivisor: 16
GridSize: 32
TimelineZoom: 1.2

[Metadata]
Title:Out the Sunroof.
TitleUnicode:Out the Sunroof.
Artist:Stars Hollow
ArtistUnicode:Stars Hollow
Creator:Burak
Version:Oni
Source:
Tags:fa featured artist mpg mappers mappers' guild english alternative emo screamo pop punk rock I want to live my life justburak
BeatmapID:4084083
BeatmapSetID:1968973

[Difficulty]
HPDrainRate:5
CircleSize:5
OverallDifficulty:5
ApproachRate:0
SliderMultiplier:1.4
SliderTickRate:1

[Events]
//Background and Video events
0,0,"a2802830211_10.jpg",0,-47
//Break Periods
2,49503,60370
//Storyboard Layer 0 (Background)
//Storyboard Layer 1 (Fail)
//Storyboard Layer 2 (Pass)
//Storyboard Layer 3 (Foreground)
//Storyboard Layer 4 (Overlay)
//Storyboard Sound Samples

[TimingPoints]
370,472.44094488189,4,1,0,70,1,8
370,-95.2380952380952,4,1,0,70,0,0
31548,-96.1569776909298,4,1,0,70,0,0
31666,-96.6211241102839,4,1,0,70,0,0
31784,-97.0897731009536,4,1,0,70,0,0
31902,-97.5629904997935,4,1,0,70,0,0
32020,-98.0408434335049,4,1,0,70,0,0
32256,-99.0107310529846,4,1,0,70,0,0
32374,-99.5029067318224,4,1,0,70,0,0
32492,-100,4,1,0,70,0,0
47732,-125,4,1,0,30,0,0
62170,437.956204379562,4,1,0,80,1,8
62170,-90.9090909090909,4,1,0,80,0,0
62607,437.956204379562,4,1,0,80,1,0
62607,-90.9090909090909,4,1,0,80,0,1
73117,-90.9090909090909,4,1,0,80,0,0
73443,-92.1068439389692,4,1,0,80,0,0
73771,-93.332792273668,4,1,0,80,0,0
74100,-94.5957061775109,4,1,0,80,0,0
74428,-95.8892687400984,4,1,0,80,0,0
74757,-97.2228093164814,4,1,0,80,0,0
75085,-98.5897380942175,4,1,0,80,0,0
75195,-99.0568069253628,4,1,0,80,0,0
75304,-99.524015577672,4,1,0,80,0,0
75414,-100,4,1,0,80,0,0
75742,-97.3479948253558,4,1,0,80,0,0
75852,-96.4898220868729,4,1,0,80,0,0
75961,-95.6542464447446,4,1,0,80,0,0
76071,-94.8255493423643,4,1,0,80,0,0
76180,-94.0184288614712,4,1,0,80,0,0
76399,-92.4376199616123,4,1,0,80,0,0
76509,-91.6634944803959,4,1,0,80,0,0
76621,-90.9090909090909,4,1,0,80,0,1
87132,-90.9090909090909,4,1,0,80,0,0
87431,-92.1068439389692,4,1,0,80,0,0
87759,-93.332792273668,4,1,0,80,0,0
88088,-94.5957061775109,4,1,0,80,0,0
88416,-95.8892687400984,4,1,0,80,0,0
88745,-97.2228093164814,4,1,0,80,0,0
89073,-98.5897380942175,4,1,0,80,0,0
89183,-99.0568069253628,4,1,0,80,0,0
89292,-99.524015577672,4,1,0,80,0,0
89402,-100,4,1,0,80,0,0
89730,-97.3479948253558,4,1,0,80,0,0
89840,-96.4898220868729,4,1,0,80,0,0
89949,-95.6542464447446,4,1,0,80,0,0
90059,-94.8255493423643,4,1,0,80,0,0
90168,-94.0184288614712,4,1,0,80,0,0
90387,-92.4376199616123,4,1,0,80,0,0
90497,-91.6634944803959,4,1,0,80,0,0
90636,-90.9090909090909,4,1,0,80,0,1
91950,-90.9090909090909,4,1,0,80,0,0
92847,472.44094488189,4,1,0,80,1,8
92847,-95.2380952380952,4,1,0,80,0,0
94264,472.44094488189,4,1,0,80,1,0
94264,-95.2380952380952,4,1,0,80,0,0
107725,-95.8077761443706,4,1,0,80,0,0
107961,-96.3843133255138,4,1,0,80,0,0
108198,-96.9703188732972,4,1,0,80,0,0
108434,-97.5609756097561,4,1,0,80,0,0
108670,-98.1588719520112,4,1,0,80,0,0
108906,-98.7641418232174,4,1,0,80,0,0
109142,-99.3769224702264,4,1,0,80,0,0
109264,-99.3769224702264,4,1,0,70,0,0
109379,-100,4,1,0,70,0,0

[HitObjects]
162,247,2259,5,12,0:0:0:0:
189,226,2614,1,0,0:0:0:0:
162,247,2732,1,8,0:0:0:0:
162,247,2968,1,8,0:0:0:0:
162,247,3204,1,0,0:0:0:0:
162,247,3558,1,8,0:0:0:0:
189,226,3677,1,0,0:0:0:0:
162,247,3913,1,0,0:0:0:0:
162,247,4149,1,8,0:0:0:0:
205,218,4267,1,8,0:0:0:0:
190,207,4385,1,0,0:0:0:0:
162,247,4621,1,8,0:0:0:0:
205,218,4858,1,0,0:0:0:0:
212,228,5094,1,8,0:0:0:0:
212,228,5212,1,8,0:0:0:0:
208,232,5330,1,0,0:0:0:0:
212,227,5448,1,0,0:0:0:0:
212,228,5566,1,8,0:0:0:0:
212,228,5803,1,8,0:0:0:0:
222,220,6275,1,8,0:0:0:0:
220,216,6393,1,8,0:0:0:0:
222,219,6511,1,8,0:0:0:0:
221,219,6747,1,0,0:0:0:0:
218,216,6984,1,8,0:0:0:0:
213,216,7338,1,0,0:0:0:0:
214,223,7456,1,8,0:0:0:0:
211,210,7692,1,8,0:0:0:0:
211,210,7929,1,0,0:0:0:0:
209,210,8165,1,0,0:0:0:0:
209,210,8283,1,0,0:0:0:0:
211,210,8401,1,8,0:0:0:0:
211,210,8637,1,0,0:0:0:0:
218,197,8873,1,0,0:0:0:0:
216,194,8992,1,0,0:0:0:0:
216,193,9110,1,8,0:0:0:0:
211,169,9228,1,8,0:0:0:0:
217,178,9346,1,8,0:0:0:0:
219,191,9582,1,0,0:0:0:0:
225,168,10055,1,4,0:0:0:0:
213,168,10527,1,4,0:0:0:0:
213,168,10763,1,12,0:0:0:0:
213,168,11118,1,0,0:0:0:0:
213,168,11236,1,8,0:0:0:0:
209,174,11472,1,0,0:0:0:0:
204,175,11708,1,8,0:0:0:0:
213,168,12062,1,8,0:0:0:0:
213,168,12181,1,0,0:0:0:0:
209,174,12417,1,8,0:0:0:0:
204,175,12653,1,4,0:0:0:0:
210,175,13125,1,4,0:0:0:0:
216,168,13834,1,8,0:0:0:0:
223,159,13952,1,8,0:0:0:0:
217,168,14070,1,0,0:0:0:0:
216,168,14307,1,0,0:0:0:0:
216,168,14543,1,8,0:0:0:0:
195,218,14897,1,0,0:0:0:0:
217,155,15015,1,8,0:0:0:0:
195,218,15251,1,0,0:0:0:0:
225,144,15488,1,8,0:0:0:0:
236,164,15606,1,8,0:0:0:0:
225,144,15724,1,0,0:0:0:0:
211,161,15960,1,8,0:0:0:0:
211,161,16196,1,0,0:0:0:0:
212,162,16432,1,8,0:0:0:0:
209,162,16551,1,0,0:0:0:0:
212,162,16669,1,8,0:0:0:0:
211,161,16787,1,8,0:0:0:0:
211,161,16905,1,0,0:0:0:0:
211,161,17141,1,0,0:0:0:0:
212,162,17259,1,0,0:0:0:0:
162,247,17377,5,12,0:0:0:0:
189,226,17732,1,0,0:0:0:0:
162,247,17850,1,8,0:0:0:0:
162,247,18086,1,8,0:0:0:0:
162,247,18322,1,0,0:0:0:0:
162,247,18677,1,8,0:0:0:0:
189,226,18795,1,0,0:0:0:0:
162,247,19031,1,0,0:0:0:0:
162,247,19267,1,8,0:0:0:0:
205,218,19385,1,8,0:0:0:0:
190,207,19503,1,0,0:0:0:0:
162,247,19740,1,8,0:0:0:0:
205,218,19976,1,0,0:0:0:0:
212,228,20212,1,8,0:0:0:0:
212,228,20330,1,8,0:0:0:0:
208,232,20448,1,0,0:0:0:0:
212,227,20566,1,0,0:0:0:0:
212,228,20684,1,8,0:0:0:0:
212,228,20921,1,8,0:0:0:0:
222,220,21393,1,8,0:0:0:0:
220,216,21511,1,8,0:0:0:0:
222,219,21629,1,8,0:0:0:0:
221,219,21866,1,0,0:0:0:0:
218,216,22102,1,8,0:0:0:0:
213,216,22456,1,0,0:0:0:0:
214,223,22574,1,8,0:0:0:0:
211,210,22810,1,0,0:0:0:0:
211,210,23047,1,8,0:0:0:0:
209,210,23283,1,0,0:0:0:0:
209,210,23401,1,0,0:0:0:0:
211,210,23519,1,8,0:0:0:0:
211,210,23755,1,0,0:0:0:0:
218,197,23992,1,0,0:0:0:0:
216,194,24110,1,8,0:0:0:0:
216,193,24228,1,0,0:0:0:0:
211,169,24346,1,0,0:0:0:0:
217,178,24464,1,8,0:0:0:0:
219,191,24700,1,0,0:0:0:0:
225,168,25173,1,4,0:0:0:0:
213,168,25645,1,4,0:0:0:0:
213,168,25881,1,12,0:0:0:0:
213,168,26236,1,0,0:0:0:0:
213,168,26354,1,8,0:0:0:0:
209,174,26590,1,0,0:0:0:0:
204,175,26826,1,8,0:0:0:0:
213,168,27181,1,8,0:0:0:0:
213,168,27299,1,0,0:0:0:0:
209,174,27535,1,8,0:0:0:0:
204,175,27771,1,4,0:0:0:0:
210,175,28244,1,4,0:0:0:0:
216,168,28952,1,8,0:0:0:0:
223,159,29070,1,8,0:0:0:0:
217,168,29188,1,0,0:0:0:0:
216,168,29425,1,0,0:0:0:0:
216,168,29661,1,8,0:0:0:0:
195,218,30015,1,0,0:0:0:0:
217,155,30133,1,8,0:0:0:0:
195,218,30370,1,0,0:0:0:0:
225,144,30606,1,0,0:0:0:0:
236,164,30724,1,0,0:0:0:0:
225,144,30842,1,8,0:0:0:0:
211,161,31078,1,8,0:0:0:0:
211,161,31314,1,0,0:0:0:0:
212,162,31551,1,8,0:0:0:0:
209,162,31669,1,8,0:0:0:0:
212,162,31787,1,0,0:0:0:0:
211,161,31905,1,0,0:0:0:0:
211,161,32023,1,0,0:0:0:0:
211,161,32259,1,8,0:0:0:0:
212,162,32377,1,8,0:0:0:0:
212,162,32495,1,4,0:0:0:0:
183,224,32850,1,4,0:0:0:0:
183,224,33204,1,4,0:0:0:0:
183,224,33440,1,8,0:0:0:0:
219,285,33677,1,0,0:0:0:0:
202,270,33795,1,0,0:0:0:0:
219,285,33913,1,0,0:0:0:0:
219,285,34031,1,0,0:0:0:0:
216,278,34149,1,0,0:0:0:0:
215,277,34385,1,12,0:0:0:0:
231,248,34740,1,12,0:0:0:0:
231,248,35094,1,4,0:0:0:0:
231,248,35330,1,8,0:0:0:0:
212,245,35566,1,0,0:0:0:0:
212,245,35803,1,8,0:0:0:0:
212,245,36039,1,0,0:0:0:0:
212,245,36275,1,12,0:0:0:0:
222,265,36629,1,0,0:0:0:0:
212,245,36984,1,0,0:0:0:0:
212,245,37220,1,12,0:0:0:0:
213,252,37574,1,0,0:0:0:0:
213,252,37929,1,0,0:0:0:0:
210,250,38165,1,12,0:0:0:0:
218,247,38519,1,0,0:0:0:0:
218,247,38873,1,0,0:0:0:0:
217,247,39110,1,12,0:0:0:0:
218,247,39464,1,0,0:0:0:0:
218,247,39818,1,0,0:0:0:0:
217,247,40055,1,12,0:0:0:0:
218,247,40409,1,12,0:0:0:0:
218,247,40763,1,12,0:0:0:0:
218,247,41236,1,8,0:0:0:0:
218,247,41354,1,0,0:0:0:0:
202,232,41472,1,8,0:0:0:0:
197,231,41590,1,0,0:0:0:0:
197,229,41708,1,0,0:0:0:0:
211,242,41944,1,12,0:0:0:0:
211,242,42299,1,12,0:0:0:0:
211,242,42653,1,12,0:0:0:0:
203,236,43125,1,0,0:0:0:0:
203,236,43362,1,0,0:0:0:0:
212,245,43834,1,12,0:0:0:0:
222,265,44188,1,0,0:0:0:0:
212,245,44543,1,0,0:0:0:0:
212,245,44779,1,12,0:0:0:0:
213,252,45133,1,0,0:0:0:0:
213,252,45488,1,0,0:0:0:0:
210,250,45724,1,12,0:0:0:0:
218,247,46078,1,0,0:0:0:0:
218,247,46432,1,0,0:0:0:0:
217,247,46669,1,12,0:0:0:0:
218,247,46905,1,4,0:0:0:0:
218,247,47141,1,4,0:0:0:0:
184,228,47377,1,4,0:0:0:0:
217,247,47614,1,12,0:0:0:0:
251,259,62170,5,0,0:0:0:0:
241,258,62607,1,12,0:0:0:0:
242,257,63044,1,8,0:0:0:0:
225,249,63263,1,0,0:0:0:0:
226,250,63482,1,8,0:0:0:0:
227,250,63701,1,0,0:0:0:0:
235,250,63811,1,0,0:0:0:0:
243,243,63920,1,8,0:0:0:0:
252,241,64139,1,8,0:0:0:0:
253,239,64358,1,0,0:0:0:0:
252,240,64687,1,8,0:0:0:0:
252,247,64796,1,8,0:0:0:0:
266,242,65015,1,0,0:0:0:0:
247,256,65234,1,0,0:0:0:0:
246,255,65344,1,8,0:0:0:0:
247,256,65453,1,0,0:0:0:0:
248,253,65563,1,0,0:0:0:0:
248,253,65672,1,8,0:0:0:0:
245,254,65891,1,0,0:0:0:0:
241,258,66110,1,8,0:0:0:0:
242,257,66548,1,8,0:0:0:0:
225,249,66767,1,0,0:0:0:0:
226,250,66986,1,8,0:0:0:0:
198,213,67096,1,8,0:0:0:0:
227,250,67205,1,0,0:0:0:0:
235,250,67315,1,0,0:0:0:0:
243,243,67424,1,8,0:0:0:0:
252,241,67643,1,8,0:0:0:0:
253,239,67862,1,0,0:0:0:0:
225,227,68081,1,0,0:0:0:0:
252,240,68190,1,0,0:0:0:0:
252,247,68300,1,8,0:0:0:0:
266,242,68519,1,8,0:0:0:0:
247,256,68738,1,0,0:0:0:0:
246,255,68847,1,0,0:0:0:0:
247,256,68957,1,0,0:0:0:0:
248,253,69066,1,0,0:0:0:0:
248,253,69176,1,8,0:0:0:0:
245,254,69395,1,0,0:0:0:0:
220,216,69504,1,0,0:0:0:0:
241,258,69614,1,8,0:0:0:0:
242,257,70052,1,8,0:0:0:0:
225,249,70271,1,0,0:0:0:0:
226,250,70490,1,8,0:0:0:0:
227,250,70709,1,0,0:0:0:0:
235,250,70818,1,0,0:0:0:0:
243,243,70928,1,8,0:0:0:0:
252,241,71147,1,8,0:0:0:0:
253,239,71366,1,0,0:0:0:0:
198,256,71694,1,0,0:0:0:0:
192,263,71804,1,8,0:0:0:0:
266,242,72023,1,0,0:0:0:0:
247,256,72242,1,0,0:0:0:0:
246,255,72351,1,8,0:0:0:0:
247,256,72461,1,0,0:0:0:0:
248,253,72570,1,0,0:0:0:0:
248,253,72679,1,8,0:0:0:0:
245,254,72898,1,0,0:0:0:0:
246,250,73117,1,12,0:0:0:0:
266,238,73446,1,0,0:0:0:0:
246,250,73774,1,8,0:0:0:0:
266,238,74103,1,0,0:0:0:0:
260,244,74431,1,8,0:0:0:0:
260,230,74760,1,0,0:0:0:0:
246,250,75088,1,8,0:0:0:0:
133,181,75198,1,0,0:0:0:0:
214,183,75307,1,0,0:0:0:0:
266,238,75417,1,8,0:0:0:0:
260,244,75745,1,8,0:0:0:0:
202,184,75855,1,8,0:0:0:0:
203,184,75964,1,0,0:0:0:0:
203,185,76074,1,8,0:0:0:0:
205,179,76183,1,0,0:0:0:0:
208,163,76402,1,8,0:0:0:0:
207,167,76512,1,8,0:0:0:0:
241,258,76621,1,4,0:0:0:0:
242,257,77059,1,8,0:0:0:0:
225,249,77278,1,0,0:0:0:0:
226,250,77497,1,8,0:0:0:0:
227,250,77716,1,0,0:0:0:0:
235,250,77825,1,0,0:0:0:0:
243,243,77935,1,8,0:0:0:0:
252,241,78154,1,8,0:0:0:0:
253,239,78373,1,0,0:0:0:0:
252,240,78701,1,8,0:0:0:0:
252,247,78811,1,8,0:0:0:0:
266,242,79030,1,0,0:0:0:0:
247,256,79249,1,0,0:0:0:0:
246,255,79358,1,8,0:0:0:0:
247,256,79468,1,0,0:0:0:0:
248,253,79577,1,0,0:0:0:0:
248,253,79687,1,8,0:0:0:0:
245,254,79906,1,0,0:0:0:0:
241,258,80125,1,8,0:0:0:0:
242,257,80563,1,8,0:0:0:0:
225,249,80782,1,0,0:0:0:0:
226,250,81001,1,8,0:0:0:0:
198,213,81110,1,8,0:0:0:0:
227,250,81220,1,0,0:0:0:0:
235,250,81329,1,0,0:0:0:0:
243,243,81439,1,8,0:0:0:0:
252,241,81658,1,8,0:0:0:0:
253,239,81877,1,0,0:0:0:0:
225,227,82096,1,0,0:0:0:0:
252,240,82205,1,0,0:0:0:0:
252,247,82315,1,8,0:0:0:0:
266,242,82534,1,8,0:0:0:0:
247,256,82752,1,0,0:0:0:0:
246,255,82862,1,0,0:0:0:0:
247,256,82971,1,8,0:0:0:0:
248,253,83081,1,8,0:0:0:0:
248,253,83190,1,0,0:0:0:0:
245,254,83409,1,8,0:0:0:0:
220,216,83519,1,0,0:0:0:0:
241,258,83628,1,8,0:0:0:0:
242,257,84066,1,8,0:0:0:0:
225,249,84285,1,0,0:0:0:0:
226,250,84504,1,8,0:0:0:0:
227,250,84723,1,0,0:0:0:0:
235,250,84833,1,0,0:0:0:0:
243,243,84942,1,8,0:0:0:0:
252,241,85161,1,8,0:0:0:0:
253,239,85380,1,0,0:0:0:0:
252,240,85709,1,8,0:0:0:0:
252,247,85818,1,8,0:0:0:0:
266,242,86037,1,0,0:0:0:0:
247,256,86256,1,8,0:0:0:0:
246,255,86366,1,8,0:0:0:0:
247,256,86475,1,0,0:0:0:0:
248,253,86585,1,0,0:0:0:0:
248,253,86694,1,8,0:0:0:0:
245,254,86913,1,0,0:0:0:0:
246,250,87132,1,12,0:0:0:0:
266,238,87461,1,0,0:0:0:0:
246,250,87789,1,8,0:0:0:0:
266,238,88117,1,0,0:0:0:0:
260,244,88446,1,8,0:0:0:0:
260,230,88774,1,0,0:0:0:0:
246,250,89103,1,8,0:0:0:0:
133,181,89212,1,0,0:0:0:0:
214,183,89322,1,0,0:0:0:0:
266,238,89431,1,8,0:0:0:0:
260,244,89760,1,8,0:0:0:0:
202,184,89869,1,8,0:0:0:0:
203,184,89979,1,8,0:0:0:0:
203,185,90088,1,8,0:0:0:0:
205,179,90198,1,0,0:0:0:0:
208,163,90417,1,8,0:0:0:0:
207,167,90526,1,8,0:0:0:0:
207,167,90636,1,4,0:0:0:0:
229,210,90964,1,4,0:0:0:0:
229,210,91293,1,12,0:0:0:0:
229,210,91621,1,12,0:0:0:0:
229,210,91950,1,4,0:0:0:0:
256,192,92169,12,0,93791,0:0:0:0:
205,275,94264,5,12,0:0:0:0:
205,275,94500,1,0,0:0:0:0:
206,231,94618,1,0,0:0:0:0:
205,275,94736,1,8,0:0:0:0:
205,275,94972,1,0,0:0:0:0:
205,275,95208,1,8,0:0:0:0:
205,275,95445,1,8,0:0:0:0:
205,275,95681,1,0,0:0:0:0:
205,275,96153,1,0,0:0:0:0:
205,275,96389,1,8,0:0:0:0:
205,275,96626,1,8,0:0:0:0:
208,263,96862,1,0,0:0:0:0:
208,259,96980,1,0,0:0:0:0:
205,275,97098,1,0,0:0:0:0:
205,275,97334,1,8,0:0:0:0:
205,275,97571,1,0,0:0:0:0:
201,269,97807,1,8,0:0:0:0:
204,268,97925,1,8,0:0:0:0:
205,275,98043,1,0,0:0:0:0:
214,265,98279,1,8,0:0:0:0:
205,264,98515,5,0,0:0:0:0:
205,263,98752,1,8,0:0:0:0:
205,263,98988,1,8,0:0:0:0:
205,264,99224,1,0,0:0:0:0:
205,264,99460,1,8,0:0:0:0:
202,257,99933,1,0,0:0:0:0:
206,256,100169,1,8,0:0:0:0:
208,256,100405,1,8,0:0:0:0:
208,256,100641,1,0,0:0:0:0:
208,256,100878,1,8,0:0:0:0:
208,234,100996,1,8,0:0:0:0:
206,256,101114,1,0,0:0:0:0:
208,234,101232,1,0,0:0:0:0:
208,256,101350,1,8,0:0:0:0:
208,234,101586,1,0,0:0:0:0:
207,234,101704,1,0,0:0:0:0:
207,234,101823,1,8,0:0:0:0:
203,238,102059,1,8,0:0:0:0:
203,238,102295,1,0,0:0:0:0:
203,238,102531,1,8,0:0:0:0:
203,238,102767,1,0,0:0:0:0:
203,238,103004,1,0,0:0:0:0:
199,242,103240,1,8,0:0:0:0:
197,244,103712,1,8,0:0:0:0:
197,243,103830,1,0,0:0:0:0:
195,242,103949,1,0,0:0:0:0:
199,242,104185,1,8,0:0:0:0:
194,230,104421,1,8,0:0:0:0:
194,230,104657,1,0,0:0:0:0:
195,230,104893,1,8,0:0:0:0:
195,230,105012,1,0,0:0:0:0:
199,213,105130,1,8,0:0:0:0:
206,213,105366,1,8,0:0:0:0:
200,215,105602,1,4,0:0:0:0:
201,215,105838,1,8,0:0:0:0:
200,215,106075,1,8,0:0:0:0:
206,213,106311,1,0,0:0:0:0:
206,212,106547,1,8,0:0:0:0:
206,212,106783,1,8,0:0:0:0:
206,212,107019,1,4,0:0:0:0:
206,212,107492,1,0,0:0:0:0:
206,212,107729,1,8,0:0:0:0:
206,212,107965,1,8,0:0:0:0:
206,212,108201,1,0,0:0:0:0:
206,212,108437,1,8,0:0:0:0:
206,212,108673,1,8,0:0:0:0:
206,212,108910,1,0,0:0:0:0:
206,212,109146,1,0,0:0:0:0:
206,212,109382,1,12,0:0:0:0:
211,209,109736,1,4,0:0:0:0:
210,209,110090,1,12,0:0:0:0:
211,209,110445,1,12,0:0:0:0:
210,209,110799,1,4,0:0:0:0:
194,230,111271,1,8,0:0:0:0:
195,230,111507,1,0,0:0:0:0:
195,230,111626,1,0,0:0:0:0:
199,213,111744,1,0,0:0:0:0:
206,213,111980,1,0,0:0:0:0:
200,215,112216,1,8,0:0:0:0:
201,215,112452,1,8,0:0:0:0:
200,215,112689,1,0,0:0:0:0:
206,213,112925,1,8,0:0:0:0:
182,269,113043,1,8,0:0:0:0:
206,212,113161,5,4,0:0:0:0:
211,209,113515,1,4,0:0:0:0:
210,209,113870,1,12,0:0:0:0:
211,209,114224,1,4,0:0:0:0:
210,209,114578,1,12,0:0:0:0:
225,198,115287,1,0,0:0:0:0:
224,197,115523,1,0,0:0:0:0:
225,198,115760,1,0,0:0:0:0:
218,196,115878,1,0,0:0:0:0:
225,198,115996,1,8,0:0:0:0:
218,194,116232,1,0,0:0:0:0:
218,194,116468,1,8,0:0:0:0:
218,194,116704,1,8,0:0:0:0:
218,196,116823,1,8,0:0:0:0:
218,193,116941,1,4,0:0:0:0:
218,194,117295,1,12,0:0:0:0:
218,194,117649,1,4,0:0:0:0:
218,194,118004,1,12,0:0:0:0:
218,194,118358,1,4,0:0:0:0:
218,194,119067,1,0,0:0:0:0:
218,194,119303,1,8,0:0:0:0:
218,194,119421,1,0,0:0:0:0:
218,194,119539,1,8,0:0:0:0:
218,194,119775,1,8,0:0:0:0:
218,194,120012,1,0,0:0:0:0:
218,194,120248,1,0,0:0:0:0:
216,187,120484,1,8,0:0:0:0:
218,194,120602,1,8,0:0:0:0:
218,194,120720,1,4,0:0:0:0:
218,174,121075,1,4,0:0:0:0:
218,174,121429,1,12,0:0:0:0:
218,174,121783,1,4,0:0:0:0:
218,174,122138,1,12,0:0:0:0:
224,160,122846,1,8,0:0:0:0:
224,160,123082,1,8,0:0:0:0:
224,160,123319,1,0,0:0:0:0:
224,160,123555,1,8,0:0:0:0:
224,160,123791,1,0,0:0:0:0:
129,181,123909,1,0,0:0:0:0:
224,160,124027,1,8,0:0:0:0:
224,160,124145,1,8,0:0:0:0:
224,160,124264,1,0,0:0:0:0:
224,160,124500,1,12,0:0:0:0:
223,153,125208,1,0,0:0:0:0:
223,153,125445,1,12,0:0:0:0:
223,153,126153,1,0,0:0:0:0:
223,153,126389,1,12,0:0:0:0:
223,153,127098,1,0,0:0:0:0:
223,153,127334,1,8,0:0:0:0:
223,153,127571,1,0,0:0:0:0:
223,153,127807,1,0,0:0:0:0:
223,153,128043,1,8,0:0:0:0:
225,138,128515,1,0,0:0:0:0:
224,136,128988,1,0,0:0:0:0:
225,138,129224,1,12,0:0:0:0:
224,136,129933,1,0,0:0:0:0:
225,138,130169,1,12,0:0:0:0:
224,136,130878,1,0,0:0:0:0:
225,138,130996,1,0,0:0:0:0:
225,138,131114,1,8,0:0:0:0:
224,136,131350,1,8,0:0:0:0:
219,138,131586,1,0,0:0:0:0:
224,136,131823,1,0,0:0:0:0:
218,133,132059,1,8,0:0:0:0:
218,133,132295,1,4,0:0:0:0:
213,132,132767,1,4,0:0:0:0:
213,132,133004,1,4,0:0:0:0:
213,132,133712,1,0,0:0:0:0:
213,132,133948,1,12,0:0:0:0:
220,228,134657,1,0,0:0:0:0:
220,228,134893,1,12,0:0:0:0:
230,230,135366,1,4,0:0:0:0:
260,249,136075,1,0,0:0:0:0:
252,237,136547,1,0,0:0:0:0:
252,237,136783,1,8,0:0:0:0:
252,237,137256,1,8,0:0:0:0:
252,237,137492,1,0,0:0:0:0:
252,237,137728,1,8,0:0:0:0:
252,237,138201,1,8,0:0:0:0:
252,237,138437,1,0,0:0:0:0:
252,237,138673,1,8,0:0:0:0:
252,237,138909,1,0,0:0:0:0:
229,237,139027,1,0,0:0:0:0:
252,237,139145,1,8,0:0:0:0:
245,237,139382,1,8,0:0:0:0:
