osu file format v14

[General]
AudioFilename: audio.mp3
AudioLeadIn: 0
PreviewTime: 47614
Countdown: 0
SampleSet: Normal
StackLeniency: 0
Mode: 1
LetterboxInBreaks: 0
WidescreenStoryboard: 1

[Editor]
DistanceSpacing: 1
BeatDivisor: 16
GridSize: 32
TimelineZoom: 1.2

[Metadata]
Title:Out the Sunroof.
TitleUnicode:Out the Sunroof.
Artist:Stars Hollow
ArtistUnicode:Stars Hollow
Creator:Burak
Version:Muzukashii
Source:
Tags:fa featured artist mpg mappers mappers' guild english alternative emo screamo pop punk rock I want to live my life justburak
BeatmapID:4084082
BeatmapSetID:1968973

[Difficulty]
HPDrainRate:6
CircleSize:5
OverallDifficulty:4
ApproachRate:0
SliderMultiplier:1.4
SliderTickRate:1

[Events]
//Background and Video events
0,0,"a2802830211_10.jpg",0,-47
//Break Periods
2,49503,60370
//Storyboard Layer 0 (Background)
//Storyboard Layer 1 (Fail)
//Storyboard Layer 2 (Pass)
//Storyboard Layer 3 (Foreground)
//Storyboard Layer 4 (Overlay)
//Storyboard Sound Samples

[TimingPoints]
370,472.44094488189,4,1,0,70,1,8
370,-100,4,1,0,70,0,0
47732,-125,4,1,0,30,0,0
62170,437.956204379562,4,1,0,80,1,8
62170,-100,4,1,0,80,0,0
62607,437.956204379562,4,1,0,80,1,0
62607,-100,4,1,0,80,0,1
73117,-100,4,1,0,80,0,0
76621,-100,4,1,0,80,0,1
87132,-100,4,1,0,80,0,0
90636,-100,4,1,0,80,0,1
91950,-100,4,1,0,80,0,0
92847,472.44094488189,4,1,0,80,1,8
94264,472.44094488189,4,1,0,80,1,0
94264,-100,4,1,0,80,0,0
109264,-100,4,1,0,70,0,0
109379,-100,4,1,0,70,0,0

[HitObjects]
174,189,2259,5,12,0:0:0:0:
174,189,2732,1,8,0:0:0:0:
174,189,2968,1,8,0:0:0:0:
174,189,3204,1,0,0:0:0:0:
174,189,3677,1,8,0:0:0:0:
174,189,3913,1,0,0:0:0:0:
174,189,4149,1,8,0:0:0:0:
174,189,4621,1,8,0:0:0:0:
184,178,5094,1,8,0:0:0:0:
184,178,5212,1,8,0:0:0:0:
184,179,5330,1,0,0:0:0:0:
184,178,5566,1,8,0:0:0:0:
184,178,5803,1,8,0:0:0:0:
184,179,6275,1,8,0:0:0:0:
184,178,6747,1,0,0:0:0:0:
184,179,6984,1,8,0:0:0:0:
184,178,7456,1,8,0:0:0:0:
184,178,7692,1,8,0:0:0:0:
184,179,7929,1,0,0:0:0:0:
184,178,8401,1,8,0:0:0:0:
184,178,8637,1,0,0:0:0:0:
184,179,8873,1,8,0:0:0:0:
184,178,8992,1,8,0:0:0:0:
184,178,9110,1,8,0:0:0:0:
185,154,9346,1,8,0:0:0:0:
184,178,9582,1,0,0:0:0:0:
186,156,10055,1,12,0:0:0:0:
186,157,10527,1,4,0:0:0:0:
170,212,10763,1,12,0:0:0:0:
192,130,11236,1,8,0:0:0:0:
178,183,11472,1,0,0:0:0:0:
192,135,11708,1,8,0:0:0:0:
191,123,12181,1,0,0:0:0:0:
191,123,12417,1,0,0:0:0:0:
191,123,12653,1,12,0:0:0:0:
191,123,13125,1,4,0:0:0:0:
191,123,13834,1,8,0:0:0:0:
191,123,14307,5,0,0:0:0:0:
191,123,14543,1,8,0:0:0:0:
188,115,15015,1,8,0:0:0:0:
191,123,15251,1,0,0:0:0:0:
191,123,15488,1,8,0:0:0:0:
170,106,15606,1,8,0:0:0:0:
191,123,15724,1,8,0:0:0:0:
191,123,15960,1,0,0:0:0:0:
191,123,16432,1,0,0:0:0:0:
191,123,16551,1,0,0:0:0:0:
191,123,16669,1,0,0:0:0:0:
191,123,16905,1,8,0:0:0:0:
191,123,17023,1,8,0:0:0:0:
191,123,17141,1,8,0:0:0:0:
191,123,17377,1,4,0:0:0:0:
193,118,17850,5,8,0:0:0:0:
191,123,18322,1,0,0:0:0:0:
201,123,18795,1,0,0:0:0:0:
201,123,19031,1,0,0:0:0:0:
201,123,19267,1,8,0:0:0:0:
201,123,19740,1,8,0:0:0:0:
201,123,19976,1,0,0:0:0:0:
186,171,20094,1,0,0:0:0:0:
201,123,20212,1,0,0:0:0:0:
192,99,20448,1,0,0:0:0:0:
203,118,20684,1,8,0:0:0:0:
194,113,21393,5,8,0:0:0:0:
189,146,21866,1,0,0:0:0:0:
189,146,22102,1,8,0:0:0:0:
189,146,22574,1,8,0:0:0:0:
189,146,22810,1,0,0:0:0:0:
176,153,23047,1,8,0:0:0:0:
182,139,23519,1,8,0:0:0:0:
176,153,23755,1,8,0:0:0:0:
176,153,23992,1,0,0:0:0:0:
181,136,24110,1,0,0:0:0:0:
184,134,24228,1,0,0:0:0:0:
216,128,24464,1,8,0:0:0:0:
184,134,24700,1,0,0:0:0:0:
206,127,25173,1,4,0:0:0:0:
178,153,25645,1,4,0:0:0:0:
178,153,25881,1,12,0:0:0:0:
178,153,26354,1,8,0:0:0:0:
222,205,26590,1,0,0:0:0:0:
178,153,26826,1,8,0:0:0:0:
178,153,27299,1,0,0:0:0:0:
178,153,27535,1,8,0:0:0:0:
178,153,27771,1,4,0:0:0:0:
178,153,28244,1,4,0:0:0:0:
197,151,28952,1,8,0:0:0:0:
211,187,29425,1,0,0:0:0:0:
211,187,29661,1,8,0:0:0:0:
211,187,30133,1,8,0:0:0:0:
211,187,30370,1,0,0:0:0:0:
211,187,30606,1,0,0:0:0:0:
211,187,30842,1,8,0:0:0:0:
205,184,30960,1,8,0:0:0:0:
211,187,31078,1,8,0:0:0:0:
204,180,31314,1,0,0:0:0:0:
204,179,31551,1,8,0:0:0:0:
202,178,31787,1,8,0:0:0:0:
202,178,32023,1,0,0:0:0:0:
204,179,32495,1,4,0:0:0:0:
204,179,33204,1,0,0:0:0:0:
200,172,33440,1,8,0:0:0:0:
200,172,33677,1,0,0:0:0:0:
200,172,33795,1,0,0:0:0:0:
200,171,33913,1,0,0:0:0:0:
201,173,34031,1,0,0:0:0:0:
197,158,34149,1,0,0:0:0:0:
200,172,34385,1,12,0:0:0:0:
201,172,35094,1,4,0:0:0:0:
193,152,35566,1,0,0:0:0:0:
192,154,35803,1,8,0:0:0:0:
196,157,36039,1,0,0:0:0:0:
193,152,36275,1,12,0:0:0:0:
192,154,36629,1,0,0:0:0:0:
193,151,36984,1,0,0:0:0:0:
193,152,37220,1,12,0:0:0:0:
193,151,37929,1,0,0:0:0:0:
193,152,38165,1,12,0:0:0:0:
193,151,38873,1,0,0:0:0:0:
193,152,39110,1,12,0:0:0:0:
191,157,39818,1,0,0:0:0:0:
191,157,40055,1,12,0:0:0:0:
191,157,40409,1,12,0:0:0:0:
191,157,40763,1,12,0:0:0:0:
188,145,41472,1,8,0:0:0:0:
183,130,41944,1,4,0:0:0:0:
185,131,42299,1,4,0:0:0:0:
183,130,42653,1,12,0:0:0:0:
185,131,43125,1,0,0:0:0:0:
185,131,43362,1,0,0:0:0:0:
185,131,43834,1,12,0:0:0:0:
185,131,44543,1,0,0:0:0:0:
185,131,44779,1,12,0:0:0:0:
185,131,45488,1,0,0:0:0:0:
185,131,45724,1,12,0:0:0:0:
185,131,46432,1,0,0:0:0:0:
185,131,46669,1,12,0:0:0:0:
185,131,46905,1,4,0:0:0:0:
185,131,47141,1,4,0:0:0:0:
185,131,47377,1,4,0:0:0:0:
185,131,47614,1,12,0:0:0:0:
123,233,62170,5,0,0:0:0:0:
134,247,62607,1,12,0:0:0:0:
135,248,63044,1,8,0:0:0:0:
159,240,63263,1,8,0:0:0:0:
159,240,63482,1,0,0:0:0:0:
159,240,63592,1,0,0:0:0:0:
159,240,63701,1,0,0:0:0:0:
159,240,63920,1,8,0:0:0:0:
162,219,64358,1,0,0:0:0:0:
159,223,64577,1,8,0:0:0:0:
173,182,64687,1,8,0:0:0:0:
159,223,64796,1,8,0:0:0:0:
165,208,65015,1,0,0:0:0:0:
173,182,65234,1,0,0:0:0:0:
164,212,65453,1,0,0:0:0:0:
164,212,65672,1,8,0:0:0:0:
167,208,66110,1,8,0:0:0:0:
175,177,66329,1,0,0:0:0:0:
172,234,66439,1,0,0:0:0:0:
166,207,66548,1,0,0:0:0:0:
173,182,66767,1,8,0:0:0:0:
158,194,67205,1,0,0:0:0:0:
172,181,67424,1,8,0:0:0:0:
168,173,67862,1,0,0:0:0:0:
167,167,68081,1,0,0:0:0:0:
167,168,68300,1,8,0:0:0:0:
168,173,68519,1,0,0:0:0:0:
168,173,68738,1,0,0:0:0:0:
168,173,68847,1,0,0:0:0:0:
167,173,68957,1,0,0:0:0:0:
181,152,69176,1,8,0:0:0:0:
182,147,69614,1,0,0:0:0:0:
178,151,70052,1,8,0:0:0:0:
178,152,70490,1,0,0:0:0:0:
178,153,70599,1,0,0:0:0:0:
178,151,70709,1,0,0:0:0:0:
178,151,70928,1,8,0:0:0:0:
178,152,71366,1,0,0:0:0:0:
176,207,71585,1,8,0:0:0:0:
200,200,71694,1,8,0:0:0:0:
178,151,71804,1,8,0:0:0:0:
201,205,72023,1,0,0:0:0:0:
178,152,72242,1,8,0:0:0:0:
178,151,72461,1,0,0:0:0:0:
178,151,72679,1,8,0:0:0:0:
178,152,73117,1,12,0:0:0:0:
193,185,73446,1,0,0:0:0:0:
178,152,73774,1,8,0:0:0:0:
178,152,74103,1,0,0:0:0:0:
178,151,74431,1,8,0:0:0:0:
178,152,75088,1,8,0:0:0:0:
178,152,75745,1,8,0:0:0:0:
208,168,75855,1,8,0:0:0:0:
178,152,75964,1,8,0:0:0:0:
178,152,76183,1,0,0:0:0:0:
134,247,76621,1,4,0:0:0:0:
135,248,77058,1,8,0:0:0:0:
159,240,77277,1,0,0:0:0:0:
159,240,77496,1,8,0:0:0:0:
159,240,77606,1,8,0:0:0:0:
159,240,77716,1,8,0:0:0:0:
159,240,77934,1,8,0:0:0:0:
162,219,78372,1,0,0:0:0:0:
159,223,78591,1,0,0:0:0:0:
173,182,78701,1,0,0:0:0:0:
159,223,78810,1,0,0:0:0:0:
165,208,79029,1,8,0:0:0:0:
173,182,79248,1,0,0:0:0:0:
164,212,79467,1,0,0:0:0:0:
164,212,79686,1,8,0:0:0:0:
167,208,80124,1,8,0:0:0:0:
175,177,80343,1,0,0:0:0:0:
172,234,80453,1,0,0:0:0:0:
166,207,80562,1,0,0:0:0:0:
173,182,80781,1,8,0:0:0:0:
158,194,81219,1,0,0:0:0:0:
172,181,81438,1,8,0:0:0:0:
168,173,81876,1,0,0:0:0:0:
167,167,82095,1,0,0:0:0:0:
167,168,82314,1,8,0:0:0:0:
168,173,82533,1,0,0:0:0:0:
168,173,82752,1,8,0:0:0:0:
168,173,82861,1,8,0:0:0:0:
167,173,82971,1,8,0:0:0:0:
181,152,83190,1,0,0:0:0:0:
182,147,83628,1,8,0:0:0:0:
178,151,84066,1,8,0:0:0:0:
178,152,84504,1,0,0:0:0:0:
178,153,84613,1,0,0:0:0:0:
178,151,84723,1,0,0:0:0:0:
178,151,84942,1,8,0:0:0:0:
178,152,85380,1,0,0:0:0:0:
176,207,85599,1,8,0:0:0:0:
200,200,85708,1,8,0:0:0:0:
178,151,85818,1,8,0:0:0:0:
201,205,86037,1,0,0:0:0:0:
178,152,86256,1,8,0:0:0:0:
178,151,86475,1,8,0:0:0:0:
178,151,86693,1,0,0:0:0:0:
178,152,87131,1,12,0:0:0:0:
193,185,87460,1,0,0:0:0:0:
178,152,87788,1,8,0:0:0:0:
178,152,88117,1,0,0:0:0:0:
178,151,88445,1,8,0:0:0:0:
178,152,89102,1,8,0:0:0:0:
178,152,89759,1,8,0:0:0:0:
208,168,89869,1,8,0:0:0:0:
178,152,89978,1,8,0:0:0:0:
178,152,90197,1,0,0:0:0:0:
229,205,90636,1,4,0:0:0:0:
229,205,90964,1,4,0:0:0:0:
206,214,91293,1,12,0:0:0:0:
206,214,91621,1,12,0:0:0:0:
206,214,91950,1,4,0:0:0:0:
256,192,92169,12,0,93791,0:0:0:0:
177,213,94264,5,12,0:0:0:0:
177,213,94500,1,0,0:0:0:0:
177,213,94736,1,8,0:0:0:0:
177,213,94972,1,0,0:0:0:0:
177,213,95208,1,8,0:0:0:0:
175,207,95681,1,0,0:0:0:0:
176,206,96153,1,0,0:0:0:0:
175,207,96626,1,8,0:0:0:0:
176,206,97098,1,0,0:0:0:0:
175,207,97334,1,8,0:0:0:0:
175,207,97571,1,0,0:0:0:0:
176,206,97807,1,8,0:0:0:0:
216,203,97925,1,8,0:0:0:0:
216,203,98043,1,8,0:0:0:0:
175,207,98515,1,0,0:0:0:0:
143,200,98752,1,8,0:0:0:0:
143,200,98988,1,8,0:0:0:0:
143,200,99224,1,0,0:0:0:0:
143,200,99460,1,8,0:0:0:0:
143,200,99933,1,0,0:0:0:0:
143,200,100405,1,8,0:0:0:0:
143,200,100878,1,8,0:0:0:0:
143,200,101114,1,0,0:0:0:0:
143,200,101350,1,8,0:0:0:0:
143,200,101586,1,0,0:0:0:0:
143,200,101704,1,0,0:0:0:0:
143,200,101823,1,8,0:0:0:0:
163,179,102059,1,8,0:0:0:0:
163,179,102295,1,0,0:0:0:0:
163,179,102531,1,8,0:0:0:0:
163,179,103004,1,0,0:0:0:0:
163,179,103240,1,8,0:0:0:0:
163,179,103712,1,8,0:0:0:0:
163,179,103949,1,0,0:0:0:0:
163,179,104185,1,8,0:0:0:0:
163,179,104421,1,8,0:0:0:0:
163,179,104657,1,0,0:0:0:0:
163,179,105130,1,8,0:0:0:0:
163,179,105602,1,4,0:0:0:0:
251,222,106075,1,0,0:0:0:0:
168,176,106311,1,0,0:0:0:0:
168,176,106547,1,8,0:0:0:0:
168,170,107019,1,4,0:0:0:0:
168,170,107492,1,0,0:0:0:0:
168,170,107728,1,0,0:0:0:0:
168,170,107964,1,8,0:0:0:0:
168,170,108437,1,0,0:0:0:0:
168,170,108673,1,8,0:0:0:0:
168,170,108909,1,8,0:0:0:0:
168,170,109145,1,8,0:0:0:0:
206,212,109382,1,4,0:0:0:0:
211,209,109736,1,4,0:0:0:0:
210,209,110090,1,12,0:0:0:0:
211,209,110445,1,12,0:0:0:0:
210,209,110799,1,4,0:0:0:0:
194,230,111271,1,8,0:0:0:0:
195,230,111507,1,0,0:0:0:0:
195,230,111626,1,0,0:0:0:0:
199,213,111744,1,0,0:0:0:0:
206,213,111980,1,0,0:0:0:0:
200,215,112216,1,8,0:0:0:0:
201,215,112452,1,8,0:0:0:0:
200,215,112689,1,0,0:0:0:0:
206,212,113161,5,12,0:0:0:0:
211,209,113515,1,4,0:0:0:0:
210,209,113870,1,12,0:0:0:0:
211,209,114224,1,4,0:0:0:0:
210,209,114578,1,12,0:0:0:0:
225,198,115287,1,0,0:0:0:0:
224,197,115523,1,0,0:0:0:0:
225,198,115760,1,8,0:0:0:0:
218,196,115878,1,8,0:0:0:0:
225,198,115996,1,8,0:0:0:0:
218,194,116232,1,0,0:0:0:0:
218,194,116468,1,8,0:0:0:0:
218,193,116941,1,4,0:0:0:0:
218,194,117295,1,12,0:0:0:0:
218,194,117649,1,4,0:0:0:0:
218,194,118004,1,12,0:0:0:0:
218,194,118358,1,4,0:0:0:0:
218,194,119067,1,0,0:0:0:0:
218,194,119303,1,8,0:0:0:0:
218,194,119421,1,8,0:0:0:0:
218,194,119539,1,8,0:0:0:0:
218,194,119775,1,8,0:0:0:0:
218,194,120012,1,0,0:0:0:0:
218,194,120248,1,8,0:0:0:0:
218,194,120720,1,4,0:0:0:0:
218,174,121075,1,4,0:0:0:0:
218,174,121429,1,12,0:0:0:0:
218,174,121783,1,4,0:0:0:0:
218,174,122138,1,12,0:0:0:0:
224,160,122846,1,8,0:0:0:0:
224,160,123082,1,8,0:0:0:0:
224,160,123319,1,0,0:0:0:0:
224,160,123555,1,8,0:0:0:0:
224,160,123791,1,0,0:0:0:0:
224,160,124027,1,8,0:0:0:0:
129,181,124145,1,8,0:0:0:0:
224,160,124264,1,8,0:0:0:0:
224,160,124500,1,4,0:0:0:0:
223,153,125208,1,0,0:0:0:0:
223,153,125445,1,12,0:0:0:0:
223,153,126153,1,0,0:0:0:0:
223,153,126389,1,12,0:0:0:0:
223,153,127098,1,0,0:0:0:0:
223,153,127334,1,8,0:0:0:0:
223,153,127571,1,0,0:0:0:0:
223,153,127807,1,0,0:0:0:0:
223,153,128043,1,8,0:0:0:0:
225,138,128515,1,0,0:0:0:0:
224,136,128988,1,0,0:0:0:0:
225,138,129224,1,12,0:0:0:0:
224,136,129933,1,0,0:0:0:0:
225,138,130169,1,12,0:0:0:0:
224,136,130878,1,8,0:0:0:0:
225,138,130996,1,8,0:0:0:0:
225,138,131114,1,8,0:0:0:0:
224,136,131350,1,8,0:0:0:0:
219,138,131586,1,0,0:0:0:0:
218,133,132059,1,8,0:0:0:0:
218,133,132295,1,4,0:0:0:0:
213,132,132767,1,4,0:0:0:0:
213,132,133004,1,4,0:0:0:0:
213,132,133712,1,0,0:0:0:0:
213,132,133948,1,12,0:0:0:0:
220,228,134657,1,0,0:0:0:0:
220,228,134893,1,12,0:0:0:0:
230,230,135366,1,4,0:0:0:0:
260,249,136075,1,0,0:0:0:0:
252,237,136547,1,0,0:0:0:0:
252,237,136783,1,8,0:0:0:0:
252,237,137256,1,8,0:0:0:0:
252,237,137492,1,0,0:0:0:0:
252,237,137728,1,8,0:0:0:0:
252,237,138201,1,8,0:0:0:0:
252,237,138437,1,0,0:0:0:0:
252,237,138673,1,8,0:0:0:0:
252,237,138909,1,0,0:0:0:0:
229,237,139027,1,0,0:0:0:0:
252,237,139145,1,0,0:0:0:0:
245,237,139382,1,8,0:0:0:0:
