osu file format v14

[General]
AudioFilename: audio.mp3
AudioLeadIn: 0
PreviewTime: 47614
Countdown: 0
SampleSet: Normal
StackLeniency: 0
Mode: 1
LetterboxInBreaks: 0
WidescreenStoryboard: 1

[Editor]
DistanceSpacing: 1
BeatDivisor: 4
GridSize: 32
TimelineZoom: 1.2

[Metadata]
Title:Out the Sunroof.
TitleUnicode:Out the Sunroof.
Artist:Stars Hollow
ArtistUnicode:Stars Hollow
Creator:Burak
Version:Futsuu
Source:
Tags:fa featured artist mpg mappers mappers' guild english alternative emo screamo pop punk rock I want to live my life justburak
BeatmapID:4084080
BeatmapSetID:1968973

[Difficulty]
HPDrainRate:7
CircleSize:5
OverallDifficulty:3.5
ApproachRate:0
SliderMultiplier:1.4
SliderTickRate:1

[Events]
//Background and Video events
0,0,"a2802830211_10.jpg",0,-47
//Break Periods
2,49503,60370
//Storyboard Layer 0 (Background)
//Storyboard Layer 1 (Fail)
//Storyboard Layer 2 (Pass)
//Storyboard Layer 3 (Foreground)
//Storyboard Layer 4 (Overlay)
//Storyboard Sound Samples

[TimingPoints]
370,472.44094488189,4,1,0,70,1,8
370,-100,4,1,0,70,0,0
47732,-125,4,1,0,30,0,0
62170,437.956204379562,4,1,0,80,1,8
62170,-100,4,1,0,80,0,0
62607,437.956204379562,4,1,0,80,1,0
62607,-100,4,1,0,80,0,1
73117,-100,4,1,0,80,0,0
76621,-100,4,1,0,80,0,1
87132,-100,4,1,0,80,0,0
90636,-100,4,1,0,80,0,1
91950,-100,4,1,0,80,0,0
92847,472.44094488189,4,1,0,80,1,8
94264,472.44094488189,4,1,0,80,1,0
94264,-100,4,1,0,80,0,0
109264,-100,4,1,0,70,0,0
109379,-100,4,1,0,70,0,0

[HitObjects]
172,220,2259,5,12,0:0:0:0:
172,220,2732,1,8,0:0:0:0:
172,220,2968,1,8,0:0:0:0:
172,220,3204,1,0,0:0:0:0:
172,220,3677,1,8,0:0:0:0:
179,238,3913,1,0,0:0:0:0:
180,233,4149,1,8,0:0:0:0:
179,227,4621,1,8,0:0:0:0:
178,226,5094,1,8,0:0:0:0:
178,208,5330,1,0,0:0:0:0:
179,227,5566,1,8,0:0:0:0:
181,197,5803,1,8,0:0:0:0:
180,198,6275,1,8,0:0:0:0:
181,197,6747,1,0,0:0:0:0:
180,198,6984,1,8,0:0:0:0:
180,198,7929,1,0,0:0:0:0:
180,198,8401,1,8,0:0:0:0:
180,198,8873,1,8,0:0:0:0:
180,198,9110,1,8,0:0:0:0:
180,198,9346,1,8,0:0:0:0:
178,192,9582,1,0,0:0:0:0:
179,193,10055,1,12,0:0:0:0:
178,192,10527,1,0,0:0:0:0:
179,193,10763,1,12,0:0:0:0:
178,192,11236,1,8,0:0:0:0:
178,192,11472,1,0,0:0:0:0:
179,193,11708,1,8,0:0:0:0:
178,192,12181,1,0,0:0:0:0:
178,192,12417,1,0,0:0:0:0:
179,193,12653,1,12,0:0:0:0:
178,192,13125,1,4,0:0:0:0:
178,192,13834,1,8,0:0:0:0:
178,192,14307,1,0,0:0:0:0:
178,192,14543,1,8,0:0:0:0:
178,192,15015,1,8,0:0:0:0:
178,192,15251,1,0,0:0:0:0:
178,192,15488,1,8,0:0:0:0:
178,192,15960,1,0,0:0:0:0:
178,192,16196,1,8,0:0:0:0:
178,192,16432,1,0,0:0:0:0:
179,183,17377,1,4,0:0:0:0:
175,169,17850,1,8,0:0:0:0:
176,169,18086,1,0,0:0:0:0:
229,181,18322,1,0,0:0:0:0:
178,176,18795,1,0,0:0:0:0:
178,176,19267,1,8,0:0:0:0:
178,176,19740,1,8,0:0:0:0:
178,176,20212,1,0,0:0:0:0:
178,176,20448,1,0,0:0:0:0:
178,176,20684,1,8,0:0:0:0:
178,176,20921,1,0,0:0:0:0:
143,174,21393,1,8,0:0:0:0:
143,174,21866,1,0,0:0:0:0:
143,174,22102,1,8,0:0:0:0:
176,178,22574,1,8,0:0:0:0:
176,178,22810,1,0,0:0:0:0:
176,178,23047,1,8,0:0:0:0:
176,178,23519,1,8,0:0:0:0:
170,171,23992,1,0,0:0:0:0:
181,157,24228,1,0,0:0:0:0:
178,157,24464,1,8,0:0:0:0:
179,176,25173,1,4,0:0:0:0:
170,162,25645,1,0,0:0:0:0:
171,162,25881,1,12,0:0:0:0:
170,162,26354,1,8,0:0:0:0:
174,151,26590,1,0,0:0:0:0:
171,162,26826,1,8,0:0:0:0:
170,162,27299,1,0,0:0:0:0:
175,141,27535,1,8,0:0:0:0:
171,162,27771,1,4,0:0:0:0:
172,146,28244,1,4,0:0:0:0:
183,152,28952,1,8,0:0:0:0:
183,152,29425,1,0,0:0:0:0:
183,152,29661,1,8,0:0:0:0:
183,152,30133,1,8,0:0:0:0:
183,152,30370,1,0,0:0:0:0:
183,152,30606,1,0,0:0:0:0:
199,145,30842,1,8,0:0:0:0:
183,152,31078,1,8,0:0:0:0:
181,138,31551,1,8,0:0:0:0:
177,131,32023,1,0,0:0:0:0:
176,131,32495,1,4,0:0:0:0:
198,138,33440,1,8,0:0:0:0:
200,130,33677,1,0,0:0:0:0:
199,131,33913,1,0,0:0:0:0:
203,117,34385,1,12,0:0:0:0:
199,131,34740,1,0,0:0:0:0:
201,137,35330,1,0,0:0:0:0:
196,118,35566,1,0,0:0:0:0:
196,118,35803,1,8,0:0:0:0:
187,117,36275,1,12,0:0:0:0:
187,117,36629,1,0,0:0:0:0:
187,117,37220,1,12,0:0:0:0:
187,117,37574,1,0,0:0:0:0:
187,117,38165,1,12,0:0:0:0:
187,117,38519,1,0,0:0:0:0:
187,117,39110,1,12,0:0:0:0:
187,117,39464,1,0,0:0:0:0:
187,117,40055,1,12,0:0:0:0:
187,117,40409,1,12,0:0:0:0:
187,117,40763,1,12,0:0:0:0:
186,115,41944,1,4,0:0:0:0:
186,115,42299,1,4,0:0:0:0:
186,115,42653,1,12,0:0:0:0:
186,115,43125,1,0,0:0:0:0:
186,115,43362,1,0,0:0:0:0:
186,115,43834,1,12,0:0:0:0:
186,115,44779,1,12,0:0:0:0:
186,115,45133,1,0,0:0:0:0:
181,103,45724,1,12,0:0:0:0:
181,104,46078,1,0,0:0:0:0:
181,103,46669,1,12,0:0:0:0:
181,104,46905,1,4,0:0:0:0:
181,104,47141,1,4,0:0:0:0:
181,103,47614,1,12,0:0:0:0:
216,203,62170,5,0,0:0:0:0:
216,203,62607,1,12,0:0:0:0:
216,203,63044,1,8,0:0:0:0:
216,203,63263,1,8,0:0:0:0:
216,203,63482,1,0,0:0:0:0:
216,203,63701,1,0,0:0:0:0:
216,203,63920,1,8,0:0:0:0:
216,203,64358,1,0,0:0:0:0:
216,203,64796,1,8,0:0:0:0:
216,203,65015,1,0,0:0:0:0:
216,203,65453,1,0,0:0:0:0:
216,203,65672,1,8,0:0:0:0:
216,203,66110,1,0,0:0:0:0:
216,203,66548,1,8,0:0:0:0:
216,203,66767,1,8,0:0:0:0:
216,203,66986,1,0,0:0:0:0:
216,203,67205,1,0,0:0:0:0:
216,203,67424,1,8,0:0:0:0:
216,203,67862,1,0,0:0:0:0:
216,203,68300,1,8,0:0:0:0:
216,203,68519,1,8,0:0:0:0:
216,203,68738,1,0,0:0:0:0:
210,184,69614,1,0,0:0:0:0:
219,168,70052,1,8,0:0:0:0:
226,176,70271,1,0,0:0:0:0:
226,176,70490,1,0,0:0:0:0:
224,167,70709,1,0,0:0:0:0:
210,184,70928,1,8,0:0:0:0:
225,165,71366,1,0,0:0:0:0:
225,165,71804,1,8,0:0:0:0:
225,165,72023,1,0,0:0:0:0:
225,165,72461,1,0,0:0:0:0:
225,165,72679,1,8,0:0:0:0:
225,165,73117,1,12,0:0:0:0:
225,165,73774,1,8,0:0:0:0:
225,165,74431,1,8,0:0:0:0:
225,165,75088,1,8,0:0:0:0:
215,160,76183,1,0,0:0:0:0:
216,157,76621,1,12,0:0:0:0:
215,160,77059,1,8,0:0:0:0:
216,157,77278,1,0,0:0:0:0:
215,160,77716,1,0,0:0:0:0:
215,160,77935,1,8,0:0:0:0:
215,160,78373,1,0,0:0:0:0:
215,160,78592,1,8,0:0:0:0:
215,160,78811,1,8,0:0:0:0:
215,160,79030,1,0,0:0:0:0:
215,160,79468,1,0,0:0:0:0:
215,160,79687,1,8,0:0:0:0:
215,160,80125,1,8,0:0:0:0:
212,144,80563,1,8,0:0:0:0:
107,164,80782,1,0,0:0:0:0:
216,155,81220,1,0,0:0:0:0:
216,155,81439,1,8,0:0:0:0:
213,145,81877,1,0,0:0:0:0:
213,145,82096,1,0,0:0:0:0:
213,145,82315,1,8,0:0:0:0:
213,145,82534,1,0,0:0:0:0:
213,145,82752,1,8,0:0:0:0:
208,133,83628,5,8,0:0:0:0:
208,133,84066,1,8,0:0:0:0:
208,133,84285,1,0,0:0:0:0:
208,133,84504,1,0,0:0:0:0:
208,133,84723,1,0,0:0:0:0:
208,133,84942,1,8,0:0:0:0:
208,133,85380,1,0,0:0:0:0:
208,133,85818,1,8,0:0:0:0:
218,132,86037,1,0,0:0:0:0:
208,133,86475,1,8,0:0:0:0:
208,133,86694,1,8,0:0:0:0:
217,123,87132,1,4,0:0:0:0:
217,123,87789,1,8,0:0:0:0:
217,123,88446,1,8,0:0:0:0:
206,123,89103,1,8,0:0:0:0:
206,123,89760,1,8,0:0:0:0:
206,123,89979,1,8,0:0:0:0:
206,123,90198,1,0,0:0:0:0:
206,123,90636,1,4,0:0:0:0:
206,123,91293,1,12,0:0:0:0:
206,123,91950,1,4,0:0:0:0:
194,232,94264,1,12,0:0:0:0:
180,218,94500,1,0,0:0:0:0:
180,218,94736,1,0,0:0:0:0:
181,217,94972,1,8,0:0:0:0:
180,218,95445,1,0,0:0:0:0:
180,218,95681,1,8,0:0:0:0:
180,218,96153,1,0,0:0:0:0:
180,218,96389,1,0,0:0:0:0:
180,218,96626,1,8,0:0:0:0:
180,218,96862,1,8,0:0:0:0:
180,218,97098,1,0,0:0:0:0:
189,230,98043,1,8,0:0:0:0:
189,230,98515,1,0,0:0:0:0:
189,230,98752,1,8,0:0:0:0:
189,230,98988,1,8,0:0:0:0:
191,216,99224,1,0,0:0:0:0:
191,216,99460,1,8,0:0:0:0:
191,216,99933,1,0,0:0:0:0:
191,216,100169,1,0,0:0:0:0:
191,216,100405,1,8,0:0:0:0:
191,216,100641,1,0,0:0:0:0:
191,216,100878,1,8,0:0:0:0:
191,216,101350,1,0,0:0:0:0:
191,216,101823,1,12,0:0:0:0:
183,210,102531,1,8,0:0:0:0:
184,210,102767,1,0,0:0:0:0:
192,194,103240,1,8,0:0:0:0:
191,191,103712,1,8,0:0:0:0:
192,194,103949,1,0,0:0:0:0:
192,194,104185,1,8,0:0:0:0:
191,191,104421,1,8,0:0:0:0:
204,184,104893,1,0,0:0:0:0:
192,194,105130,1,8,0:0:0:0:
204,184,105602,1,4,0:0:0:0:
211,179,106311,1,0,0:0:0:0:
208,176,106547,1,8,0:0:0:0:
211,179,107019,1,4,0:0:0:0:
208,176,107492,1,0,0:0:0:0:
208,173,107728,1,0,0:0:0:0:
208,172,107964,1,8,0:0:0:0:
208,176,108201,1,0,0:0:0:0:
209,171,108437,1,0,0:0:0:0:
208,172,108909,1,8,0:0:0:0:
217,157,109145,1,8,0:0:0:0:
209,171,109382,1,4,0:0:0:0:
209,171,110090,1,12,0:0:0:0:
209,171,110799,1,4,0:0:0:0:
189,166,111508,1,8,0:0:0:0:
190,166,111744,1,0,0:0:0:0:
189,166,111980,1,0,0:0:0:0:
189,166,112216,1,8,0:0:0:0:
190,166,112689,1,0,0:0:0:0:
189,166,112925,1,0,0:0:0:0:
189,166,113161,1,12,0:0:0:0:
189,166,113870,1,12,0:0:0:0:
189,166,114578,1,12,0:0:0:0:
189,166,115287,1,0,0:0:0:0:
191,161,115523,1,0,0:0:0:0:
191,160,115996,1,8,0:0:0:0:
190,159,116232,1,0,0:0:0:0:
191,161,116468,1,8,0:0:0:0:
191,160,116941,1,4,0:0:0:0:
191,160,117649,1,4,0:0:0:0:
191,160,118358,1,12,0:0:0:0:
191,160,119067,1,0,0:0:0:0:
191,160,119303,1,8,0:0:0:0:
191,160,119775,1,8,0:0:0:0:
191,160,120248,1,8,0:0:0:0:
191,160,120720,1,4,0:0:0:0:
191,160,121429,1,12,0:0:0:0:
191,160,122138,1,4,0:0:0:0:
208,159,122846,1,8,0:0:0:0:
208,159,123082,1,8,0:0:0:0:
208,159,123555,1,8,0:0:0:0:
208,159,123791,1,0,0:0:0:0:
208,159,124027,1,8,0:0:0:0:
213,153,124264,1,8,0:0:0:0:
208,159,124500,1,4,0:0:0:0:
229,136,125208,1,0,0:0:0:0:
229,136,125445,1,12,0:0:0:0:
229,136,126153,1,0,0:0:0:0:
229,136,126389,1,12,0:0:0:0:
229,136,127098,1,0,0:0:0:0:
229,136,127334,1,8,0:0:0:0:
227,130,127807,1,0,0:0:0:0:
228,139,128515,1,0,0:0:0:0:
228,139,128988,1,0,0:0:0:0:
228,139,129224,1,12,0:0:0:0:
228,139,129933,1,0,0:0:0:0:
228,139,130169,1,12,0:0:0:0:
228,139,130878,1,8,0:0:0:0:
228,139,131114,1,8,0:0:0:0:
228,139,131586,1,0,0:0:0:0:
228,139,131823,1,0,0:0:0:0:
234,128,132295,1,12,0:0:0:0:
234,128,132767,1,4,0:0:0:0:
234,128,133004,1,4,0:0:0:0:
234,128,133712,1,0,0:0:0:0:
234,128,133949,1,12,0:0:0:0:
234,128,134657,1,0,0:0:0:0:
234,128,134893,1,12,0:0:0:0:
234,128,135366,1,4,0:0:0:0:
234,128,136075,1,0,0:0:0:0:
234,128,136783,1,8,0:0:0:0:
234,128,137492,1,0,0:0:0:0:
234,128,137728,1,8,0:0:0:0:
234,128,138437,1,0,0:0:0:0:
234,128,138673,1,8,0:0:0:0:
174,168,138909,1,0,0:0:0:0:
234,128,139145,1,0,0:0:0:0:
236,118,139382,1,8,0:0:0:0:
