osu file format v14

[General]
AudioFilename: audio.mp3
AudioLeadIn: 0
PreviewTime: 42111
Countdown: 0
SampleSet: Soft
StackLeniency: 0.7
Mode: 0
LetterboxInBreaks: 0
WidescreenStoryboard: 0

[Editor]
DistanceSpacing: 1.2
BeatDivisor: 4
GridSize: 32
TimelineZoom: 2

[Metadata]
Title:You are a ghost, I am a ghost ~Gekijou no Ghost~
TitleUnicode:You are a ghost, I am a ghost 〜劇場のゴースト〜
Artist:Starlight Kukugumi
ArtistUnicode:スタァライト九九組
Creator:Gaia
Version:Insane
Source:少女☆歌劇 レヴュースタァライト
Tags:Kalibe Irohas MugiwaraSekai Atalanta Toshino Kyoko Shoujo☆Kageki Revue Starlight re live girls opera ghost of the theatre 聖翔音楽学園 Seisho Music Academy Musical Song 2 小山 百代 Momoyo Koyama 愛城 華恋 Aijou Karen 三森 すずこ Suzuko Mimori 神楽 ひかり Kagura Hikari 富田 麻帆 Maho Tomita 堂 真矢 Tendou Maya 佐藤日向 Hinata Sato 星見 純那 Hoshimi Junna 岩田陽葵 Haruki Iwata 露崎 まひる Tsuyuzaki Mahiru 小泉萌香 Moeka Koizumi 大場 なな Daiba Nana Banana bananice 相羽 あいな Aina Aiba 西條クロディーヌ Saijou Claudine 生田 輝 Teru Ikuta 石動 双葉 Isurugi Futaba 伊藤彩沙 Ayasa Ito Itou 花柳 香子 Hanayagi Kaoruko bushiroad yuri phantom overture
BeatmapID:1987903
BeatmapSetID:941509

[Difficulty]
HPDrainRate:5
CircleSize:4
OverallDifficulty:7
ApproachRate:9
SliderMultiplier:1.4
SliderTickRate:1

[Events]
//Background and Video events
0,0,"yuribait.jpg",0,0
//Break Periods
2,90754,93627
2,162386,165260
2,195245,207502
//Storyboard Layer 0 (Background)
//Storyboard Layer 1 (Fail)
//Storyboard Layer 2 (Pass)
//Storyboard Layer 3 (Foreground)
//Storyboard Sound Samples

[TimingPoints]
554,306.122448979592,3,2,1,30,1,0
7900,-142.857142857143,3,2,1,30,0,0
12492,-111.111111111111,3,2,1,30,0,0
13411,-142.857142857143,3,2,1,30,0,0
15247,-142.857142857143,3,2,1,40,0,0
19839,-111.111111111111,3,2,1,40,0,0
21676,-142.857142857143,3,2,1,50,0,0
22594,-111.111111111111,3,2,1,50,0,0
28105,-90.9090909090908,3,2,1,50,0,0
28717,-111.111111111111,3,2,1,50,0,0
29023,-83.3333333333333,3,2,1,50,0,0
29941,-111.111111111111,3,2,1,50,0,0
37288,-142.857142857143,3,2,1,50,0,0
38207,-111.111111111111,3,2,1,50,0,0
40962,-111.111111111111,3,2,10,50,0,0
42186,-200,3,2,1,40,0,0
42798,-100,3,2,1,70,0,0
72186,-125,3,2,1,60,0,0
90554,-125,3,2,1,40,0,0
94227,-125,3,2,1,30,0,0
98819,-100,3,2,1,30,0,0
99737,-125,3,2,1,30,0,0
107696,-125,3,2,1,40,0,0
108462,-100,3,2,1,40,0,0
108615,-100,3,2,1,50,0,0
108921,-100,3,2,1,60,0,0
109533,-111.111111111111,3,2,1,60,0,0
123615,-142.857142857143,3,2,1,60,0,0
127288,-142.857142857143,3,2,10,40,0,0
127594,-111.111111111111,3,2,10,60,0,0
127671,-111.111111111111,3,2,1,60,0,0
128666,-111.111111111111,3,2,1,20,0,0
128819,-111.111111111111,3,2,1,40,0,0
128972,-111.111111111111,3,2,1,60,0,0
129125,-100,3,2,1,70,0,0
162186,-100,3,2,10,40,0,0
165860,-142.857142857143,3,2,1,30,0,0
173207,-125,3,2,1,40,0,0
185758,-100,3,2,1,40,0,0
186064,-100,3,2,10,30,0,0
187900,-166.666666666667,3,2,1,10,0,0
190962,-200,3,2,1,10,0,0
191880,365.853658536585,3,2,1,10,1,0
191880,-200,3,2,1,10,0,0
192611,422.535211267606,3,2,1,10,1,0
193033,441.176470588235,3,2,1,10,1,0
193033,-200,3,2,1,10,0,0
193474,579.710144927536,3,2,1,10,1,0
194633,306.122448979592,3,2,1,50,1,0
195245,306.122448979592,3,2,1,50,1,0
208408,-125,3,2,1,50,0,0
209938,-250,3,2,10,30,0,0
210015,-250,3,2,1,30,0,0
210551,-250,3,2,1,60,0,0
210857,-100,3,2,1,70,0,0
225551,-125,3,2,1,60,0,0
240245,-166.666666666667,3,2,1,50,0,0
242081,-166.666666666667,3,2,1,20,0,0

[Colours]
Combo1 : 238,200,174
Combo2 : 201,52,104
Combo3 : 130,68,181
Combo4 : 108,103,216

[HitObjects]
86,355,7900,6,0,P|42:326|45:182,1,195.999994018555,2|0,0:0|0:0,0:0:0:0:
146,67,8666,1,0,0:0:0:0:
111,156,8819,6,0,L|41:173,1,48.9999985046387,2|0,0:0|0:0,0:0:0:0:
238,48,9125,2,0,P|289:55|346:74,1,97.9999970092774,2|0,0:0|0:0,0:0:0:0:
418,231,9584,1,0,0:0:0:0:
500,167,9737,6,0,P|508:132|509:67,1,97.9999970092774,2|0,0:0|0:0,0:0:0:0:
405,36,10196,1,0,0:0:0:0:
405,36,10349,2,0,P|411:67|420:88,1,48.9999985046387
352,175,10656,6,0,P|296:133|214:147,1,146.999995513916,2|0,0:0|0:0,0:0:0:0:
150,264,11268,2,0,P|178:260|210:240,1,48.9999985046387
196,251,11574,6,0,L|187:309,1,48.9999985046387,2|0,0:0|0:0,0:0:0:0:
57,213,11880,2,0,L|64:164,1,48.9999985046387,2|0,0:0|0:0,0:0:0:0:
183,25,12186,1,2,0:0:0:0:
183,25,12339,1,2,0:0:0:0:
124,103,12492,6,0,P|59:121|-21:127,2,125.999996154785,2|0|2,0:0|0:0|0:0,0:0:0:0:
236,163,13258,1,2,0:0:0:0:
309,99,13411,6,0,P|357:112|409:118,1,97.9999970092774,2|0,0:0|0:0,0:0:0:0:
512,269,13870,1,2,0:0:0:0:
427,311,14023,1,2,0:0:0:0:
386,223,14176,1,2,0:0:0:0:
475,177,14329,6,0,P|484:119|491:61,1,97.9999970092774,2|0,0:0|0:0,0:0:0:0:
313,189,14788,1,2,0:0:0:0:
313,189,14865,1,2,0:0:0:0:
313,189,14941,2,0,L|304:256,1,48.9999985046387,2|0,0:0|0:0,0:0:0:0:
107,303,15247,6,0,P|142:249|231:260,1,146.999995513916,2|0,1:2|0:0,0:0:0:0:
313,189,15860,2,0,P|294:187|265:178,1,48.9999985046387
209,96,16166,6,0,P|200:72|199:30,1,48.9999985046387,2|0,0:0|0:0,0:0:0:0:
346,108,16472,2,0,P|353:151|367:276,1,146.999995513916
291,355,17084,6,0,P|260:321|281:257,1,97.9999970092774,2|0,0:0|0:0,0:0:0:0:
492,191,17543,1,2,0:0:0:0:
436,270,17696,2,0,P|404:275|367:284,1,48.9999985046387,0|2,0:0|0:0,0:0:0:0:
283,243,18002,6,0,P|272:191|267:140,1,97.9999970092774,2|0,0:0|0:0,0:0:0:0:
76,53,18615,1,2,0:0:0:0:
157,11,18768,1,2,0:0:0:0:
76,53,18921,6,0,P|69:84|75:120,1,48.9999985046387,2|0,1:2|0:0,0:0:0:0:
147,185,19227,2,0,L|207:191,1,48.9999985046387,0|0,0:3|0:0,0:0:0:0:
403,129,19533,1,2,0:0:0:0:
403,129,19686,1,2,0:0:0:0:
328,63,19839,6,0,P|275:87|179:87,2,125.999996154785,2|0|2,0:2|0:0|0:0,0:0:0:0:
403,129,20605,1,2,0:0:0:0:
315,320,20758,5,2,0:0:0:0:
315,320,21064,2,0,P|328:295|329:255,1,62.9999980773926,2|2,0:0|0:0,0:0:0:0:
208,152,21370,2,0,P|195:177|194:217,1,62.9999980773926,2|2,0:0|0:0,0:0:0:0:
251,267,21676,6,0,P|184:230|102:241,1,146.999995513916,2|0,0:0|0:0,0:0:0:0:
352,183,22288,2,0,P|382:175|405:153,1,48.9999985046387,2|2,0:0|0:0,0:0:0:0:
395,164,22518,5,2,0:0:0:0:
395,164,22594,2,0,L|377:16,1,125.999996154785,6|0,0:3|0:0,0:0:0:0:
115,257,23207,1,0,0:0:0:0:
60,332,23360,1,0,0:0:0:0:
9,260,23513,6,0,P|39:246|84:250,1,62.9999980773926,2|8,0:0|0:1,0:0:0:0:
169,333,23819,2,0,P|198:296|194:208,1,125.999996154785,0|0,0:0|1:2,0:0:0:0:
83,41,24431,5,4,0:3:0:0:
155,105,24584,2,0,P|216:115|302:124,1,125.999996154785,8|0,0:1|1:2,0:0:0:0:
368,38,25043,1,0,0:0:0:0:
368,38,25196,1,0,0:0:0:0:
368,38,25349,6,0,P|399:31|449:19,1,62.9999980773926,2|8,0:0|0:1,0:0:0:0:
414,144,25656,2,0,P|450:152|488:157,1,62.9999980773926,2|0,0:0|0:0,0:0:0:0:
332,235,25962,2,0,P|312:288|325:344,1,94.499997116089,2|0,0:0|0:0,0:0:0:0:
320,334,26268,6,0,L|241:350,1,62.9999980773926,6|0,0:0|0:0,0:0:0:0:
67,274,26574,1,2,0:2:0:0:
144,327,26727,1,8,0:1:0:0:
32,378,26880,1,0,0:0:0:0:
32,378,27033,1,0,0:0:0:0:
64,251,27186,6,0,L|57:180,1,62.9999980773926,2|0,0:0|0:0,0:0:0:0:
51,180,27416,1,0,0:0:0:0:
45,173,27492,2,0,L|38:102,1,62.9999980773926,2|8,0:0|0:1,0:0:0:0:
188,14,27798,2,0,P|181:61|183:115,1,94.499997116089,2|0,0:0|0:0,0:0:0:0:
174,124,28105,6,0,B|251:98|237:191|353:144,1,154.000004699707,2|0,0:0|0:0,0:0:0:0:
492,116,28564,1,8,0:1:0:0:
422,26,28717,2,0,P|407:57|403:93,1,62.9999980773926,0|0,0:0|0:0,0:0:0:0:
512,247,29023,6,0,L|426:237,1,83.9999974365235,0|0,0:0|0:0,0:0:0:0:
431,244,29252,1,0,0:0:0:0:
434,252,29329,2,0,L|348:242,1,83.9999974365235,0|8,0:1|0:1,0:0:0:0:
188,288,29635,1,0,0:0:0:0:
113,359,29788,1,0,0:0:0:0:
188,288,29941,6,0,P|226:291|256:298,1,62.9999980773926,6|0,0:3|0:0,0:0:0:0:
47,276,30247,2,0,P|11:222|19:161,1,125.999996154785,2|2,3:2|0:0,0:0:0:0:
182,27,30707,1,0,0:0:0:0:
263,78,30860,6,0,P|251:127|240:224,1,125.999996154785,4|0,0:3|3:2,0:0:0:0:
241,201,31319,1,8,0:1:0:0:
394,340,31472,1,0,0:0:0:0:
443,247,31625,1,0,0:0:0:0:
394,340,31778,6,0,P|361:348|327:350,1,62.9999980773926,4|0,0:3|0:0,0:0:0:0:
165,225,32084,2,0,P|197:216|232:215,1,62.9999980773926,0|0,3:2|0:2,0:0:0:0:
342,259,32390,1,8,3:1:0:0:
301,352,32543,1,0,0:0:0:0:
342,259,32696,6,0,P|337:198|322:113,1,125.999996154785,4|0,0:3|3:0,0:0:0:0:
68,27,33309,2,0,P|52:60|57:104,1,62.9999980773926,0|8,0:0|1:0,0:0:0:0:
139,141,33615,5,6,0:3:0:0:
139,141,33921,2,0,P|202:130|268:126,1,125.999996154785,2|0,3:2|3:0,0:0:0:0:
420,18,34380,1,8,0:1:0:0:
420,18,34533,6,0,P|357:28|295:32,2,125.999996154785,4|0|0,0:3|3:2|0:0,0:0:0:0:
501,98,35298,1,8,0:1:0:0:
501,98,35451,6,0,P|491:130|486:167,1,62.9999980773926,4|0,0:3|0:0,0:0:0:0:
347,299,35758,2,0,P|344:266|334:225,1,62.9999980773926,2|0,3:2|0:0,0:0:0:0:
219,135,36064,2,0,P|158:143|125:185,1,94.499997116089,2|0,3:2|0:0,0:0:0:0:
131,182,36370,6,0,P|206:190|271:203,1,125.999996154785,4|0,0:3|3:0,0:0:0:0:
255,199,36829,1,0,1:0:0:0:
362,268,36982,1,0,1:2:0:0:
444,218,37135,1,0,1:0:0:0:
275,316,37288,6,0,P|261:254|353:168,1,195.999994018555,8|0,0:1|1:0,0:0:0:0:
116,30,38207,6,0,P|173:41|195:110,1,125.999996154785,8|2,0:1|0:0,0:0:0:0:
114,274,38666,1,0,1:2:0:0:
193,208,38819,2,0,P|227:201|273:199,1,62.9999980773926,2|0,1:2|1:2,0:0:0:0:
98,135,39125,5,8,0:1:0:0:
256,192,39201,12,2,40962,0:2:0:0:
234,303,42186,6,0,B|202:305|179:325|179:325|168:293|128:277,1,122.5,2|0,0:0|0:0,0:0:0:0:
128,293,42798,6,0,B|235:262|190:384|318:349,1,210,6|2,3:3|3:2,0:0:0:0:
423,326,43411,2,0,P|428:291|432:246,1,70,2|0,3:2|0:0,0:0:0:0:
484,156,43717,6,0,P|431:112|347:137,1,140,4|0,0:3|0:0,0:0:0:0:
138,46,44176,1,2,0:0:0:0:
139,138,44329,2,0,P|174:134|207:125,1,70,2|0,0:0|3:2,0:0:0:0:
318,45,44635,6,0,L|303:214,1,140,4|2,3:3|3:2,0:0:0:0:
103,336,45094,1,0,1:0:0:0:
194,249,45247,1,0,3:0:0:0:
258,321,45400,1,2,0:0:0:0:
93,343,45554,6,0,P|76:307|81:267,1,70,4|0,0:3|1:0,0:0:0:0:
158,123,45860,1,2,3:2:0:0:
158,123,46013,1,0,1:0:0:0:
42,68,46166,1,2,3:2:0:0:
13,174,46319,1,0,1:0:0:0:
148,138,46472,6,0,P|225:141|268:21,1,210,6|0,0:3|0:0,0:0:0:0:
411,4,47084,2,0,P|398:34|397:82,1,70,2|0,0:0|0:0,0:0:0:0:
444,164,47390,6,0,P|373:170|293:186,2,140,4|2|2,0:3|0:0|0:0,0:0:0:0:
406,77,48156,1,0,3:0:0:0:
463,178,48309,6,0,P|479:206|474:255,1,70,4|0,0:3|0:0,0:0:0:0:
283,374,48615,2,0,P|267:346|272:297,1,70,2|0,0:0|0:0,0:0:0:0:
403,228,48921,1,2,0:0:0:0:
345,322,49074,1,0,0:0:0:0:
403,228,49227,5,4,0:3:0:0:
250,293,49380,2,0,L|160:281,1,70,8|0,0:3|0:0,0:0:0:0:
36,190,49686,1,8,0:3:0:0:
26,334,49839,1,0,3:0:0:0:
141,281,49992,1,0,1:2:0:0:
50,196,50145,6,0,L|32:30,1,140,6|0,0:3|0:0,0:0:0:0:
160,11,50605,1,2,0:0:0:0:
160,11,50758,2,0,P|150:47|146:87,1,70,2|0,0:0|0:0,0:0:0:0:
370,109,51064,6,0,P|325:71|236:71,1,140,4|0,0:3|0:0,0:0:0:0:
218,178,51523,1,2,0:0:0:0:
218,178,51676,2,0,P|259:175|298:137,1,70,2|0,0:0|0:0,0:0:0:0:
462,100,51982,5,4,0:3:0:0:
462,100,52135,1,0,0:0:0:0:
379,201,52288,1,2,0:0:0:0:
379,201,52441,1,0,1:2:0:0:
500,232,52594,2,0,P|509:260|511:315,1,70,2|0,0:0|0:0,0:0:0:0:
442,367,52900,5,4,0:3:0:0:
347,346,53054,1,2,0:0:0:0:
301,262,53207,1,0,1:0:0:0:
209,236,53361,1,2,3:2:0:0:
136,306,53513,2,0,P|117:350|121:375,1,70,0|2,1:0|1:2,0:0:0:0:
306,278,53819,6,0,P|314:172|256:82,1,210,8|8,3:3|0:3,0:0:0:0:
90,3,54431,2,0,P|67:36|74:93,1,70,2|0,3:2|0:0,0:0:0:0:
166,66,54737,6,0,L|323:49,2,140,4|8|2,0:3|3:3|1:2,0:0:0:0:
55,278,55502,1,0,1:0:0:0:
103,192,55656,6,0,L|26:178,1,70,6|2,3:3|0:0,0:0:0:0:
162,268,55962,1,2,0:0:0:0:
210,354,56116,6,0,L|133:368,1,70,4|0,1:2|0:0,0:0:0:0:
265,260,56421,1,2,3:2:0:0:
358,214,56574,6,0,P|412:274|402:358,1,140,4|0,1:3|1:0,0:0:0:0:
413,330,57033,1,2,1:2:0:0:
273,165,57186,1,0,1:0:0:0:
330,84,57339,1,2,1:2:0:0:
273,165,57492,6,0,B|196:170|134:184|134:184|108:155|110:117,1,210,6|2,0:3|1:2,0:0:0:0:
21,207,58105,2,0,P|20:240|6:287,1,70,2|0,0:0|0:0,0:0:0:0:
70,368,58411,6,0,P|105:338|183:343,1,105,4|0,0:3|0:0,0:0:0:0:
164,343,58717,2,0,B|198:363|198:363|243:353,1,70,0|0,1:0|0:0,0:0:0:0:
425,255,59023,2,0,B|395:248|395:248|361:268,1,70,0|0,1:0|0:0,0:0:0:0:
303,374,59329,6,0,P|255:335|255:230,1,140,6|2,0:3|0:0,0:0:0:0:
314,122,59788,1,0,1:0:0:0:
314,122,59941,2,0,P|329:155|328:216,1,70,2|0,0:0|0:0,0:0:0:0:
199,194,60247,6,0,L|78:181,1,105,6|0,0:3|0:0,0:0:0:0:
91,189,60554,1,0,1:0:0:0:
80,288,60707,1,0,1:0:0:0:
160,81,60860,1,0,3:0:0:0:
152,66,61013,1,0,1:0:0:0:
250,70,61166,6,0,B|311:100|388:85|388:85|409:115|391:158,1,210,6|0,0:3|1:0,0:0:0:0:
443,256,61778,2,0,P|479:256|515:226,1,70,2|0,0:0|0:0,0:0:0:0:
334,324,62084,6,0,P|265:322|200:373,2,140,6|2|2,2:3|1:2|1:2,0:0:0:0:
340,332,63002,6,0,P|352:303|344:256,1,70,6|0,0:3|0:0,0:0:0:0:
266,184,63309,2,0,P|260:146|226:107,1,70,2|0,0:0|1:2,0:0:0:0:
108,68,63615,1,2,0:0:0:0:
33,145,63768,1,2,0:0:0:0:
12,18,63921,5,6,0:3:0:0:
121,75,64074,2,0,L|199:55,2,70,8|8|8,0:3|3:3|3:3,0:0:0:0:
33,145,64533,1,0,1:2:0:0:
33,145,64686,1,0,1:2:0:0:
188,175,64839,6,0,P|267:183|356:196,1,140,6|0,3:3|0:0,0:0:0:0:
425,236,65298,1,2,1:2:0:0:
425,236,65451,2,0,P|446:211|449:163,1,70,2|0,0:0|0:0,0:0:0:0:
320,33,65758,6,0,P|329:103|352:195,1,140,4|0,0:3|1:0,0:0:0:0:
278,333,66217,1,2,0:0:0:0:
278,333,66370,2,0,P|270:297|256:255,1,70,2|0,1:2|0:0,0:0:0:0:
165,165,66676,5,6,0:3:0:0:
89,223,66829,1,0,0:0:0:0:
33,145,66982,1,2,0:0:0:0:
121,83,67135,1,0,1:2:0:0:
188,175,67288,2,0,L|257:160,1,70,2|0,0:0|0:0,0:0:0:0:
320,33,67594,5,6,0:3:0:0:
320,33,67747,1,2,0:0:0:0:
352,129,67900,2,0,L|343:199,2,70,0|2|2,1:0|0:0|1:2,0:0:0:0:
444,84,68360,1,2,0:0:0:0:
420,224,68513,6,0,P|358:233|274:252,1,140,6|0,0:3|0:0,0:0:0:0:
68,193,68972,1,0,1:0:0:0:
152,141,69125,2,0,P|171:175|178:229,1,70,2|0,0:0|0:0,0:0:0:0:
195,318,69431,6,0,P|113:364|68:337,2,140,4|2|0,0:3|1:2|1:0,0:0:0:0:
163,219,70196,1,0,0:0:0:0:
282,249,70349,6,0,P|350:235|420:224,1,140,6|0,0:3|0:0,0:0:0:0:
469,97,70809,1,8,0:3:0:0:
384,131,70962,2,0,P|349:129|300:113,1,70,8|0,0:3|0:0,0:0:0:0:
164,11,71268,6,0,P|190:51|71:128,1,210,6|0,0:3|0:0,0:0:0:0:
16,93,71880,2,0,P|1:137|12:172,1,70,0|0,0:0|0:0,0:0:0:0:
81,235,72186,6,0,P|139:220|214:208,3,112,6|2|2|2,3:2|0:0|0:0|1:2,0:0:0:0:
198,220,73717,2,0,P|169:226|128:242,1,56,2|0,0:0|3:0,0:0:0:0:
195,307,74023,6,0,P|202:334|212:378,1,56,2|0,3:2|0:0,0:0:0:0:
313,369,74329,2,0,P|305:342|299:314,1,56,2|0,0:0|0:0,0:0:0:0:
346,232,74635,2,0,P|379:210|443:217,1,84,2|0,0:0|0:0,0:0:0:0:
425,214,74941,2,0,L|297:195,1,112,2|2,1:2|0:0,0:0:0:0:
263,102,75400,1,2,0:0:0:0:
263,102,75554,2,0,L|248:28,1,56,2|0,0:0|1:2,0:0:0:0:
155,19,75860,6,0,P|101:23|63:86,3,112,2|2|2|2,3:2|0:0|0:0|1:2,0:0:0:0:
77,67,77390,2,0,P|102:39|135:36,1,56,2|0,0:0|3:0,0:0:0:0:
156,114,77696,5,0,3:0:0:0:
85,190,77849,2,0,P|82:238|73:316,1,112,2|0,0:0|3:2,0:0:0:0:
166,369,78309,2,0,P|167:341|174:297,1,56,2|0,0:2|0:0,0:0:0:0:
232,240,78615,6,0,B|318:215|295:309|398:283,1,168,2|0,1:2|0:0,0:0:0:0:
460,214,79227,2,0,P|435:196|390:190,1,56,2|0,0:0|0:0,0:0:0:0:
339,121,79533,6,0,L|349:2,3,112,6|2|2|0,0:0|0:0|0:0|1:0,0:0:0:0:
341,12,81064,2,0,L|335:84,1,56,0|0,0:0|3:2,0:0:0:0:
244,101,81370,6,0,P|217:109|182:114,1,56,2|0,0:0|0:0,0:0:0:0:
45,64,81676,2,0,P|71:55|107:51,1,56,2|0,0:0|0:0,0:0:0:0:
181,109,81982,2,0,P|189:147|205:230,1,112,2|2,0:0|1:2,0:0:0:0:
20,364,82594,2,0,P|19:336|36:296,1,56,2|2,0:0|0:0,0:0:0:0:
117,350,82900,1,2,0:0:0:0:
200,310,83054,1,0,0:0:0:0:
284,353,83207,6,0,P|344:360|409:363,3,112,2|2|2|2,3:2|0:0|0:0|1:2,0:0:0:0:
400,356,84737,2,0,P|365:360|329:370,1,56,2|0,0:0|3:0,0:0:0:0:
273,245,85043,5,2,3:2:0:0:
358,274,85196,2,0,P|370:250|379:148,1,112,2|2,0:0|0:0,0:0:0:0:
247,43,85656,2,0,P|235:70|233:112,1,56,2|0,0:0|0:0,0:0:0:0:
164,165,85962,6,0,P|97:120|18:141,1,168,2|0,1:2|1:0,0:0:0:0:
81,223,86574,2,0,P|87:250|91:287,1,56,8|8,0:3|0:3,0:0:0:0:
191,345,86880,5,4,3:2:0:0:
256,192,86957,12,2,90554,0:0:0:0:
142,183,94227,6,0,P|86:198|27:208,2,112,2|2|2,0:0|0:0|0:0,0:0:0:0:
177,90,94992,1,2,0:0:0:0:
263,119,95145,6,0,P|263:146|253:198,1,56,2|0,0:0|0:0,0:0:0:0:
178,312,95451,2,0,P|166:248|160:175,1,112,2|2,0:0|0:0,0:0:0:0:
244,25,95911,1,0,0:0:0:0:
263,119,96064,6,0,P|328:151|413:90,1,168,2|2,0:0|0:0,0:0:0:0:
476,178,96676,2,0,P|469:211|464:250,1,56,2|0,0:0|0:0,0:0:0:0:
386,302,96982,6,0,L|362:181,2,112,2|2|2,0:0|0:0|0:0,0:0:0:0:
392,312,97900,6,0,B|361:313|361:313|330:333,1,56,2|0,0:0|0:0,0:0:0:0:
233,357,98207,2,0,B|202:356|202:356|171:336,1,56,2|0,0:0|0:0,0:0:0:0:
60,240,98513,1,2,0:0:0:0:
7,324,98666,1,0,0:0:0:0:
94,313,98819,6,0,P|106:243|103:147,2,140,2|2|2,0:0|0:0|0:0,0:0:0:0:
7,324,99584,1,2,0:0:0:0:
181,342,99737,6,0,P|209:294|321:298,1,168,2|2,0:0|0:0,0:0:0:0:
457,242,100349,1,2,0:0:0:0:
457,242,100502,1,0,0:0:0:0:
377,330,100656,6,0,P|362:290|351:204,1,112,2|2,0:0|0:0,0:0:0:0:
451,63,101115,2,0,L|459:29,2,28,2|2|2,0:0|0:0|0:0,0:0:0:0:
351,20,101421,1,0,0:0:0:0:
368,117,101574,6,0,P|424:108|477:85,1,112,2|2,0:0|0:0,0:0:0:0:
197,103,102186,1,2,0:0:0:0:
98,33,102339,1,0,0:0:0:0:
53,108,102492,6,0,P|25:118|-7:124,1,56,2|0,0:0|0:0,0:0:0:0:
106,36,102798,2,0,P|130:64|135:146,1,112,2|2,0:0|0:0,0:0:0:0:
7,278,103258,1,2,0:0:0:0:
59,209,103411,6,0,P|114:215|174:235,1,112,2|2,0:0|0:0,0:0:0:0:
261,281,103870,1,2,0:0:0:0:
188,384,104023,2,0,P|177:354|175:329,1,56,2|0,0:0|0:0,0:0:0:0:
275,294,104329,6,0,B|332:285|325:329|398:313,2,112,2|2|2,0:0|0:0|0:0,0:0:0:0:
121,111,105094,1,2,0:0:0:0:
179,174,105247,6,0,P|186:202|191:238,1,56,2|0,0:0|0:0,0:0:0:0:
41,124,105554,2,0,P|33:96|29:60,1,56,2|0,0:0|0:0,0:0:0:0:
234,34,105860,1,2,0:0:0:0:
234,34,106013,1,2,0:0:0:0:
299,96,106166,6,0,P|351:103|419:106,2,112,2|2|0,0:0|0:0|0:0,0:0:0:0:
56,325,107696,5,2,0:0:0:0:
56,325,107773,1,2,0:0:0:0:
56,325,107849,2,0,P|48:283|33:227,1,84,2|2,0:0|0:0,0:0:0:0:
115,167,108232,2,0,P|121:196|135:243,1,56,0|0,0:0|0:0,0:0:0:0:
135,232,108462,2,0,P|170:240|223:241,1,70,2|0,0:0|1:0,0:0:0:0:
291,153,108768,5,8,3:3:0:0:
291,153,108844,1,8,3:3:0:0:
291,153,108921,2,0,P|247:190|241:293,1,140,6|0,3:3|0:0,0:0:0:0:
395,296,109380,1,0,3:0:0:0:
285,345,109533,2,0,P|252:349|199:366,1,62.9999980773926,2|0,0:0|3:0,0:0:0:0:
395,296,109839,5,0,3:0:0:0:
325,222,109992,2,0,P|316:162|308:80,1,125.999996154785,8|8,0:1|0:3,0:0:0:0:
200,21,110451,1,0,3:0:0:0:
211,105,110605,1,2,0:0:0:0:
86,76,110758,5,0,3:3:0:0:
179,36,110911,2,0,P|187:95|196:178,1,125.999996154785,8|0,0:1|3:0,0:0:0:0:
36,251,111370,2,0,P|29:220|26:172,1,62.9999980773926,2|0,0:0|3:0,0:0:0:0:
120,208,111676,6,0,P|169:198|233:262,2,125.999996154785,2|8|2,3:2|0:1|3:2,0:0:0:0:
120,208,112594,6,0,L|132:280,1,62.9999980773926,4|0,3:2|0:0,0:0:0:0:
226,338,112900,2,0,P|283:332|363:317,1,125.999996154785,8|2,0:1|0:0,0:0:0:0:
411,225,113360,1,0,3:0:0:0:
486,268,113513,6,0,L|499:334,1,62.9999980773926,2|2,3:2|0:0,0:0:0:0:
324,238,113819,2,0,L|311:172,1,62.9999980773926,2|8,0:0|0:1,0:0:0:0:
442,20,114125,1,8,3:3:0:0:
369,65,114278,1,8,3:3:0:0:
273,12,114431,6,0,B|204:3|223:59|129:39,1,125.999996154785,6|0,0:3|0:0,0:0:0:0:
61,124,114890,1,8,0:1:0:0:
160,125,115043,2,0,P|168:104|170:52,1,62.9999980773926,2|0,0:0|3:2,0:0:0:0:
46,138,115349,6,0,P|36:186|32:255,1,94.499997116089,2|0,3:2|0:0,0:0:0:0:
46,243,115656,2,0,L|107:227,2,41.9999987182618,8|8|8,0:3|0:3|0:3,0:0:0:0:
113,343,115962,2,0,L|156:348,2,41.9999987182618,8|8|8,0:3|0:3|0:3,0:0:0:0:
229,274,116268,6,0,P|263:278|299:283,1,62.9999980773926,6|0,0:3|0:0,0:0:0:0:
432,333,116574,2,0,P|462:281|453:195,1,125.999996154785,2|2,3:2|3:2,0:0:0:0:
338,62,117033,1,0,0:0:0:0:
429,69,117186,6,0,P|421:100|416:148,1,62.9999980773926,4|2,0:3|0:0,0:0:0:0:
321,177,117492,2,0,P|258:169|182:149,1,125.999996154785,2|2,3:2|3:2,0:0:0:0:
113,79,117951,1,0,0:0:0:0:
113,79,118105,6,0,P|144:69|186:68,1,62.9999980773926,4|0,0:3|0:0,0:0:0:0:
90,201,118411,2,0,P|58:210|17:212,1,62.9999980773926,2|0,3:2|0:0,0:0:0:0:
16,316,118717,1,8,3:1:0:0:
16,316,118870,1,2,0:0:0:0:
154,288,119023,6,0,P|185:267|188:167,1,125.999996154785,4|2,0:3|3:2,0:0:0:0:
290,26,119635,2,0,P|324:42|364:46,1,62.9999980773926,2|8,3:2|0:1,0:0:0:0:
490,68,119941,6,0,P|460:82|437:117,1,62.9999980773926,4|0,0:3|0:0,0:0:0:0:
412,214,120247,2,0,B|349:201|350:263|282:241,1,125.999996154785,2|0,3:2|3:2,0:0:0:0:
202,147,120707,1,8,0:1:0:0:
298,160,120860,6,0,P|323:117|288:26,1,125.999996154785,4|2,0:3|3:2,0:0:0:0:
110,178,121472,2,0,P|92:209|94:260,1,62.9999980773926,2|8,3:2|0:1,0:0:0:0:
85,348,121778,5,4,3:3:0:0:
85,348,121931,1,0,0:0:0:0:
174,308,122084,1,2,3:2:0:0:
257,353,122237,1,0,0:0:0:0:
352,332,122390,2,0,P|389:326|430:315,1,62.9999980773926,2|8,3:2|0:1,0:0:0:0:
478,238,122696,6,0,L|490:100,1,125.999996154785,4|2,0:3|3:2,0:0:0:0:
274,27,123309,1,2,3:2:0:0:
336,108,123462,1,0,0:0:0:0:
262,30,123615,6,0,B|185:23|205:100|111:77,1,146.999995513916,4|0,0:3|0:0,0:0:0:0:
100,174,124227,2,0,P|107:203|113:242,1,48.9999985046387,0|0,3:0|0:0,0:0:0:0:
264,298,124533,6,0,P|249:252|244:185,2,97.9999970092774,8|2|2,3:1|3:2|3:2,0:0:0:0:
461,149,125451,1,8,3:1:0:0:
256,192,125528,12,2,127288,0:0:0:0:
150,265,127594,6,0,B|186:263|241:291|241:291|266:249|327:225,1,188.999994232178,14|0,0:2|1:1,0:0:0:0:
431,180,128207,1,4,1:2:0:0:
391,263,128360,2,0,P|357:238|348:145,1,125.999996154785,0|4,3:0|3:3,0:0:0:0:
269,21,128819,1,6,3:3:0:0:
278,34,128972,1,4,0:3:0:0:
241,110,129125,6,0,B|214:167|223:246|223:246|208:208|158:197,1,210,6|0,0:3|3:2,0:0:0:0:
0,259,129737,2,0,P|41:247|76:214,1,70,2|0,0:0|0:0,0:0:0:0:
145,274,130043,6,0,P|226:277|301:309,1,140,4|0,0:3|0:0,0:0:0:0:
491,330,130502,1,2,0:0:0:0:
397,362,130656,2,0,P|384:333|379:289,1,70,2|0,0:0|3:0,0:0:0:0:
445,208,130962,6,0,L|461:59,1,140,4|2,0:3|0:0,0:0:0:0:
308,18,131421,1,0,1:2:0:0:
216,97,131574,1,2,3:2:0:0:
154,31,131727,1,0,3:0:0:0:
294,33,131880,6,0,P|314:73|313:112,1,70,4|0,0:3|1:0,0:0:0:0:
138,152,132186,1,2,3:2:0:0:
138,152,132339,1,2,3:2:0:0:
201,227,132492,1,2,1:2:0:0:
298,206,132645,1,2,1:2:0:0:
193,246,132798,6,0,P|131:200|55:217,1,140,6|0,0:3|0:0,0:0:0:0:
75,306,133258,1,0,1:0:0:0:
75,306,133411,2,0,P|73:339|67:382,1,70,0|0,0:0|0:0,0:0:0:0:
182,343,133717,6,0,P|250:332|331:325,1,140,4|2,0:3|0:0,0:0:0:0:
473,225,134176,1,0,0:0:0:0:
473,225,134329,2,0,P|435:231|381:236,1,70,2|0,0:0|3:0,0:0:0:0:
298,206,134635,6,0,P|264:169|278:108,1,105,4|0,0:3|0:0,0:0:0:0:
271,105,134941,2,0,L|188:117,1,70,2|0,0:0|3:2,0:0:0:0:
121,33,135247,1,2,0:0:0:0:
56,110,135400,1,2,0:0:0:0:
3,33,135554,5,4,0:3:0:0:
72,111,135707,2,0,P|82:144|81:186,1,70,8|0,0:3|0:0,0:0:0:0:
42,359,136013,1,8,0:3:0:0:
147,282,136166,1,0,3:0:0:0:
70,196,136319,1,0,1:0:0:0:
140,291,136472,6,0,P|175:322|276:302,1,140,6|0,0:3|0:0,0:0:0:0:
368,241,136931,1,2,0:0:0:0:
368,241,137084,2,0,P|384:271|389:313,1,70,2|0,0:0|0:0,0:0:0:0:
266,209,137390,6,0,P|241:173|230:70,1,140,4|0,0:3|0:0,0:0:0:0:
316,31,137849,1,2,0:0:0:0:
316,31,138002,2,0,P|276:36|241:49,1,70,2|0,0:0|0:0,0:0:0:0:
113,22,138309,5,4,0:3:0:0:
113,22,138462,1,2,0:0:0:0:
45,109,138615,1,0,0:0:0:0:
45,109,138768,1,2,0:0:0:0:
136,159,138921,2,0,L|150:231,1,70,2|0,0:0|0:0,0:0:0:0:
118,356,139227,5,4,0:3:0:0:
194,301,139380,1,2,0:0:0:0:
289,317,139533,1,0,1:2:0:0:
375,360,139686,1,2,3:2:0:0:
462,326,139839,2,0,P|477:288|461:244,1,70,0|0,1:0|3:0,0:0:0:0:
480,137,140145,6,0,B|408:128|360:199|360:199|332:157|369:109,1,210,8|8,3:3|0:3,0:0:0:0:
297,38,140758,2,0,P|331:35|374:20,1,70,0|8,3:0|0:3,0:0:0:0:
244,134,141064,6,0,P|229:200|221:303,2,140,4|2|2,0:3|3:2|0:0,0:0:0:0:
63,56,141829,1,0,1:0:0:0:
137,157,141982,6,0,P|149:112|147:75,1,70,6|2,0:3|0:0,0:0:0:0:
240,125,142288,1,2,0:0:0:0:
121,234,142441,6,0,P|109:189|111:152,1,70,4|2,1:2|0:0,0:0:0:0:
2,159,142747,1,2,3:2:0:0:
43,324,142900,6,0,P|83:351|196:324,1,140,4|0,1:3|1:0,0:0:0:0:
171,343,143360,1,2,1:2:0:0:
301,239,143513,1,0,1:0:0:0:
421,351,143666,1,2,1:2:0:0:
335,333,143819,6,0,P|327:210|316:122,1,210,6|0,0:3|1:0,0:0:0:0:
214,33,144431,2,0,P|190:73|192:103,1,70,2|0,0:0|0:0,0:0:0:0:
301,239,144737,6,0,P|260:208|154:234,1,140,4|0,0:3|1:0,0:0:0:0:
18,308,145196,1,2,0:0:0:0:
100,359,145349,2,0,P|132:352|184:336,1,70,0|0,1:0|0:0,0:0:0:0:
84,226,145656,6,0,P|72:167|65:68,1,140,6|2,0:3|1:2,0:0:0:0:
188,8,146115,2,0,P|194:40|198:94,1,70,0|2,1:0|0:0,0:0:0:0:
175,215,146421,1,2,0:0:0:0:
284,133,146574,6,0,P|336:120|406:112,1,105,6|0,0:3|0:0,0:0:0:0:
406,120,146880,1,0,1:0:0:0:
391,29,147033,1,2,1:2:0:0:
348,207,147186,1,8,0:3:0:0:
343,228,147339,1,8,0:3:0:0:
418,264,147492,6,0,B|305:229|329:342|203:290,1,210,6|0,0:3|1:0,0:0:0:0:
118,349,148105,2,0,P|110:313|108:270,1,70,2|0,0:0|0:0,0:0:0:0:
56,111,148411,6,0,P|90:155|194:149,1,140,4|2,0:3|1:2,0:0:0:0:
262,0,148870,1,0,0:0:0:0:
208,62,149023,2,0,P|170:74|120:83,1,70,2|0,1:2|0:0,0:0:0:0:
342,20,149329,6,0,P|385:52|394:161,1,140,6|2,0:3|0:0,0:0:0:0:
301,307,149788,1,0,1:2:0:0:
379,230,149941,2,0,P|384:193|388:145,1,70,8|8,0:3|0:3,0:0:0:0:
301,307,150247,5,6,3:3:0:0:
198,267,150400,2,0,P|161:278|103:291,2,70,8|8|8,0:3|0:3|0:3,0:0:0:0:
471,216,150860,1,0,1:0:0:0:
509,296,151013,1,0,1:0:0:0:
443,364,151166,6,0,P|388:331|298:336,1,140,6|0,0:3|0:0,0:0:0:0:
130,285,151625,1,0,1:0:0:0:
130,285,151778,2,0,P|164:277|198:267,1,70,0|0,0:0|0:0,0:0:0:0:
350,80,152084,6,0,B|311:97|311:97|299:211,1,140,4|0,0:3|1:0,0:0:0:0:
195,355,152543,1,2,0:0:0:0:
195,355,152696,2,0,L|206:276,1,70,0|0,1:0|0:0,0:0:0:0:
158,131,153002,5,6,0:3:0:0:
55,97,153156,1,2,0:0:0:0:
29,198,153309,1,0,0:0:0:0:
128,230,153462,1,2,1:2:0:0:
170,125,153615,2,0,L|160:40,1,70,0|2,0:0|0:0,0:0:0:0:
385,30,153921,5,6,0:3:0:0:
385,30,154074,1,2,0:0:0:0:
330,103,154227,2,0,P|299:99|260:89,2,70,0|2|0,1:0|0:0|1:0,0:0:0:0:
378,20,154686,1,2,3:2:0:0:
420,140,154839,6,0,P|367:135|294:207,1,140,4|0,0:3|0:0,0:0:0:0:
390,322,155298,1,0,1:2:0:0:
310,365,155451,2,0,P|279:365|226:350,1,70,2|0,3:2|0:0,0:0:0:0:
148,278,155758,6,0,B|76:268|86:339|6:312,2,140,4|2|2,0:3|1:2|1:2,0:0:0:0:
281,198,156523,1,2,0:0:0:0:
233,275,156676,6,0,P|175:260|135:127,1,210,6|8,0:3|0:3,0:0:0:0:
235,24,157288,2,0,P|250:51|250:99,1,70,0|0,3:0|0:0,0:0:0:0:
281,198,157594,6,0,B|354:177|364:99|364:99|382:148|419:155,1,210,6|0,0:3|3:2,0:0:0:0:
498,204,158207,2,0,P|477:235|475:275,1,70,0|0,1:2|1:2,0:0:0:0:
389,353,158513,5,6,3:3:0:0:
256,192,158589,12,14,162186,0:2:0:0:
180,81,165860,6,0,P|214:69|227:156,1,146.999995513916,2|2,3:2|0:0,0:0:0:0:
204,229,166472,2,0,P|203:205|218:170,1,48.9999985046387,2|0,0:0|0:0,0:0:0:0:
296,220,166778,2,0,B|195:203|219:311|98:265,1,195.999994018555,2|2,0:0|0:0,0:0:0:0:
118,272,167696,6,0,P|192:277|270:317,1,146.999995513916,2|0,0:0|0:0,0:0:0:0:
404,266,168309,2,0,P|389:287|381:331,1,48.9999985046387,2|0,0:0|0:0,0:0:0:0:
346,376,168615,2,0,L|324:179,1,195.999994018555,2|2,0:0|0:0,0:0:0:0:
325,181,169533,6,0,P|303:208|299:284,1,97.9999970092774,2|2,0:0|0:0,0:0:0:0:
131,361,169992,1,0,0:0:0:0:
131,361,170145,2,0,P|119:340|117:295,1,48.9999985046387,2|0,0:0|0:0,0:0:0:0:
179,169,170451,6,0,L|111:188,1,48.9999985046387,2|0,0:0|0:0,0:0:0:0:
43,257,170758,2,0,L|208:272,1,146.999995513916,2|2,0:0|0:0,0:0:0:0:
275,204,171370,6,0,L|283:138,1,48.9999985046387,2|0,0:0|0:0,0:0:0:0:
223,41,171676,2,0,P|191:68|199:171,1,146.999995513916,2|2,0:0|0:0,0:0:0:0:
358,177,172288,6,0,P|379:143|360:82,2,97.9999970092774,2|2|2,0:0|0:0|0:0,0:0:0:0:
359,177,173207,6,0,P|385:137|301:133,1,168,6|2,3:3|0:0,0:0:0:0:
275,204,173819,2,0,L|283:267,1,56,0|2,0:0|0:0,0:0:0:0:
192,357,174125,6,0,L|178:240,1,112,4|2,0:3|0:0,0:0:0:0:
51,132,174584,1,0,0:0:0:0:
95,207,174737,2,0,P|129:212|155:221,1,56,2|0,0:0|0:0,0:0:0:0:
261,103,175043,6,0,P|211:118|149:120,2,112,4|2|2,0:3|0:0|0:0,0:0:0:0:
446,168,175809,1,2,0:0:0:0:
495,88,175962,6,0,P|468:76|430:77,1,56,4|0,0:3|0:0,0:0:0:0:
366,225,176268,1,0,3:2:0:0:
446,294,176421,1,0,3:0:0:0:
446,168,176574,1,2,3:2:0:0:
446,168,176727,1,0,0:0:0:0:
355,247,176880,6,0,L|344:310,1,56,4|0,0:3|0:0,0:0:0:0:
259,278,177186,2,0,L|248:341,1,56,2|0,0:0|0:0,0:0:0:0:
157,319,177492,2,0,L|51:338,1,84,2|0,3:2|0:0,0:0:0:0:
74,333,177798,6,0,L|58:262,1,56,4|0,0:3|0:0,0:0:0:0:
145,229,178105,2,0,L|128:157,1,56,2|0,3:2|3:0,0:0:0:0:
226,117,178411,2,0,L|327:93,1,84,2|0,3:2|0:0,0:0:0:0:
310,87,178717,6,0,P|341:107|344:196,2,112,4|2|0,0:3|0:0|3:0,0:0:0:0:
80,57,179482,1,0,3:0:0:0:
151,123,179635,6,0,L|211:109,1,56,4|0,0:3|0:0,0:0:0:0:
67,67,179941,1,2,0:2:0:0:
11,137,180094,1,0,3:0:0:0:
69,213,180247,2,0,P|98:222|132:223,1,56,2|0,3:2|3:0,0:0:0:0:
277,161,180554,6,0,P|327:208|306:306,1,168,4|0,0:3|0:0,0:0:0:0:
159,355,181166,1,0,0:0:0:0:
138,269,181319,1,0,0:0:0:0:
223,291,181472,6,0,P|254:296|283:302,1,56,4|0,0:3|0:0,0:0:0:0:
129,278,181778,2,0,P|103:230|111:163,1,112,2|2,0:2|0:0,0:0:0:0:
245,124,182237,1,2,0:0:0:0:
301,50,182390,6,0,P|270:14|153:34,1,168,4|0,0:3|0:0,0:0:0:0:
245,124,183002,2,0,P|252:151|255:182,1,56,0|0,3:2|0:0,0:0:0:0:
319,249,183309,6,0,B|347:225|405:221|405:221|361:211|342:166,1,168,4|0,0:3|3:0,0:0:0:0:
255,178,183921,2,0,P|225:190|187:198,1,56,0|0,3:0|0:0,0:0:0:0:
138,269,184227,6,0,P|88:255|15:249,2,112,4|0|0,0:3|0:0|0:0,0:0:0:0:
331,305,184992,1,0,0:0:0:0:
252,341,185145,6,0,P|238:314|237:276,1,56,4|0,0:3|0:0,0:0:0:0:
391,164,185451,2,0,P|405:191|406:229,1,56,0|0,0:0|0:0,0:0:0:0:
331,305,185758,2,0,L|306:160,1,140,0|6,0:0|0:2,0:0:0:0:
308,45,187900,6,0,P|304:87|302:141,1,83.9999974365235,2|0,0:0|0:0,0:0:0:0:
213,151,188360,1,2,0:0:0:0:
213,151,188513,2,0,P|216:175|222:200,1,41.9999987182618,2|2,0:0|0:0,0:0:0:0:
314,238,188819,6,0,P|356:226|408:217,2,83.9999974365235,2|2|2,0:0|0:0|0:0,0:0:0:0:
153,326,189737,2,0,P|110:337|59:347,2,83.9999974365235,2|2|2,0:0|0:0|0:0,0:0:0:0:
341,330,190656,5,2,0:0:0:0:
246,286,190962,2,0,P|238:246|237:203,1,70,2|2,0:0|0:0,0:0:0:0:
130,81,191574,5,2,0:0:0:0:
219,121,191880,2,0,P|220:148|211:206,1,70,2|2,0:0|0:0,0:0:0:0:
162,295,192611,5,2,0:0:0:0:
236,216,193033,2,0,L|310:226,1,70,2|2,0:0|0:0,0:0:0:0:
76,110,208102,5,4,3:3:0:0:
142,176,208255,1,0,0:0:0:0:
222,121,208408,2,0,L|298:126,1,56,2|0,0:0|3:2,0:0:0:0:
123,272,208714,2,0,L|97:328,1,56,2|0,3:2|0:0,0:0:0:0:
58,114,209020,6,0,L|43:54,1,56,4|2,0:3|0:0,0:0:0:0:
237,217,209326,2,0,L|250:271,1,56,2|2,0:0|0:0,0:0:0:0:
441,116,209632,1,2,3:2:0:0:
363,59,209785,1,2,3:2:0:0:
326,132,209938,6,0,P|366:107|434:103,1,112,2|2,0:0|0:0,0:0:0:0:
245,224,210704,5,2,0:0:0:0:
245,224,210780,1,2,0:0:0:0:
245,224,210857,2,0,P|172:261|91:249,1,140,6|0,0:3|0:0,0:0:0:0:
115,258,211316,1,0,1:0:0:0:
142,157,211469,2,0,P|139:136|130:88,1,70,2|0,0:0|0:0,0:0:0:0:
245,224,211775,6,0,P|255:281|268:345,1,105,4|0,0:3|0:0,0:0:0:0:
261,341,212081,2,0,P|304:346|340:359,1,70,0|2,1:0|0:0,0:0:0:0:
483,237,212387,1,2,1:2:0:0:
499,325,212540,1,0,0:0:0:0:
403,292,212693,6,0,P|397:271|392:213,1,70,6|0,0:3|0:0,0:0:0:0:
468,37,213000,1,2,0:0:0:0:
366,78,213153,2,0,P|300:89|212:101,1,140,0|0,1:2|0:0,0:0:0:0:
26,155,213612,6,0,P|79:160|149:172,1,105,6|0,0:3|0:0,0:0:0:0:
140,158,213918,1,0,1:0:0:0:
156,285,214071,1,2,0:0:0:0:
272,236,214224,1,0,1:0:0:0:
258,229,214377,1,2,0:0:0:0:
156,285,214530,6,0,L|311:267,1,140,6|0,0:3|0:0,0:0:0:0:
482,333,214989,1,0,1:0:0:0:
401,358,215142,2,0,P|388:330|386:281,1,70,2|0,3:2|0:0,0:0:0:0:
457,82,215449,5,4,3:3:0:0:
378,38,215602,1,0,0:0:0:0:
457,82,215755,2,0,P|450:120|446:178,1,70,2|0,1:2|0:0,0:0:0:0:
297,103,216061,2,0,P|263:98|211:89,1,70,2|0,1:2|0:0,0:0:0:0:
68,212,216367,6,0,P|125:182|217:190,1,140,6|2,0:3|0:0,0:0:0:0:
367,271,216826,2,0,P|332:285|293:283,1,70,0|0,1:2|0:0,0:0:0:0:
154,268,217132,1,2,3:2:0:0:
283,308,217285,5,4,0:3:0:0:
317,201,217438,2,0,L|300:124,2,70,8|8|8,0:3|0:3|0:3,0:0:0:0:
185,361,217898,1,0,1:0:0:0:
193,255,218051,1,0,1:0:0:0:
283,308,218204,6,0,P|355:317|451:325,1,140,6|0,0:3|0:0,0:0:0:0:
193,255,218663,1,0,1:2:0:0:
193,255,218816,2,0,P|163:268|107:281,1,70,2|0,0:0|0:0,0:0:0:0:
288,198,219122,6,0,P|312:145|278:52,1,140,4|2,0:3|1:2,0:0:0:0:
118,33,219581,1,0,0:0:0:0:
118,33,219734,2,0,L|130:114,1,70,2|0,1:2|0:0,0:0:0:0:
84,295,220040,5,6,0:3:0:0:
178,322,220193,1,2,0:0:0:0:
212,229,220347,1,2,0:0:0:0:
116,199,220500,1,2,1:2:0:0:
188,334,220653,2,0,P|224:341|266:343,1,70,2|0,0:0|0:0,0:0:0:0:
425,237,220959,5,6,0:3:0:0:
493,292,221112,2,0,L|484:377,2,70,2|0|2,0:0|1:0|0:0,0:0:0:0:
479,92,221571,1,0,1:0:0:0:
398,144,221724,1,2,1:2:0:0:
318,89,221877,6,0,B|245:82|250:143|157:116,1,140,6|2,0:3|0:0,0:0:0:0:
30,202,222336,2,0,P|71:206|120:222,1,70,0|2,1:0|0:0,0:0:0:0:
205,294,222642,1,0,0:0:0:0:
118,197,222796,6,0,P|88:153|109:59,2,140,4|2|2,0:3|1:2|1:2,0:0:0:0:
266,223,223561,1,2,0:0:0:0:
205,294,223714,6,0,P|138:300|59:326,1,140,6|0,0:3|0:0,0:0:0:0:
266,223,224173,1,8,0:3:0:0:
336,292,224326,2,0,P|371:312|414:317,1,70,8|0,0:3|0:0,0:0:0:0:
266,223,224632,6,0,B|206:180|238:97|238:97|296:88|310:134,1,210,6|0,0:3|0:0,0:0:0:0:
421,237,225245,2,0,P|435:213|436:165,1,70,0|0,0:0|0:0,0:0:0:0:
359,187,225551,6,0,L|377:307,3,112,6|2|2|2,3:2|0:0|0:0|1:2,0:0:0:0:
372,306,227081,2,0,L|361:248,1,56,2|0,0:0|3:2,0:0:0:0:
273,304,227387,6,0,P|243:311|206:317,1,56,2|2,3:2|0:0,0:0:0:0:
136,245,227693,2,0,P|110:239|73:226,1,56,2|0,0:0|0:0,0:0:0:0:
100,85,228000,2,0,P|132:110|134:168,1,84,2|0,0:0|0:0,0:0:0:0:
136,158,228306,6,0,L|251:138,1,112,2|2,1:2|0:0,0:0:0:0:
387,59,228765,1,2,0:0:0:0:
387,59,228918,2,0,L|325:48,1,56,2|0,0:0|1:0,0:0:0:0:
351,154,229224,6,0,P|379:187|369:266,3,112,2|2|2|2,3:2|0:0|0:0|1:2,0:0:0:0:
372,256,230755,2,0,P|369:224|382:189,1,56,2|0,0:0|3:2,0:0:0:0:
458,237,231061,5,2,3:2:0:0:
316,329,231214,2,0,P|259:335|192:352,1,112,2|2,0:0|3:2,0:0:0:0:
205,347,231673,2,0,P|176:340|136:339,1,56,2|0,0:0|0:0,0:0:0:0:
57,244,231979,6,0,B|94:227|132:246|132:246|142:259|142:259|181:267|222:244,1,168,2|0,1:2|0:0,0:0:0:0:
267,136,232591,2,0,P|241:136|194:157,1,56,2|0,0:0|0:0,0:0:0:0:
111,153,232898,6,0,P|78:113|86:40,3,112,4|2|2|0,3:2|0:0|0:0|1:2,0:0:0:0:
95,45,234428,2,0,P|83:77|91:116,1,56,0|0,0:0|3:2,0:0:0:0:
203,54,234734,6,0,L|269:38,1,56,2|0,3:2|0:0,0:0:0:0:
363,113,235040,2,0,L|308:126,1,56,2|0,0:0|0:0,0:0:0:0:
418,31,235347,2,0,P|446:56|453:139,1,112,2|2,0:0|1:2,0:0:0:0:
128,208,235959,2,0,P|154:192|194:189,1,56,2|2,0:0|0:0,0:0:0:0:
258,261,236265,1,2,0:2:0:0:
378,195,236418,1,0,1:0:0:0:
441,231,236571,6,0,L|313:211,3,112,2|2|2|2,3:2|0:0|0:0|1:2,0:0:0:0:
322,203,238102,2,0,L|384:193,1,56,2|0,0:0|3:0,0:0:0:0:
457,126,238408,5,2,3:2:0:0:
359,278,238561,2,0,P|304:288|257:261,1,112,2|2,0:0|0:0,0:0:0:0:
129,168,239020,2,0,P|158:164|190:142,1,56,2|0,0:0|0:0,0:0:0:0:
262,13,239326,6,0,B|254:58|216:77|216:77|267:101|259:169,1,168,2|0,1:2|0:0,0:0:0:0:
69,224,239938,2,0,P|52:200|50:152,1,56,2|0,0:0|0:0,0:0:0:0:
180,150,240245,6,0,B|276:146|242:224|354:203|354:203|311:268|281:223|239:262|239:262|296:277|281:309|326:318|326:318|300:331|306:355|259:356,1,503.999984619141,2|4,0:0|0:0,0:0:0:0:
