osu file format v14

[General]
AudioFilename: audio.mp3
AudioLeadIn: 0
PreviewTime: 207552
Countdown: 1
SampleSet: Soft
StackLeniency: 0.7
Mode: 2
LetterboxInBreaks: 0
WidescreenStoryboard: 0

[Editor]
DistanceSpacing: 1
BeatDivisor: 4
GridSize: 16
TimelineZoom: 2.6

[Metadata]
Title:Star Divine
TitleUnicode:Star Divine
Artist:Starlight Kukugumi
ArtistUnicode:スタァライト九九組
Creator:[-naniwa-]
Version:Overshining
Source:少女☆歌劇 レヴュー・スタァライト
Tags:Shoujo☆Kageki Revue Starlight anime 本多友紀 愛城華戀 天堂真矢 西條 クロディーヌ 神楽 ひかり こやま ももよ とみた まほ 三森 すずこ 相羽 あいな ctb naniwa
BeatmapID:1826080
BeatmapSetID:873636

[Difficulty]
HPDrainRate:7
CircleSize:4.5
OverallDifficulty:9.6
ApproachRate:9.6
SliderMultiplier:2.2
SliderTickRate:1

[Events]
//Background and Video events
0,0,"54a4b5bb76eea9708acd4c40c40a7475b90c9357.png",0,0
//Break Periods
2,173252,180793
//Storyboard Layer 0 (Background)
//Storyboard Layer 1 (Fail)
//Storyboard Layer 2 (Pass)
//Storyboard Layer 3 (Foreground)
//Storyboard Sound Samples

[TimingPoints]
552,375,4,2,0,100,1,0
552,-100,4,2,0,10,0,0
927,-100,4,2,0,30,0,0
1302,-100,4,2,0,50,0,0
1677,-100,4,2,0,70,0,0
2052,375,4,2,0,100,1,0
2052,-100,4,2,0,90,0,0
3552,-100,4,2,0,80,0,0
8052,-100,4,2,0,90,0,0
8802,-100,4,2,0,95,0,0
9552,-100,4,2,0,100,0,0
11052,-100,4,2,0,90,0,0
14052,-100,4,2,0,70,0,0
20052,-100,4,2,0,80,0,0
20614,-100,4,2,0,70,0,0
21552,-100,4,2,0,80,0,0
22114,-100,4,2,0,70,0,0
23802,-66.6666666666667,4,2,0,70,0,0
24552,-100,4,2,0,60,0,0
25302,-100,4,2,0,70,0,0
25677,-100,4,2,0,80,0,0
26052,-100,4,2,0,80,0,0
32052,-100,4,2,0,90,0,0
32802,-100,4,2,0,80,0,0
33552,-100,4,2,0,90,0,0
34302,-100,4,2,0,80,0,0
35052,-100,4,2,0,90,0,0
36552,-100,4,2,0,80,0,0
38052,-100,4,2,0,80,0,0
44052,-66.6666666666667,4,2,0,90,0,0
44802,-83.3333333333333,4,2,0,80,0,0
45552,-66.6666666666667,4,2,0,90,0,0
46302,-83.3333333333333,4,2,0,80,0,0
47052,-83.3333333333333,4,2,0,70,0,0
47427,-83.3333333333333,4,2,0,75,0,0
47802,-83.3333333333333,4,2,0,80,0,0
48177,-83.3333333333333,4,2,0,85,0,0
48552,-83.3333333333333,4,2,0,70,0,0
50052,-76.9230769230769,4,2,0,100,0,1
59052,-66.6666666666667,4,2,0,100,0,1
59802,-76.9230769230769,4,2,0,100,0,1
62052,-76.9230769230769,4,2,0,90,0,1
65052,-100,4,2,0,70,0,1
65427,-71.4285714285714,4,2,0,75,0,1
65802,-55.5555555555556,4,2,0,80,0,1
66177,-45.4545454545455,4,2,0,85,0,1
66552,-38.4615384615385,4,2,0,90,0,1
66927,-33.3333333333333,4,2,0,95,0,1
67302,-66.6666666666667,4,2,0,100,0,1
68052,-100,4,2,0,90,0,0
71052,-100,4,2,0,80,0,0
74052,-100,4,2,0,90,0,0
74802,-66.6666666666667,4,2,0,95,0,0
75552,-100,4,2,0,100,0,0
77052,-100,4,2,0,90,0,0
78552,-100,4,2,0,80,0,0
80052,-100,4,2,0,70,0,0
86052,-100,4,2,0,80,0,0
86802,-100,4,2,0,90,0,0
87552,-100,4,2,0,80,0,0
88114,-100,4,2,0,90,0,0
89052,-76.9230769230769,4,2,0,80,0,0
90552,-76.9230769230769,4,2,0,60,0,0
91114,-100,4,2,0,70,0,0
91302,-100,4,2,0,80,0,0
92052,-83.3333333333333,4,2,0,90,0,0
94302,-83.3333333333333,4,2,0,80,0,0
95052,-83.3333333333333,4,2,0,90,0,0
97302,-83.3333333333333,4,2,0,80,0,0
98052,-83.3333333333333,4,2,0,90,0,0
98802,-83.3333333333333,4,2,0,80,0,0
99552,-83.3333333333333,4,2,0,90,0,0
100114,-83.3333333333333,4,2,0,80,0,0
101052,-83.3333333333333,4,2,0,90,0,0
101802,-83.3333333333333,4,2,0,80,0,0
102552,-83.3333333333333,4,2,0,80,0,0
104052,-83.3333333333333,4,2,0,90,0,0
110052,-66.6666666666667,4,2,0,100,0,0
110802,-83.3333333333333,4,2,0,90,0,0
111552,-66.6666666666667,4,2,0,100,0,0
112302,-83.3333333333333,4,2,0,90,0,0
113052,-83.3333333333333,4,2,0,80,0,0
113427,-83.3333333333333,4,2,0,85,0,0
113802,-83.3333333333333,4,2,0,90,0,0
114177,-83.3333333333333,4,2,0,95,0,0
114552,-83.3333333333333,4,2,0,80,0,0
116052,-76.9230769230769,4,2,0,100,0,1
128052,-76.9230769230769,4,2,0,80,0,1
131052,-100,4,2,0,70,0,1
131427,-71.4285714285714,4,2,0,75,0,1
131802,-55.5555555555556,4,2,0,80,0,1
132177,-45.4545454545455,4,2,0,85,0,1
132552,-38.4615384615385,4,2,0,90,0,1
132927,-33.3333333333333,4,2,0,95,0,1
133302,-66.6666666666667,4,2,0,100,0,1
134052,-100,4,2,0,70,0,0
143052,-100,4,2,0,80,0,0
144552,-100,4,2,0,90,0,0
145677,-66.6666666666667,4,2,0,90,0,0
146052,-83.3333333333333,4,2,0,80,0,0
170052,-83.3333333333333,4,2,0,50,0,0
181302,-83.3333333333333,4,2,0,50,0,0
182052,-133.333333333333,4,2,0,70,0,0
185052,-133.333333333333,4,2,0,80,0,0
188052,-100,4,2,0,90,0,0
194052,-100,4,2,0,70,0,0
195552,-100,4,2,0,80,0,0
201552,-90.9090909090909,4,2,0,70,0,0
202302,-90.9090909090909,4,2,0,75,0,0
203052,-90.9090909090909,4,2,0,80,0,0
203802,-90.9090909090909,4,2,0,85,0,0
204552,-83.3333333333333,4,2,0,90,0,0
205302,-83.3333333333333,4,2,0,95,0,0
206052,-83.3333333333333,4,2,0,80,0,0
209052,-66.6666666666667,4,2,0,100,0,1
221052,-66.6666666666667,4,2,0,90,0,1
224052,-100,4,2,0,70,0,1
224427,-71.4285714285714,4,2,0,75,0,1
224802,-55.5555555555556,4,2,0,80,0,1
225177,-45.4545454545455,4,2,0,85,0,1
225552,-38.4615384615385,4,2,0,90,0,1
225927,-33.3333333333333,4,2,0,95,0,1
226302,-66.6666666666667,4,2,0,100,0,1
227052,-100,4,2,0,60,0,0
231552,-100,4,2,0,50,0,0
232677,-90.9090909090909,4,2,0,70,0,0
233052,-83.3333333333333,4,2,0,90,0,0
236052,-83.3333333333333,4,2,0,80,0,0
239052,-83.3333333333333,4,2,0,90,0,0
239802,-83.3333333333333,4,2,0,95,0,0
240552,-83.3333333333333,4,2,0,100,0,0
242052,-83.3333333333333,4,2,0,80,0,0
245052,-83.3333333333333,4,2,0,50,0,0

[HitObjects]
256,192,552,12,0,1489,0:0:0:0:
304,256,1677,6,0,L|400:256,1,55
160,176,1864,2,0,L|64:176,1,55
432,256,2052,6,0,P|432:192|320:176,1,165,4|0,0:0|0:0,0:0:0:0:
192,160,2427,1,0,0:0:0:0:
384,96,2614,1,0,0:0:0:0:
80,208,2802,2,0,P|176:144|304:128,1,220,2|0,0:0|0:0,0:0:0:0:
80,64,3364,1,0,0:0:0:0:
336,96,3552,6,0,L|480:96,1,110,2|0,0:0|0:0,0:0:0:0:
224,96,3927,2,0,L|352:96,1,110,2|0,0:0|0:0,0:0:0:0:
48,64,4302,2,0,P|48:160|192:176,1,220,2|0,0:0|0:0,0:0:0:0:
400,160,4864,2,0,L|448:112,1,55
96,144,5052,6,0,L|261:144,2,165,8|0|0,0:0|0:0|0:0,0:0:0:0:
400,160,5802,2,0,L|208:160,1,165,8|0,0:0|0:0,0:0:0:0:
448,96,6364,1,0,0:0:0:0:
176,128,6552,6,0,L|288:128,2,110,2|0|0,0:0|0:0|0:0,0:0:0:0:
352,64,7114,2,0,L|288:64,1,55
96,128,7302,1,2,0:0:0:0:
286,160,7395,2,0,L|176:160,1,110
480,96,7677,2,0,L|400:96,1,55,2|0,0:0|0:0,0:0:0:0:
176,96,7864,2,0,L|256:96,1,55
432,288,8052,6,0,P|432:224|320:208,1,165,4|0,0:0|0:0,0:0:0:0:
448,128,8427,1,0,0:0:0:0:
256,160,8614,2,0,L|352:160,1,55
144,288,8802,2,0,P|112:288|64:160,1,165,2|0,0:0|0:0,0:0:0:0:
160,128,9177,1,0,0:0:0:0:
320,112,9364,2,0,L|240:112,1,55
432,64,9552,5,2,0:0:0:0:
160,112,9739,1,0,0:0:0:0:
480,224,9927,1,2,0:0:0:0:
80,224,10114,1,0,0:0:0:0:
272,208,10302,1,2,0:0:0:0:
192,208,10395,1,0,0:0:0:0:
272,208,10489,1,0,0:0:0:0:
416,128,10677,1,0,0:0:0:0:
272,96,10864,2,0,L|327:96,1,55
128,112,11052,6,0,P|80:160|112:224,1,110,2|0,0:0|0:0,0:0:0:0:
176,208,11333,1,0,0:0:0:0:
336,192,11427,2,0,L|448:192,1,110
384,128,11708,1,0,0:0:0:0:
208,80,11802,2,0,L|304:80,2,55,2|0|0,0:0|0:0|0:0,0:0:0:0:
64,144,12083,2,0,P|64:240|160:240,1,165
368,208,12552,6,0,L|432:208,2,55,2|0|0,0:0|0:0|0:0,0:0:0:0:
176,128,12927,1,0,0:0:0:0:
432,128,13114,2,0,L|352:128,1,55
176,128,13302,2,0,L|176:64,1,55,2|0,0:0|0:0,0:0:0:0:
368,96,13489,2,0,L|240:96,1,110,0|2,0:0|0:0,0:0:0:0:
112,96,13864,2,0,L|176:96,1,55
384,192,14052,6,0,L|224:192,2,110,2|0|0,0:0|0:0|0:0,0:0:0:0:
274,192,14614,2,0,L|130:192,1,110
384,192,14989,2,0,P|432:128|320:80,1,220
175,68,15552,5,2,0:0:0:0:
352,176,15927,2,0,L|352:64,1,110
208,192,16302,1,0,0:0:0:0:
64,160,16583,1,0,0:0:0:0:
352,112,16864,1,0,0:0:0:0:
128,192,17052,6,0,L|288:192,2,110,2|0|0,0:0|0:0|0:0,0:0:0:0:
238,192,17614,2,0,L|382:192,1,110
128,128,17989,2,0,L|32:32,2,110
288,224,18552,6,0,P|384:192|416:112,1,165,2|0,0:0|0:0,0:0:0:0:
320,80,18927,2,0,L|208:80,1,110
448,80,19302,2,0,L|448:224,1,110
304,160,19864,1,0,0:0:0:0:
48,80,20052,6,0,P|32:160|128:176,1,165,4|0,0:0|0:0,0:0:0:0:
224,128,20427,1,0,0:0:0:0:
432,240,20614,2,0,L|48:240,1,330,2|0,0:0|0:0,0:0:0:0:
208,160,21364,1,0,0:0:0:0:
464,80,21552,6,0,P|480:160|384:176,1,165,2|0,0:0|0:0,0:0:0:0:
288,128,21927,1,0,0:0:0:0:
80,240,22114,2,0,L|192:240,1,110,2|0,0:0|0:0,0:0:0:0:
464,80,22489,2,0,L|336:80,2,110
96,128,23052,6,0,L|272:128,1,165,2|0,0:0|0:0,0:0:0:0:
416,128,23427,2,0,L|240:128,1,165
416,128,23802,2,0,P|464:176|416:336,1,247.500009441376,2|0,0:0|0:0,0:0:0:0:
96,128,24177,2,0,P|48:176|96:336,1,247.500009441376
352,192,24552,5,2,0:0:0:0:
176,144,24833,1,0,0:0:0:0:
416,64,25114,1,2,0:0:0:0:
128,224,25302,2,0,L|183:224,1,55,8|0,0:0|0:0,0:0:0:0:
32,144,25489,1,2,0:0:0:0:
471,144,25677,2,0,L|416:144,1,55,8|0,0:0|0:0,0:0:0:0:
240,208,25864,2,0,L|295:208,1,55,2|0,0:0|0:0,0:0:0:0:
96,144,26052,6,0,L|228:144,2,110,4|0|0,0:0|0:0|0:0,0:0:0:0:
256,96,26614,1,0,0:0:0:0:
96,80,26802,2,0,L|224:80,1,110,2|0,0:0|0:0,0:0:0:0:
32,160,27177,2,0,L|32:272,1,110
144,272,27458,1,0,0:0:0:0:
368,224,27552,6,0,L|224:224,1,110,2|0,0:0|0:0,0:0:0:0:
368,160,27833,1,0,0:0:0:0:
480,256,27927,2,0,L|480:112,1,110
256,176,28302,2,0,L|366:176,1,110,2|0,0:0|0:0,0:0:0:0:
478,112,28677,2,0,L|368:112,1,110,2|0,0:0|0:0,0:0:0:0:
224,144,29052,6,0,L|96:144,2,110,8|0|0,0:0|0:0|0:0,0:0:0:0:
48,144,29614,1,0,0:0:0:0:
224,96,29802,2,0,L|336:96,1,110,2|0,0:0|0:0,0:0:0:0:
224,176,30177,2,0,L|96:176,1,110
224,176,30458,1,0,0:0:0:0:
416,160,30552,6,0,L|288:160,2,110,2|0|0,0:0|0:0|0:0,0:0:0:0:
256,96,31114,2,0,L|320:96,1,55
416,240,31302,2,0,L|272:240,1,110,2|0,0:0|0:0,0:0:0:0:
48,208,31677,2,2,L|128:208,1,55,2|0,0:0|0:0,0:0:0:0:
416,192,31864,2,0,L|480:192,1,55
96,208,32052,6,0,P|128:288|272:304,1,220,4|0,0:0|0:0,0:0:0:0:
96,208,32614,1,0,0:0:0:0:
272,192,32802,1,2,0:0:0:0:
96,208,32989,1,0,0:0:0:0:
304,192,33177,1,2,0:0:0:0:
96,160,33364,2,0,L|176:160,1,55
416,208,33552,6,0,P|384:288|240:304,1,220,8|0,0:0|0:0,0:0:0:0:
416,208,34114,1,0,0:0:0:0:
240,192,34302,1,2,0:0:0:0:
416,160,34489,2,0,L|272:160,2,110,0|2|0,0:0|0:0|0:0,0:0:0:0:
128,240,35052,6,0,P|80:240|32:192,1,110,4|0,0:0|0:0,0:0:0:0:
336,256,35427,2,0,P|400:224|448:144,1,165,8|0,0:0|0:0,0:0:0:0:
160,96,35802,2,0,L|288:96,2,110,2|0|2,0:0|0:0|0:0,0:0:0:0:
352,192,36552,6,0,L|224:192,1,110,2|0,0:0|0:0,0:0:0:0:
464,128,36833,2,0,L|352:128,1,110,2|0,0:0|0:0,0:0:0:0:
128,160,37114,2,0,L|288:160,1,110,2|0,0:0|0:0,0:0:0:0:
64,80,37489,1,0,0:0:0:0:
272,64,37677,1,2,0:0:0:0:
32,272,37864,2,0,L|128:272,1,55
288,224,38052,5,8,0:0:0:0:
448,304,38239,2,0,P|464:224|352:144,1,220,2|0,0:0|0:0,0:0:0:0:
208,144,38802,1,2,0:0:0:0:
368,64,38989,1,0,0:0:0:0:
160,64,39177,2,0,L|48:64,1,110,2|0,0:0|0:0,0:0:0:0:
336,208,39552,6,0,L|192:208,1,110,2|0,0:0|0:0,0:0:0:0:
400,160,39833,2,0,P|432:112|384:80,1,110,2|0,0:0|0:0,0:0:0:0:
176,96,40114,1,2,0:0:0:0:
368,64,40302,1,8,0:0:0:0:
432,112,40395,1,0,0:0:0:0:
480,160,40489,1,2,0:0:0:0:
436,217,40583,1,0,0:0:0:0:
368,256,40677,1,2,0:0:0:0:
224,160,40864,2,0,L|304:160,1,55
48,80,41052,6,0,P|32:144|224:272,1,330,8|2,0:0|0:0,0:0:0:0:
384,160,41802,1,0,0:0:0:0:
224,112,41989,1,2,0:0:0:0:
384,272,42177,2,0,P|448:240|432:128,1,165
176,192,42552,6,0,L|64:192,1,110,2|0,0:0|0:0,0:0:0:0:
304,128,42833,2,0,L|432:128,1,110,2|0,0:0|0:0,0:0:0:0:
64,80,43114,2,0,L|208:80,1,110,2|8,0:0|0:0,0:0:0:0:
416,64,43489,1,2,0:0:0:0:
64,192,43677,2,0,L|160:192,1,55
352,160,43864,2,0,L|297:160,1,55
112,128,44052,6,0,L|320:128,1,165.000006294251,8|0,0:0|0:0,0:0:0:0:
352,80,44333,2,0,L|144:80,1,165.000006294251,2|0,0:0|0:0,0:0:0:0:
272,192,44614,1,2,0:0:0:0:
112,224,44802,2,0,L|224:224,1,65.9999979858399,2|0,0:0|0:0,0:0:0:0:
32,144,44989,2,0,L|128:144,1,65.9999979858399
244,224,45177,2,0,L|132:224,1,65.9999979858399,2|0,0:0|0:0,0:0:0:0:
324,144,45364,2,0,L|228:144,1,65.9999979858399
32,208,45552,6,0,L|208:208,1,165.000006294251,8|0,0:0|0:0,0:0:0:0:
288,240,45833,2,0,L|96:240,1,165.000006294251,2|0,0:0|0:0,0:0:0:0:
208,160,46114,1,2,0:0:0:0:
384,176,46302,2,0,L|256:176,1,65.9999979858399,2|0,0:0|0:0,0:0:0:0:
448,176,46489,1,0,0:0:0:0:
128,208,46677,2,0,P|128:128|256:96,1,197.99999395752,2|0,0:0|0:0,0:0:0:0:
416,176,47052,6,0,L|336:176,1,65.9999979858399,2|0,0:0|0:0,0:0:0:0:
480,112,47239,2,0,L|368:112,1,65.9999979858399
256,80,47427,2,0,L|336:80,1,65.9999979858399,2|0,0:0|0:0,0:0:0:0:
464,208,47614,2,0,L|352:208,1,65.9999979858399
192,208,47802,2,0,L|112:208,1,65.9999979858399,2|0,0:0|0:0,0:0:0:0:
322,128,47989,2,0,L|256:128,1,65.9999979858399,2|0,0:0|0:0,0:0:0:0:
48,112,48177,2,0,L|144:112,1,65.9999979858399,2|0,0:0|0:0,0:0:0:0:
352,112,48364,2,0,L|432:112,1,65.9999979858399,2|0,0:0|0:0,0:0:0:0:
144,144,48552,6,0,L|224:144,2,65.9999979858399,2|0|0,0:0|0:0|0:0,0:0:0:0:
272,96,48927,1,8,0:0:0:0:
80,208,49114,1,2,0:0:0:0:
208,160,49208,2,0,L|32:160,1,131.99999597168,2|0,0:0|0:0,0:0:0:0:
144,96,49489,2,0,L|224:96,1,65.9999979858399
80,96,49677,1,0,0:0:0:0:
32,128,49723,1,0,0:0:0:0:
32,176,49770,1,0,0:0:0:0:
80,208,49817,1,0,0:0:0:0:
272,176,49864,2,0,L|352:176,1,65.9999979858399,0|0,0:0|0:0,0:0:0:0:
496,208,50052,6,0,P|464:128|352:96,1,142.99999345398,4|0,0:0|0:0,0:0:0:0:
240,112,50333,1,0,0:0:0:0:
407,64,50427,2,0,L|336:64,1,71.4999967269899,2|0,0:0|0:0,0:0:0:0:
272,192,50614,2,0,L|368:192,1,71.4999967269899
176,128,50802,1,2,0:0:0:0:
304,96,50895,2,0,L|144:96,1,142.99999345398
336,176,51177,2,0,L|416:176,1,71.4999967269899,2|0,0:0|0:0,0:0:0:0:
192,176,51364,2,0,L|96:176,1,71.4999967269899
384,112,51552,6,0,L|224:112,1,142.99999345398,8|0,0:0|0:0,0:0:0:0:
384,64,51833,2,0,L|224:64,1,142.99999345398,8|0,0:0|0:0,0:0:0:0:
384,176,52114,2,0,L|464:176,1,71.4999967269899,8|0,0:0|0:0,0:0:0:0:
247,176,52302,2,0,L|176:176,2,71.4999967269899,8|0|0,0:0|0:0|0:0,0:0:0:0:
368,112,52677,1,0,0:0:0:0:
96,128,52864,2,0,L|192:128,1,71.4999967269899
336,64,53052,6,0,P|384:96|384:208,1,142.99999345398,2|0,0:0|0:0,0:0:0:0:
112,144,53427,1,0,0:0:0:0:
224,224,53520,2,0,L|80:224,1,142.99999345398
320,160,53802,2,0,L|240:160,1,71.4999967269899,2|0,0:0|0:0,0:0:0:0:
176,96,53989,2,0,L|272:96,1,71.4999967269899
48,192,54177,2,0,L|156:98,1,142.99999345398,2|0,0:0|0:0,0:0:0:0:
416,208,54552,6,0,L|240:208,1,142.99999345398,8|0,0:0|0:0,0:0:0:0:
416,144,54833,2,0,L|345:144,2,71.4999967269899,8|0|0,0:0|0:0|0:0,0:0:0:0:
480,144,55114,1,8,0:0:0:0:
336,128,55302,2,0,L|240:128,1,71.4999967269899,8|0,0:0|0:0,0:0:0:0:
416,128,55489,1,0,0:0:0:0:
128,128,55677,2,0,L|48:128,1,71.4999967269899
240,64,55864,2,0,L|128:64,1,71.4999967269899
352,144,56052,6,0,L|512:144,1,142.99999345398,4|0,0:0|0:0,0:0:0:0:
144,272,56427,2,0,P|112:176|208:176,1,214.49999018097,2|0,0:0|0:0,0:0:0:0:
352,224,56802,1,2,0:0:0:0:
208,160,56895,2,0,L|368:160,1,142.99999345398
208,112,57177,2,0,L|64:112,1,142.99999345398,2|0,0:0|0:0,0:0:0:0:
176,112,57458,1,0,0:0:0:0:
432,176,57552,6,0,L|288:176,1,142.99999345398,8|0,0:0|0:0,0:0:0:0:
80,176,57833,2,0,L|224:176,1,142.99999345398,8|0,0:0|0:0,0:0:0:0:
432,176,58114,1,8,0:0:0:0:
256,176,58302,1,8,0:0:0:0:
336,112,58395,2,0,L|256:112,1,71.4999967269899
432,80,58677,1,0,0:0:0:0:
128,128,58864,2,0,L|48:128,1,71.4999967269899
336,160,59052,6,0,L|512:160,1,165.000006294251,2|0,0:0|0:0,0:0:0:0:
176,160,59427,2,0,L|0:160,1,165.000006294251,2|0,0:0|0:0,0:0:0:0:
112,96,59708,1,0,0:0:0:0:
304,128,59802,2,0,L|375:128,1,71.4999967269899,2|0,0:0|0:0,0:0:0:0:
448,128,59989,1,0,0:0:0:0:
176,160,60177,2,0,L|256:160,1,71.4999967269899,2|0,0:0|0:0,0:0:0:0:
176,96,60364,2,0,L|104:96,1,71.4999967269899
304,96,60552,6,0,L|447:96,1,142.99999345398,2|0,0:0|0:0,0:0:0:0:
96,112,60927,1,2,0:0:0:0:
288,96,61114,2,0,L|208:96,1,71.4999967269899
48,192,61302,1,2,0:0:0:0:
112,192,61395,1,0,0:0:0:0:
176,192,61489,1,2,0:0:0:0:
48,192,61583,1,0,0:0:0:0:
304,160,61677,2,0,L|384:160,1,71.4999967269899,2|0,0:0|0:0,0:0:0:0:
448,96,61864,2,0,L|368:96,1,71.4999967269899,2|0,0:0|0:0,0:0:0:0:
128,80,62052,6,0,P|48:144|256:272,1,428.999980361939,4|0,0:0|0:0,0:0:0:0:
368,288,62802,2,0,P|384:208|96:64,1,428.999980361939,8|0,0:0|0:0,0:0:0:0:
336,96,63552,6,0,L|224:288,1,214.49999018097,2|2,0:0|0:0,0:0:0:0:
432,240,64114,1,0,0:0:0:0:
176,208,64302,2,0,L|400:208,1,214.49999018097,8|0,0:0|0:0,0:0:0:0:
80,160,64677,2,0,L|192:160,1,71.4999967269899
256,160,64864,2,0,L|176:160,1,71.4999967269899
32,96,65052,6,0,L|160:96,1,110,2|0,0:0|0:0,0:0:0:0:
32,96,65427,2,0,L|256:96,1,153.999995300293,2|0,0:0|0:0,0:0:0:0:
32,96,65802,2,0,L|272:96,1,197.99999395752,2|0,0:0|0:0,0:0:0:0:
32,96,66177,2,0,L|288:96,1,242.000007385254,2|0,0:0|0:0,0:0:0:0:
480,96,66552,6,0,L|194:96,1,285.99998690796,2|0,0:0|0:0,0:0:0:0:
480,96,66927,2,0,L|128:96,1,330.000012588501,2|0,0:0|0:0,0:0:0:0:
400,208,67302,2,0,L|496:208,1,82.5000031471254,2|0,0:0|0:0,0:0:0:0:
112,208,67489,2,0,L|16:208,1,82.5000031471254,2|0,0:0|0:0,0:0:0:0:
496,144,67677,2,0,L|400:144,1,82.5000031471254,2|0,0:0|0:0,0:0:0:0:
16,144,67864,2,0,L|112:144,1,82.5000031471254,2|0,0:0|0:0,0:0:0:0:
368,176,68052,6,0,L|240:176,2,110,4|0|2,0:0|0:0|0:0,0:0:0:0:
208,96,68614,2,0,L|272:96,1,55
464,64,68802,2,0,L|400:64,1,55
304,208,68989,2,0,L|448:208,1,110,0|2,0:0|0:0,0:0:0:0:
112,208,69364,2,0,L|32:208,1,55
288,144,69552,6,0,L|160:144,1,110,2|0,0:0|0:0,0:0:0:0:
480,96,69927,2,0,L|336:96,1,110,2|0,0:0|0:0,0:0:0:0:
192,160,70302,2,0,L|48:160,2,110,2|0|0,0:0|0:0|0:0,0:0:0:0:
448,192,70864,2,0,L|393:192,1,55
176,208,71052,6,0,L|304:208,1,110,2|0,0:0|0:0,0:0:0:0:
176,144,71333,2,0,L|32:144,1,110,2|0,0:0|0:0,0:0:0:0:
288,144,71614,1,2,0:0:0:0:
144,144,71802,2,0,L|64:144,2,55,2|0|0,0:0|0:0|0:0,0:0:0:0:
272,96,72177,1,2,0:0:0:0:
64,48,72364,1,0,0:0:0:0:
336,176,72552,6,0,L|496:176,1,110,2|0,0:0|0:0,0:0:0:0:
336,176,72833,1,0,0:0:0:0:
448,112,72927,2,0,L|304:112,1,110,2|0,0:0|0:0,0:0:0:0:
80,176,73302,1,2,0:0:0:0:
160,176,73395,1,0,0:0:0:0:
80,176,73489,1,0,0:0:0:0:
336,176,73677,1,2,0:0:0:0:
256,176,73770,1,0,0:0:0:0:
336,176,73864,1,0,0:0:0:0:
416,176,73958,1,0,0:0:0:0:
160,176,74052,6,0,L|288:176,2,110,4|0|2,0:0|0:0|0:0,0:0:0:0:
391,112,74614,2,0,L|336:112,1,55,2|0,0:0|0:0,0:0:0:0:
96,144,74802,2,0,L|320:144,2,165.000006294251,4|0|0,0:0|0:0|0:0,0:0:0:0:
272,256,75364,2,0,L|354:256,1,82.5000031471254,2|0,0:0|0:0,0:0:0:0:
80,64,75552,5,2,0:0:0:0:
352,112,75739,1,0,0:0:0:0:
32,224,75927,1,2,0:0:0:0:
432,224,76114,1,0,0:0:0:0:
240,208,76302,1,2,0:0:0:0:
320,208,76395,1,0,0:0:0:0:
240,208,76489,1,0,0:0:0:0:
96,128,76677,1,0,0:0:0:0:
240,96,76864,2,0,L|185:96,1,55
464,240,77052,6,0,P|432:192|368:176,1,110,2|0,0:0|0:0,0:0:0:0:
288,144,77333,1,0,0:0:0:0:
384,96,77427,2,0,L|439:96,1,55
331,144,77614,2,0,L|386:145,1,55
208,112,77802,2,0,L|336:112,1,110,2|0,0:0|0:0,0:0:0:0:
96,64,78177,1,0,0:0:0:0:
256,144,78364,2,0,L|192:144,1,55
416,144,78552,5,8,0:0:0:0:
224,96,78739,1,0,0:0:0:0:
496,64,78927,1,2,0:0:0:0:
352,80,79114,2,0,L|432:80,1,55
121,208,79302,2,0,L|176:208,1,55,2|0,0:0|0:0,0:0:0:0:
64,144,79489,2,0,L|224:144,1,110,0|2,0:0|0:0,0:0:0:0:
304,128,79864,2,0,L|240:128,1,55
434,308,80052,6,0,P|469:216|336:88,1,275,4|0,0:0|0:0,0:0:0:0:
190,93,80614,2,0,P|163:153|405:176,1,440,2|0,0:0|0:0,0:0:0:0:
78,308,81552,6,0,P|43:216|176:88,1,275,4|0,0:0|0:0,0:0:0:0:
322,93,82114,2,0,P|349:153|107:176,1,440,2|0,0:0|0:0,0:0:0:0:
352,304,83052,6,0,P|480:288|432:176,1,275,4|0,0:0|0:0,0:0:0:0:
112,272,83614,2,0,P|144:208|480:96,1,440,2|0,0:0|0:0,0:0:0:0:
160,304,84552,6,0,P|32:288|80:176,1,275,4|0,0:0|0:0,0:0:0:0:
336,160,85114,1,2,0:0:0:0:
80,128,85489,1,2,0:0:0:0:
144,128,85582,1,0,0:0:0:0:
208,128,85676,1,2,0:0:0:0:
384,224,85770,2,0,L|288:224,2,55
144,176,86052,5,2,0:0:0:0:
272,176,86239,1,0,0:0:0:0:
96,176,86427,1,0,0:0:0:0:
224,176,86614,1,0,0:0:0:0:
48,176,86802,1,2,0:0:0:0:
176,176,86989,2,0,L|112:176,1,55
256,176,87177,1,2,0:0:0:0:
48,176,87364,1,0,0:0:0:0:
368,176,87552,5,2,0:0:0:0:
240,176,87739,1,0,0:0:0:0:
416,176,87927,1,0,0:0:0:0:
288,176,88114,2,0,P|240:240|336:320,1,220,4|0,0:0|0:0,0:0:0:0:
80,160,88677,1,2,0:0:0:0:
416,112,88864,1,0,0:0:0:0:
96,288,89052,6,0,L|239:128,1,214.49999018097,2|0,0:0|0:0,0:0:0:0:
416,288,89427,2,0,L|273:128,1,214.49999018097
464,240,89802,2,0,L|464:96,1,142.99999345398,2|0,0:0|0:0,0:0:0:0:
96,208,90177,2,0,L|320:208,1,214.49999018097
32,304,90552,6,0,P|48:224|160:144,1,214.49999018097,2|0,0:0|0:0,0:0:0:0:
320,224,91114,2,0,L|240:224,1,55
416,272,91302,1,2,0:0:0:0:
480,272,91395,1,0,0:0:0:0:
416,272,91489,1,2,0:0:0:0:
352,272,91583,1,0,0:0:0:0:
112,240,91677,2,0,L|208:240,1,55,2|0,0:0|0:0,0:0:0:0:
480,192,91864,2,0,L|384:192,1,55,2|0,0:0|0:0,0:0:0:0:
224,192,92052,6,0,L|400:192,2,131.99999597168,4|0|0,0:0|0:0|0:0,0:0:0:0:
432,112,92614,2,0,L|272:112,1,131.99999597168,0|2,0:0|0:0,0:0:0:0:
128,128,92989,2,0,P|80:192|192:304,1,263.99999194336
368,192,93552,6,0,L|224:192,1,131.99999597168,2|0,0:0|0:0,0:0:0:0:
368,192,93833,1,0,0:0:0:0:
464,192,93927,1,0,0:0:0:0:
366,96,94114,2,0,L|432:96,1,65.9999979858399
176,272,94302,1,2,0:0:0:0:
131,226,94395,1,0,0:0:0:0:
140,163,94489,1,0,0:0:0:0:
196,132,94583,1,0,0:0:0:0:
304,272,94677,1,2,0:0:0:0:
384,272,94770,1,0,0:0:0:0:
304,272,94864,1,0,0:0:0:0:
224,272,94958,1,0,0:0:0:0:
432,176,95052,6,0,L|288:176,2,131.99999597168,8|0|0,0:0|0:0|0:0,0:0:0:0:
208,128,95614,2,0,L|352:128,1,131.99999597168,0|2,0:0|0:0,0:0:0:0:
128,64,95989,1,0,0:0:0:0:
304,240,96177,2,0,L|160:240,1,131.99999597168
352,192,96552,6,0,L|496:192,1,131.99999597168,2|0,0:0|0:0,0:0:0:0:
112,144,96927,1,0,0:0:0:0:
272,128,97114,2,0,L|192:128,1,65.9999979858399
352,240,97302,1,2,0:0:0:0:
384,185,97395,1,0,0:0:0:0:
354,130,97489,1,0,0:0:0:0:
291,128,97583,1,0,0:0:0:0:
48,192,97677,2,0,L|144:192,1,65.9999979858399,2|0,0:0|0:0,0:0:0:0:
432,208,97864,2,0,L|336:208,1,65.9999979858399
176,256,98052,6,0,P|112:192|256:144,1,263.99999194336,4|0,0:0|0:0,0:0:0:0:
384,160,98614,1,0,0:0:0:0:
224,160,98802,1,2,0:0:0:0:
432,160,98989,1,0,0:0:0:0:
272,160,99177,1,2,0:0:0:0:
480,160,99364,1,0,0:0:0:0:
176,160,99552,6,0,P|224:256|400:256,1,263.99999194336,8|0,0:0|0:0,0:0:0:0:
80,304,100114,2,0,L|0:304,2,65.9999979858399,2|0|0,0:0|0:0|0:0,0:0:0:0:
256,208,100489,1,0,0:0:0:0:
32,144,100677,1,2,0:0:0:0:
384,128,100864,1,0,0:0:0:0:
112,288,101052,6,0,L|272:144,1,197.99999395752,4|0,0:0|0:0,0:0:0:0:
128,128,101427,2,0,L|16:48,1,131.99999597168,8|0,0:0|0:0,0:0:0:0:
384,192,101802,2,0,L|224:192,2,131.99999597168,2|0|2,0:0|0:0|0:0,0:0:0:0:
192,192,102552,6,0,L|48:192,1,131.99999597168,2|0,0:0|0:0,0:0:0:0:
320,192,102833,2,0,L|464:192,1,131.99999597168,2|0,0:0|0:0,0:0:0:0:
208,128,103114,2,0,P|144:160|208:256,1,197.99999395752,2|0,0:0|0:0,0:0:0:0:
272,272,103489,1,0,0:0:0:0:
352,240,103583,1,0,0:0:0:0:
400,176,103677,1,2,0:0:0:0:
352,112,103770,1,0,0:0:0:0:
128,160,103864,2,0,L|0:160,1,65.9999979858399
416,288,104052,6,0,P|464:176|352:112,1,263.99999194336,4|0,0:0|0:0,0:0:0:0:
192,160,104614,1,0,0:0:0:0:
480,64,104802,1,2,0:0:0:0:
368,160,104989,2,0,L|528:160,2,131.99999597168,0|2|0,0:0|0:0|0:0,0:0:0:0:
112,224,105552,6,0,L|256:224,1,131.99999597168,8|0,0:0|0:0,0:0:0:0:
48,176,105833,2,0,P|16:112|96:64,1,131.99999597168,8|0,0:0|0:0,0:0:0:0:
272,64,106114,1,8,0:0:0:0:
96,64,106302,1,2,0:0:0:0:
32,112,106395,1,0,0:0:0:0:
16,192,106489,1,0,0:0:0:0:
64,256,106583,1,0,0:0:0:0:
144,272,106677,1,2,0:0:0:0:
336,256,106864,2,0,L|416:256,1,65.9999979858399
128,96,107052,6,0,P|80:160|208:208,1,263.99999194336,4|0,0:0|0:0,0:0:0:0:
352,112,107614,1,0,0:0:0:0:
160,144,107802,2,0,L|320:144,1,131.99999597168,2|0,0:0|0:0,0:0:0:0:
64,272,108177,2,0,P|16:208|128:176,1,197.99999395752,2|0,0:0|0:0,0:0:0:0:
256,208,108552,6,0,L|96:208,1,131.99999597168,8|0,0:0|0:0,0:0:0:0:
320,112,108833,2,0,L|96:112,1,197.99999395752,8|8,0:0|0:0,0:0:0:0:
400,224,109302,2,0,L|496:224,1,65.9999979858399,2|0,0:0|0:0,0:0:0:0:
240,208,109489,2,0,L|160:208,1,65.9999979858399
368,272,109677,1,2,0:0:0:0:
448,224,109770,1,0,0:0:0:0:
400,160,109864,1,0,0:0:0:0:
320,144,109958,1,0,0:0:0:0:
112,160,110052,6,0,L|304:160,1,165.000006294251,8|0,0:0|0:0,0:0:0:0:
400,96,110333,2,0,L|224:96,1,165.000006294251,8|0,0:0|0:0,0:0:0:0:
112,224,110614,1,8,0:0:0:0:
240,224,110802,2,0,L|336:224,1,65.9999979858399,2|0,0:0|0:0,0:0:0:0:
176,160,110989,2,0,L|256:160,1,65.9999979858399
112,224,111177,2,0,L|16:224,1,65.9999979858399,2|0,0:0|0:0,0:0:0:0:
176,160,111364,2,0,L|96:160,1,65.9999979858399
288,192,111552,6,0,L|464:192,1,165.000006294251,8|0,0:0|0:0,0:0:0:0:
336,128,111833,2,0,L|512:128,1,165.000006294251,8|0,0:0|0:0,0:0:0:0:
384,128,112114,1,8,0:0:0:0:
208,208,112302,2,0,L|288:208,1,65.9999979858399,2|0,0:0|0:0,0:0:0:0:
144,208,112489,1,0,0:0:0:0:
432,272,112677,2,0,P|400:160|336:160,1,197.99999395752,2|0,0:0|0:0,0:0:0:0:
64,224,113052,6,0,L|176:224,1,65.9999979858399,2|0,0:0|0:0,0:0:0:0:
272,208,113239,2,0,L|384:208,1,65.9999979858399
80,160,113427,2,0,L|-16:160,1,65.9999979858399,2|0,0:0|0:0,0:0:0:0:
160,144,113614,2,0,L|226:144,1,65.9999979858399
448,144,113802,2,0,L|336:144,1,65.9999979858399,2|0,0:0|0:0,0:0:0:0:
144,96,113989,2,0,L|32:96,1,65.9999979858399,2|0,0:0|0:0,0:0:0:0:
352,112,114177,2,0,L|256:112,1,65.9999979858399,2|0,0:0|0:0,0:0:0:0:
80,64,114364,2,0,L|192:64,1,65.9999979858399,2|0,0:0|0:0,0:0:0:0:
384,224,114552,5,4,0:0:0:0:
320,224,114645,1,0,0:0:0:0:
384,224,114739,1,2,0:0:0:0:
448,224,114833,1,0,0:0:0:0:
256,224,114927,1,2,0:0:0:0:
416,240,115114,1,2,0:0:0:0:
444,224,115160,1,0,0:0:0:0:
462,196,115207,1,0,0:0:0:0:
465,164,115254,1,0,0:0:0:0:
452,134,115301,1,2,0:0:0:0:
426,114,115348,1,0,0:0:0:0:
394,108,115395,1,0,0:0:0:0:
160,144,115489,1,2,0:0:0:0:
448,80,115677,1,2,0:0:0:0:
160,160,115864,2,0,L|272:160,1,65.9999979858399
64,224,116052,6,0,L|224:224,2,142.99999345398,4|0|2,0:0|0:0|0:0,0:0:0:0:
192,128,116614,1,0,0:0:0:0:
336,192,116708,1,0,0:0:0:0:
64,224,116802,2,0,L|135:224,1,71.4999967269899,2|0,0:0|0:0,0:0:0:0:
336,192,116989,2,0,L|192:192,1,142.99999345398,0|2,0:0|0:0,0:0:0:0:
384,192,117364,1,0,0:0:0:0:
176,160,117552,6,0,L|336:160,2,142.99999345398,2|0|2,0:0|0:0|0:0,0:0:0:0:
368,96,118114,1,0,0:0:0:0:
304,96,118208,1,0,0:0:0:0:
448,208,118302,2,0,L|336:208,2,71.4999967269899,2|0|0,0:0|0:0|0:0,0:0:0:0:
192,208,118677,1,0,0:0:0:0:
384,144,118864,2,0,L|288:144,1,71.4999967269899
112,176,119052,6,0,L|256:176,1,142.99999345398,8|0,0:0|0:0,0:0:0:0:
112,80,119427,2,0,P|48:128|112:256,1,214.49999018097,4|0,0:0|0:0,0:0:0:0:
256,224,119802,2,0,L|399:224,1,142.99999345398,2|0,0:0|0:0,0:0:0:0:
256,160,120177,2,0,L|96:160,1,142.99999345398,2|0,0:0|0:0,0:0:0:0:
384,288,120552,6,0,L|496:160,1,142.99999345398,4|0,0:0|0:0,0:0:0:0:
384,288,120833,1,0,0:0:0:0:
240,272,120927,2,0,L|416:272,1,142.99999345398,2|0,0:0|0:0,0:0:0:0:
144,176,121302,2,0,L|224:176,2,71.4999967269899,2|0|0,0:0|0:0|0:0,0:0:0:0:
400,176,121677,2,0,L|304:176,1,71.4999967269899,2|0,0:0|0:0,0:0:0:0:
112,144,121864,2,0,L|32:144,1,71.4999967269899
416,128,122052,6,0,L|272:128,1,142.99999345398,8|0,0:0|0:0,0:0:0:0:
448,128,122427,2,0,P|480:208|368:288,1,214.49999018097,4|0,0:0|0:0,0:0:0:0:
240,272,122802,1,2,0:0:0:0:
368,224,122895,2,0,L|288:224,1,71.4999967269899
144,176,123177,2,0,L|288:176,1,142.99999345398,2|0,0:0|0:0,0:0:0:0:
80,176,123552,5,8,0:0:0:0:
288,176,123739,1,0,0:0:0:0:
144,176,123927,1,2,0:0:0:0:
208,176,124020,1,0,0:0:0:0:
144,176,124114,1,2,0:0:0:0:
80,176,124208,1,0,0:0:0:0:
288,224,124302,2,0,L|448:224,1,142.99999345398,2|0,0:0|0:0,0:0:0:0:
80,176,124677,1,0,0:0:0:0:
288,160,124864,2,0,L|192:160,1,71.4999967269899
400,208,125052,6,0,L|496:96,1,142.99999345398,4|0,0:0|0:0,0:0:0:0:
240,144,125427,1,2,0:0:0:0:
384,224,125614,2,0,L|288:224,1,71.4999967269899,2|0,0:0|0:0,0:0:0:0:
464,160,125802,1,8,0:0:0:0:
176,112,125989,1,0,0:0:0:0:
352,288,126177,2,0,P|416:256|416:112,1,214.49999018097,2|0,0:0|0:0,0:0:0:0:
272,192,126552,6,0,L|416:192,1,142.99999345398,2|0,0:0|0:0,0:0:0:0:
272,192,126927,2,0,L|112:192,1,142.99999345398,2|0,0:0|0:0,0:0:0:0:
208,192,127208,1,0,0:0:0:0:
384,208,127302,2,0,L|288:208,1,71.4999967269899,2|0,0:0|0:0,0:0:0:0:
128,208,127489,2,0,L|224:208,1,71.4999967269899,2|0,0:0|0:0,0:0:0:0:
384,208,127677,2,0,L|480:208,1,71.4999967269899,2|0,0:0|0:0,0:0:0:0:
128,208,127864,1,2,0:0:0:0:
304,256,128052,6,0,P|320:176|128:80,1,285.99998690796,4|0,0:0|0:0,0:0:0:0:
352,80,128614,1,2,0:0:0:0:
176,80,128802,2,0,P|112:144|320:272,1,428.999980361939,8|0,0:0|0:0,0:0:0:0:
416,208,129552,6,0,L|256:48,2,214.49999018097,2|2|0,0:0|0:0|0:0,0:0:0:0:
256,272,130302,2,0,L|96:272,1,142.99999345398,2|0,0:0|0:0,0:0:0:0:
192,272,130583,1,0,0:0:0:0:
375,160,130677,2,0,L|304:160,1,71.4999967269899,2|0,0:0|0:0,0:0:0:0:
408,160,130864,2,0,L|480:160,1,71.4999967269899,2|0,0:0|0:0,0:0:0:0:
256,160,131052,6,0,L|112:160,1,110,2|0,0:0|0:0,0:0:0:0:
256,160,131427,2,0,L|432:160,1,153.999995300293,2|0,0:0|0:0,0:0:0:0:
256,160,131802,2,0,L|0:160,1,197.99999395752,2|0,0:0|0:0,0:0:0:0:
256,160,132177,2,0,L|512:160,1,242.000007385254,2|0,0:0|0:0,0:0:0:0:
288,176,132552,6,0,L|-16:176,1,285.99998690796,2|0,0:0|0:0,0:0:0:0:
182,160,132927,2,0,L|512:160,1,330.000012588501,2|0,0:0|0:0,0:0:0:0:
96,240,133302,2,0,L|14:240,1,82.5000031471254,2|0,0:0|0:0,0:0:0:0:
416,256,133489,2,0,L|499:256,1,82.5000031471254,2|0,0:0|0:0,0:0:0:0:
0,224,133677,2,0,L|96:224,1,82.5000031471254,2|0,0:0|0:0,0:0:0:0:
512,224,133864,2,0,L|400:224,1,82.5000031471254,2|0,0:0|0:0,0:0:0:0:
192,224,134052,5,2,0:0:0:0:
464,224,134239,1,2,0:0:0:0:
128,224,134614,2,0,L|128:96,1,110
336,160,135177,1,2,0:0:0:0:
64,176,135364,1,2,0:0:0:0:
368,192,135739,5,0,0:0:0:0:
160,144,136114,1,2,0:0:0:0:
512,192,136302,1,2,0:0:0:0:
256,192,136583,1,2,0:0:0:0:
0,192,136864,1,2,0:0:0:0:
352,176,137052,5,2,0:0:0:0:
80,144,137239,1,2,0:0:0:0:
400,176,137614,2,0,L|400:304,1,110
176,160,138177,1,2,0:0:0:0:
448,128,138364,1,2,0:0:0:0:
416,240,138739,5,2,0:0:0:0:
256,240,138833,1,0,0:0:0:0:
208,240,138880,1,0,0:0:0:0:
144,240,138927,1,0,0:0:0:0:
368,96,139114,1,2,0:0:0:0:
128,176,139302,1,2,0:0:0:0:
448,176,139583,1,2,0:0:0:0:
0,224,139864,1,2,0:0:0:0:
288,176,140052,5,2,0:0:0:0:
96,160,140239,2,0,L|96:320,1,110,2|0,0:0|0:0,0:0:0:0:
352,272,140802,1,0,0:0:0:0:
160,64,141177,1,2,0:0:0:0:
304,48,141364,1,2,0:0:0:0:
112,144,141552,6,0,L|16:224,2,110
336,144,142114,1,2,0:0:0:0:
0,176,142302,1,2,0:0:0:0:
256,176,142583,1,2,0:0:0:0:
512,192,142864,1,2,0:0:0:0:
224,288,143052,5,4,0:0:0:0:
320,288,143239,1,0,0:0:0:0:
160,288,143427,1,0,0:0:0:0:
384,288,143614,1,0,0:0:0:0:
96,288,143802,1,0,0:0:0:0:
448,288,143989,1,0,0:0:0:0:
32,288,144177,1,0,0:0:0:0:
512,288,144364,1,0,0:0:0:0:
96,288,144552,5,2,0:0:0:0:
384,288,144739,1,0,0:0:0:0:
160,288,144927,1,2,0:0:0:0:
320,288,145114,1,0,0:0:0:0:
144,256,145302,2,0,L|240:256,1,55,2|0,0:0|0:0,0:0:0:0:
368,256,145489,2,0,L|272:256,1,55,2|0,0:0|0:0,0:0:0:0:
64,176,145677,2,0,L|192:176,1,82.5000031471254,2|0,0:0|0:0,0:0:0:0:
448,176,145864,2,0,L|320:176,1,82.5000031471254,2|0,0:0|0:0,0:0:0:0:
128,160,146052,6,0,L|240:80,1,131.99999597168,4|0,0:0|0:0,0:0:0:0:
80,240,146427,1,2,0:0:0:0:
224,224,146614,2,0,L|144:224,1,65.9999979858399
384,272,146802,2,0,L|464:272,1,65.9999979858399,2|0,0:0|0:0,0:0:0:0:
320,272,146989,2,0,L|240:272,1,65.9999979858399,2|0,0:0|0:0,0:0:0:0:
480,224,147177,1,2,0:0:0:0:
256,224,147364,1,0,0:0:0:0:
448,192,147552,5,8,0:0:0:0:
320,128,147739,1,0,0:0:0:0:
32,224,147927,2,0,L|32:64,1,131.99999597168,2|0,0:0|0:0,0:0:0:0:
272,160,148302,2,0,L|128:160,1,131.99999597168,2|0,0:0|0:0,0:0:0:0:
352,160,148677,1,2,0:0:0:0:
96,160,148864,1,2,0:0:0:0:
400,176,149052,6,0,L|240:176,2,131.99999597168,8|0|0,0:0|0:0|0:0,0:0:0:0:
224,240,149614,1,2,0:0:0:0:
144,240,149708,1,0,0:0:0:0:
64,240,149802,1,2,0:0:0:0:
304,240,149989,1,2,0:0:0:0:
144,192,150177,2,0,L|288:192,1,131.99999597168,2|0,0:0|0:0,0:0:0:0:
192,192,150458,1,0,0:0:0:0:
14,192,150552,6,0,L|80:192,1,65.9999979858399,2|0,0:0|0:0,0:0:0:0:
210,144,150739,2,0,L|144:144,1,65.9999979858399
16,64,150927,1,2,0:0:0:0:
352,144,151114,2,0,L|256:144,1,65.9999979858399,2|0,0:0|0:0,0:0:0:0:
432,144,151302,2,0,L|528:144,2,65.9999979858399,0|0|2,0:0|0:0|0:0,0:0:0:0:
176,240,151677,1,2,0:0:0:0:
112,240,151770,1,0,0:0:0:0:
48,240,151864,1,0,0:0:0:0:
112,240,151958,1,0,0:0:0:0:
352,224,152052,6,0,L|208:224,1,131.99999597168,8|2,0:0|0:0,0:0:0:0:
336,224,152333,1,0,0:0:0:0:
498,192,152427,2,0,L|432:192,1,65.9999979858399,2|0,0:0|0:0,0:0:0:0:
272,144,152614,2,0,L|176:144,1,65.9999979858399,2|0,0:0|0:0,0:0:0:0:
496,112,152802,1,2,0:0:0:0:
208,128,153083,1,2,0:0:0:0:
432,208,153364,1,2,0:0:0:0:
160,128,153552,5,4,0:0:0:0:
320,224,153739,2,0,L|400:224,1,65.9999979858399,2|0,0:0|0:0,0:0:0:0:
493,300,153927,2,0,L|381:220,1,131.99999597168,2|0,0:0|0:0,0:0:0:0:
112,272,154302,1,2,0:0:0:0:
176,272,154395,1,0,0:0:0:0:
240,272,154489,1,2,0:0:0:0:
16,192,154677,1,2,0:0:0:0:
240,160,154864,1,2,0:0:0:0:
64,128,155052,6,0,L|208:128,2,131.99999597168,8|0|0,0:0|0:0|0:0,0:0:0:0:
240,128,155614,1,2,0:0:0:0:
16,96,155802,1,0,0:0:0:0:
336,256,155989,2,0,P|320:192|128:208,1,263.99999194336,2|0,0:0|0:0,0:0:0:0:
368,208,156552,6,0,L|512:208,1,131.99999597168,2|0,0:0|0:0,0:0:0:0:
304,208,156927,1,2,0:0:0:0:
128,288,157114,2,0,P|96:208|272:128,1,263.99999194336,2|0,0:0|0:0,0:0:0:0:
464,224,157677,2,0,L|384:224,1,65.9999979858399,2|0,0:0|0:0,0:0:0:0:
208,176,157864,2,0,L|288:176,1,65.9999979858399
96,224,158052,6,0,L|0:128,2,131.99999597168,8|0|2,0:0|0:0|0:0,0:0:0:0:
240,176,158614,2,0,L|320:176,1,65.9999979858399,2|0,0:0|0:0,0:0:0:0:
240,128,158802,2,0,L|160:128,1,65.9999979858399,2|0,0:0|0:0,0:0:0:0:
368,176,158989,1,2,0:0:0:0:
108,128,159177,1,2,0:0:0:0:
496,176,159364,1,2,0:0:0:0:
176,208,159552,6,0,L|320:208,1,131.99999597168,4|0,0:0|0:0,0:0:0:0:
112,208,159927,1,2,0:0:0:0:
288,256,160114,2,0,L|367:256,1,65.9999979858399,4|0,0:0|0:0,0:0:0:0:
240,192,160302,2,0,L|160:192,1,65.9999979858399,2|0,0:0|0:0,0:0:0:0:
400,192,160489,1,2,0:0:0:0:
80,128,160677,2,0,L|240:128,1,131.99999597168,2|0,0:0|0:0,0:0:0:0:
384,224,161052,6,0,L|240:224,1,131.99999597168,8|0,0:0|0:0,0:0:0:0:
432,272,161427,1,0,0:0:0:0:
256,176,161614,2,0,L|190:176,1,65.9999979858399,2|0,0:0|0:0,0:0:0:0:
256,176,161802,2,0,L|80:176,1,131.99999597168,2|0,0:0|0:0,0:0:0:0:
416,176,162177,2,0,L|512:176,1,65.9999979858399,2|0,0:0|0:0,0:0:0:0:
322,176,162364,2,0,L|242:176,1,65.9999979858399
80,208,162552,6,0,P|112:128|224:112,1,197.99999395752,4|0,0:0|0:0,0:0:0:0:
400,160,162927,2,0,L|256:160,1,131.99999597168,2|0,0:0|0:0,0:0:0:0:
368,160,163208,1,0,0:0:0:0:
512,64,163302,2,0,L|400:176,1,131.99999597168,2|0,0:0|0:0,0:0:0:0:
128,208,163677,2,0,L|240:208,1,65.9999979858399,2|0,0:0|0:0,0:0:0:0:
384,160,163864,2,0,L|272:160,1,65.9999979858399,2|0,0:0|0:0,0:0:0:0:
80,240,164052,6,0,L|224:240,2,131.99999597168,4|0|2,0:0|0:0|0:0,0:0:0:0:
208,176,164614,2,0,L|274:176,1,65.9999979858399
432,96,164802,2,0,L|336:96,2,65.9999979858399,2|0|2,0:0|0:0|0:0,0:0:0:0:
32,128,165177,2,0,L|112:128,2,65.9999979858399,2|0|2,0:0|0:0|0:0,0:0:0:0:
224,112,165458,1,0,0:0:0:0:
304,288,165552,5,2,0:0:0:0:
366,299,165645,1,0,0:0:0:0:
415,257,165739,1,2,0:0:0:0:
413,194,165833,1,0,0:0:0:0:
176,208,165927,1,2,0:0:0:0:
110,208,166020,1,0,0:0:0:0:
304,144,166114,1,2,0:0:0:0:
368,144,166208,1,0,0:0:0:0:
400,144,166255,1,0,0:0:0:0:
80,256,166302,1,2,0:0:0:0:
95,192,166395,1,0,0:0:0:0:
145,151,166489,1,2,0:0:0:0:
209,146,166583,1,0,0:0:0:0:
448,224,166677,2,0,L|320:224,1,65.9999979858399,2|0,0:0|0:0,0:0:0:0:
208,224,166864,1,2,0:0:0:0:
112,224,166958,1,0,0:0:0:0:
320,256,167052,6,0,L|464:256,2,131.99999597168,8|0|0,0:0|0:0|0:0,0:0:0:0:
192,192,167614,2,0,L|272:192,1,65.9999979858399,2|0,0:0|0:0,0:0:0:0:
128,128,167802,2,0,L|32:128,2,65.9999979858399,2|0|0,0:0|0:0|0:0,0:0:0:0:
384,128,168177,1,2,0:0:0:0:
208,80,168364,2,0,L|304:80,1,65.9999979858399
432,176,168552,6,0,L|224:176,2,197.99999395752,4|0|4,0:0|0:0|0:0,0:0:0:0:
176,176,169302,1,2,0:0:0:0:
384,176,169489,1,2,0:0:0:0:
64,192,169677,2,0,L|16:112,1,65.9999979858399,2|0,0:0|0:0,0:0:0:0:
144,128,169864,2,0,L|224:96,1,65.9999979858399,2|0,0:0|0:0,0:0:0:0:
256,192,170052,12,2,173052,0:0:0:0:
192,48,181302,5,8,0:0:0:0:
160,56,181348,1,0,0:0:0:0:
132,73,181395,1,0,0:0:0:0:
110,98,181442,1,0,0:0:0:0:
96,128,181489,1,2,0:0:0:0:
92,160,181536,1,0,0:0:0:0:
97,193,181583,1,0,0:0:0:0:
111,222,181630,1,0,0:0:0:0:
134,247,181677,1,2,0:0:0:0:
162,263,181723,1,0,0:0:0:0:
194,271,181770,1,0,0:0:0:0:
256,272,181864,1,2,0:0:0:0:
352,272,181958,1,0,0:0:0:0:
448,224,182052,6,0,L|496:144,1,82.5000031471254,2|0,0:0|0:0,0:0:0:0:
320,160,182427,2,0,L|240:96,1,82.5000031471254
416,144,182802,2,0,L|512:96,1,82.5000031471254
304,176,183177,2,0,L|416:176,1,82.5000031471254
224,160,183552,6,0,L|160:64,1,82.5000031471254,2|0,0:0|0:0,0:0:0:0:
368,240,183927,2,0,L|432:160,1,82.5000031471254
224,176,184302,2,0,L|304:144,1,82.5000031471254
144,208,184677,2,0,L|61:208,1,82.5000031471254
240,192,185052,6,0,L|304:96,1,82.5000031471254,2|0,0:0|0:0,0:0:0:0:
448,160,185427,2,0,L|368:96,1,82.5000031471254
256,224,185802,2,0,L|352:192,1,82.5000031471254
192,256,186177,2,0,L|96:256,1,82.5000031471254
304,192,186552,6,0,L|240:96,1,82.5000031471254,2|0,0:0|0:0,0:0:0:0:
384,240,186927,2,0,L|448:176,1,82.5000031471254
240,224,187302,2,0,L|144:176,1,82.5000031471254
384,272,187677,1,0,0:0:0:0:
208,240,187864,2,0,L|288:240,1,41.2500015735627
48,176,188052,6,0,L|240:176,2,165,4|0|0,0:0|0:0|0:0,0:0:0:0:
352,128,188802,2,0,L|144:272,1,220,2|0,0:0|0:0,0:0:0:0:
304,240,189364,2,0,L|224:240,1,41.2500015735627
464,176,189552,6,0,L|272:176,2,165,4|0|0,0:0|0:0|0:0,0:0:0:0:
128,240,190302,2,0,L|288:128,2,165,2|0|0,0:0|0:0|0:0,0:0:0:0:
288,288,191052,6,0,L|80:288,1,165,4|0,0:0|0:0,0:0:0:0:
304,160,191614,1,2,0:0:0:0:
128,288,191802,2,0,P|160:224|400:160,1,330,4|0,0:0|0:0,0:0:0:0:
224,272,192552,6,0,L|416:272,1,165,4|0,0:0|0:0,0:0:0:0:
160,272,193114,1,2,0:0:0:0:
448,256,193302,2,0,L|352:256,1,55,2|0,0:0|0:0,0:0:0:0:
256,256,193489,1,2,0:0:0:0:
48,208,193677,2,0,L|128:208,1,55,2|0,0:0|0:0,0:0:0:0:
288,160,193864,2,0,L|192:160,1,55
80,272,194052,6,0,L|80:128,1,110,8|0,0:0|0:0,0:0:0:0:
384,176,194427,1,2,0:0:0:0:
176,224,194614,2,0,L|176:160,1,55,2|0,0:0|0:0,0:0:0:0:
352,160,194895,2,0,L|352:80,1,55,0|2,0:0|0:0,0:0:0:0:
256,96,195083,1,0,0:0:0:0:
96,96,195177,1,2,0:0:0:0:
63,139,195270,1,0,0:0:0:0:
70,192,195364,1,2,0:0:0:0:
112,225,195458,1,0,0:0:0:0:
352,336,195552,6,4,P|416:288|288:96,1,330,4|0,0:0|0:0,0:0:0:0:
160,336,196302,2,0,P|96:288|224:96,1,330,2|0,0:0|0:0,0:0:0:0:
336,320,197052,6,0,P|400:304|464:48,1,330,4|0,0:0|0:0,0:0:0:0:
384,160,197802,2,0,L|64:320,1,330,2|0,0:0|0:0,0:0:0:0:
304,288,198552,6,0,P|272:192|64:128,1,330,4|0,0:0|0:0,0:0:0:0:
160,288,199302,2,0,L|416:80,1,330,2|0,0:0|0:0,0:0:0:0:
176,320,200052,6,0,P|112:304|48:48,1,330,4|0,0:0|0:0,0:0:0:0:
176,160,200802,2,0,L|288:240,1,110,2|0,0:0|0:0,0:0:0:0:
400,272,201177,1,2,0:0:0:0:
449,230,201270,1,0,0:0:0:0:
440,178,201364,1,2,0:0:0:0:
379,150,201458,1,0,0:0:0:0:
192,240,201552,6,0,L|64:240,1,121.000003692627,2|0,0:0|0:0,0:0:0:0:
288,240,201927,2,0,L|160:240,1,121.000003692627
384,240,202302,2,0,L|256:240,1,121.000003692627,2|0,0:0|0:0,0:0:0:0:
464,240,202677,2,0,L|320:240,1,121.000003692627
320,240,203052,6,0,L|448:240,1,121.000003692627,2|0,0:0|0:0,0:0:0:0:
224,240,203427,2,0,L|352:240,1,121.000003692627
128,240,203802,2,0,L|256:240,1,121.000003692627,2|0,0:0|0:0,0:0:0:0:
48,240,204177,2,0,L|192:240,1,121.000003692627
400,256,204552,5,2,0:0:0:0:
240,256,204739,1,0,0:0:0:0:
432,256,204927,1,0,0:0:0:0:
192,256,205114,1,0,0:0:0:0:
464,256,205302,1,2,0:0:0:0:
304,256,205489,1,0,0:0:0:0:
48,256,205677,1,0,0:0:0:0:
304,256,205864,1,0,0:0:0:0:
0,256,206052,5,2,0:0:0:0:
192,256,206145,1,0,0:0:0:0:
128,256,206239,1,2,0:0:0:0:
64,256,206333,1,0,0:0:0:0:
288,240,206427,2,0,L|384:240,1,65.9999979858399,2|0,0:0|0:0,0:0:0:0:
192,144,206614,2,0,L|96:144,1,65.9999979858399,2|0,0:0|0:0,0:0:0:0:
400,128,206802,1,2,0:0:0:0:
288,128,206895,1,0,0:0:0:0:
48,96,206989,2,0,L|160:96,1,65.9999979858399,2|0,0:0|0:0,0:0:0:0:
288,128,207177,2,0,L|222:128,1,65.9999979858399,2|0,0:0|0:0,0:0:0:0:
80,96,207364,2,0,L|0:96,1,65.9999979858399,2|0,0:0|0:0,0:0:0:0:
320,80,207552,5,2,0:0:0:0:
64,112,207833,1,2,0:0:0:0:
480,160,208114,1,2,0:0:0:0:
272,128,208302,2,0,P|272:208|448:304,1,263.99999194336,2|0,0:0|0:0,0:0:0:0:
160,304,208864,2,0,L|80:304,1,65.9999979858399
336,240,209052,6,0,L|144:240,1,165.000006294251,4|0,0:0|0:0,0:0:0:0:
272,176,209333,1,0,0:0:0:0:
416,240,209427,2,0,L|416:48,1,165.000006294251,2|0,0:0|0:0,0:0:0:0:
192,176,209802,1,2,0:0:0:0:
256,176,209895,1,0,0:0:0:0:
320,176,209989,1,0,0:0:0:0:
64,256,210177,2,0,L|208:128,1,165.000006294251,2|0,0:0|0:0,0:0:0:0:
384,256,210552,6,0,L|192:256,1,165.000006294251,8|0,0:0|0:0,0:0:0:0:
320,192,210833,2,0,L|496:192,1,165.000006294251,8|0,0:0|0:0,0:0:0:0:
224,144,211114,1,8,0:0:0:0:
400,224,211302,2,0,L|304:224,2,82.5000031471254,2|0|0,0:0|0:0|0:0,0:0:0:0:
80,176,211677,1,2,0:0:0:0:
288,208,211864,2,0,L|192:208,1,82.5000031471254
32,240,212052,6,0,P|48:144|144:128,1,165.000006294251,2|0,0:0|0:0,0:0:0:0:
400,112,212427,2,0,L|192:288,1,247.500009441376,2|0,0:0|0:0,0:0:0:0:
336,272,212802,2,2,L|448:128,1,165.000006294251,2|0,0:0|0:0,0:0:0:0:
240,160,213177,2,0,L|64:160,1,165.000006294251,2|0,0:0|0:0,0:0:0:0:
432,208,213552,6,0,L|224:208,1,165.000006294251,8|0,0:0|0:0,0:0:0:0:
432,208,213833,2,0,L|240:208,1,165.000006294251,8|0,0:0|0:0,0:0:0:0:
496,208,214114,1,8,0:0:0:0:
352,208,214302,2,0,L|464:208,2,82.5000031471254,2|0|0,0:0|0:0|0:0,0:0:0:0:
80,208,214677,2,0,L|176:208,1,82.5000031471254,2|0,0:0|0:0,0:0:0:0:
352,176,214864,2,0,L|448:176,1,82.5000031471254
112,160,215052,6,0,L|272:64,2,165.000006294251,4|0|2,0:0|0:0|0:0,0:0:0:0:
320,208,215614,2,0,L|224:208,1,82.5000031471254
416,272,215802,2,0,L|528:272,2,82.5000031471254,2|0|0,0:0|0:0|0:0,0:0:0:0:
240,256,216177,2,0,L|112:144,1,165.000006294251,2|0,0:0|0:0,0:0:0:0:
432,160,216552,6,0,L|304:288,2,165.000006294251,8|2|8,0:0|0:0|0:0,0:0:0:0:
240,224,217114,2,0,L|323:224,1,82.5000031471254,2|0,0:0|0:0,0:0:0:0:
48,160,217302,2,0,L|240:160,1,165.000006294251,8|0,0:0|0:0,0:0:0:0:
0,160,217677,1,2,0:0:0:0:
256,128,217864,2,0,L|368:128,1,82.5000031471254
176,192,218052,6,0,L|0:192,1,165.000006294251,4|0,0:0|0:0,0:0:0:0:
336,192,218427,2,0,L|512:192,1,165.000006294251,2|0,0:0|0:0,0:0:0:0:
258,192,218802,2,0,L|162:192,2,82.5000031471254,2|0|0,0:0|0:0|0:0,0:0:0:0:
416,128,219177,2,0,L|256:48,1,165.000006294251,2|0,0:0|0:0,0:0:0:0:
96,192,219552,6,0,L|288:192,1,165.000006294251,4|0,0:0|0:0,0:0:0:0:
144,192,219927,1,2,0:0:0:0:
320,240,220114,2,0,L|224:240,1,82.5000031471254,2|0,0:0|0:0,0:0:0:0:
416,112,220302,1,2,0:0:0:0:
466,171,220395,1,0,0:0:0:0:
437,244,220489,1,2,0:0:0:0:
359,252,220583,1,0,0:0:0:0:
160,224,220677,2,0,L|64:224,1,82.5000031471254,2|0,0:0|0:0,0:0:0:0:
368,176,220864,2,0,L|256:176,1,82.5000031471254,2|0,0:0|0:0,0:0:0:0:
64,288,221052,6,0,P|48:208|272:128,1,330.000012588501,4|0,0:0|0:0,0:0:0:0:
64,288,221614,1,2,0:0:0:0:
192,272,221802,2,0,P|352:240|336:80,1,330.000012588501,8|0,0:0|0:0,0:0:0:0:
192,112,222364,1,2,0:0:0:0:
32,208,222552,6,0,L|208:208,1,165.000006294251,8|0,0:0|0:0,0:0:0:0:
480,208,222833,2,0,L|304:208,1,165.000006294251,8|0,0:0|0:0,0:0:0:0:
112,208,223114,1,8,0:0:0:0:
320,208,223302,1,4,0:0:0:0:
144,208,223489,1,0,0:0:0:0:
400,208,223677,2,0,L|512:208,1,82.5000031471254,2|0,0:0|0:0,0:0:0:0:
112,208,223864,2,0,L|0:208,1,82.5000031471254,2|0,0:0|0:0,0:0:0:0:
320,192,224052,6,0,L|192:192,1,110,2|0,0:0|0:0,0:0:0:0:
128,192,224427,2,0,L|336:192,1,153.999995300293,2|0,0:0|0:0,0:0:0:0:
384,192,224802,2,0,L|96:192,1,197.99999395752,2|0,0:0|0:0,0:0:0:0:
80,192,225177,2,0,L|368:192,1,242.000007385254,2|0,0:0|0:0,0:0:0:0:
432,192,225552,6,0,L|112:192,1,285.99998690796,2|0,0:0|0:0,0:0:0:0:
48,192,225927,2,0,L|400:192,1,330.000012588501,2|0,0:0|0:0,0:0:0:0:
512,240,226302,6,0,L|400:240,1,82.5000031471254,2|0,0:0|0:0,0:0:0:0:
0,240,226489,2,0,L|112:240,1,82.5000031471254,2|0,0:0|0:0,0:0:0:0:
320,192,226677,2,0,L|432:192,1,82.5000031471254,2|0,0:0|0:0,0:0:0:0:
192,192,226864,2,0,L|80:192,1,82.5000031471254,2|0,0:0|0:0,0:0:0:0:
352,288,227052,6,0,P|416:256|368:112,1,220,2|0,0:0|0:0,0:0:0:0:
272,160,227614,2,0,L|144:160,1,110,2|0,0:0|0:0,0:0:0:0:
320,160,228177,2,0,L|448:160,1,110,2|0,0:0|0:0,0:0:0:0:
224,80,228552,5,2,0:0:0:0:
126,114,228739,1,0,0:0:0:0:
123,217,228927,1,2,0:0:0:0:
219,257,229114,1,0,0:0:0:0:
416,208,229302,2,0,L|368:208,1,27.5,2|0,0:0|0:0,0:0:0:0:
416,240,230052,5,2,0:0:0:0:
346,156,230239,1,0,0:0:0:0:
246,110,230427,1,0,0:0:0:0:
137,113,230614,2,0,P|80:176|240:240,1,330,2|0,0:0|0:0,0:0:0:0:
352,224,231364,2,0,L|432:224,1,55
256,192,231552,12,0,232489,0:0:0:0:
160,240,232677,6,0,L|48:240,1,60.5000018463135
224,176,232864,2,0,L|112:176,1,60.5000018463135
336,304,233052,6,0,P|416:272|464:160,1,197.99999395752,4|0,0:0|0:0,0:0:0:0:
272,144,233427,1,2,0:0:0:0:
336,144,233520,1,0,0:0:0:0:
400,144,233614,1,0,0:0:0:0:
272,224,233802,2,0,L|128:224,1,131.99999597168,2|0,0:0|0:0,0:0:0:0:
336,176,234177,1,2,0:0:0:0:
144,144,234364,2,0,L|64:144,1,65.9999979858399
368,176,234552,5,2,0:0:0:0:
176,176,234739,1,0,0:0:0:0:
432,176,234927,1,2,0:0:0:0:
176,176,235114,1,0,0:0:0:0:
400,176,235302,2,0,L|304:176,2,65.9999979858399,2|0|0,0:0|0:0|0:0,0:0:0:0:
224,176,235677,1,2,0:0:0:0:
384,144,235864,2,0,L|464:144,1,65.9999979858399
160,160,236052,6,0,L|160:304,1,131.99999597168,8|0,0:0|0:0,0:0:0:0:
352,176,236333,2,0,L|144:176,1,197.99999395752,8|8,0:0|0:0,0:0:0:0:
352,272,236802,2,0,P|432:240|416:112,1,197.99999395752,8|8,0:0|0:0,0:0:0:0:
336,176,237177,1,0,0:0:0:0:
272,176,237270,1,0,0:0:0:0:
208,176,237364,1,8,0:0:0:0:
368,176,237552,6,0,L|512:176,2,131.99999597168,2|0|0,0:0|0:0|0:0,0:0:0:0:
240,192,238114,2,0,L|144:192,1,65.9999979858399
352,160,238302,1,2,0:0:0:0:
416,160,238395,1,0,0:0:0:0:
480,160,238489,1,0,0:0:0:0:
112,160,238677,1,2,0:0:0:0:
176,160,238770,1,0,0:0:0:0:
240,160,238864,1,0,0:0:0:0:
176,160,238958,1,0,0:0:0:0:
16,96,239052,6,0,L|192:96,1,131.99999597168,4|0,0:0|0:0,0:0:0:0:
48,160,239427,1,2,0:0:0:0:
208,208,239614,2,0,L|128:208,1,65.9999979858399
368,224,239802,2,0,L|236:224,1,131.99999597168,4|0,0:0|0:0,0:0:0:0:
336,192,240177,1,2,0:0:0:0:
480,160,240364,2,0,L|384:160,1,65.9999979858399
176,256,240552,5,2,0:0:0:0:
416,256,240739,1,2,0:0:0:0:
96,256,240927,1,2,0:0:0:0:
336,256,241114,1,2,0:0:0:0:
400,256,241208,1,0,0:0:0:0:
176,256,241302,2,0,L|64:256,2,65.9999979858399,2|0|0,0:0|0:0|0:0,0:0:0:0:
448,256,241677,1,0,0:0:0:0:
240,224,241864,2,0,L|144:224,1,65.9999979858399
432,208,242052,6,0,L|272:208,1,131.99999597168,2|0,0:0|0:0,0:0:0:0:
172,144,242333,2,0,L|304:144,1,131.99999597168,2|0,0:0|0:0,0:0:0:0:
172,144,242614,1,2,0:0:0:0:
352,176,242802,2,0,L|448:272,1,131.99999597168,2|0,0:0|0:0,0:0:0:0:
288,176,243083,1,2,0:0:0:0:
224,176,243177,1,0,0:0:0:0:
448,256,243364,1,2,0:0:0:0:
224,288,243552,5,4,0:0:0:0:
448,256,243739,1,0,0:0:0:0:
128,208,243927,1,2,0:0:0:0:
320,160,244114,1,2,0:0:0:0:
240,160,244208,1,0,0:0:0:0:
400,144,244302,1,2,0:0:0:0:
480,144,244395,1,0,0:0:0:0:
272,160,244489,1,2,0:0:0:0:
496,112,244677,1,2,0:0:0:0:
320,128,244864,1,0,0:0:0:0:
224,128,244958,1,0,0:0:0:0:
432,80,245052,5,2,0:0:0:0:
510,175,245239,1,0,0:0:0:0:
443,278,245427,1,2,0:0:0:0:
324,245,245614,1,0,0:0:0:0:
176,240,245802,1,2,0:0:0:0:
32,240,245989,1,2,0:0:0:0:
304,192,246177,1,2,0:0:0:0:
64,176,246364,1,2,0:0:0:0:
416,192,247208,5,2,0:0:0:0:
352,192,247302,1,2,0:0:0:0:
288,192,247395,1,2,0:0:0:0:
256,192,247489,12,0,249552,0:0:0:0:
