osu file format v14

[General]
AudioFilename: audio.mp3
AudioLeadIn: 0
PreviewTime: 53943
Countdown: 0
SampleSet: None
StackLeniency: 0.7
Mode: 0
LetterboxInBreaks: 0
WidescreenStoryboard: 0

[Editor]
Bookmarks: 12093,20917,28424,35184,41945,48224,54171,68288,88803
DistanceSpacing: 0.1
BeatDivisor: 4
GridSize: 4
TimelineZoom: 2.1

[Metadata]
Title:Hoshi no Dialogue (TV Size)
TitleUnicode:星のダイアローグ (TV Size)
Artist:Starlight Kukugumi
ArtistUnicode:スタァライト九九組(くくぐみ)
Creator:achyoo
Version:gayge
Source:少女☆歌劇 レヴュー・スタァライト
Tags:ayucchi shirahane suou 錦木 千束 Nishikigi Chisato 井ノ上 たきな Inoue Takina chisataki shoujo☆kageki revue starlight tv size anime jpop j-pop japanese pop 愛城華恋 小山百代 aijou karen koyama momoyo 神楽ひかり 三森すずこ kagura hikari mimori suzuko 天堂真矢 富田麻帆 tendou maya tomita maho 星見純那 佐藤日向 hoshimi junna satou hinata 露崎まひる 岩田陽葵 tsuyuzaki mahiru iwata haruki 大場なな 小泉萌香 daiba nana koizumi moeka 西條クロディーヌ 相羽あいな saijou claudine aiba aina 石動双葉 isurugi futaba ikuta teru 生田輝 花柳香子 伊藤彩沙 hanayagi kaoruko itou ayasa
BeatmapID:4538001
BeatmapSetID:2153651

[Difficulty]
HPDrainRate:6
CircleSize:4.2
OverallDifficulty:9
ApproachRate:9.4
SliderMultiplier:2
SliderTickRate:1

[Events]
//Background and Video events
0,0,"revue.jpg",0,0
//Break Periods
//Storyboard Layer 0 (Background)
//Storyboard Layer 1 (Fail)
//Storyboard Layer 2 (Pass)
//Storyboard Layer 3 (Foreground)
//Storyboard Layer 4 (Overlay)
//Storyboard Sound Samples

[TimingPoints]
1276,560.747663551402,4,2,0,100,1,0
1276,-153.846153846154,4,2,0,100,0,0
4640,-500,4,2,0,100,0,0
5761,-250,4,2,0,100,0,0
10247,461.538461538462,4,2,0,30,1,0
10247,-200,4,2,0,30,0,0
11631,-133.333333333333,4,2,0,30,0,0
12093,437.956204379562,4,2,0,40,1,0
12093,-125,4,2,0,40,0,0
13844,-250,4,2,0,40,0,0
15596,-125,4,2,0,40,0,0
17348,451.127819548872,4,2,0,40,1,0
19152,379.746835443038,4,2,0,40,1,0
19531,530.973451327434,4,2,0,40,1,0
20061,320.855614973262,4,2,0,40,1,0
20221,441.176470588235,4,2,0,40,1,0
20662,340.909090909091,4,2,0,43,1,0
20662,-142.857142857143,4,2,0,43,0,0
20747,560.747663551402,4,2,0,46,1,0
20917,419.58041958042,4,2,0,49,1,0
20917,-200,4,2,0,49,0,0
21756,461.538461538462,4,2,0,50,1,0
21756,-200,4,2,0,40,0,0
22679,408.163265306122,4,2,0,50,1,0
22679,-133.333333333333,4,2,0,50,0,0
23291,526.315789473684,4,2,0,50,1,0
23554,461.538461538462,4,2,0,50,1,0
24246,612.244897959184,4,2,0,50,1,0
24552,517.241379310345,4,2,0,50,1,0
24552,-86.9565217391304,4,2,0,50,0,0
25586,588.235294117647,4,2,0,50,1,0
26762,408.163265306122,4,2,0,50,1,0
27170,437.956204379562,4,2,0,50,1,0
27607,405.405405405405,4,2,0,45,1,0
28424,422.535211267606,4,2,0,50,1,0
28424,-111.111111111111,4,2,0,50,0,0
41945,348.837209302326,3,2,0,50,1,0
42991,-76.9230769230769,3,2,0,50,0,0
43340,-133.333333333333,3,2,0,50,0,0
44038,-100,3,2,0,50,0,0
45084,-76.9230769230769,3,2,0,50,0,0
45433,-133.333333333333,3,2,0,50,0,0
46131,-100,3,2,0,50,0,0
46828,-133.333333333333,3,2,0,50,0,0
47177,-100,3,2,0,50,0,0
49619,-133.333333333333,3,2,0,50,0,0
49968,-200,3,2,0,50,0,0
51712,-133.333333333333,3,2,0,50,0,0
52061,-100,3,2,0,50,0,0
53282,441.176470588235,4,2,0,55,1,0
53723,-66.6666666666667,4,2,0,55,0,0
54171,441.176470588235,4,2,0,55,1,0
54171,-58.8235294117647,4,2,0,55,0,0
56818,-76.9230769230769,4,2,0,55,0,0
57479,-58.8235294117647,4,2,0,55,0,0
62112,-76.9230769230769,4,2,0,55,0,0
62553,-58.8235294117647,4,2,0,55,0,0
62994,-76.9230769230769,4,2,0,55,0,0
63435,-58.8235294117647,4,2,0,55,0,0
63876,-76.9230769230769,4,2,0,55,0,0
64759,-58.8235294117647,4,2,0,55,0,0
76229,-100,4,2,0,55,0,0
76670,-58.8235294117647,4,2,0,55,0,0
81082,-43.4782608695652,4,2,0,55,0,0
82406,-133.333333333333,4,2,0,55,0,0

[Colours]
Combo1 : 136,169,255
Combo2 : 245,109,109
Combo3 : 143,143,143
Combo4 : 249,234,128

[HitObjects]
109,137,1276,6,0,P|84:155|73:202,1,43.3333313496909
73,249,1649,1,0,0:0:0:0:
153,213,1836,6,0,P|156:243|192:277,1,43.3333313496909
231,300,2209,1,0,0:0:0:0:
236,213,2397,6,0,P|264:225|311:211,1,43.3333313496909
360,179,2770,1,0,0:0:0:0:
277,135,2958,6,0,P|302:116|313:69,1,43.3333313496909
313,0,3331,1,0,0:0:0:0:
190,130,3518,6,0,P|186:99|150:65,1,43.3333313496909
83,36,3892,1,0,0:0:0:0:
92,263,4079,5,0,0:0:0:0:
153,213,4266,1,0,0:0:0:0:
80,186,4453,1,0,0:0:0:0:
149,320,4640,6,0,L|181:329,1,26.6666666666667
460,94,5761,5,0,0:0:0:0:
460,94,6135,2,0,L|401:109,1,53.3333333333334
255,20,6883,2,0,P|304:15|336:79,1,106.666666666667
297,180,7818,5,0,0:0:0:0:
291,184,7911,1,0,0:0:0:0:
285,188,8004,2,0,L|264:96,1,80
203,64,8752,1,0,0:0:0:0:
193,142,8939,1,0,0:0:0:0:
318,48,9126,5,0,0:0:0:0:
318,48,9500,1,0,0:0:0:0:
366,107,9687,1,0,0:0:0:0:
439,78,9874,1,0,0:0:0:0:
439,78,10247,6,0,P|366:66|340:237,1,275
323,223,11631,6,0,P|333:177|289:117,1,112.500004291535
300,123,12093,6,0,P|377:141|407:214,1,160
477,253,12749,6,0,P|495:339|413:276,1,240
408,288,13844,6,0,P|357:307|354:309,2,40
247,358,14501,1,0,0:0:0:0:
247,358,15158,2,0,P|252:310|251:299,1,60
245,290,15596,6,0,P|199:312|161:228,1,160
233,205,16253,2,0,P|182:255|94:289,1,160
73,166,16910,2,0,P|117:140|164:132,1,80
76,6,17348,6,0,P|178:34|233:204,1,300
145,133,18250,2,0,P|145:83|198:56,1,100
361,126,18701,2,0,P|317:151|267:118,1,100
289,18,19152,5,0,0:0:0:0:
402,37,19341,1,0,0:0:0:0:
458,135,19531,2,0,P|436:193|426:250,1,100
511,335,20061,1,0,0:0:0:0:
296,247,20441,5,0,0:0:0:0:
218,318,20662,2,0,L|168:301,1,34.9999989318848
112,230,20917,6,0,L|140:115,1,100
206,107,21546,1,0,0:0:0:0:
182,30,21756,2,0,L|144:20,3,25
282,114,22217,2,0,L|306:107,3,25
359,42,22679,6,0,L|322:215,1,150.000005722046
327,188,23291,1,0,0:0:0:0:
179,78,23554,6,0,L|224:284,1,200
221,273,24246,1,0,0:0:0:0:
71,140,24552,6,0,L|20:370,1,230.000004386902
21,364,25327,1,0,0:0:0:0:
221,273,25586,5,0,0:0:0:0:
267,208,25880,1,0,0:0:0:0:
233,135,26174,1,0,0:0:0:0:
153,127,26468,1,0,0:0:0:0:
68,216,26762,5,0,0:0:0:0:
38,205,26864,1,0,0:0:0:0:
38,175,26966,1,0,0:0:0:0:
68,165,27068,1,0,0:0:0:0:
85,190,27170,1,0,0:0:0:0:
430,359,27607,5,0,0:0:0:0:
440,355,27709,1,0,0:0:0:0:
440,344,27811,1,0,0:0:0:0:
430,340,27913,1,0,0:0:0:0:
423,349,28012,2,0,P|465:325|444:228,1,150
442,226,28424,6,0,P|368:243|243:276,1,179.999994506836
134,346,29057,1,0,0:0:0:0:
134,346,29163,1,0,0:0:0:0:
134,346,29269,1,0,0:0:0:0:
46,240,29480,1,0,0:0:0:0:
169,126,29691,2,0,P|212:170|150:245,1,134.999995880127
124,271,30114,6,0,P|73:211|99:99,1,179.999994506836
175,42,30747,1,0,0:0:0:0:
289,85,30959,1,0,0:0:0:0:
315,80,31064,1,0,0:0:0:0:
336,63,31170,1,0,0:0:0:0:
167,46,31381,2,0,P|168:99|185:166,1,89.9999972534181
317,223,31804,6,0,P|345:166|458:160,1,179.999994506836
416,350,32438,2,0,P|395:277|394:240,1,89.9999972534181
409,236,32754,1,0,0:0:0:0:
409,236,32860,1,0,0:0:0:0:
238,357,33071,2,0,P|267:309|308:292,1,89.9999972534181
48,174,33494,6,0,P|158:186|221:254,1,179.999994506836
141,98,34128,1,0,0:0:0:0:
103,349,34339,2,0,P|87:285|78:255,1,89.9999972534181
235,30,34762,2,0,P|251:94|260:124,1,89.9999972534181
325,170,35078,1,0,0:0:0:0:
390,121,35184,6,0,P|433:133|477:143,1,89.9999972534181
234,211,35607,2,0,P|190:198|146:188,1,89.9999972534181
0,43,36029,2,0,P|43:32|87:20,1,89.9999972534181
169,93,36452,1,0,0:0:0:0:
61,241,36663,5,0,0:0:0:0:
61,241,36769,1,0,0:0:0:0:
61,241,36874,2,0,P|77:290|83:346,1,89.9999972534181
262,379,37297,1,0,0:0:0:0:
198,246,37508,1,0,0:0:0:0:
176,268,37614,1,0,0:0:0:0:
183,296,37719,1,0,0:0:0:0:
291,217,37931,1,0,0:0:0:0:
247,90,38142,1,0,0:0:0:0:
120,39,38353,5,0,0:0:0:0:
120,39,38459,1,0,0:0:0:0:
120,39,38564,2,0,B|102:91|75:137|75:137|101:159|119:197,1,179.999994506836
176,268,39198,1,0,0:0:0:0:
334,225,39409,2,0,P|290:214|246:202,1,89.9999972534181
106,351,39832,2,0,P|149:361|193:373,1,89.9999972534181
258,330,40149,1,0,0:0:0:0:
319,379,40254,5,0,0:0:0:0:
176,268,40466,1,0,0:0:0:0:
314,140,40677,1,0,0:0:0:0:
161,26,40888,1,0,0:0:0:0:
161,26,40994,1,0,0:0:0:0:
161,26,41100,1,0,0:0:0:0:
186,62,41240,5,0,0:0:0:0:
164,106,41381,5,0,0:0:0:0:
190,148,41522,5,0,0:0:0:0:
183,160,41663,5,0,0:0:0:0:
177,172,41804,5,0,0:0:0:0:
196,247,41945,6,0,P|177:107|142:-28,1,250
308,88,42468,5,0,0:0:0:0:
425,89,42642,1,0,0:0:0:0:
294,46,42817,1,0,0:0:0:0:
465,156,42991,6,0,P|376:185|238:243,1,194.999991073609
281,222,43340,6,0,P|328:176|291:114,1,112.500004291535
366,268,43689,2,0,P|425:275|507:308,1,112.500004291535
230,149,44038,6,0,P|167:153|166:311,1,250
321,365,44561,5,0,0:0:0:0:
392,255,44735,1,0,0:0:0:0:
337,382,44910,1,0,0:0:0:0:
315,220,45084,6,0,B|233:238|252:283|74:305,1,194.999991073609
136,294,45433,6,0,P|204:294|250:310,1,112.500004291535
42,237,45782,2,0,P|61:216|86:199,1,37.5000014305115
70,181,45956,2,0,P|98:177|128:180,1,37.5000014305115
293,198,46131,6,0,P|232:131|129:114,1,150
78,82,46479,2,0,P|138:42|244:35,1,150
334,75,46828,2,0,P|339:24|281:20,1,112.500004291535
383,203,47177,6,0,P|310:214|266:272,1,150
458,147,47526,2,0,P|405:93|310:79,1,150
470,256,47875,5,0,0:0:0:0:
467,260,47962,1,0,0:0:0:0:
464,264,48049,1,0,0:0:0:0:
461,268,48136,1,0,0:0:0:0:
463,306,48224,6,0,P|365:285|266:271,1,200
72,149,48747,1,0,0:0:0:0:
93,128,48834,1,0,0:0:0:0:
124,136,48921,1,0,0:0:0:0:
124,136,49270,6,0,P|165:171|163:267,1,150
198,334,49619,6,0,P|178:340|95:290,1,112.500004291535
37,259,49968,6,0,P|61:226|114:225,1,75
124,136,50317,5,0,0:0:0:0:
266,271,50491,1,0,0:0:0:0:
294,278,50578,1,0,0:0:0:0:
315,257,50665,1,0,0:0:0:0:
349,166,50840,1,0,0:0:0:0:
498,343,51014,1,0,0:0:0:0:
498,343,51363,6,0,P|468:312|470:276,1,75
393,233,51712,6,0,P|432:196|422:129,1,112.500004291535
512,55,52061,6,0,P|440:55|390:-14,1,150
283,23,52410,6,0,P|314:90|337:162,1,150
158,237,52758,2,0,P|126:169|103:97,1,150
223,139,53107,1,0,0:0:0:0:
95,311,53282,6,0,L|53:299,1,25
0,363,53723,6,0,L|241:307,1,225.000008583069
295,344,54171,6,0,P|302:248|231:151,1,170.000003242493
172,180,54501,1,0,0:0:0:0:
161,208,54612,1,0,0:0:0:0:
26,252,54832,1,0,0:0:0:0:
96,44,55053,6,0,P|185:75|271:107,1,170.000003242493
315,26,55384,2,0,P|351:112|385:198,1,170.000003242493
482,190,55715,1,0,0:0:0:0:
490,220,55825,1,0,0:0:0:0:
461,251,55935,6,0,B|455:150|493:194|479:44,1,170.000003242493
406,47,56266,1,0,0:0:0:0:
346,102,56376,2,0,P|301:109|247:116,1,85.0000016212464
155,33,56597,2,0,P|110:26|56:19,1,85.0000016212464
37,208,56818,6,0,P|107:195|223:276,1,194.999991073609
269,206,57259,2,0,P|217:229|191:265,1,64.9999970245363
117,369,57479,5,0,0:0:0:0:
79,350,57590,1,0,0:0:0:0:
47,376,57700,6,0,B|142:367|120:334|246:335,1,170.000003242493
210,253,58031,2,0,B|305:262|283:295|409:294,1,170.000003242493
430,234,58362,2,0,P|465:262|482:305,1,85.0000016212464
283,365,58582,6,0,P|258:270|294:133,1,170.000003242493
381,120,58913,1,0,0:0:0:0:
416,140,59023,1,0,0:0:0:0:
506,69,59244,1,0,0:0:0:0:
250,107,59465,6,0,P|286:68|475:2,2,255.000004863739
184,160,60237,1,0,0:0:0:0:
105,117,60347,5,0,0:0:0:0:
108,109,60457,1,0,0:0:0:0:
111,101,60568,1,0,0:0:0:0:
114,93,60678,1,0,0:0:0:0:
62,34,60788,5,0,0:0:0:0:
39,67,60898,1,0,0:0:0:0:
29,142,61009,1,0,0:0:0:0:
78,224,61119,1,0,0:0:0:0:
174,229,61229,6,0,P|196:142|167:17,1,170.000003242493
277,132,61560,2,0,P|320:204|335:287,1,170.000003242493
245,296,61891,2,0,P|232:298|249:298,1,85.0000016212464
358,200,62112,6,0,B|405:198|494:223|494:223|432:166,1,194.999991073609
358,113,62553,2,0,P|284:139|217:232,1,170.000003242493
171,266,62884,1,0,0:0:0:0:
87,256,62994,6,0,B|38:294|80:360|80:360|166:344,1,194.999991073609
179,273,63435,2,0,P|171:180|142:63,1,170.000003242493
106,49,63766,1,0,0:0:0:0:
47,94,63876,6,0,P|59:129|93:181,1,64.9999970245363
191,176,64097,2,0,P|223:192|284:206,1,64.9999970245363
350,134,64318,2,0,P|385:123|438:91,1,64.9999970245363
481,333,64538,5,0,0:0:0:0:
412,287,64648,1,0,0:0:0:0:
341,324,64759,6,0,B|254:329|278:365|131:370,1,170.000003242493
127,276,65090,1,0,0:0:0:0:
154,256,65200,2,0,P|185:273|251:283,1,85.0000016212464
359,77,65420,2,0,P|383:121|362:206,1,85.0000016212464
309,251,65641,6,0,P|253:168|207:43,1,170.000003242493
126,76,65972,2,0,P|184:37|299:3,1,170.000003242493
465,127,66303,1,0,0:0:0:0:
438,157,66413,1,0,0:0:0:0:
400,173,66523,6,0,P|359:153|254:132,1,85.0000016212464
200,326,66744,2,0,P|238:300|308:220,1,85.0000016212464
167,76,66965,2,0,P|170:122|205:223,1,85.0000016212464
382,323,67185,5,0,0:0:0:0:
387,312,67296,1,0,0:0:0:0:
356,226,67406,5,0,0:0:0:0:
277,280,67516,1,0,0:0:0:0:
259,184,67626,5,0,0:0:0:0:
350,231,67737,1,0,0:0:0:0:
361,128,67847,5,0,0:0:0:0:
354,133,67957,1,0,0:0:0:0:
347,138,68068,1,0,0:0:0:0:
340,143,68178,1,0,0:0:0:0:
268,97,68288,6,0,P|164:100|104:56,1,170.000003242493
0,64,68619,2,0,P|54:152|46:226,1,170.000003242493
124,274,68950,2,0,P|68:299|41:332,1,85.0000016212464
182,203,69170,6,0,P|255:243|338:234,1,170.000003242493
400,314,69501,1,0,0:0:0:0:
370,328,69612,1,0,0:0:0:0:
276,150,69832,1,0,0:0:0:0:
282,384,70053,6,0,P|202:354|118:354,1,170.000003242493
45,378,70384,1,0,0:0:0:0:
2,311,70494,2,0,P|11:268|19:219,1,85.0000016212464
84,170,70715,2,0,P|74:127|67:78,1,85.0000016212464
243,4,70935,6,0,P|336:38|306:173,1,255.000004863739
225,162,71376,2,0,P|217:137|272:101,1,85.0000016212464
416,7,71597,1,0,0:0:0:0:
430,39,71707,1,0,0:0:0:0:
456,51,71818,6,0,P|419:160|411:258,1,170.000003242493
473,269,72148,1,0,0:0:0:0:
468,306,72259,1,0,0:0:0:0:
362,374,72479,1,0,0:0:0:0:
254,213,72700,6,0,P|172:215|133:286,1,170.000003242493
201,343,73031,2,0,P|279:311|361:287,1,170.000003242493
412,214,73362,2,0,P|394:175|386:133,1,85.0000016212464
275,6,73582,6,0,P|268:93|192:126,1,170.000003242493
125,89,73913,2,0,P|137:48|146:6,1,85.0000016212464
299,184,74134,1,0,0:0:0:0:
231,217,74244,2,0,P|218:257|209:299,1,85.0000016212464
326,362,74465,5,0,0:0:0:0:
360,350,74575,1,0,0:0:0:0:
360,314,74685,1,0,0:0:0:0:
326,303,74795,1,0,0:0:0:0:
305,332,74906,1,0,0:0:0:0:
477,268,75126,6,0,P|489:214|441:154,1,127.50000243187
446,128,75347,6,0,P|328:189|266:167,1,170.000003242493
227,254,75678,2,0,P|100:213|72:154,1,170.000003242493
11,141,76009,2,0,P|6:95|31:60,1,85.0000016212464
237,52,76229,6,0,P|197:132|127:101,1,150
251,45,76670,6,0,P|346:45|379:210,1,255.000004863739
490,280,77112,6,0,P|400:274|241:354,1,255.000004863739
163,326,77553,2,0,P|136:298|159:228,1,85.0000016212464
263,147,77773,1,0,0:0:0:0:
289,167,77884,1,0,0:0:0:0:
291,194,77994,1,0,0:0:0:0:
174,50,78215,5,0,0:0:0:0:
178,17,78326,1,0,0:0:0:0:
200,2,78436,1,0,0:0:0:0:
99,179,78656,5,0,0:0:0:0:
65,181,78767,1,0,0:0:0:0:
46,163,78877,1,0,0:0:0:0:
144,373,79097,2,0,P|173:330|159:291,1,85.0000016212464
89,275,79318,2,0,P|60:318|74:357,1,85.0000016212464
224,233,79538,5,0,0:0:0:0:
258,235,79649,1,0,0:0:0:0:
277,217,79759,1,0,0:0:0:0:
490,341,79979,1,0,0:0:0:0:
471,323,80089,1,0,0:0:0:0:
437,325,80200,1,0,0:0:0:0:
297,351,80421,5,0,0:0:0:0:
326,368,80531,1,0,0:0:0:0:
334,384,80641,2,0,L|374:191,1,170.000003242493
116,225,81082,2,0,L|164:-9,1,230.000004386902
400,299,81523,5,0,0:0:0:0:
363,309,81633,1,0,0:0:0:0:
327,297,81743,1,0,0:0:0:0:
307,266,81853,1,0,0:0:0:0:
271,188,81965,5,0,0:0:0:0:
226,156,82075,1,0,0:0:0:0:
161,158,82185,1,0,0:0:0:0:
116,225,82295,1,0,0:0:0:0:
147,313,82406,6,0,P|179:152|225:-4,1,300.000011444092
216,22,83729,5,0,0:0:0:0:
223,38,83839,1,0,0:0:0:0:
238,50,83949,1,0,0:0:0:0:
256,55,84059,1,0,0:0:0:0:
274,51,84170,5,0,0:0:0:0:
402,238,84391,1,0,0:0:0:0:
340,144,84612,5,0,0:0:0:0:
276,237,84833,1,0,0:0:0:0:
255,160,85053,5,0,0:0:0:0:
171,153,85274,1,0,0:0:0:0:
217,88,85494,5,0,0:0:0:0:
185,21,85715,1,0,0:0:0:0:
53,258,85935,5,0,0:0:0:0:
255,160,86156,1,0,0:0:0:0:
183,234,86376,5,0,0:0:0:0:
285,262,86597,1,0,0:0:0:0:
161,321,86818,5,0,0:0:0:0:
219,384,87038,1,0,0:0:0:0:
73,310,87259,5,0,0:0:0:0:
49,384,87479,1,0,0:0:0:0:
183,234,87700,6,0,B|202:217|223:211|223:211|102:176|85:41|182:-2|272:50|240:124,1,375.000014305115
