osu file format v14

[General]
AudioFilename: audio.mp3
AudioLeadIn: 0
PreviewTime: 54000
Countdown: 0
SampleSet: Normal
StackLeniency: 0.7
Mode: 0
LetterboxInBreaks: 0
WidescreenStoryboard: 0

[Editor]
DistanceSpacing: 0.8
BeatDivisor: 4
GridSize: 32
TimelineZoom: 1

[Metadata]
Title:Hoshi no Dialogue
TitleUnicode:星のダイアローグ
Artist:Starlight Kukugumi
ArtistUnicode:スタァライト九九組
Creator:Mamiko
Version:Insane
Source:少女☆歌劇 レヴュー・スタァライト
Tags:Shoujo Kageki Revue Starlight
BeatmapID:1808907
BeatmapSetID:865044

[Difficulty]
HPDrainRate:5
CircleSize:4
OverallDifficulty:8
ApproachRate:9
SliderMultiplier:1.7
SliderTickRate:1

[Events]
//Background and Video events
Video,0,"ioioio.avi"
0,0,"bggb.jpg",0,0
//Break Periods
//Storyboard Layer 0 (Background)
//Storyboard Layer 1 (Fail)
//Storyboard Layer 2 (Pass)
//Storyboard Layer 3 (Foreground)
//Storyboard Layer 4 (Overlay)
//Storyboard Sound Samples

[TimingPoints]
1311,372.670807453416,3,2,1,70,1,0
5783,-133.333333333333,3,2,1,70,0,0
10345,441.176470588235,4,2,1,70,1,0
28463,422.535211267606,4,1,1,70,1,0
41960,348.837209302326,3,1,1,70,1,0
52456,441.176470588235,4,1,1,70,1,0
54220,-100,4,1,1,70,0,1
87750,-100,4,1,1,70,0,0

[Colours]
Combo1 : 0,128,128
Combo2 : 255,168,125
Combo3 : 82,82,82
Combo4 : 128,128,255
Combo5 : 0,128,255
Combo6 : 255,128,128
Combo7 : 255,255,128
Combo8 : 74,74,149

[HitObjects]
83,279,1311,6,0,P|127:277|167:305,2,85,4|0|2,0:0|0:0|0:0,0:0:0:0:
282,200,1870,2,0,P|237:194|191:218,1,85,4|0,0:0|0:0,0:0:0:0:
116,174,2242,1,2,0:0:0:0:
255,283,2429,6,0,L|266:370,2,85,4|0|2,0:0|0:0|0:0,0:0:0:0:
367,221,2988,2,0,L|356:305,1,85,4|0,0:0|0:0,0:0:0:0:
201,208,3360,1,2,0:0:0:0:
278,118,3547,6,0,L|267:28,2,85,4|0|2,0:0|0:0|0:0,0:0:0:0:
291,208,4106,2,0,P|334:207|374:191,1,85,4|0,0:0|0:0,0:0:0:0:
192,120,4478,1,2,0:0:0:0:
460,206,4665,5,6,0:0:0:0:
279,353,5783,6,0,L|273:276,1,63.7500024318696
186,349,6155,2,0,L|179:262,1,63.7500024318696,2|0,0:0|0:0,0:0:0:0:
90,351,6528,2,0,L|83:268,1,63.7500024318696,2|0,0:0|0:0,0:0:0:0:
74,184,6901,2,0,P|33:134|120:133,1,191.250007295609
311,108,7646,1,0,2:0:0:0:
335,113,7739,1,0,2:0:0:0:
360,108,7832,1,0,2:0:0:0:
381,94,7926,1,0,2:0:0:0:
391,79,8019,6,0,P|404:146|399:208,1,127.500004863739,2|0,2:0|2:0,2:0:0:0:
376,299,8578,1,0,0:0:0:0:
286,256,8764,2,0,L|276:171,1,63.7500024318696
181,77,9137,6,0,L|192:164,1,63.7500024318696,2|0,0:0|0:0,0:0:0:0:
182,245,9510,1,0,0:0:0:0:
114,319,9696,1,0,0:0:0:0:
21,278,9882,1,2,0:0:0:0:
256,192,10345,12,0,11668,0:0:0:0:
380,251,12109,6,0,L|408:73,1,170
259,234,12771,2,0,P|202:215|122:290,1,170
310,159,13433,2,0,L|305:56,1,85
174,26,13874,6,0,P|186:63|182:122,1,85
77,173,14315,1,0,0:0:0:0:
77,173,14536,1,0,0:0:0:0:
269,353,15197,2,0,P|301:328|343:326,1,85
447,339,15639,6,0,P|480:282|428:194,1,170
229,219,16300,2,0,B|257:246|292:252|292:252|344:226|354:146,1,170
397,69,16962,1,0,0:0:0:0:
162,31,17403,6,0,L|157:124,1,85
228,205,17844,1,0,0:0:0:0:
228,205,18065,1,0,0:0:0:0:
135,253,18286,2,0,P|99:186|-3:194,1,170
150,348,19168,5,0,0:0:0:0:
226,298,19389,1,0,0:0:0:0:
323,296,19609,1,0,0:0:0:0:
398,348,19830,1,0,0:0:0:0:
426,230,20050,2,0,P|401:181|465:101,1,170
320,69,20712,6,0,L|316:20,2,42.5
328,161,21153,1,0,0:0:0:0:
407,106,21374,1,0,0:0:0:0:
241,183,21594,1,0,0:0:0:0:
150,124,21815,2,0,B|126:102|97:108|97:108|51:151|64:220,1,170
104,289,22477,1,0,0:0:0:0:
252,284,22697,6,0,P|323:338|398:317,1,170
426,239,23359,1,0,0:0:0:0:
223,175,23580,6,0,P|152:229|77:208,1,170
49,130,24242,1,0,0:0:0:0:
260,45,24572,6,0,L|241:213,1,170
335,268,25344,1,0,0:0:0:0:
411,65,25675,6,0,B|378:42|354:32|354:32|316:84|319:140|319:140|377:163|428:119,1,297.5,0|0,2:3|2:0,2:0:0:0:
430,217,26663,6,0,L|481:228,3,42.5,0|0|0|0,2:0|2:0|2:0|2:0,2:0:0:0:
349,261,27104,1,0,2:0:0:0:
98,144,27661,6,0,L|47:155,3,42.5,0|0|0|0,2:0|2:0|2:0|2:0,2:0:0:0:
176,187,28102,2,0,L|219:197,3,28.3333333333333,0|0|0|0,2:0|2:0|2:0|2:0,2:0:0:0:
261,136,28463,6,0,B|293:142|312:119|312:119|375:165|434:124,1,170
328,308,29096,2,0,P|327:266|317:223,1,85
261,136,29519,1,0,0:0:0:0:
176,187,29730,2,0,P|166:228|165:270,1,85
37,113,30153,6,0,B|80:118|80:118|121:92,1,85
200,49,30575,1,0,0:0:0:0:
259,204,30786,1,0,0:0:0:0:
259,204,30892,1,0,0:0:0:0:
259,204,30998,2,0,P|305:201|347:220,1,85
476,107,31420,2,0,P|430:104|388:123,1,85
266,294,31843,6,0,P|204:286|173:192,1,170
267,40,32477,2,0,L|280:143,1,85
172,193,32899,1,0,0:0:0:0:
67,142,33110,2,0,L|77:57,1,85
332,220,33533,6,0,B|384:212|443:240|443:240|467:221|497:222,1,170
437,146,34167,1,0,0:0:0:0:
376,309,34378,2,0,P|329:306|290:337,1,85
185,363,34801,2,0,P|152:326|97:321,1,85
60,144,35223,6,0,L|87:242,1,85
196,62,35646,2,0,L|174:151,1,85
270,251,36068,1,0,0:0:0:0:
270,251,36279,1,0,0:0:0:0:
397,206,36491,2,0,L|383:103,1,85
382,98,36808,1,0,0:0:0:0:
382,98,36913,6,0,P|425:111|468:102,1,85
314,178,37336,2,0,P|271:165|228:174,1,85
167,218,37653,1,0,0:0:0:0:
167,218,37758,2,0,P|123:227|67:211,1,85
235,282,38181,1,0,0:0:0:0:
176,65,38392,1,0,0:0:0:0:
176,65,38498,1,0,0:0:0:0:
176,65,38603,6,0,P|139:140|177:228,1,170
324,310,39237,1,0,0:0:0:0:
460,246,39448,2,0,P|415:237|385:210,1,85
306,111,39871,1,0,0:0:0:0:
276,128,39976,1,0,0:0:0:0:
244,137,40082,1,0,0:0:0:0:
71,75,40293,5,0,0:0:0:0:
244,137,40505,1,0,0:0:0:0:
46,230,40716,1,0,0:0:0:0:
155,65,40927,2,0,L|160:109,1,42.5
147,190,41139,6,0,P|168:212|193:221,1,56.6666666666667
368,308,41420,1,0,0:0:0:0:
368,308,41561,2,0,P|340:327|291:335,1,56.6666666666667
247,271,41843,1,0,0:0:0:0:
247,271,41960,6,0,P|236:232|253:180,1,85
326,233,42308,1,0,0:0:0:0:
161,319,42483,1,0,0:0:0:0:
97,250,42657,1,0,0:0:0:0:
74,342,42832,1,0,0:0:0:0:
161,319,43006,6,0,B|189:236|189:236|162:188,1,127.5
103,156,43355,2,0,L|4:172,1,85
206,68,43704,2,0,L|107:52,1,85
288,136,44053,6,0,P|272:181|277:241,1,85
320,299,44401,1,0,0:0:0:0:
466,198,44576,1,0,0:0:0:0:
370,194,44750,1,0,0:0:0:0:
414,279,44925,1,0,0:0:0:0:
466,198,45099,6,0,B|451:106|451:106|414:87,1,127.5
345,66,45448,2,0,L|246:127,1,85
187,41,45797,2,0,L|161:146,1,85
66,306,46146,6,0,P|112:317|167:263,1,127.5
97,221,46494,2,0,L|6:201,1,85
246,327,46843,2,0,L|329:345,1,85
262,111,47192,6,0,L|251:263,1,127.5
166,266,47541,2,0,L|177:161,1,85
355,69,47890,2,0,L|346:153,1,85
82,210,48239,6,0,P|53:160|76:90,1,127.5
94,73,48587,1,0,0:0:0:0:
166,266,48762,2,0,L|295:261,1,127.5
323,273,49111,1,0,0:0:0:0:
437,319,49285,6,0,B|469:260|411:259|440:170,1,127.5
447,172,49634,1,0,0:0:0:0:
375,57,49808,1,0,0:0:0:0:
282,126,49983,2,0,L|268:259,1,127.5
284,280,50332,5,0,0:0:0:0:
180,351,50506,2,0,P|139:316|63:327,1,127.5
47,345,50855,1,0,0:0:0:0:
110,224,51029,2,0,L|88:103,1,85
153,43,51378,6,0,B|245:62|245:62|207:89,1,127.5
196,101,51727,1,0,0:0:0:0:
263,207,51901,1,0,0:0:0:0:
189,280,52076,1,0,0:0:0:0:
354,334,52250,1,0,0:0:0:0:
368,112,52456,6,0,B|401:147|401:147|379:226,2,127.5
360,306,53338,1,0,0:0:0:0:
57,273,53779,6,2,L|31:257,6,21.25,2|2|2|2|2|2|2,2:0|2:0|2:0|2:0|2:0|2:0|2:0,2:0:0:0:
130,319,54220,6,0,P|169:316|202:275,1,85
193,208,54551,1,0,0:0:0:0:
193,208,54661,2,0,L|168:114,1,85
434,179,55103,1,0,0:0:0:0:
407,210,55213,1,0,0:0:0:0:
367,224,55323,1,0,0:0:0:0:
326,218,55433,1,0,0:0:0:0:
294,192,55544,1,0,0:0:0:0:
255,36,55764,1,0,0:0:0:0:
86,137,55985,6,0,L|186:123,1,85
203,119,56316,1,0,0:0:0:0:
203,119,56426,1,0,0:0:0:0:
360,143,56647,1,0,0:0:0:0:
163,223,56867,2,0,B|152:267|152:267|165:304,1,85
420,356,57308,2,0,B|433:319|433:319|422:275,1,85
261,158,57750,6,0,L|269:243,1,85
272,275,58081,1,0,0:0:0:0:
272,275,58191,1,0,0:0:0:0:
368,133,58411,1,0,0:0:0:0:
152,27,58632,6,0,L|145:167,1,127.5
166,178,59073,1,0,0:0:0:0:
65,81,59294,1,0,0:0:0:0:
258,120,59514,6,0,P|300:129|345:113,1,85
340,117,59845,1,0,0:0:0:0:
340,117,59955,1,0,0:0:0:0:
461,204,60176,1,0,0:0:0:0:
279,320,60397,2,0,L|270:218,1,85
79,186,60838,2,0,L|71:270,1,85
170,336,61279,5,0,0:0:0:0:
454,314,61610,1,0,0:0:0:0:
441,294,61720,2,0,P|438:251|454:212,1,85
396,79,62161,2,0,L|313:65,1,85
210,310,62603,2,0,L|294:297,1,85
129,148,63044,5,0,0:0:0:0:
445,59,63375,1,0,0:0:0:0:
431,79,63485,2,0,P|428:121|444:160,1,85
377,310,63926,2,0,L|294:297,1,85
207,99,64368,2,0,L|291:85,1,85
70,46,64808,6,0,B|101:85|101:85|81:183,1,127.5
79,194,65250,1,0,0:0:0:0:
178,303,65470,1,0,0:0:0:0:
343,350,65691,2,0,P|366:316|435:306,1,85
484,304,66022,1,0,0:0:0:0:
484,304,66132,2,0,L|497:209,1,85
400,83,66573,6,0,L|359:38,1,42.5
275,126,66794,2,0,L|336:119,1,42.5
366,199,67014,2,0,L|395:160,3,42.5
282,241,67455,6,0,L|286:283,1,42.5
205,347,67676,2,0,L|201:305,1,42.5
141,234,67897,1,0,0:0:0:0:
113,244,68007,1,0,0:0:0:0:
83,241,68117,1,0,0:0:0:0:
58,226,68227,1,0,0:0:0:0:
41,202,68338,6,0,L|52:73,1,127.5
53,48,68779,1,0,0:0:0:0:
239,192,69000,1,0,0:0:0:0:
471,202,69220,6,0,L|460:73,1,127.5
459,48,69661,1,0,0:0:0:0:
273,192,69882,1,0,0:0:0:0:
190,32,70103,6,0,L|179:129,1,85
176,148,70433,1,0,0:0:0:0:
176,148,70544,1,0,0:0:0:0:
344,295,70764,1,0,0:0:0:0:
174,262,70985,2,0,L|75:278,1,85
273,192,71426,2,0,L|372:176,1,85
482,334,71867,6,0,P|443:353|393:343,1,85
344,295,72198,1,0,0:0:0:0:
344,295,72308,2,0,L|356:183,1,85
189,31,72750,1,0,0:0:0:0:
191,60,72860,1,0,0:0:0:0:
194,90,72970,1,0,0:0:0:0:
197,119,73080,1,0,0:0:0:0:
200,149,73191,1,0,0:0:0:0:
135,311,73411,1,0,0:0:0:0:
40,237,73632,6,0,L|150:215,1,85
204,232,73963,1,0,0:0:0:0:
204,232,74073,2,0,P|239:265|242:321,1,85
452,351,74514,2,0,L|473:258,1,85
282,107,74955,2,0,L|300:189,1,85
360,335,75397,6,0,P|356:280|410:217,1,127.5
430,204,75838,1,0,0:0:0:0:
276,330,76058,1,0,0:0:0:0:
174,208,76279,2,0,P|181:172|166:114,1,85
61,300,76720,2,0,L|197:291,1,127.5
271,283,77161,6,0,B|281:256|269:232|269:232|288:190|288:190|264:160|275:112,1,170
411,58,77823,1,0,0:0:0:0:
411,58,77933,1,0,0:0:0:0:
411,58,78044,2,0,L|399:107,1,42.5
366,210,78264,1,0,0:0:0:0:
195,90,78485,1,0,0:0:0:0:
172,70,78595,1,0,0:0:0:0:
145,59,78705,1,0,0:0:0:0:
115,56,78815,1,0,0:0:0:0:
86,63,78926,6,0,L|68:186,1,85
58,226,79257,1,0,0:0:0:0:
58,226,79367,2,0,L|105:220,1,42.5
197,301,79588,2,0,L|141:278,1,42.5
236,223,79808,6,0,L|328:212,1,85
400,241,80139,1,0,0:0:0:0:
400,241,80250,2,0,L|410:187,1,42.5
335,86,80470,2,0,L|342:140,1,42.5
372,332,80691,5,0,0:0:0:0:
362,347,81132,1,0,0:0:0:0:
253,347,81353,1,0,0:0:0:0:
147,301,81573,1,0,0:0:0:0:
107,195,81794,1,0,0:0:0:0:
122,83,82014,1,0,0:0:0:0:
212,12,82235,5,0,0:0:0:0:
212,12,82345,1,0,0:0:0:0:
212,12,82455,1,0,0:0:0:0:
259,237,83117,5,0,0:0:0:0:
322,317,83338,2,0,P|364:328|410:311,1,85
402,316,83669,1,0,0:0:0:0:
402,316,83779,1,0,0:0:0:0:
377,96,84000,1,0,0:0:0:0:
377,96,84220,6,0,L|364:185,1,85
279,123,84661,1,0,0:0:0:0:
463,73,84882,1,0,0:0:0:0:
288,209,85103,6,0,L|301:298,1,85
386,236,85544,1,0,0:0:0:0:
202,186,85765,1,0,0:0:0:0:
202,186,85875,1,0,0:0:0:0:
202,186,85985,6,0,P|161:215|116:210,1,85
132,123,86426,1,0,0:0:0:0:
293,151,86647,1,0,0:0:0:0:
233,301,86867,6,0,P|274:330|319:325,1,85
303,238,87308,1,0,0:0:0:0:
142,266,87529,1,0,0:0:0:0:
255,44,87750,5,0,0:0:0:0:
