osu file format v14

[General]
AudioFilename: 1.mp3
AudioLeadIn: 0
PreviewTime: 178913
Countdown: 0
SampleSet: Normal
StackLeniency: 0.9
Mode: 0
LetterboxInBreaks: 0
WidescreenStoryboard: 0

[Editor]
Bookmarks: 23013,77413,90213,103013,131813,207013,221413,259813,285413,298213,311013,320613
DistanceSpacing: 2.4
BeatDivisor: 4
GridSize: 32
TimelineZoom: 2.3

[Metadata]
Title:Wait For Me
TitleUnicode:Wait For Me
Artist:Star Driver
ArtistUnicode:Star Driver
Creator:Come[Back]Home
Version:Waiting
Source:
Tags:cbh euphoric hardstyle bong melodic female vocals futago leaving las vegas electronic -M4x
BeatmapID:600515
BeatmapSetID:263275

[Difficulty]
HPDrainRate:6.4
CircleSize:4.3
OverallDifficulty:8.6
ApproachRate:9.2
SliderMultiplier:1.8
SliderTickRate:1

[Events]
//Background and Video events
0,0,"at_last_by_aenami-daojf90.png",0,0
//Break Periods
//Storyboard Layer 0 (Background)
//Storyboard Layer 1 (Fail)
//Storyboard Layer 2 (Pass)
//Storyboard Layer 3 (Foreground)
//Storyboard Sound Samples

[TimingPoints]
613,400,4,2,3,70,1,0
26213,-100,4,2,3,30,0,0
39013,-90.9090909090909,4,2,1,70,0,0
51013,1600,4,2,1,70,1,0
51013,-200,4,2,1,70,0,0
51813,400,4,2,1,70,1,0
51813,-90.9090909090909,4,2,1,70,0,0
64613,-86.9565217391304,4,2,1,70,0,0
74213,-166.666666666667,4,2,1,70,0,0
76613,1600,4,2,0,70,1,0
76613,-200,4,2,0,70,0,0
77413,400,4,2,1,70,1,0
77413,-83.3333333333333,4,2,1,70,0,0
89413,-200,4,2,1,70,0,0
90213,-83.3333333333333,4,2,1,70,0,0
95813,-62.5,4,2,1,70,0,0
96613,-83.3333333333333,4,2,1,70,0,0
99813,-62.5,4,2,1,70,0,0
101413,-83.3333333333333,4,2,1,70,0,0
102213,-90.9090909090909,4,2,1,70,0,0
103013,-100,4,2,1,70,0,0
103813,-111.111111111111,4,2,1,70,0,0
104613,-125,4,2,1,70,0,0
105413,-142.857142857143,4,2,1,70,0,0
106213,-125,4,2,1,70,0,0
115813,-166.666666666667,4,2,1,70,0,0
119813,-125,4,2,1,70,0,0
128613,-166.666666666667,4,2,1,70,0,0
131813,-100,4,2,1,70,0,0
144613,-125,4,2,1,70,0,0
148913,-125,4,2,1,5,0,0
149013,-125,4,2,1,70,0,0
157413,-100,4,2,1,70,0,0
170613,-111.111111111111,4,2,2,70,0,0
182213,1600,4,2,1,70,1,0
182213,-200,4,2,1,70,0,0
183013,400,4,1,1,70,1,0
183013,-80,4,1,1,70,0,1
195813,-80,4,2,1,70,0,0
196213,-80,4,1,1,70,0,1
207413,-100,4,1,1,40,0,1
207813,-133.333333333333,4,1,1,20,0,1
208213,-200,4,1,1,10,0,1
208613,-111.111111111111,4,2,1,70,0,0
221413,-100,4,2,2,70,0,0
227813,-86.9565217391304,4,2,2,70,0,0
229413,-76.9230769230769,4,2,2,70,0,0
234613,-66.6666666666667,4,1,1,70,0,1
246213,-66.6666666666667,4,1,1,70,0,0
247013,-66.6666666666667,4,1,1,70,0,1
253413,-57.1428571428571,4,1,1,70,0,1
256613,-50,4,1,1,70,0,1
258213,-100,4,2,1,70,0,1
259813,-100,4,2,1,70,0,0
272213,-200,4,2,1,70,0,0
272613,-83.3333333333333,4,2,1,70,0,0
284613,-200,4,2,1,70,0,0
285413,-83.3333333333333,4,2,1,70,0,0
291013,-62.5,4,2,1,70,0,0
291813,-83.3333333333333,4,2,1,70,0,0
298213,-90.9090909090909,4,2,1,70,0,0
311013,-125,4,2,1,70,0,0

[Colours]
Combo1 : 101,252,230
Combo2 : 255,55,55
Combo3 : 251,168,55
Combo4 : 252,237,54
Combo5 : 153,255,51
Combo6 : 70,255,163

[HitObjects]
256,192,23013,12,0,24613,0:0:0:0:
124,304,26213,6,0,L|112:160,2,135,6|0|0,0:0|0:0|0:0,0:0:0:0:
193,361,27013,1,0,0:0:0:0:
302,281,27313,1,0,0:0:0:0:
414,354,27613,1,0,0:0:0:0:
480,293,27813,6,0,B|495:248|495:248|479:148,1,135,2|0,0:0|0:0,0:0:0:0:
400,53,28413,1,0,0:0:0:0:
326,105,28613,2,0,P|281:115|177:101,1,135
62,74,29213,1,0,0:0:0:0:
93,158,29413,6,0,B|101:204|101:204|90:237|90:237|99:292,2,135,2|0|0,0:0|0:0|0:0,0:0:0:0:
182,170,30213,2,0,B|190:216|190:216|179:249|179:249|188:304,2,135
169,80,31013,5,0,0:0:0:0:
301,120,31313,1,0,0:0:0:0:
420,56,31613,1,0,0:0:0:0:
473,128,31813,2,0,L|460:277,1,135
456,307,32213,1,2,0:0:0:0:
373,270,32413,1,2,0:0:0:0:
289,236,32613,6,0,L|143:265,1,135,2|0,0:0|0:0,0:0:0:0:
24,233,33213,1,0,0:0:0:0:
79,162,33413,2,0,L|211:135,1,135
285,22,34013,1,0,0:0:0:0:
351,82,34213,6,0,B|388:110|388:110|486:85,2,135,2|0|0,0:0|0:0|0:0,0:0:0:0:
272,38,35013,2,0,L|122:77,1,135
16,20,35613,1,0,0:0:0:0:
4,109,35813,6,0,L|13:250,1,135,2|0,0:0|0:0,0:0:0:0:
110,336,36413,1,0,0:0:0:0:
185,286,36613,1,0,0:0:0:0:
313,326,36913,1,0,0:0:0:0:
286,193,37213,1,0,0:0:0:0:
373,214,37413,6,0,P|371:167|292:102,1,135
179,83,38013,1,0,0:0:0:0:
126,155,38213,2,0,P|128:202|207:267,1,135
319,286,38813,1,0,0:0:0:0:
270,210,39013,6,0,L|289:105,1,99.0000030212403,4|0,0:0|0:0,0:0:0:0:
144,339,39413,2,0,L|126:241,1,99.0000030212403,2|0,0:0|0:0,0:0:0:0:
232,52,39813,2,0,P|283:30|333:40,1,99.0000030212403
305,294,40213,2,0,P|256:299|212:278,1,99.0000030212403,2|0,0:0|0:0,0:0:0:0:
398,195,40613,6,0,L|407:371,1,148.50000453186
437,382,41013,2,0,P|449:350|494:290,1,99.0000030212403,2|0,0:0|0:0,0:0:0:0:
243,151,41413,2,0,P|273:190|292:235,1,99.0000030212403
61,171,41813,2,0,L|74:63,1,99.0000030212403,2|0,0:0|0:0,0:0:0:0:
195,19,42113,1,0,0:0:0:0:
195,29,42213,6,0,L|206:127,1,99.0000030212403
433,101,42613,2,0,P|374:83|332:79,1,99.0000030212403,2|0,0:0|0:0,0:0:0:0:
179,215,43013,2,0,P|241:211|285:174,1,99.0000030212403
29,187,43413,2,0,L|40:285,1,99.0000030212403,2|0,0:0|0:0,0:0:0:0:
299,230,43813,6,0,B|258:225|258:225|197:233|197:233|153:224,1,148.50000453186
104,214,44213,2,0,P|148:179|178:139,1,99.0000030212403,2|0,0:0|0:0,0:0:0:0:
324,30,44613,2,0,L|337:144,1,99.0000030212403
413,188,45013,1,2,0:0:0:0:
277,252,45213,1,0,0:0:0:0:
277,252,45313,1,0,0:0:0:0:
277,252,45413,5,4,0:0:0:0:
181,279,45613,1,0,0:0:0:0:
290,246,45813,1,2,0:0:0:0:
128,197,46013,1,0,0:0:0:0:
304,239,46213,1,0,0:0:0:0:
144,105,46413,1,0,0:0:0:0:
258,332,46613,1,2,0:0:0:0:
314,52,46813,1,0,0:0:0:0:
314,52,46913,1,0,0:0:0:0:
314,52,47013,5,4,0:0:0:0:
253,130,47213,1,0,0:0:0:0:
323,42,47413,1,2,0:0:0:0:
317,222,47613,1,0,0:0:0:0:
332,32,47813,1,0,0:0:0:0:
426,261,48013,1,0,0:0:0:0:
219,138,48213,1,2,0:0:0:0:
400,131,48413,2,0,L|450:142,1,49.5000015106202
335,199,48613,5,4,0:0:0:0:
311,155,48713,1,0,0:0:0:0:
312,106,48813,1,0,0:0:0:0:
336,64,48913,1,0,0:0:0:0:
369,27,49013,1,2,0:0:0:0:
324,47,49113,1,0,0:0:0:0:
275,56,49213,1,0,0:0:0:0:
230,33,49313,1,0,0:0:0:0:
185,10,49413,5,4,0:0:0:0:
200,44,49513,1,0,0:0:0:0:
206,80,49613,1,0,0:0:0:0:
201,117,49713,1,0,0:0:0:0:
187,151,49813,1,2,0:0:0:0:
155,132,49913,1,0,0:0:0:0:
118,129,50013,1,0,0:0:0:0:
82,138,50113,1,0,0:0:0:0:
53,161,50213,1,4,0:0:0:0:
261,149,51013,6,0,P|246:157|228:175,1,39.375
316,145,51813,6,0,L|151:156,1,148.50000453186,10|0,0:0|0:0,0:0:0:0:
118,159,52213,1,10,0:0:0:0:
152,66,52413,1,2,0:0:0:0:
255,227,52613,2,0,L|238:334,1,99.0000030212403,10|0,0:0|0:0,0:0:0:0:
396,88,53013,2,0,L|413:195,1,99.0000030212403,8|2,0:0|0:0,0:0:0:0:
170,151,53413,6,0,B|220:156|220:156|270:147|270:147|318:151,1,148.50000453186,10|0,0:0|0:0,0:0:0:0:
337,197,53813,1,10,0:0:0:0:
297,80,54013,1,2,0:0:0:0:
140,276,54213,2,0,B|189:280|189:280|239:271|239:271|287:275,1,148.50000453186,10|0,0:0|0:0,0:0:0:0:
309,320,54613,1,10,0:0:0:0:
211,178,54813,1,2,0:0:0:0:
309,320,55013,6,0,B|328:263|328:263|314:165,1,148.50000453186,10|0,0:0|0:0,0:0:0:0:
306,126,55413,1,10,0:0:0:0:
395,169,55613,1,2,0:0:0:0:
214,165,55813,2,0,P|207:112|223:63,1,99.0000030212403,10|0,0:0|0:0,0:0:0:0:
247,27,56113,1,0,0:0:0:0:
247,27,56213,1,10,0:0:0:0:
105,127,56413,2,0,L|66:116,2,33.0000010070801,10|8|8,0:0|0:0|0:0,0:0:0:0:
54,117,56613,6,0,L|74:264,1,148.50000453186,10|0,0:0|0:0,0:0:0:0:
38,300,57013,1,10,0:0:0:0:
126,344,57213,1,2,0:0:0:0:
220,92,57413,2,0,L|240:239,1,148.50000453186,10|0,0:0|0:0,0:0:0:0:
203,272,57813,1,10,0:0:0:0:
394,334,58013,1,10,0:0:0:0:
152,191,58213,6,0,P|116:234|124:332,1,148.50000453186,10|0,0:0|0:0,0:0:0:0:
133,370,58613,2,0,P|92:343|33:322,1,99.0000030212403,10|2,0:0|0:0,0:0:0:0:
324,224,59013,2,0,P|282:251|236:268,1,99.0000030212403,10|0,0:0|0:0,0:0:0:0:
190,286,59313,1,0,0:0:0:0:
190,286,59413,1,10,0:0:0:0:
133,204,59613,1,2,0:0:0:0:
306,301,59813,6,0,P|359:310|450:356,1,148.50000453186,10|0,0:0|0:0,0:0:0:0:
482,381,60213,2,0,P|460:324|449:260,1,99.0000030212403,10|2,0:0|0:0,0:0:0:0:
281,125,60613,2,0,P|269:173|251:218,1,99.0000030212403,10|0,0:0|0:0,0:0:0:0:
227,262,60913,1,0,0:0:0:0:
198,302,61013,2,0,L|206:355,3,49.5000015106202,2|0|0|0,0:0|0:0|0:0|0:0,0:0:0:0:
295,311,61413,6,0,L|449:288,1,148.50000453186,10|0,0:0|0:0,0:0:0:0:
489,277,61813,1,10,0:0:0:0:
420,205,62013,1,2,0:0:0:0:
239,209,62213,2,0,P|190:250|176:354,1,148.50000453186,10|0,0:0|0:0,0:0:0:0:
175,379,62613,1,10,0:0:0:0:
83,341,62813,1,2,0:0:0:0:
94,88,63013,6,0,P|102:137|116:185,1,99.0000030212403,10|0,0:0|0:0,0:0:0:0:
132,231,63313,1,0,0:0:0:0:
132,231,63413,1,10,0:0:0:0:
169,322,63613,1,2,0:0:0:0:
258,159,63813,2,0,P|271:111|279:62,1,99.0000030212403,2|0,0:0|0:0,0:0:0:0:
291,14,64113,1,0,0:0:0:0:
291,14,64213,2,0,P|314:62|350:108,1,99.0000030212403,2|0,0:0|0:0,0:0:0:0:
445,303,64613,6,0,L|308:295,1,103.500001974106,10|2,0:0|0:0,0:0:0:0:
302,334,64913,1,0,0:0:0:0:
302,334,65013,1,10,0:0:0:0:
254,241,65213,1,2,0:0:0:0:
330,102,65413,2,0,L|488:109,1,155.250002961159,10|0,0:0|0:0,0:0:0:0:
500,158,65813,1,8,0:0:0:0:
340,18,66013,1,2,0:0:0:0:
284,216,66213,6,0,P|298:266|321:315,1,103.500001974106,8|2,0:0|0:0,0:0:0:0:
344,358,66513,1,0,0:0:0:0:
344,358,66613,1,10,0:0:0:0:
438,316,66813,1,2,0:0:0:0:
201,279,67013,2,0,L|148:291,2,51.7500009870529,10|0|0,0:0|0:0|0:0,0:0:0:0:
181,76,67413,2,0,P|179:128|171:179,1,103.500001974106,8|8,0:0|0:0,0:0:0:0:
165,204,67679,1,8,0:0:0:0:
171,202,67746,1,8,0:0:0:0:
177,200,67813,6,0,L|284:190,1,103.500001974106,8|2,0:0|0:0,0:0:0:0:
332,188,68113,1,0,0:0:0:0:
332,188,68213,1,10,0:0:0:0:
384,98,68413,1,2,0:0:0:0:
453,277,68613,1,10,0:0:0:0:
443,306,68713,1,0,0:0:0:0:
434,335,68813,1,0,0:0:0:0:
336,369,69013,1,8,0:0:0:0:
329,265,69213,1,2,0:0:0:0:
338,236,69313,1,0,0:0:0:0:
348,207,69413,5,10,0:0:0:0:
151,322,69613,1,10,0:0:0:0:
107,228,69813,1,0,0:0:0:0:
330,208,70013,5,8,0:0:0:0:
371,303,70213,1,2,0:0:0:0:
211,128,70413,5,8,0:0:0:0:
381,38,70613,1,8,0:0:0:0:
235,263,70813,1,8,0:0:0:0:
149,2,71013,6,0,P|140:57|117:127,1,103.500001974106,4|2,0:0|0:0,0:0:0:0:
88,198,71413,1,2,0:0:0:0:
88,198,71613,1,0,0:0:0:0:
225,78,71813,2,0,P|274:62|331:33,1,103.500001974106,2|0,0:0|0:0,0:0:0:0:
436,221,72213,2,0,P|387:205|330:176,1,103.500001974106,0|2,0:0|0:0,0:0:0:0:
244,142,72613,5,4,0:0:0:0:
259,244,72813,1,2,0:0:0:0:
340,182,73013,1,2,0:0:0:0:
164,202,73213,1,0,0:0:0:0:
266,344,73413,2,0,P|307:327|351:273,1,103.500001974106,2|0,0:0|0:0,0:0:0:0:
373,239,73713,1,0,0:0:0:0:
373,239,73813,1,0,0:0:0:0:
382,135,74013,1,0,0:0:0:0:
141,41,74213,5,4,0:0:0:0:
128,65,74313,1,0,0:0:0:0:
121,91,74413,1,2,0:0:0:0:
118,117,74513,1,0,0:0:0:0:
120,144,74613,1,2,0:0:0:0:
126,171,74713,1,0,0:0:0:0:
136,196,74813,1,0,0:0:0:0:
150,218,74913,1,0,0:0:0:0:
166,239,75013,5,6,0:0:0:0:
143,227,75113,1,0,0:0:0:0:
118,218,75213,1,0,0:0:0:0:
91,215,75313,1,0,0:0:0:0:
65,221,75413,1,0,0:0:0:0:
40,232,75513,1,0,0:0:0:0:
21,243,75613,5,2,0:0:0:0:
21,216,75713,1,0,0:0:0:0:
11,190,75813,1,4,0:0:0:0:
175,264,76613,6,0,P|200:268|217:266,1,39.375
135,323,77413,6,0,L|125:210,1,107.999996704102,4|0,0:3|0:3,0:3:0:0:
124,161,77713,1,0,0:3:0:0:
124,161,77813,1,4,0:3:0:0:
26,208,78013,1,0,0:3:0:0:
221,271,78213,2,0,P|266:235|309:182,1,107.999996704102,4|0,0:3|0:3,0:3:0:0:
364,111,78613,1,4,0:3:0:0:
427,265,78813,1,0,0:3:0:0:
433,233,78913,1,0,0:3:0:0:
440,201,79013,5,4,0:3:0:0:
346,26,79213,1,0,0:3:0:0:
353,58,79313,1,0,0:3:0:0:
359,90,79413,1,4,0:3:0:0:
293,175,79613,1,0,0:3:0:0:
328,353,79813,2,0,B|435:366|435:366|490:341,1,161.999995056153,4|0,0:3|0:3,0:3:0:0:
471,290,80213,2,0,P|437:246|405:178,1,107.999996704102,4|0,0:3|0:3,0:3:0:0:
269,53,80613,6,0,L|243:169,1,107.999996704102,4|0,0:3|0:3,0:3:0:0:
231,211,80913,1,0,0:3:0:0:
231,211,81013,1,4,0:3:0:0:
162,127,81213,1,0,0:3:0:0:
354,129,81413,2,0,P|381:176|387:240,1,107.999996704102,4|0,0:3|0:3,0:3:0:0:
375,336,81813,1,4,0:3:0:0:
465,142,82013,1,0,0:3:0:0:
474,111,82113,1,0,0:3:0:0:
490,83,82213,5,4,0:3:0:0:
340,204,82413,1,0,0:3:0:0:
331,173,82513,1,0,0:3:0:0:
315,145,82613,1,4,0:3:0:0:
235,71,82813,1,0,0:3:0:0:
114,218,83013,1,4,0:3:0:0:
98,246,83113,1,0,0:3:0:0:
89,277,83213,1,0,0:3:0:0:
155,362,83413,5,4,0:3:0:0:
296,210,83613,1,4,0:3:0:0:
6,132,83813,6,0,B|113:144|113:144|185:114,1,161.999995056153,4|0,0:3|0:3,0:3:0:0:
192,77,84213,2,0,L|175:217,1,107.999996704102,4|0,0:3|0:3,0:3:0:0:
288,346,84613,2,0,L|293:282,2,53.9999983520508,4|0|0,0:3|0:3|0:3,0:3:0:0:
392,320,85013,1,4,0:3:0:0:
196,308,85213,2,0,L|142:303,1,53.9999983520508,0|0,0:3|0:3,0:3:0:0:
87,297,85413,5,4,0:3:0:0:
188,184,85613,2,0,L|192:130,1,53.9999983520508,0|0,0:3|0:3,0:3:0:0:
199,75,85813,1,4,0:3:0:0:
107,18,86013,1,0,0:3:0:0:
306,163,86213,2,0,L|359:167,1,53.9999983520508,4|0,0:3|0:3,0:3:0:0:
415,174,86413,1,0,0:3:0:0:
357,265,86613,2,0,P|324:308|292:373,1,107.999996704102,4|0,0:3|0:3,0:3:0:0:
79,304,87013,6,0,B|185:284|185:284|249:293,1,161.999995056153,4|0,0:3|0:3,0:3:0:0:
264,243,87413,2,0,P|231:200|205:152,1,107.999996704102,4|0,0:3|0:3,0:3:0:0:
138,4,87813,1,4,0:3:0:0:
129,35,87913,1,0,0:3:0:0:
118,65,88013,1,0,0:3:0:0:
20,234,88213,1,4,0:3:0:0:
149,348,88413,1,4,0:3:0:0:
148,340,88479,1,4,0:3:0:0:
148,332,88546,1,4,0:3:0:0:
148,324,88613,6,0,P|144:264|126:197,1,107.999996704102,4|0,0:3|0:3,0:3:0:0:
114,166,88913,1,0,0:3:0:0:
114,166,89013,1,4,0:3:0:0:
73,65,89213,1,0,0:3:0:0:
250,267,89413,6,0,P|273:270|293:278,1,45,0|2,0:3|0:3,0:3:0:0:
108,190,89713,1,2,0:3:0:0:
115,187,89813,2,0,P|135:185|158:176,1,45,2|0,0:3|0:3,0:3:0:0:
196,74,90213,5,4,0:3:0:0:
250,313,90413,1,4,0:3:0:0:
360,11,90613,1,4,0:3:0:0:
360,11,91013,6,0,L|392:174,1,161.999995056153,4|0,0:3|0:3,0:3:0:0:
434,201,91413,2,0,P|385:232|341:273,1,107.999996704102,4|0,0:3|0:3,0:3:0:0:
314,308,91713,1,0,0:3:0:0:
314,308,91813,1,4,0:3:0:0:
176,183,92013,1,0,0:3:0:0:
207,192,92113,1,0,0:3:0:0:
234,209,92213,1,4,0:3:0:0:
157,284,92413,1,0,0:3:0:0:
252,114,92613,2,0,P|231:64|213:2,1,107.999996704102,4|0,0:3|0:3,0:3:0:0:
75,251,93013,2,0,P|96:201|111:150,1,107.999996704102,4|0,0:3|0:3,0:3:0:0:
53,58,93413,5,4,0:3:0:0:
203,234,93613,2,0,L|257:222,1,53.9999983520508,0|0,0:3|0:3,0:3:0:0:
308,207,93813,1,4,0:3:0:0:
390,276,94013,1,0,0:3:0:0:
214,140,94213,1,4,0:3:0:0:
227,110,94313,1,0,0:3:0:0:
250,87,94413,1,0,0:3:0:0:
350,46,94613,1,4,0:3:0:0:
390,276,94813,1,0,0:3:0:0:
377,306,94913,1,0,0:3:0:0:
354,329,95013,6,0,L|232:315,1,107.999996704102,4|0,0:3|0:3,0:3:0:0:
202,347,95313,1,0,0:3:0:0:
202,347,95413,1,4,0:3:0:0:
130,265,95613,1,0,0:3:0:0:
271,24,95813,6,0,B|250:102|250:102|281:182|281:182|269:238|269:238|344:248|344:248|354:177|354:177|324:97|324:97|339:37|339:37|375:65,1,504,0|0,0:3|0:3,0:3:0:0:
447,179,96613,6,0,B|420:286|420:286|425:358,1,161.999995056153,4|0,0:3|0:3,0:3:0:0:
374,360,97013,2,0,P|333:311|283:262,1,107.999996704102,4|0,0:3|0:3,0:3:0:0:
262,243,97313,1,0,0:3:0:0:
262,243,97413,1,4,0:3:0:0:
165,201,97613,1,0,0:3:0:0:
324,113,97813,2,0,L|437:126,1,107.999996704102,4|0,0:3|0:3,0:3:0:0:
485,133,98113,1,0,0:3:0:0:
485,133,98213,5,4,0:3:0:0:
427,41,98413,1,0,0:3:0:0:
384,224,98613,1,4,0:3:0:0:
424,61,98813,1,0,0:3:0:0:
480,274,99013,1,4,0:3:0:0:
480,274,99113,1,0,0:3:0:0:
480,274,99213,1,0,0:3:0:0:
331,116,99413,1,4,0:3:0:0:
327,348,99613,1,0,0:3:0:0:
437,158,99813,6,0,P|443:114|436:80,1,72,4|0,0:3|0:3,0:3:0:0:
214,311,100013,2,0,P|208:355|215:389,1,72,4|0,0:3|0:3,0:3:0:0:
299,186,100213,2,0,P|259:169|226:163,1,72,4|0,0:3|0:3,0:3:0:0:
12,344,100413,2,0,P|47:336|79:321,1,72,4|0,0:3|0:3,0:3:0:0:
123,171,100613,5,4,0:3:0:0:
139,115,100713,1,4,0:3:0:0:
183,78,100813,1,4,0:3:0:0:
240,70,100913,1,4,0:3:0:0:
291,95,101013,1,4,0:3:0:0:
259,143,101113,1,4,0:3:0:0:
273,198,101213,1,4,0:3:0:0:
327,215,101313,1,4,0:3:0:0:
378,190,101413,6,0,L|362:15,2,161.999995056153,2|2|2,0:0|0:0|0:0,0:0:0:0:
140,189,102213,6,0,L|126:337,2,148.50000453186,2|2|2,0:0|0:0|0:0,0:0:0:0:
369,228,103013,6,0,L|354:69,2,135,2|2|2,0:0|0:0|0:0,0:0:0:0:
165,257,103813,6,0,L|154:378,2,121.499996292114,2|2|2,0:0|0:0|0:0,0:0:0:0:
355,264,104613,6,0,L|343:134,2,108,2|2|2,0:0|0:0|0:0,0:0:0:0:
200,289,105413,6,0,L|193:384,2,94.499997116089,2|2|2,0:0|0:0|0:0,0:0:0:0:
310,291,106213,5,2,0:0:0:0:
447,118,107013,2,0,B|462:90|462:90|425:28|330:24|280:77,1,216,2|0,0:0|0:0,0:0:0:0:
317,133,107813,2,0,B|275:145|244:116|244:116|224:138|218:172|218:172|177:152|130:169,1,216,2|0,0:0|0:0,0:0:0:0:
42,222,108613,2,0,P|136:188|122:90,1,216
48,235,109413,2,0,P|103:235|156:151,1,144,2|0,0:0|0:0,0:0:0:0:
442,282,110213,6,0,B|471:255|471:255|434:230|380:261|380:261|330:250|291:277,1,216,2|0,0:0|0:0,0:0:0:0:
383,156,111013,2,0,B|337:158|322:195|322:195|405:238|360:330,1,216,2|0,0:0|0:0,0:0:0:0:
302,270,111813,1,2,0:0:0:0:
322,194,112013,1,2,0:0:0:0:
282,126,112213,1,2,0:0:0:0:
205,106,112413,1,2,0:0:0:0:
102,155,112613,6,0,P|79:204|208:286,1,216,2|0,0:0|0:0,0:0:0:0:
86,345,113413,2,0,P|179:296|284:313,1,216,2|0,0:0|0:0,0:0:0:0:
352,367,114213,2,0,B|300:274|411:252|343:138,1,216,2|0,0:0|0:0,0:0:0:0:
147,135,115013,2,0,B|107:155|132:192|132:192|214:174|277:212,1,216,2|0,0:0|0:0,0:0:0:0:
423,319,115813,6,0,B|365:289|352:242|352:242|363:182|327:145|327:145|417:162|417:162|429:198|425:231|425:231|439:252|468:238|449:210,1,431.999986816407,2|2,0:0|0:0,0:0:0:0:
469,126,118613,1,2,0:0:0:0:
464,147,118713,1,2,0:0:0:0:
459,168,118813,1,2,0:0:0:0:
454,189,118913,1,2,0:0:0:0:
449,210,119013,5,2,0:0:0:0:
120,326,119813,2,0,B|68:297|66:240|66:240|130:200|97:113,1,216,2|0,0:0|0:0,0:0:0:0:
32,167,120613,2,0,B|50:220|108:236|150:209|150:209|188:208|223:260,1,216,2|0,0:0|0:0,0:0:0:0:
324,115,121413,2,0,P|257:118|227:268,1,216
381,340,122213,1,2,0:0:0:0:
106,178,123013,6,0,B|62:132|93:66|152:64|152:64|173:95|227:94,1,216,2|0,0:0|0:0,0:0:0:0:
214,17,123813,2,0,P|200:39|331:109,1,216,2|0,0:0|0:0,0:0:0:0:
272,265,124613,2,0,B|242:243|242:243|272:54,1,216,2|0,0:0|0:0,0:0:0:0:
286,236,125413,6,0,B|242:244|242:244|383:340,1,216,2|0,0:0|0:0,0:0:0:0:
442,179,126213,2,0,P|360:240|383:339,1,216,2|0,0:0|0:0,0:0:0:0:
450,276,127013,2,0,B|374:225|305:289|305:289|265:288|249:242,1,216,2|0,0:0|0:0,0:0:0:0:
332,153,127813,2,0,B|323:120|303:111|274:116|233:140|225:224|268:277,1,216
54,223,128613,6,0,B|109:216|175:171|173:105|142:69|111:92|76:158|157:239|157:239|223:218|272:276,1,431.999986816407,2|2,0:0|0:0,0:0:0:0:
102,326,131813,6,0,L|97:228,1,90,2|0,0:0|0:0,0:0:0:0:
96,191,132113,1,0,0:0:0:0:
96,191,132213,1,0,0:0:0:0:
182,214,132413,2,0,L|228:230,2,45,0|0|2,0:0|0:0|0:0,0:0:0:0:
162,125,132813,1,0,0:0:0:0:
162,125,132913,1,0,0:0:0:0:
162,125,133013,1,0,0:0:0:0:
147,36,133213,1,0,0:0:0:0:
235,52,133413,6,0,L|416:42,1,180,2|0,0:0|0:0,0:0:0:0:
505,37,134013,1,0,0:0:0:0:
461,115,134213,2,0,B|439:157|439:157|454:289,1,180,2|0,0:0|0:0,0:0:0:0:
465,378,134813,1,0,0:0:0:0:
384,337,135013,6,0,P|340:327|289:325,1,90,2|0,0:0|0:0,0:0:0:0:
250,330,135313,1,0,0:0:0:0:
250,330,135413,1,0,0:0:0:0:
283,246,135613,1,0,0:0:0:0:
274,220,135713,1,0,0:0:0:0:
273,193,135813,1,0,0:0:0:0:
335,127,136013,1,0,0:0:0:0:
344,101,136113,1,0,0:0:0:0:
345,74,136213,1,0,0:0:0:0:
290,2,136413,1,0,0:0:0:0:
228,67,136613,6,0,B|183:91|183:91|89:68,1,135,2|0,0:0|0:0,0:0:0:0:
57,61,137013,2,0,L|73:158,1,90,2|0,0:0|0:0,0:0:0:0:
101,323,137413,1,2,0:0:0:0:
74,163,137613,1,2,0:0:0:0:
104,339,137813,1,2,0:0:0:0:
71,149,138013,1,2,0:0:0:0:
265,275,138213,6,0,L|88:240,1,180,2|0,0:0|0:0,0:0:0:0:
0,224,138813,1,0,0:0:0:0:
207,179,139013,2,0,P|243:145|276:101,1,90,2|0,0:0|0:0,0:0:0:0:
294,76,139313,1,0,0:0:0:0:
294,76,139413,1,0,0:0:0:0:
356,217,139613,1,0,0:0:0:0:
362,243,139713,1,0,0:0:0:0:
373,267,139813,6,0,P|404:305|444:338,1,90,2|0,0:0|0:0,0:0:0:0:
180,354,140213,2,0,P|226:345|284:340,1,90
314,337,140513,1,0,0:0:0:0:
314,337,140613,1,2,0:0:0:0:
185,219,140813,1,0,0:0:0:0:
166,199,140913,1,0,0:0:0:0:
154,174,141013,1,0,0:0:0:0:
144,84,141213,1,0,0:0:0:0:
273,238,141413,6,0,P|250:280|211:305,1,90,2|0,0:0|0:0,0:0:0:0:
174,323,141713,1,0,0:0:0:0:
174,323,141813,1,0,0:0:0:0:
356,300,142013,1,0,0:0:0:0:
381,309,142113,1,0,0:0:0:0:
401,326,142213,1,0,0:0:0:0:
174,323,142413,1,0,0:0:0:0:
149,314,142513,1,0,0:0:0:0:
129,297,142613,1,2,0:0:0:0:
253,155,142813,1,0,0:0:0:0:
258,181,142913,1,0,0:0:0:0:
255,207,143013,6,0,P|213:184|170:142,1,90,2|0,0:0|0:0,0:0:0:0:
153,120,143313,1,0,0:0:0:0:
153,120,143413,1,0,0:0:0:0:
57,280,143613,2,0,L|63:331,2,45,2|0|0,0:0|0:0|0:0,0:0:0:0:
264,358,144013,2,0,L|269:313,1,45
336,227,144213,1,2,0:0:0:0:
349,183,144313,1,0,0:0:0:0:
340,138,144413,1,2,0:0:0:0:
325,95,144513,1,0,0:0:0:0:
335,53,144613,5,2,0:0:0:0:
76,47,145413,2,0,L|106:270,1,216,2|0,0:0|0:0,0:0:0:0:
60,317,146213,2,0,P|103:292|304:380,1,288,2|2,0:0|0:0,0:0:0:0:
438,121,147813,6,0,B|359:149|359:149|220:113,1,216,2|0,0:0|0:0,0:0:0:0:
177,66,148613,2,0,L|189:203,1,108,2|0,0:0|0:0,0:0:0:0:
189,209,149013,1,2,0:0:0:0:
317,274,149413,1,2,0:0:0:0:
35,336,150213,2,0,B|41:291|41:291|26:171|26:171|37:111,1,216,2|0,0:0|0:0,0:0:0:0:
98,87,151013,6,0,P|139:105|341:4,1,288,2|2,0:0|0:0,0:0:0:0:
479,260,152613,1,2,0:0:0:0:
200,334,153413,6,0,B|54:309|54:309|127:266,1,216,2|0,0:0|0:0,0:0:0:0:
181,252,154213,2,0,B|292:272|292:272|352:257|352:257|477:277,1,288,2|0,0:0|0:0,0:0:0:0:
255,75,155813,1,2,0:0:0:0:
236,316,157413,6,0,L|363:299,1,90,2|0,0:0|0:0,0:0:0:0:
351,299,157713,1,0,0:0:0:0:
351,299,157813,1,2,0:0:0:0:
264,120,158013,1,0,0:0:0:0:
256,145,158113,1,0,0:0:0:0:
251,171,158213,1,2,0:0:0:0:
99,103,158413,1,0,0:0:0:0:
94,77,158513,1,0,0:0:0:0:
86,52,158613,2,0,P|62:101|46:147,1,90,2|0,0:0|0:0,0:0:0:0:
38,352,159013,6,0,L|130:338,1,90,2|0,0:0|0:0,0:0:0:0:
141,336,159313,1,0,0:0:0:0:
154,334,159413,1,2,0:0:0:0:
351,185,159613,1,0,0:0:0:0:
338,183,159713,1,0,0:0:0:0:
325,181,159813,1,2,0:0:0:0:
289,344,160013,1,0,0:0:0:0:
291,331,160113,1,0,0:0:0:0:
293,318,160213,1,2,0:0:0:0:
148,118,160413,1,0,0:0:0:0:
150,131,160513,1,0,0:0:0:0:
152,144,160613,6,0,P|104:152|53:148,1,90,2|0,0:0|0:0,0:0:0:0:
35,148,160913,1,0,0:0:0:0:
35,148,161013,1,2,0:0:0:0:
64,62,161213,1,0,0:0:0:0:
302,48,161413,2,0,P|333:105|350:155,1,90,2|0,0:0|0:0,0:0:0:0:
352,162,161713,1,0,0:0:0:0:
352,162,161813,1,2,0:0:0:0:
328,248,162013,1,0,0:0:0:0:
172,382,162213,6,0,P|174:338|160:289,1,90,2|0,0:0|0:0,0:0:0:0:
151,269,162513,1,0,0:0:0:0:
124,273,162613,1,2,0:0:0:0:
275,140,162813,1,0,0:0:0:0:
248,136,162913,1,0,0:0:0:0:
221,132,163013,2,0,L|239:227,1,90,2|0,0:0|0:0,0:0:0:0:
242,246,163313,1,0,0:0:0:0:
242,246,163413,1,2,0:0:0:0:
484,196,163613,1,0,0:0:0:0:
457,192,163713,1,0,0:0:0:0:
430,187,163813,6,0,P|385:155|356:123,1,90,2|0,0:0|0:0,0:0:0:0:
339,101,164113,1,0,0:0:0:0:
339,101,164213,1,2,0:0:0:0:
301,18,164413,1,0,0:0:0:0:
262,245,164613,2,0,L|360:235,1,90,2|0,0:0|0:0,0:0:0:0:
378,233,164913,1,0,0:0:0:0:
404,229,165013,1,2,0:0:0:0:
377,315,165213,1,0,0:0:0:0:
252,161,165413,6,0,P|227:120|209:79,1,90,2|0,0:0|0:0,0:0:0:0:
198,78,165713,1,0,0:0:0:0:
185,74,165813,1,2,0:0:0:0:
24,209,166013,1,0,0:0:0:0:
37,206,166113,1,0,0:0:0:0:
50,203,166213,1,2,0:0:0:0:
280,295,166413,1,0,0:0:0:0:
266,292,166513,1,0,0:0:0:0:
252,289,166613,2,0,L|304:272,1,45,2|0,0:0|0:0,0:0:0:0:
327,158,166813,2,0,L|381:167,1,45,2|0,0:0|0:0,0:0:0:0:
466,240,167013,6,0,L|436:346,1,90,2|0,0:0|0:0,0:0:0:0:
406,354,167313,1,0,0:0:0:0:
406,354,167413,1,2,0:0:0:0:
190,268,167613,2,0,L|251:251,1,45
275,240,167813,2,0,L|167:211,1,90,2|0,0:0|0:0,0:0:0:0:
143,208,168113,1,0,0:0:0:0:
143,208,168213,1,2,0:0:0:0:
322,105,168413,1,0,0:0:0:0:
353,96,168513,1,0,0:0:0:0:
384,88,168613,6,0,L|366:195,1,90,2|0,0:0|0:0,0:0:0:0:
359,207,168913,1,0,0:0:0:0:
351,237,169013,2,0,P|312:184|265:147,1,90,2|0,0:0|0:0,0:0:0:0:
33,138,169413,2,0,P|86:123|135:97,1,90,2|0,0:0|0:0,0:0:0:0:
144,91,169713,1,0,0:0:0:0:
171,75,169813,2,0,L|157:183,1,90,2|0,0:0|0:0,0:0:0:0:
42,342,170213,5,4,0:0:0:0:
42,342,170613,2,0,P|72:313|100:267,1,80.9999975280763,8|0,0:0|0:0,0:0:0:0:
200,72,171013,2,0,P|216:110|261:187,1,121.499996292114,10|0,0:0|0:0,0:0:0:0:
274,215,171413,2,0,L|175:193,1,80.9999975280763,8|0,0:0|0:0,0:0:0:0:
414,179,171813,6,0,P|418:220|411:264,1,80.9999975280763,10|0,0:0|0:0,0:0:0:0:
239,97,172213,2,0,P|233:56|237:16,1,80.9999975280763,8|0,0:0|0:0,0:0:0:0:
280,225,172613,2,0,L|136:204,1,121.499996292114,10|0,0:0|0:0,0:0:0:0:
124,187,173013,1,8,0:0:0:0:
192,371,173213,1,0,0:0:0:0:
192,371,173313,1,0,0:0:0:0:
192,371,173413,6,0,P|186:349|179:286,1,80.9999975280763,10|0,0:0|0:0,0:0:0:0:
418,174,173813,2,0,P|414:214|405:253,1,80.9999975280763,8|0,0:0|0:0,0:0:0:0:
292,43,174213,2,0,L|384:27,1,80.9999975280763,10|0,0:0|0:0,0:0:0:0:
126,170,174613,2,0,L|34:154,1,80.9999975280763,10|0,0:0|0:0,0:0:0:0:
7,43,175013,5,8,0:0:0:0:
73,233,175213,1,0,0:0:0:0:
73,233,175313,1,0,0:0:0:0:
73,233,175413,1,8,0:0:0:0:
145,12,175613,1,0,0:0:0:0:
145,12,175713,1,0,0:0:0:0:
145,12,175813,1,10,0:0:0:0:
224,258,176013,1,0,0:0:0:0:
224,258,176113,1,0,0:0:0:0:
224,258,176213,1,8,0:0:0:0:
95,143,176413,2,0,L|44:153,1,40.4999987640381,8|0,0:0|0:0,0:0:0:0:
177,78,176613,5,14,0:0:0:0:
111,245,176813,1,8,0:0:0:0:
172,91,177013,1,8,0:0:0:0:
206,312,177213,1,8,0:0:0:0:
95,143,177413,1,8,0:0:0:0:
56,366,177613,1,8,0:0:0:0:
199,203,177813,1,8,0:0:0:0:
16,264,178013,1,8,0:0:0:0:
16,264,178113,1,0,0:0:0:0:
16,264,178213,5,14,0:0:0:0:
211,341,178413,1,8,0:0:0:0:
100,135,178613,1,8,0:0:0:0:
94,381,178813,1,8,0:0:0:0:
224,83,179013,1,10,0:0:0:0:
44,254,179213,1,8,0:0:0:0:
353,210,179413,1,8,0:0:0:0:
80,84,179613,2,0,L|32:95,1,40.4999987640381,8|0,0:0|0:0,0:0:0:0:
104,183,179813,5,12,0:0:0:0:
141,198,179913,1,8,0:0:0:0:
178,191,180013,1,8,0:0:0:0:
209,165,180113,1,8,0:0:0:0:
229,130,180213,1,8,0:0:0:0:
261,153,180313,1,8,0:0:0:0:
289,178,180413,1,8,0:0:0:0:
301,216,180513,1,8,0:0:0:0:
300,257,180613,5,12,0:0:0:0:
332,221,180713,1,8,0:0:0:0:
373,196,180813,1,8,0:0:0:0:
419,182,180913,1,8,0:0:0:0:
467,183,181013,1,8,0:0:0:0:
443,225,181113,1,8,0:0:0:0:
431,272,181213,1,8,0:0:0:0:
434,320,181313,1,8,0:0:0:0:
467,382,181413,5,4,0:0:0:0:
182,90,182213,6,0,P|191:106|197:127,1,39.375
114,77,183013,6,0,L|285:109,1,168.75,10|0,0:0|0:0,0:0:0:0:
326,76,183413,2,0,P|345:141|381:208,1,112.5,10|0,0:0|0:0,0:0:0:0:
202,363,183813,2,0,P|225:311|240:257,1,112.5,8|0,0:0|0:0,0:0:0:0:
265,147,184213,1,10,0:0:0:0:
265,147,184413,1,0,0:0:0:0:
338,323,184613,5,10,0:0:0:0:
380,174,184813,1,0,0:0:0:0:
249,61,185013,1,10,0:0:0:0:
301,232,185213,1,0,0:0:0:0:
451,119,185413,5,8,0:0:0:0:
211,156,185613,1,0,0:0:0:0:
388,255,185813,5,10,0:0:0:0:
290,52,186013,1,0,0:0:0:0:
374,348,186213,6,0,L|263:361,1,112.5,10|0,0:0|0:0,0:0:0:0:
212,337,186513,1,0,0:0:0:0:
212,337,186613,1,10,0:0:0:0:
104,371,186813,1,0,0:0:0:0:
324,276,187013,2,0,P|307:222|303:162,1,112.5,8|0,0:0|0:0,0:0:0:0:
311,110,187313,1,0,0:0:0:0:
311,110,187413,1,10,0:0:0:0:
386,26,187613,1,0,0:0:0:0:
172,125,187813,5,10,0:0:0:0:
370,202,188013,1,0,0:0:0:0:
123,208,188213,5,10,0:0:0:0:
419,116,188413,1,0,0:0:0:0:
151,124,188613,5,8,0:0:0:0:
391,203,188813,1,0,0:0:0:0:
106,211,189013,5,10,0:0:0:0:
436,116,189213,1,0,0:0:0:0:
259,382,189413,6,0,L|244:251,1,112.5,10|0,0:0|0:0,0:0:0:0:
242,213,189713,1,0,0:0:0:0:
242,213,189813,1,10,0:0:0:0:
150,148,190013,1,0,0:0:0:0:
332,29,190213,1,8,0:0:0:0:
168,137,190413,1,0,0:0:0:0:
414,197,190613,1,10,0:0:0:0:
246,58,190813,2,0,L|228:5,1,56.25
168,137,191013,5,10,0:0:0:0:
376,87,191213,1,0,0:0:0:0:
188,132,191413,5,10,0:0:0:0:
401,202,191613,1,0,0:0:0:0:
272,52,191813,5,8,0:0:0:0:
221,280,192013,1,0,0:0:0:0:
413,174,192213,5,10,0:0:0:0:
152,142,192413,1,0,0:0:0:0:
312,328,192613,6,0,P|320:267|300:217,1,112.5,10|0,0:0|0:0,0:0:0:0:
270,173,192913,1,0,0:0:0:0:
270,173,193013,1,10,0:0:0:0:
183,101,193213,1,0,0:0:0:0:
74,298,193413,2,0,P|141:284|202:284,1,112.5,8|0,0:0|0:0,0:0:0:0:
241,284,193713,1,0,0:0:0:0:
241,284,193813,1,10,0:0:0:0:
350,310,194013,1,0,0:0:0:0:
231,50,194213,5,10,0:0:0:0:
159,303,194413,1,0,0:0:0:0:
147,32,194613,5,10,0:0:0:0:
247,341,194813,1,0,0:0:0:0:
396,127,195013,5,10,0:0:0:0:
91,192,195213,1,0,0:0:0:0:
426,217,195413,5,10,0:0:0:0:
53,108,195613,1,0,0:0:0:0:
238,371,195813,5,0,0:0:0:0:
238,371,196213,6,0,L|206:186,1,168.75,10|0,0:0|0:0,0:0:0:0:
198,149,196613,1,8,0:0:0:0:
118,228,196813,1,0,0:0:0:0:
343,273,197013,1,10,0:0:0:0:
134,231,197213,1,0,0:0:0:0:
328,117,197413,5,10,0:0:0:0:
256,353,197613,1,0,0:0:0:0:
184,117,197813,5,10,0:0:0:0:
257,332,198013,1,0,0:0:0:0:
420,191,198213,5,8,0:0:0:0:
150,243,198413,1,0,0:0:0:0:
353,358,198613,5,10,0:0:0:0:
294,81,198813,1,0,0:0:0:0:
176,330,199013,6,0,P|226:290|236:221,1,112.5,10|0,0:0|0:0,0:0:0:0:
244,188,199313,1,0,0:0:0:0:
244,188,199413,1,10,0:0:0:0:
170,102,199613,1,0,0:0:0:0:
413,76,199813,2,0,L|391:195,1,112.5,8|0,0:0|0:0,0:0:0:0:
414,238,200113,1,0,0:0:0:0:
414,238,200213,1,10,0:0:0:0:
318,298,200413,1,0,0:0:0:0:
141,146,200613,6,0,P|194:117|239:75,1,112.5,10|0,0:0|0:0,0:0:0:0:
5,111,201013,2,0,L|15:240,1,112.5,10|0,0:0|0:0,0:0:0:0:
301,356,201413,5,8,0:0:0:0:
136,70,201613,1,0,0:0:0:0:
421,202,201813,5,10,0:0:0:0:
91,344,202013,1,0,0:0:0:0:
294,77,202213,6,0,L|271:205,1,112.5,14|0,0:0|0:0,0:0:0:0:
265,243,202513,1,0,0:0:0:0:
265,243,202613,1,10,0:0:0:0:
421,310,202813,1,0,0:0:0:0:
282,253,203013,1,8,0:0:0:0:
502,174,203213,1,0,0:0:0:0:
328,350,203413,1,10,0:0:0:0:
383,79,203613,1,0,0:0:0:0:
497,338,203813,6,0,P|440:306|397:257,1,112.5,14|0,0:0|0:0,0:0:0:0:
373,226,204113,1,0,0:0:0:0:
373,226,204213,1,10,0:0:0:0:
485,108,204413,1,0,0:0:0:0:
290,158,204613,1,8,0:0:0:0:
508,284,204813,1,0,0:0:0:0:
369,73,205013,1,10,0:0:0:0:
370,84,205113,1,0,0:0:0:0:
371,95,205213,1,0,0:0:0:0:
372,106,205313,1,0,0:0:0:0:
373,117,205413,5,14,0:0:0:0:
339,111,205513,1,0,0:0:0:0:
305,105,205613,1,0,0:0:0:0:
271,100,205713,1,0,0:0:0:0:
218,142,205813,5,10,0:0:0:0:
223,176,205913,1,0,0:0:0:0:
229,210,206013,1,0,0:0:0:0:
235,244,206113,1,0,0:0:0:0:
190,294,206213,5,12,0:0:0:0:
156,288,206313,1,0,0:0:0:0:
122,282,206413,1,0,0:0:0:0:
88,277,206513,1,0,0:0:0:0:
40,228,206613,5,10,0:0:0:0:
46,194,206713,1,0,0:0:0:0:
52,160,206813,1,0,0:0:0:0:
57,126,206913,1,0,0:0:0:0:
154,71,207013,6,0,L|136:192,1,112.5,6|0,0:0|0:0,0:0:0:0:
268,318,207413,6,0,L|249:220,1,90,2|0,0:0|0:0,0:0:0:0:
512,273,207813,6,0,P|472:267|437:254,1,67.5000025749208
182,81,208213,6,0,P|214:70|240:68,1,45
106,337,208613,5,2,0:0:0:0:
106,337,209013,2,0,L|93:251,1,80.9999975280763
191,258,209413,2,0,L|327:278,1,121.499996292114,2|0,0:0|0:0,0:0:0:0:
326,321,209813,1,0,0:0:0:0:
421,293,210013,1,0,0:0:0:0:
407,87,210213,6,0,B|388:105|388:105|382:200,1,121.499996292114,2|0,0:0|0:0,0:0:0:0:
355,240,210613,2,0,P|343:194|317:150,1,80.9999975280763
139,105,211013,2,0,P|120:141|111:180,2,80.9999975280763,2|0|0,0:0|0:0|0:0,0:0:0:0:
196,26,211613,1,0,0:0:0:0:
213,173,211813,6,0,P|230:221|239:321,1,121.499996292114,2|0,0:0|0:0,0:0:0:0:
231,339,212213,2,0,P|270:317|316:304,1,80.9999975280763
463,203,212613,2,0,P|424:190|389:170,1,80.9999975280763
197,84,213013,2,0,P|236:62|282:49,1,80.9999975280763
70,143,213413,6,0,L|57:38,1,80.9999975280763,2|0,0:0|0:0,0:0:0:0:
169,202,213813,2,0,P|135:232|48:258,1,121.499996292114,2|0,0:0|0:0,0:0:0:0:
15,261,214213,1,2,0:0:0:0:
177,345,214413,1,2,0:0:0:0:
80,161,214613,1,2,0:0:0:0:
57,373,214813,1,2,0:0:0:0:
241,195,215013,5,2,0:0:0:0:
241,195,215413,2,0,L|327:212,1,80.9999975280763
408,252,215813,2,0,P|404:207|415:121,1,121.499996292114,2|0,0:0|0:0,0:0:0:0:
453,104,216213,1,0,0:0:0:0:
398,23,216413,1,0,0:0:0:0:
194,107,216613,6,0,P|236:106|328:78,1,121.499996292114,2|0,0:0|0:0,0:0:0:0:
349,116,217013,2,0,L|329:207,1,80.9999975280763
451,351,217413,2,0,L|433:271,1,80.9999975280763,2|0,0:0|0:0,0:0:0:0:
234,303,217813,2,0,L|313:320,1,80.9999975280763
93,225,218213,6,0,L|232:199,1,121.499996292114,2|0,0:0|0:0,0:0:0:0:
260,195,218613,2,0,P|242:157|232:113,1,80.9999975280763
227,70,218913,1,0,0:0:0:0:
227,70,219013,1,0,0:0:0:0:
353,201,219213,2,0,P|345:231|337:248,2,40.4999987640381,0|0|2,0:0|0:0|0:0,0:0:0:0:
434,95,219613,2,0,P|426:76|422:56,1,40.4999987640381
424,7,219813,6,0,P|394:34|317:60,1,121.499996292114,2|0,0:0|0:0,0:0:0:0:
269,63,220213,2,0,P|277:102|275:161,1,80.9999975280763
273,191,220513,1,0,0:0:0:0:
273,191,220613,1,2,0:0:0:0:
72,150,220813,1,2,0:0:0:0:
191,318,221013,1,2,0:0:0:0:
188,302,221113,1,2,0:0:0:0:
185,286,221213,1,2,0:0:0:0:
182,270,221313,1,2,0:0:0:0:
179,254,221413,6,0,L|206:118,1,135,12|0,0:0|0:0,0:0:0:0:
184,81,221813,2,0,P|240:73|276:56,1,90,8|0,0:0|0:0,0:0:0:0:
350,17,222213,1,10,0:0:0:0:
344,106,222413,1,0,0:0:0:0:
350,17,222613,1,8,0:0:0:0:
344,106,222813,1,0,0:0:0:0:
466,235,223013,6,0,L|312:258,1,135,10|0,0:0|0:0,0:0:0:0:
304,290,223413,2,0,P|271:256|221:230,1,90,8|0,0:0|0:0,0:0:0:0:
156,280,223813,1,10,0:0:0:0:
138,146,224013,1,0,0:0:0:0:
156,280,224213,1,8,0:0:0:0:
138,146,224413,1,0,0:0:0:0:
376,220,224613,6,0,B|323:228|323:228|216:204,1,135,10|0,0:0|0:0,0:0:0:0:
199,203,225013,2,0,L|210:296,1,90,8|0,0:0|0:0,0:0:0:0:
283,343,225413,1,10,0:0:0:0:
105,315,225613,1,0,0:0:0:0:
283,343,225813,1,10,0:0:0:0:
105,315,226013,1,0,0:0:0:0:
348,243,226213,6,0,P|303:224|242:152,1,135,8|0,0:0|0:0,0:0:0:0:
227,119,226613,2,0,P|200:157|162:184,1,90,8|0,0:0|0:0,0:0:0:0:
91,235,227013,1,10,0:0:0:0:
145,16,227213,1,0,0:0:0:0:
91,235,227413,1,8,0:0:0:0:
145,16,227613,1,0,0:0:0:0:
257,183,227813,6,0,L|372:162,1,103.500001974106,14|8,0:0|0:0,0:0:0:0:
408,73,228213,1,8,0:0:0:0:
368,247,228413,1,8,0:0:0:0:
308,27,228613,1,8,0:0:0:0:
447,168,228813,1,8,0:0:0:0:
304,299,229013,1,8,0:0:0:0:
408,59,229213,1,8,0:0:0:0:
469,343,229413,6,0,P|423:302|394:245,1,116.999994644165,14|8,0:0|0:0,0:0:0:0:
357,142,229813,1,8,0:0:0:0:
232,242,230013,1,8,0:0:0:0:
346,157,230213,1,10,0:0:0:0:
137,139,230413,1,8,0:0:0:0:
259,362,230613,1,8,0:0:0:0:
147,159,230813,1,8,0:0:0:0:
380,299,231013,5,6,0:0:0:0:
361,269,231113,1,8,0:0:0:0:
350,235,231213,1,8,0:0:0:0:
347,199,231313,1,8,0:0:0:0:
354,164,231413,1,8,0:0:0:0:
322,180,231513,1,8,0:0:0:0:
287,182,231613,1,8,0:0:0:0:
252,173,231713,1,8,0:0:0:0:
222,154,231813,5,12,0:0:0:0:
222,200,231913,1,8,0:0:0:0:
207,244,232013,1,8,0:0:0:0:
179,281,232113,1,8,0:0:0:0:
139,305,232213,1,8,0:0:0:0:
141,258,232313,1,8,0:0:0:0:
125,213,232413,1,8,0:0:0:0:
91,180,232513,1,8,0:0:0:0:
28,147,232613,6,0,P|23:164|20:181,1,29.2499986610413,6|0,0:0|0:0,0:0:0:0:
159,23,233013,5,2,0:0:0:0:
204,32,233113,1,0,0:0:0:0:
249,41,233213,1,2,0:0:0:0:
294,51,233313,1,0,0:0:0:0:
268,90,233413,6,0,L|256:128,8,29.2499986610413,2|0|0|0|0|0|0|0|2,0:0|0:0|0:0|0:0|0:0|0:0|0:0|0:0|0:0,0:0:0:0:
72,325,234213,5,2,0:0:0:0:
72,325,234313,1,2,0:0:0:0:
72,325,234413,1,2,0:0:0:0:
72,325,234513,1,2,0:0:0:0:
72,325,234613,6,0,B|112:259|112:259|81:103,1,202.500007724762,10|0,0:0|0:0,0:0:0:0:
37,89,235013,2,0,P|115:85|171:53,1,135.000005149842,10|0,0:0|0:0,0:0:0:0:
423,156,235413,2,0,P|362:126|296:126,1,135.000005149842,8|0,0:0|0:0,0:0:0:0:
103,298,235813,5,10,0:0:0:0:
338,214,236013,1,0,0:0:0:0:
123,128,236213,5,10,0:0:0:0:
241,353,236413,1,0,0:0:0:0:
283,88,236613,5,10,0:0:0:0:
71,281,236813,1,0,0:0:0:0:
372,311,237013,5,10,0:0:0:0:
108,102,237213,1,0,0:0:0:0:
230,351,237413,6,0,L|206:188,1,135.000005149842,10|0,0:0|0:0,0:0:0:0:
200,150,237713,1,0,0:0:0:0:
200,150,237813,1,10,0:0:0:0:
90,229,238013,1,0,0:0:0:0:
324,268,238213,2,0,P|374:244|432:178,1,135.000005149842,8|0,0:0|0:0,0:0:0:0:
464,129,238513,1,0,0:0:0:0:
464,129,238613,1,10,0:0:0:0:
407,6,238813,1,0,0:0:0:0:
150,154,239013,5,10,0:0:0:0:
373,246,239213,1,0,0:0:0:0:
252,92,239413,5,10,0:0:0:0:
276,332,239613,1,0,0:0:0:0:
173,165,239813,5,10,0:0:0:0:
352,241,240013,1,0,0:0:0:0:
254,114,240213,5,10,0:0:0:0:
274,310,240413,1,0,0:0:0:0:
453,131,240613,6,0,L|308:150,1,135.000005149842,10|0,0:0|0:0,0:0:0:0:
251,158,240913,1,0,0:0:0:0:
251,158,241013,1,10,0:0:0:0:
321,273,241213,1,0,0:0:0:0:
374,65,241413,1,8,0:0:0:0:
237,241,241613,1,0,0:0:0:0:
237,241,241713,1,0,0:0:0:0:
237,241,241813,1,10,0:0:0:0:
383,369,242013,1,0,0:0:0:0:
263,138,242213,6,0,P|196:111|139:68,1,135.000005149842,10|0,0:0|0:0,0:0:0:0:
424,84,242613,2,0,L|410:230,1,135.000005149842,10|0,0:0|0:0,0:0:0:0:
156,313,243013,5,10,0:0:0:0:
409,234,243213,1,0,0:0:0:0:
182,112,243413,5,10,0:0:0:0:
315,342,243613,1,0,0:0:0:0:
388,93,243813,6,0,L|255:69,1,135.000005149842,10|0,0:0|0:0,0:0:0:0:
187,57,244113,1,0,0:0:0:0:
187,57,244213,1,10,0:0:0:0:
240,180,244413,1,0,0:0:0:0:
27,270,244613,2,0,P|112:291|155:317,1,135.000005149842,8|0,0:0|0:0,0:0:0:0:
205,356,244913,1,0,0:0:0:0:
205,356,245013,1,10,0:0:0:0:
334,318,245213,1,0,0:0:0:0:
169,130,245413,5,10,0:0:0:0:
399,195,245613,1,0,0:0:0:0:
143,248,245813,6,0,L|64:264,3,67.5000025749208,10|0|0|0,0:0|0:0|0:0|0:0,0:0:0:0:
229,172,246213,6,0,L|273:176,6,33.7500012874604,2|0|0|0|0|0|0,0:0|0:0|0:0|0:0|0:0|0:0|0:0,0:0:0:0:
346,95,246613,5,2,0:0:0:0:
275,285,246813,1,0,0:0:0:0:
155,42,247013,5,14,0:0:0:0:
434,180,247213,1,8,0:0:0:0:
21,223,247413,1,10,0:0:0:0:
21,223,247813,5,8,0:0:0:0:
137,291,248013,1,0,0:0:0:0:
137,291,248113,1,0,0:0:0:0:
137,291,248213,1,10,0:0:0:0:
139,156,248413,1,0,0:0:0:0:
30,330,248613,5,10,0:0:0:0:
228,211,248813,1,0,0:0:0:0:
228,211,248913,1,0,0:0:0:0:
228,211,249013,1,10,0:0:0:0:
93,92,249213,1,0,0:0:0:0:
183,343,249413,5,10,0:0:0:0:
251,38,249613,1,0,0:0:0:0:
251,38,249713,1,0,0:0:0:0:
251,38,249813,1,10,0:0:0:0:
78,238,250013,1,0,0:0:0:0:
356,326,250213,6,0,L|341:178,1,135.000005149842,10|0,0:0|0:0,0:0:0:0:
394,147,250513,1,0,0:0:0:0:
394,147,250613,1,10,0:0:0:0:
467,260,250813,1,0,0:0:0:0:
246,220,251013,5,8,0:0:0:0:
499,161,251213,1,0,0:0:0:0:
499,161,251313,1,0,0:0:0:0:
499,161,251413,1,10,0:0:0:0:
330,350,251613,1,0,0:0:0:0:
240,58,251813,5,10,0:0:0:0:
408,243,252013,1,0,0:0:0:0:
408,243,252113,1,0,0:0:0:0:
408,243,252213,1,10,0:0:0:0:
136,151,252413,1,0,0:0:0:0:
382,68,252613,5,10,0:0:0:0:
213,302,252813,1,0,0:0:0:0:
213,302,252913,1,0,0:0:0:0:
213,302,253013,1,10,0:0:0:0:
252,25,253213,1,0,0:0:0:0:
393,308,253413,5,14,0:0:0:0:
174,144,253613,2,0,L|93:162,1,78.7500007510185
21,181,253813,1,14,0:0:0:0:
240,272,254013,2,0,P|283:279|329:278,1,78.7500007510185
396,276,254213,1,14,0:0:0:0:
87,242,254413,6,0,P|86:281|98:329,1,78.7500007510185
144,380,254613,1,14,0:0:0:0:
274,194,254813,2,0,P|282:156|283:117,1,78.7500007510185
255,42,255013,5,14,0:0:0:0:
465,109,255213,1,0,0:0:0:0:
465,109,255313,1,0,0:0:0:0:
465,109,255413,1,14,0:0:0:0:
325,315,255613,1,0,0:0:0:0:
362,49,255813,5,14,0:0:0:0:
489,350,256013,1,0,0:0:0:0:
489,350,256113,1,0,0:0:0:0:
489,350,256213,1,14,0:0:0:0:
192,218,256413,1,0,0:0:0:0:
431,36,256613,5,14,0:0:0:0:
373,343,256813,2,0,L|355:244,1,90
340,165,257013,1,14,0:0:0:0:
139,343,257213,2,0,L|157:244,1,90
172,165,257413,1,14,0:0:0:0:
460,378,257613,6,0,P|451:333|431:276,1,90
398,209,257813,1,14,0:0:0:0:
52,378,258013,2,0,P|60:333|81:276,1,90
114,209,258213,1,4,0:0:0:0:
256,192,258313,12,0,259413,0:0:0:0:
135,300,259813,6,0,L|111:123,2,135,4|0|0,0:0|0:0|0:0,0:0:0:0:
207,353,260613,1,0,0:0:0:0:
321,280,260913,1,0,0:0:0:0:
439,344,261213,1,0,0:0:0:0:
409,259,261413,6,0,P|399:204|406:113,1,135
480,14,262013,1,0,0:0:0:0:
394,40,262213,2,0,B|293:49|293:49|240:41,1,135,2|0,0:0|0:0,0:0:0:0:
130,15,262813,1,0,0:0:0:0:
75,86,263013,6,0,L|96:229,2,135,2|0|0,0:0|0:0|0:0,0:0:0:0:
265,219,263813,2,0,L|244:362,2,135
344,175,264613,5,0,0:0:0:0:
242,86,264913,1,0,0:0:0:0:
124,152,265213,1,0,0:0:0:0:
115,241,265413,2,0,B|166:270|166:270|272:251,1,135,2|0,0:0|0:0,0:0:0:0:
373,227,266013,1,0,0:0:0:0:
293,184,266213,5,6,0:0:0:0:
293,184,266313,1,0,0:0:0:0:
293,184,266413,1,0,0:0:0:0:
370,138,266613,1,0,0:0:0:0:
373,227,266813,1,0,0:0:0:0:
291,92,267013,2,0,P|297:48|316:1,1,90,2|0,0:0|0:0,0:0:0:0:
196,219,267413,2,0,P|190:175|171:128,1,90,2|0,0:0|0:0,0:0:0:0:
56,310,267813,5,2,0:0:0:0:
56,310,267913,1,0,0:0:0:0:
56,310,268013,1,0,0:0:0:0:
138,345,268213,1,0,0:0:0:0:
220,308,268413,1,0,0:0:0:0:
148,142,268613,2,0,P|135:185|136:230,1,90,2|0,0:0|0:0,0:0:0:0:
300,365,269013,2,0,P|313:322|312:277,1,90,2|0,0:0|0:0,0:0:0:0:
275,73,269413,5,6,0:0:0:0:
275,73,269513,1,0,0:0:0:0:
275,73,269613,1,0,0:0:0:0:
356,112,269813,1,0,0:0:0:0:
341,200,270013,1,0,0:0:0:0:
151,226,270213,5,6,0:0:0:0:
151,226,270313,1,0,0:0:0:0:
151,226,270413,1,0,0:0:0:0:
70,265,270613,1,2,0:0:0:0:
85,353,270813,1,0,0:0:0:0:
288,278,271013,5,4,0:0:0:0:
131,127,271213,1,0,0:0:0:0:
131,127,271313,1,0,0:0:0:0:
131,127,271413,1,4,0:0:0:0:
198,349,271613,1,0,0:0:0:0:
280,87,271813,2,0,L|266:30,2,45,6|0|0,0:0|0:0|0:0,0:0:0:0:
384,155,272213,6,0,L|375:241,1,67.5,6|0,0:0|0:0,0:0:0:0:
268,182,272613,6,0,L|125:190,1,107.999996704102,4|0,0:3|0:3,0:3:0:0:
106,194,272913,1,0,0:3:0:0:
106,194,273013,1,4,0:3:0:0:
41,280,273213,1,0,0:3:0:0:
362,279,273413,2,0,P|392:230|399:179,1,107.999996704102,4|0,0:3|0:3,0:3:0:0:
395,126,273713,1,0,0:3:0:0:
395,126,273813,1,4,0:3:0:0:
249,299,274013,1,0,0:3:0:0:
260,329,274113,1,0,0:3:0:0:
278,355,274213,5,4,0:3:0:0:
277,173,274413,1,0,0:3:0:0:
266,143,274513,1,0,0:3:0:0:
248,117,274613,2,0,P|197:147|159:186,1,107.999996704102,4|0,0:3|0:3,0:3:0:0:
454,204,275013,2,0,L|437:40,1,161.999995056153,4|0,0:3|0:3,0:3:0:0:
393,11,275413,2,0,P|375:63|339:105,1,107.999996704102,4|0,0:3|0:3,0:3:0:0:
165,269,275813,6,0,P|143:205|118:159,1,107.999996704102,4|0,0:3|0:3,0:3:0:0:
94,123,276113,1,0,0:3:0:0:
94,123,276213,1,4,0:3:0:0:
22,42,276413,1,0,0:3:0:0:
239,180,276613,2,0,P|255:128|279:80,1,107.999996704102,4|0,0:3|0:3,0:3:0:0:
308,34,276913,1,0,0:3:0:0:
308,34,277013,1,4,0:3:0:0:
443,195,277213,1,0,0:3:0:0:
432,225,277313,1,0,0:3:0:0:
417,253,277413,5,4,0:3:0:0:
334,323,277613,1,0,0:3:0:0:
319,295,277713,1,0,0:3:0:0:
308,265,277813,1,4,0:3:0:0:
281,160,278013,1,0,0:3:0:0:
131,287,278213,1,4,0:3:0:0:
120,317,278313,1,0,0:3:0:0:
105,345,278413,1,0,0:3:0:0:
23,273,278613,5,4,0:3:0:0:
299,356,278813,1,4,0:3:0:0:
82,98,279013,6,0,L|94:207,1,107.999996704102,4|0,0:3|0:3,0:3:0:0:
100,259,279313,1,0,0:3:0:0:
100,259,279413,1,4,0:3:0:0:
179,186,279613,1,0,0:3:0:0:
212,366,279813,1,4,0:3:0:0:
212,366,279913,1,0,0:3:0:0:
212,366,280013,1,0,0:3:0:0:
88,169,280213,1,4,0:3:0:0:
281,237,280413,2,0,L|337:227,1,53.9999983520508,0|0,0:3|0:3,0:3:0:0:
386,215,280613,5,4,0:3:0:0:
194,193,280813,1,0,0:3:0:0:
187,224,280913,1,0,0:3:0:0:
186,256,281013,1,4,0:3:0:0:
234,352,281213,1,0,0:3:0:0:
435,208,281413,1,4,0:3:0:0:
442,177,281513,1,0,0:3:0:0:
443,145,281613,1,0,0:3:0:0:
377,318,281813,2,0,P|428:333|489:321,1,107.999996704102,4|0,0:3|0:3,0:3:0:0:
210,240,282213,6,0,L|223:365,1,107.999996704102,4|0,0:3|0:3,0:3:0:0:
269,371,282513,1,0,0:3:0:0:
269,371,282613,1,4,0:3:0:0:
359,312,282813,1,0,0:3:0:0:
133,289,283013,2,0,P|89:256|52:205,1,107.999996704102,4|0,0:3|0:3,0:3:0:0:
30,166,283313,1,0,0:3:0:0:
30,166,283413,1,4,0:3:0:0:
238,133,283613,1,4,0:3:0:0:
237,140,283679,1,4,0:3:0:0:
236,147,283746,1,4,0:3:0:0:
235,154,283813,6,0,L|246:269,1,107.999996704102,4|0,0:3|0:3,0:3:0:0:
249,315,284113,1,0,0:3:0:0:
249,315,284213,1,4,0:3:0:0:
152,266,284413,1,0,0:3:0:0:
347,201,284613,6,0,P|372:202|401:196,1,45,0|2,0:3|0:3,0:3:0:0:
231,108,284913,1,2,0:3:0:0:
241,105,285013,2,0,P|269:103|300:106,1,45,2|0,0:3|0:3,0:3:0:0:
44,199,285413,6,0,L|55:75,1,107.999996704102,4|0,0:3|0:3,0:3:0:0:
60,37,285713,1,0,0:3:0:0:
60,37,285813,1,4,0:3:0:0:
148,98,286013,1,0,0:3:0:0:
249,305,286213,2,0,L|260:181,1,107.999996704102,4|0,0:3|0:3,0:3:0:0:
265,143,286513,1,0,0:3:0:0:
265,143,286613,1,4,0:3:0:0:
386,282,286813,1,0,0:3:0:0:
355,292,286913,1,0,0:3:0:0:
322,288,287013,5,4,0:3:0:0:
218,258,287213,1,0,0:3:0:0:
185,254,287313,1,0,0:3:0:0:
154,264,287413,1,4,0:3:0:0:
78,340,287613,1,0,0:3:0:0:
270,367,287813,1,4,0:3:0:0:
303,371,287913,1,0,0:3:0:0:
334,361,288013,1,0,0:3:0:0:
305,152,288213,2,0,P|293:209|296:271,1,107.999996704102,4|0,0:3|0:3,0:3:0:0:
82,188,288613,5,4,0:3:0:0:
105,82,288813,1,0,0:3:0:0:
105,82,288913,1,0,0:3:0:0:
105,82,289013,1,4,0:3:0:0:
181,158,289213,1,0,0:3:0:0:
69,310,289413,2,0,L|178:321,1,107.999996704102,4|0,0:3|0:3,0:3:0:0:
225,325,289713,1,0,0:3:0:0:
225,325,289813,1,4,0:3:0:0:
408,337,290013,1,0,0:3:0:0:
390,309,290113,1,0,0:3:0:0:
378,278,290213,6,0,P|355:331|320:373,1,107.999996704102,4|0,0:3|0:3,0:3:0:0:
270,381,290513,1,0,0:3:0:0:
270,381,290613,1,4,0:3:0:0:
176,320,290813,1,0,0:3:0:0:
315,109,291013,6,0,B|242:123|242:123|179:101|179:101|101:107|101:107|125:171|125:171|104:233|104:233|183:229|183:229|269:258,1,504,0|0,0:3|0:3,0:3:0:0:
370,361,291813,6,0,L|397:189,1,161.999995056153,4|0,0:3|0:3,0:3:0:0:
445,182,292213,2,0,P|416:124|406:68,1,107.999996704102,4|0,0:3|0:3,0:3:0:0:
406,27,292513,1,0,0:3:0:0:
406,27,292613,1,4,0:3:0:0:
510,54,292813,1,0,0:3:0:0:
321,148,293013,2,0,L|207:126,1,107.999996704102,4|0,0:3|0:3,0:3:0:0:
161,118,293313,1,0,0:3:0:0:
161,118,293413,5,4,0:3:0:0:
191,298,293613,1,0,0:3:0:0:
163,140,293813,1,4,0:3:0:0:
104,348,294013,1,0,0:3:0:0:
233,201,294213,1,4,0:3:0:0:
25,257,294413,1,0,0:3:0:0:
245,364,294613,1,4,0:3:0:0:
75,145,294813,2,0,L|85:105,2,35.9999989013672,4|4|4,0:3|0:3|0:3,0:3:0:0:
179,56,295013,6,0,L|191:174,1,107.999996704102,4|0,0:3|0:3,0:3:0:0:
197,216,295313,1,0,0:3:0:0:
197,216,295413,1,4,0:3:0:0:
291,163,295613,1,0,0:3:0:0:
363,380,295813,2,0,P|321:328|296:273,1,107.999996704102,4|0,0:3|0:3,0:3:0:0:
287,238,296113,1,0,0:3:0:0:
287,238,296213,1,4,0:3:0:0:
392,263,296413,1,0,0:3:0:0:
131,337,296613,5,4,0:0:0:0:
256,192,296713,12,0,297813,0:0:0:0:
102,333,298213,6,0,L|93:166,1,148.50000453186,14|0,0:0|0:0,0:0:0:0:
51,159,298613,2,0,P|81:109|99:58,1,99.0000030212403,10|2,0:0|0:0,0:0:0:0:
265,266,299013,2,0,P|239:224|221:179,1,99.0000030212403,10|0,0:0|0:0,0:0:0:0:
193,83,299413,1,8,0:0:0:0:
193,83,299613,1,0,0:0:0:0:
458,178,299813,6,0,B|407:202|407:202|312:185,1,148.50000453186,10|0,0:0|0:0,0:0:0:0:
266,182,300213,1,10,0:0:0:0:
293,277,300413,1,2,0:0:0:0:
334,75,300613,2,0,B|243:58|243:58|192:82,1,148.50000453186,10|0,0:0|0:0,0:0:0:0:
152,112,301013,1,10,0:0:0:0:
69,57,301213,1,2,0:0:0:0:
39,209,301413,6,0,L|56:313,1,99.0000030212403,10|0,0:0|0:0,0:0:0:0:
67,355,301713,1,0,0:0:0:0:
67,355,301813,1,10,0:0:0:0:
136,284,302013,1,2,0:0:0:0:
178,57,302213,2,0,L|195:161,1,99.0000030212403,10|0,0:0|0:0,0:0:0:0:
206,203,302513,1,0,0:0:0:0:
206,203,302613,1,10,0:0:0:0:
275,132,302813,1,2,0:0:0:0:
453,243,303013,6,0,L|280:227,1,148.50000453186,10|0,0:0|0:0,0:0:0:0:
268,262,303413,1,10,0:0:0:0:
322,344,303613,1,2,0:0:0:0:
381,192,303813,2,0,P|371:139|320:48,1,148.50000453186,10|0,0:0|0:0,0:0:0:0:
292,20,304213,1,10,0:0:0:0:
233,260,304413,1,10,0:0:0:0:
83,130,304613,6,0,B|137:137|137:137|174:126|174:126|241:133,1,148.50000453186,14|0,0:0|0:0,0:0:0:0:
278,141,305013,1,10,0:0:0:0:
236,51,305213,1,2,0:0:0:0:
118,236,305413,2,0,L|136:339,1,99.0000030212403,10|0,0:0|0:0,0:0:0:0:
172,366,305713,1,0,0:0:0:0:
172,366,305813,1,10,0:0:0:0:
256,314,306013,1,2,0:0:0:0:
429,363,306213,6,0,B|412:313|412:313|436:197,1,148.50000453186,10|0,0:0|0:0,0:0:0:0:
448,172,306613,1,10,0:0:0:0:
402,84,306813,1,2,0:0:0:0:
221,235,307013,2,0,P|278:228|332:210,1,99.0000030212403,10|0,0:0|0:0,0:0:0:0:
363,197,307313,1,0,0:0:0:0:
363,197,307413,1,10,0:0:0:0:
310,112,307613,1,2,0:0:0:0:
116,196,307813,6,0,L|135:305,1,99.0000030212403,10|0,0:0|0:0,0:0:0:0:
143,342,308113,1,0,0:0:0:0:
143,342,308213,1,10,0:0:0:0:
45,323,308413,1,2,0:0:0:0:
223,232,308613,2,0,L|320:249,1,99.0000030212403,10|0,0:0|0:0,0:0:0:0:
369,260,308913,1,0,0:0:0:0:
369,260,309013,1,10,0:0:0:0:
352,162,309213,1,2,0:0:0:0:
474,319,309413,5,10,0:0:0:0:
270,223,309613,1,0,0:0:0:0:
270,223,309713,1,0,0:0:0:0:
270,223,309813,1,10,0:0:0:0:
406,142,310013,1,2,0:0:0:0:
329,348,310213,1,2,0:0:0:0:
273,198,310413,2,0,L|282:143,2,49.5000015106202,0|0|2,0:0|0:0|0:0,0:0:0:0:
81,275,311013,6,0,L|206:259,1,108,6|0,0:0|0:0,0:0:0:0:
262,339,311613,1,0,0:0:0:0:
307,283,311813,2,0,L|299:204,1,72,2|0,0:0|0:0,0:0:0:0:
322,182,312113,1,0,0:0:0:0:
322,182,312213,1,0,0:0:0:0:
272,129,312413,1,0,0:0:0:0:
366,66,312613,6,0,B|398:56|398:56|491:65,2,108,2|0|0,0:0|0:0|0:0,0:0:0:0:
305,105,313413,2,0,L|221:95,1,72
197,92,313713,1,0,0:0:0:0:
197,92,313813,1,0,0:0:0:0:
125,84,314013,1,0,0:0:0:0:
65,180,314213,6,0,P|69:220|48:293,1,108,2|0,0:0|0:0,0:0:0:0:
127,363,314813,1,0,0:0:0:0:
196,344,315013,2,0,L|271:333,1,72
302,326,315313,1,0,0:0:0:0:
302,326,315413,1,0,0:0:0:0:
370,349,315613,1,0,0:0:0:0:
445,264,315813,6,0,B|438:224|438:224|466:141,1,108
364,108,316413,1,0,0:0:0:0:
320,50,316613,1,0,0:0:0:0:
250,30,316813,1,0,0:0:0:0:
250,30,316913,1,0,0:0:0:0:
250,30,317013,1,2,0:0:0:0:
179,44,317213,1,2,0:0:0:0:
247,134,317413,6,0,L|269:251,2,108,6|0|0,0:0|0:0|0:0,0:0:0:0:
117,373,318213,2,0,L|136:266,2,108
75,228,319013,6,0,P|57:188|49:147,1,72,2|0,0:0|0:0,0:0:0:0:
49,124,319313,1,0,0:0:0:0:
49,124,319413,1,0,0:0:0:0:
66,54,319613,1,0,0:0:0:0:
197,143,319813,2,0,P|188:177|172:210,1,72
156,242,320113,1,0,0:0:0:0:
156,242,320213,1,0,0:0:0:0:
113,300,320413,1,0,0:0:0:0:
352,340,320613,6,0,L|424:332,1,72,6|0,0:0|0:0,0:0:0:0:
457,268,321013,2,0,L|385:260,1,72
229,156,321413,2,0,P|222:119|238:76,1,72
292,124,321813,2,0,P|299:161|283:204,1,72
137,249,322213,5,6,0:0:0:0:
376,309,322813,2,0,L|436:320,1,36
446,323,323013,2,0,L|427:247,1,72
505,65,323413,1,0,0:0:0:0:
459,184,323613,1,0,0:0:0:0:
255,255,323813,5,4,0:0:0:0:
256,192,323913,12,0,327013,0:0:0:0:
