osu file format v14

[General]
AudioFilename: audio.mp3
AudioLeadIn: 0
PreviewTime: 19126
Countdown: 0
SampleSet: Normal
StackLeniency: 0.4
Mode: 0
LetterboxInBreaks: 0
WidescreenStoryboard: 1

[Editor]
DistanceSpacing: 2
BeatDivisor: 4
GridSize: 32
TimelineZoom: 1.7

[Metadata]
Title:Good Morning, U.S.A. (TV Size)
TitleUnicode:Good Morning, U.S.A. (TV Size)
Artist:Stan Smith (CV: Seth MacFarlane)
ArtistUnicode:Stan Smith (CV: Seth MacFarlane)
Creator:Iraq
Version:Prime
Source:American Dad!
Tags:usa adult swim english classical march cartoon walter murphy mike barker matt weitzman twentieth 20th century studios fox tbs overranked -aku bad_mapper terrence48
BeatmapID:2985865
BeatmapSetID:1383276

[Difficulty]
HPDrainRate:6
CircleSize:5
OverallDifficulty:8.5
ApproachRate:9
SliderMultiplier:2
SliderTickRate:2

[Events]
//Background and Video events
0,0,"bg.jpg",0,0
Video,207,"video.mp4"
//Break Periods
//Storyboard Layer 0 (Background)
//Storyboard Layer 1 (Fail)
//Storyboard Layer 2 (Pass)
//Storyboard Layer 3 (Foreground)
//Storyboard Layer 4 (Overlay)
//Storyboard Sound Samples

[TimingPoints]
326,400,4,1,1,60,1,0
326,-66.6666666666667,4,1,1,60,0,1
626,-100,4,1,1,5,0,1
726,-100,4,1,1,60,0,1
926,-100,4,1,1,5,0,1
1026,-100,4,1,1,60,0,1
1626,-100,4,1,1,5,0,1
1726,-80,4,1,1,60,0,1
1826,-80,4,1,1,5,0,1
1926,-66.6666666666667,4,1,1,60,0,1
2026,-66.6666666666667,4,1,1,5,0,1
2126,-66.6666666666667,4,1,1,60,0,1
2226,-66.6666666666667,4,1,1,5,0,1
2326,-66.6666666666667,4,1,1,60,0,1
2426,-66.6666666666667,4,1,1,5,0,1
2526,-66.6666666666667,4,1,1,60,0,1
2626,-66.6666666666667,4,1,1,5,0,1
2726,-66.6666666666667,4,1,1,60,0,1
2826,-66.6666666666667,4,1,1,5,0,1
3126,-100,4,1,1,60,0,1
3426,-100,4,1,1,5,0,1
3526,-100,4,1,1,50,0,0
14726,-66.6666666666667,4,1,1,50,0,0
14826,-66.6666666666667,4,1,1,5,0,0
14926,-66.6666666666667,4,1,1,50,0,0
15026,-66.6666666666667,4,1,1,5,0,0
15126,-66.6666666666667,4,1,1,50,0,0
15226,-66.6666666666667,4,1,1,5,0,0
15326,-200,4,1,1,50,0,0
15626,-133.333333333333,4,1,1,5,0,0
15726,-100,4,1,1,50,0,0
18526,-66.6666666666667,4,1,1,50,0,0
18826,-66.6666666666667,4,1,1,5,0,0
18926,-66.6666666666667,4,1,1,50,0,0
19526,-66.6666666666667,4,1,1,60,0,1
23026,-66.6666666666667,4,1,1,5,0,1
23126,-66.6666666666667,4,1,1,60,0,1
23426,-66.6666666666667,4,1,1,5,0,1
23526,-66.6666666666667,4,1,1,60,0,1
23726,-133.333333333333,4,1,1,60,0,1
24326,-100,4,1,1,50,0,0
25926,-66.6666666666667,4,1,1,50,0,0
26026,-66.6666666666667,4,1,1,5,0,0
26126,-80,4,1,1,50,0,0
26226,-80,4,1,1,5,0,0
26326,-100,4,1,1,50,0,0
26426,-100,4,1,1,5,0,0
26526,-400,4,1,1,50,0,0
26826,-400,4,1,1,5,0,0
26926,-100,4,1,1,50,0,0
27526,-66.6666666666667,4,1,1,60,0,1
27826,-66.6666666666667,4,1,1,5,0,1
27926,-66.6666666666667,4,1,1,60,0,1
28226,-66.6666666666667,4,1,1,5,0,1
28326,-66.6666666666667,4,1,1,60,0,1
28526,-200,4,1,1,60,0,1
29026,-200,4,1,1,5,0,1
29126,-66.6666666666667,4,1,1,60,0,1
29526,-100,4,1,1,50,0,0
29726,-100,4,1,1,45,0,0
29926,-100,4,1,1,40,0,0
30126,-100,4,1,1,35,0,0
30326,-100,4,1,1,30,0,0
30526,-100,4,1,1,25,0,0
30726,-100,4,1,1,20,0,0
30926,-100,4,1,1,15,0,0
31126,-100,4,1,1,10,0,0
31326,-100,4,1,1,5,0,0

[Colours]
Combo1 : 60,59,110
Combo2 : 178,34,52
Combo3 : 159,159,159

[HitObjects]
25,221,326,6,0,B|137:265|128:158|239:202,1,225.000008583069,2|0,2:0|2:0,2:0:0:0:
75,153,726,2,0,P|75:120|76:153,1,100,2|0,2:0|2:0,2:0:0:0:
242,205,1026,1,2,2:0:0:0:
242,205,1126,2,0,L|252:324,1,100,10|10,2:0|2:0,2:0:0:0:
252,328,1426,1,8,2:0:0:0:
254,353,1526,2,0,P|277:361|301:357,1,50,10|0,2:0|2:0,2:0:0:0:
397,362,1726,2,0,P|420:341|431:312,1,62.5,10|0,2:0|2:0,2:0:0:0:
431,150,1926,6,0,B|439:113|439:113|424:79,1,75.0000028610231,10|0,2:0|2:0,2:0:0:0:
196,152,2126,2,0,B|210:186|210:186|242:205,1,75.0000028610231,10|0,2:0|2:0,2:0:0:0:
387,17,2326,2,0,B|355:-3|355:-3|317:1,1,75.0000028610231,10|0,2:0|2:0,2:0:0:0:
313,232,2526,2,0,B|350:229|350:229|378:204,1,75.0000028610231,10|0,2:0|2:0,2:0:0:0:
244,16,2726,2,0,B|215:40|215:40|207:76,1,75.0000028610231,10|0,2:0|2:0,2:0:0:0:
316,115,3126,1,4,2:0:0:0:
137,105,3326,2,0,P|114:97|90:101,1,50,0|0,2:0|2:0,2:0:0:0:
69,116,3526,6,0,L|58:231,1,100,0|8,2:0|2:0,2:0:0:0:
223,329,3926,2,0,L|212:214,1,100,0|8,2:0|2:0,2:0:0:0:
49,329,4326,1,0,2:0:0:0:
213,229,4526,2,0,P|257:207|304:220,1,100,8|0,2:0|2:0,2:0:0:0:
364,358,4926,1,8,2:0:0:0:
454,238,5126,6,0,L|463:130,1,100,0|8,2:0|2:0,2:0:0:0:
313,121,5526,2,0,L|303:228,1,100,0|8,2:0|2:0,2:0:0:0:
397,73,5926,1,0,2:2:0:0:
263,3,6126,1,8,2:0:0:0:
165,117,6326,1,0,2:2:0:0:
9,36,6526,1,8,2:0:0:0:
184,131,6726,6,0,P|162:175|175:222,1,100,0|8,2:0|2:0,2:0:0:0:
257,352,7126,1,0,2:0:0:0:
257,352,7326,1,8,2:0:0:0:
376,261,7526,2,0,P|398:217|385:170,1,100,0|8,2:0|2:0,2:0:0:0:
187,135,7926,2,0,P|174:87|196:44,1,100,0|8,2:0|2:0,2:0:0:0:
288,201,8326,6,0,L|297:87,1,100,0|8,2:0|2:0,2:0:0:0:
298,76,8626,1,0,2:0:0:0:
300,51,8726,1,0,2:0:0:0:
196,207,8926,2,0,P|243:221|287:200,1,100,8|0,2:0|2:0,2:0:0:0:
428,56,9326,1,10,2:0:0:0:
430,106,9426,1,2,2:0:0:0:
433,156,9526,1,2,2:0:0:0:
317,319,9726,1,10,2:0:0:0:
494,350,9926,5,0,2:0:0:0:
370,265,10126,1,8,2:0:0:0:
266,373,10326,1,0,2:0:0:0:
386,246,10526,2,0,L|280:236,1,100,8|0,2:0|2:0,2:0:0:0:
136,224,10926,2,0,B|125:247|125:247|131:271,2,50,10|2|2,2:0|2:0|2:0,2:0:0:0:
154,351,11326,1,8,2:0:0:0:
171,151,11526,5,0,2:0:0:0:
315,189,11726,1,8,2:0:0:0:
376,52,11926,1,0,2:0:0:0:
306,212,12126,2,0,L|190:222,1,100,8|0,2:0|2:0,2:0:0:0:
10,259,12526,1,10,2:0:0:0:
4,322,12626,1,2,2:0:0:0:
0,384,12726,1,2,2:0:0:0:
165,271,12926,1,8,2:0:0:0:
102,108,13126,6,0,L|92:215,1,100,0|8,2:0|2:0,2:0:0:0:
215,121,13526,2,0,L|205:228,1,100,0|8,2:0|2:0,2:0:0:0:
310,328,13926,2,0,L|300:220,1,100,0|8,2:0|2:0,2:0:0:0:
423,315,14326,2,0,L|413:207,1,100,0|8,2:0|2:0,2:0:0:0:
320,10,14726,6,0,B|283:2|283:2|249:17,1,75.0000028610231,10|0,2:0|2:0,2:0:0:0:
225,204,14926,2,0,B|262:212|262:212|296:197,1,75.0000028610231,10|0,2:0|2:0,2:0:0:0:
375,154,15126,2,0,B|383:117|383:117|368:83,1,75.0000028610231,10|0,2:0|2:0,2:0:0:0:
170,60,15326,6,0,B|162:97|162:97|177:131,1,75,14|0,2:0|2:0,2:0:0:0:
137,209,15726,1,0,2:0:0:0:
134,184,15826,1,0,2:0:0:0:
109,163,15926,1,0,2:0:0:0:
72,166,16026,1,0,2:0:0:0:
42,200,16126,1,0,2:0:0:0:
47,249,16226,1,0,2:0:0:0:
89,285,16326,5,2,2:0:0:0:
113,287,16426,1,0,2:0:0:0:
138,289,16526,2,0,L|187:293,1,50,8|0,2:0|2:0,2:0:0:0:
268,352,16726,5,2,2:0:0:0:
277,329,16826,1,0,2:0:0:0:
287,306,16926,2,0,L|306:259,1,50,8|0,2:0|2:0,2:0:0:0:
384,197,17126,5,2,2:0:0:0:
366,181,17226,1,0,2:0:0:0:
347,165,17326,2,0,L|309:132,1,50,8|0,2:0|2:0,2:0:0:0:
264,41,17526,5,2,2:0:0:0:
243,54,17626,1,0,2:0:0:0:
221,67,17726,2,0,L|178:92,1,50,8|0,2:0|2:0,2:0:0:0:
77,88,17926,5,10,2:0:0:0:
99,352,18126,1,10,2:0:0:0:
363,329,18326,1,10,2:0:0:0:
341,64,18526,6,0,B|229:107|238:1|127:45,1,225.000008583069,14|0,2:0|2:0,2:0:0:0:
77,88,18926,2,0,L|69:169,1,75.0000028610231,8|8,3:0|3:0,2:0:0:0:
171,175,19126,1,0,2:0:0:0:
171,175,19226,2,0,L|178:93,1,75.0000028610231,8|8,3:0|3:0,2:0:0:0:
98,337,19526,6,0,B|214:327|214:327|270:293|270:293|387:283,1,300.000011444092,4|0,2:0|2:0,2:0:0:0:
387,282,20126,1,0,2:0:0:0:
200,254,20326,2,0,L|51:241,1,150.000005722046,0|0,2:0|2:0,2:0:0:0:
281,366,20726,2,0,L|430:379,1,150.000005722046,0|0,2:0|2:0,2:0:0:0:
512,185,21126,2,0,B|502:85|403:93|406:126|307:135|299:35,2,300.000011444092,0|0|0,2:0|2:0|2:0,2:0:0:0:
395,0,22126,1,0,2:0:0:0:
395,0,22226,1,0,2:0:0:0:
395,0,22326,1,0,2:0:0:0:
414,224,22526,1,0,2:0:0:0:
187,29,22726,6,0,P|131:121|170:223,1,225.000008583069,2|0,2:0|2:0,2:0:0:0:
283,228,23126,2,0,P|338:136|298:34,1,225.000008583069,2|0,2:0|2:0,2:0:0:0:
235,127,23526,1,2,2:0:0:0:
38,17,23726,2,0,L|26:157,1,112.500004291535,2|8,2:0|3:0,2:0:0:0:
28,129,24126,1,0,3:0:0:0:
155,257,24326,5,6,2:0:0:0:
278,133,24526,1,8,2:0:0:0:
280,158,24626,1,8,2:0:0:0:
282,183,24726,1,8,2:0:0:0:
158,59,24926,1,8,2:0:0:0:
160,34,25026,1,8,2:0:0:0:
162,10,25126,6,0,L|218:5,1,50,8|8,2:0|2:0,2:0:0:0:
325,112,25326,2,0,L|276:108,1,50,8|8,2:0|2:0,2:0:0:0:
426,10,25526,1,8,2:0:0:0:
510,163,25726,1,8,2:0:0:0:
508,188,25826,1,8,2:0:0:0:
506,213,25926,6,0,P|493:247|465:272,1,75.0000028610231,8|0,2:0|2:0,2:0:0:0:
441,346,26126,2,0,P|410:351|381:341,1,62.5,8|0,2:0|2:0,2:0:0:0:
306,355,26326,2,0,P|290:336|285:311,1,50,8|0,2:0|2:0,2:0:0:0:
217,279,26526,6,0,P|223:261|237:249,1,37.5,8|0,2:0|2:0,2:0:0:0:
209,379,26926,1,8,2:0:0:0:
223,180,27126,1,8,2:0:0:0:
180,203,27226,1,0,2:0:0:0:
132,192,27326,1,0,2:0:0:0:
105,151,27426,1,0,2:0:0:0:
111,103,27526,6,0,B|178:116|229:71|196:64|246:19|313:33,1,225.000008583069,2|0,2:0|2:0,2:0:0:0:
306,119,27926,2,0,B|239:120|196:67|230:66|188:13|120:15,1,225.000008583069,2|0,2:0|2:0,2:0:0:0:
213,66,28326,1,2,2:0:0:0:
221,228,28526,2,0,B|207:257|207:257|223:286|223:286|236:256|236:256|221:232,1,125,2|0,2:0|2:0,2:0:0:0:
228,364,29126,1,2,2:0:0:0:
213,66,29526,1,0,2:0:0:0:
256,192,29726,12,0,31326,2:0:0:0:
