osu file format v14

[General]
AudioFilename: audio.mp3
AudioLeadIn: 0
PreviewTime: 19126
Countdown: 0
SampleSet: Normal
StackLeniency: 0.4
Mode: 0
LetterboxInBreaks: 0
WidescreenStoryboard: 1

[Editor]
DistanceSpacing: 1
BeatDivisor: 2
GridSize: 32
TimelineZoom: 1.7

[Metadata]
Title:Good Morning, U.S.A. (TV Size)
TitleUnicode:Good Morning, U.S.A. (TV Size)
Artist:Stan Smith (CV: Seth MacFarlane)
ArtistUnicode:Stan Smith (CV: Seth MacFarlane)
Creator:Iraq
Version:Normal
Source:American Dad!
Tags:usa adult swim english classical march cartoon walter murphy mike barker matt weitzman twentieth 20th century studios fox tbs overranked -aku bad_mapper terrence48
BeatmapID:2873277
BeatmapSetID:1383276

[Difficulty]
HPDrainRate:3
CircleSize:3.8
OverallDifficulty:4.5
ApproachRate:5
SliderMultiplier:1.2
SliderTickRate:1

[Events]
//Background and Video events
0,0,"bg.jpg",0,0
Video,207,"video.mp4"
//Break Periods
//Storyboard Layer 0 (Background)
//Storyboard Layer 1 (Fail)
//Storyboard Layer 2 (Pass)
//Storyboard Layer 3 (Foreground)
//Storyboard Layer 4 (Overlay)
//Storyboard Sound Samples

[TimingPoints]
326,400,4,1,1,60,1,0
326,-100,4,1,1,60,0,1
3526,-100,4,1,1,50,0,0
19526,-100,4,1,1,60,0,1
24326,-100,4,1,1,50,0,0
27526,-100,4,1,1,60,0,1
29526,-100,4,1,1,50,0,0
29726,-100,4,1,1,45,0,0
29926,-100,4,1,1,40,0,0
30126,-100,4,1,1,35,0,0
30326,-100,4,1,1,30,0,0
30526,-100,4,1,1,25,0,0
30726,-100,4,1,1,20,0,0
30926,-100,4,1,1,15,0,0
31126,-100,4,1,1,10,0,0
31326,-100,4,1,1,5,0,0

[Colours]
Combo1 : 61,60,111
Combo2 : 179,34,52
Combo3 : 159,159,159

[HitObjects]
488,325,326,6,0,P|433:348|376:334,1,120,2|2,2:0|2:0,2:0:0:0:
293,248,1126,2,0,L|286:178,1,60,10|10,2:0|2:0,2:0:0:0:
349,140,1526,2,0,L|355:70,1,60,10|10,2:0|2:0,2:0:0:0:
303,20,1926,2,0,P|274:10|245:15,2,60,10|10|10,2:0|2:0|2:0,2:0:0:0:
383,8,2526,1,10,2:0:0:0:
383,8,2726,1,10,2:0:0:0:
496,114,3126,2,0,L|502:182,1,60,4|0,2:0|2:0,2:0:0:0:
473,246,3526,6,0,B|444:230|444:230|356:238,1,120,0|0,2:0|2:0,2:0:0:0:
277,328,4326,1,0,2:0:0:0:
277,328,4526,2,0,P|249:337|219:333,1,60,8|0,2:0|2:0,2:0:0:0:
158,293,4926,1,8,2:0:0:0:
158,293,5126,2,0,L|147:173,2,120,0|0|0,2:0|2:0|2:2,2:0:0:0:
86,325,6126,2,0,L|79:396,2,60,8|0|8,2:0|2:0|2:0,2:0:0:0:
39,262,6726,6,0,L|27:131,1,120,0|0,2:0|2:0,2:0:0:0:
90,39,7526,1,0,2:0:0:0:
204,2,7926,1,0,2:0:0:0:
247,113,8326,2,0,P|304:98|358:122,1,120,0|0,2:0|2:0,2:0:0:0:
413,177,8926,1,8,2:0:0:0:
364,287,9326,2,0,B|374:314|374:314|358:339,1,60,10|2,2:0|2:0,2:0:0:0:
287,367,9726,1,10,2:0:0:0:
287,367,9926,6,0,L|159:378,1,120,0|0,2:0|2:0,2:0:0:0:
102,333,10526,2,0,P|76:292|92:226,2,120,8|10|8,2:0|2:0|2:0,2:0:0:0:
153,274,11526,2,0,B|168:246|168:246|255:238,1,120,0|0,2:0|2:0,2:0:0:0:
333,229,12126,1,8,2:0:0:0:
373,115,12526,2,0,B|392:93|392:93|414:112,1,60,10|2,2:0|2:0,2:0:0:0:
481,164,12926,1,8,2:0:0:0:
481,164,13126,6,0,P|490:192|486:222,1,60,0|8,2:0|2:0,2:0:0:0:
454,293,13526,2,0,P|434:316|407:327,1,60,0|8,2:0|2:0,2:0:0:0:
339,361,13926,1,0,2:0:0:0:
339,361,14126,2,0,B|283:384|283:384|232:352,1,120,8|8,2:0|2:0,2:0:0:0:
171,302,14726,2,0,L|165:241,2,60,10|10|10,2:0|2:0|2:0,2:0:0:0:
141,374,15326,1,14,2:0:0:0:
462,357,16326,5,2,2:0:0:0:
499,206,16726,1,2,2:0:0:0:
365,126,17126,1,2,2:0:0:0:
248,228,17526,1,2,2:0:0:0:
309,371,17926,1,10,2:0:0:0:
309,371,18126,1,10,2:0:0:0:
368,320,18326,1,10,2:0:0:0:
368,320,18526,2,0,B|415:244|415:244|382:161,1,180,14|0,2:0|2:0,2:0:0:0:
308,21,19526,6,0,B|257:17|257:17|243:29|243:29|192:24,1,120,4|0,2:0|2:0,2:0:0:0:
106,108,20326,2,0,L|96:232,1,120,0|0,2:0|2:0,2:0:0:0:
148,336,21126,2,0,P|203:360|260:346,2,120,0|0|0,2:0|2:0|2:0,2:0:0:0:
213,235,22326,2,0,L|219:171,1,60,0|0,2:0|2:0,2:0:0:0:
181,106,22726,1,2,2:0:0:0:
320,35,23126,1,2,2:0:0:0:
420,156,23526,1,2,2:0:0:0:
420,156,23726,2,0,L|433:294,1,120,2|0,2:0|3:0,2:0:0:0:
382,337,24326,6,0,P|329:361|272:347,1,120,6|8,2:0|2:0,2:0:0:0:
213,287,24926,1,8,2:0:0:0:
213,287,25126,2,0,L|207:212,1,60,8|8,2:0|2:0,2:0:0:0:
160,166,25526,2,0,L|167:91,1,60,8|8,2:0|2:0,2:0:0:0:
213,45,25926,2,0,P|242:35|271:40,2,60,8|8|8,2:0|2:0|2:0,2:0:0:0:
137,27,26526,1,8,2:0:0:0:
78,132,26926,2,0,P|87:160|83:189,1,60,8|8,2:0|2:0,2:0:0:0:
49,254,27326,1,0,2:0:0:0:
49,254,27526,5,2,2:0:0:0:
183,203,27926,1,2,2:0:0:0:
266,326,28326,1,2,2:0:0:0:
266,326,28526,2,0,L|456:309,1,180,2|2,2:0|2:0,2:0:0:0:
504,205,29526,1,0,2:0:0:0:
256,192,29726,12,0,31326,2:0:0:0:
