osu file format v14

[General]
AudioFilename: audio.mp3
AudioLeadIn: 0
PreviewTime: 76578
Countdown: 0
SampleSet: Soft
StackLeniency: 0.6
Mode: 0
LetterboxInBreaks: 0
WidescreenStoryboard: 1

[Editor]
DistanceSpacing: 0.5
BeatDivisor: 8
GridSize: 32
TimelineZoom: 2

[Metadata]
Title:Stratosphere
TitleUnicode:Stratosphere
Artist:Stan SB
ArtistUnicode:Stan SB
Creator:LifeJumb
Version:Gone
Source:
Tags:DnB English
BeatmapID:1408508
BeatmapSetID:665557

[Difficulty]
HPDrainRate:7.2
CircleSize:4
OverallDifficulty:7
ApproachRate:9
SliderMultiplier:2.2
SliderTickRate:1

[Events]
//Background and Video events
0,0,"sssa.jpg",0,0
//Break Periods
2,230736,240758
//Storyboard Layer 0 (Background)
//Storyboard Layer 1 (Fail)
//Storyboard Layer 2 (Pass)
//Storyboard Layer 3 (Foreground)
//Storyboard Layer 4 (Overlay)
//Storyboard Sound Samples

[TimingPoints]
114,685.780513112885,4,2,1,100,1,0
11086,-133.333333333333,4,2,1,28,0,0
31659,-100,4,2,1,58,0,0
32517,-50,4,3,1,5,0,0
33031,-100,4,1,1,24,0,0
54290,-50,4,3,1,5,0,0
54976,-55.5555555555556,4,1,1,100,0,1
76921,-66.6666666666667,4,2,1,100,0,0
99552,-200,4,2,1,100,0,0
99744,-200,4,2,1,5,0,0
109838,-100,4,1,1,50,0,0
118068,-100,4,2,1,5,0,0
118153,-100,4,2,1,7,0,0
118239,-100,4,2,1,9,0,0
118325,-100,4,2,1,11,0,0
118411,-100,4,2,1,13,0,0
118496,-100,4,2,1,15,0,0
118582,-100,4,2,1,17,0,0
118668,-100,4,2,1,19,0,0
118754,-100,4,2,1,21,0,0
118839,-100,4,2,1,23,0,0
118925,-100,4,2,1,25,0,0
119011,-100,4,2,1,27,0,0
119096,-100,4,2,1,29,0,0
119182,-100,4,2,1,31,0,0
119268,-100,4,2,1,33,0,0
119354,-100,4,2,1,35,0,0
119439,-100,4,2,1,37,0,0
119525,-100,4,2,1,39,0,0
119611,-100,4,2,1,41,0,0
119696,-100,4,2,1,43,0,0
119782,-100,4,2,1,45,0,0
119868,-100,4,2,1,47,0,0
119954,-100,4,2,1,49,0,0
120039,-100,4,2,1,51,0,0
120125,-100,4,2,1,93,0,0
120811,-55.5555555555556,4,1,1,100,0,0
142756,-55.5555555555556,4,1,1,100,0,1
164701,-200,4,2,1,40,0,0
184931,-200,4,2,1,15,0,0
185017,-200,4,2,1,19,0,0
185103,-200,4,2,1,23,0,0
185189,-200,4,2,1,27,0,0
185274,-200,4,2,1,31,0,0
185360,-200,4,2,1,35,0,0
185446,-200,4,2,1,39,0,0
185531,-200,4,2,1,42,0,0
185617,-200,4,2,1,45,0,0
185703,-200,4,2,1,49,0,0
185789,-200,4,2,1,53,0,0
185874,-200,4,2,1,57,0,0
185960,-55.5555555555556,4,1,1,100,0,0
208591,-55.5555555555556,4,1,1,100,0,1
230536,-55.5555555555556,4,1,1,28,0,0
252481,-200,4,2,1,30,0,0
253598,-200,4,2,1,5,0,0
263453,-100,4,1,1,45,0,0
273054,-55.5555555555556,4,1,1,100,0,0
296371,-55.5555555555556,4,1,1,100,0,1
318316,-55.5555555555556,4,2,1,100,0,0

[HitObjects]
232,89,11086,6,0,B|308:112|308:112|393:163,1,165.000006294251,0|2,0:0|0:0,0:0:0:0:
148,190,13829,6,0,L|243:103,1,123.750004720688,0|2,0:0|0:0,0:0:0:0:
272,239,14686,2,0,L|346:166,2,82.5000031471254
166,140,15715,1,0,0:0:0:0:
240,88,15886,1,0,0:0:0:0:
415,126,16229,1,0,0:0:0:0:
375,257,16572,6,2,B|291:248|291:248|197:218,1,165.000006294251
232,265,18630,6,0,L|267:206,1,41.2500015735627
176,77,19144,2,0,P|208:128|268:139,1,123.750004720688,2|0,0:0|0:0,0:0:0:0:
325,90,19830,2,0,P|285:66|224:78,1,82.5000031471254,0|2,0:0|0:0,0:0:0:0:
194,113,20515,2,0,P|227:136|268:138,1,82.5000031471254
419,213,22058,6,2,B|397:158|397:158|363:116|363:116|290:75,1,165.000006294251,10|0,2:0|0:0,0:0:0:0:
200,240,23087,1,0,0:0:0:0:
317,90,23430,2,2,B|363:116|363:116|397:158|397:158|419:213,1,165.000006294251,0|0,0:0|0:0,0:0:0:0:
239,156,24459,1,0,0:0:0:0:
430,293,24802,2,0,B|431:245|431:245|412:197,1,82.5000031471254
285,307,25487,1,0,0:0:0:0:
275,146,25830,1,0,0:0:0:0:
275,146,26173,2,0,P|348:106|421:88,1,123.750004720688
386,94,27202,1,0,0:0:0:0:
386,94,27545,6,0,P|408:176|363:275,1,165.000006294251
403,135,28573,2,0,P|408:169|399:221,1,82.5000031471254
361,64,29259,2,0,P|386:97|403:135,1,82.5000031471254
366,289,29945,2,0,P|389:255|400:216,1,82.5000031471254
403,135,30631,2,0,P|408:169|399:221,1,82.5000031471254
278,243,31145,1,0,0:0:0:0:
381,322,31317,1,0,0:0:0:0:
381,322,31659,5,8,0:0:0:0:
160,154,32517,6,0,L|134:164,4,27.5
191,140,32731,6,0,L|226:126,4,27.5
201,192,33031,5,10,0:0:0:0:
360,209,33374,5,0,0:0:0:0:
360,209,33631,1,0,0:0:0:0:
354,95,33889,1,0,0:0:0:0:
354,95,34146,1,0,0:0:0:0:
360,209,34403,1,0,0:0:0:0:
360,209,34660,1,0,0:0:0:0:
354,95,34917,1,0,0:0:0:0:
361,143,35260,5,4,0:0:0:0:
361,143,35774,1,4,0:0:0:0:
134,174,36117,5,0,0:0:0:0:
186,252,36374,1,0,0:0:0:0:
123,158,36631,1,0,0:0:0:0:
194,264,36888,1,0,0:0:0:0:
111,146,37146,1,0,0:0:0:0:
202,283,37403,1,0,0:0:0:0:
102,130,37660,1,0,0:0:0:0:
404,92,38517,5,4,0:0:0:0:
301,235,38860,5,0,0:0:0:0:
270,234,39117,1,0,0:0:0:0:
241,233,39374,1,0,0:0:0:0:
213,231,39632,1,0,0:0:0:0:
192,231,39889,1,0,0:0:0:0:
301,235,40146,1,0,0:0:0:0:
246,234,40403,1,0,0:0:0:0:
263,146,40746,5,4,0:0:0:0:
263,146,41260,1,4,0:0:0:0:
105,81,41603,5,0,0:0:0:0:
152,126,41860,1,0,0:0:0:0:
199,171,42117,1,0,0:0:0:0:
152,126,42375,1,0,0:0:0:0:
199,171,42632,1,0,0:0:0:0:
105,81,42889,1,0,0:0:0:0:
152,126,43146,1,0,0:0:0:0:
271,131,44003,6,2,P|392:120|392:120,1,110
380,121,44518,2,0,L|465:225,1,110
339,240,45032,1,0,0:0:0:0:
339,240,45375,2,0,L|238:113,1,110
143,83,45889,1,0,0:0:0:0:
143,83,46404,1,0,0:0:0:0:
441,183,46747,2,0,L|346:249,1,110
179,271,47261,1,0,0:0:0:0:
179,271,47775,1,0,0:0:0:0:
192,69,48118,6,0,L|307:79,1,110
398,225,48632,1,0,0:0:0:0:
398,225,49147,1,0,0:0:0:0:
290,296,49490,2,0,L|201:179,1,110
426,64,50004,1,0,0:0:0:0:
426,64,50518,1,0,0:0:0:0:
462,325,50861,2,0,L|341:295,1,110
97,99,51376,1,0,0:0:0:0:
97,99,51890,1,0,0:0:0:0:
359,46,52233,6,0,P|433:88|504:85,1,110
101,309,52747,1,0,0:0:0:0:
101,309,53261,1,0,0:0:0:0:
101,309,53604,5,8,0:0:0:0:
195,174,54462,6,0,L|214:153,4,27.5
172,197,54676,6,0,L|145:223,4,27.5
100,92,54976,6,0,P|174:69|330:74,1,197.99999395752,10|0,0:0|0:0,0:0:0:0:
416,221,55490,1,0,0:0:0:0:
112,226,55662,2,0,P|160:288|283:313,1,197.99999395752
316,133,56176,1,0,1:0:0:0:
424,305,56348,1,0,1:0:0:0:
295,99,56519,1,0,1:0:0:0:
438,324,56690,1,0,1:0:0:0:
279,72,56862,1,0,1:0:0:0:
239,235,57033,2,0,L|146:270,1,98.9999969787599
367,125,57376,5,0,2:0:0:0:
344,116,57462,1,0,2:0:0:0:
321,103,57548,1,0,2:0:0:0:
298,94,57633,1,0,2:0:0:0:
277,86,57719,2,0,P|185:78|76:115,1,197.99999395752,2|0,0:0|0:0,0:0:0:0:
278,165,58233,1,0,0:0:0:0:
185,302,58405,2,0,P|248:299|374:226,1,197.99999395752
180,182,58919,1,0,0:0:0:0:
343,59,59091,1,0,0:0:0:0:
404,101,59262,1,0,0:0:0:0:
182,80,59434,1,0,0:0:0:0:
450,228,59605,1,0,0:0:0:0:
241,150,59776,2,0,P|218:97|173:79,1,98.9999969787599
305,250,60119,5,0,2:0:0:0:
305,250,60205,1,0,2:0:0:0:
305,250,60291,1,0,2:0:0:0:
305,250,60376,1,0,2:0:0:0:
305,250,60462,2,0,P|199:225|172:147,1,197.99999395752,2|0,0:0|0:0,0:0:0:0:
410,109,60977,1,0,0:0:0:0:
345,324,61148,2,0,B|425:266|425:266|477:181,1,197.99999395752
267,284,61662,1,0,0:0:0:0:
365,160,61834,1,0,0:0:0:0:
196,254,62005,1,0,0:0:0:0:
330,92,62177,1,0,0:0:0:0:
123,199,62348,1,0,0:0:0:0:
258,80,62520,2,0,P|300:26|403:62,1,98.9999969787599
440,185,62862,5,0,2:0:0:0:
433,208,62948,1,0,2:0:0:0:
426,232,63034,1,0,2:0:0:0:
419,256,63120,1,0,2:0:0:0:
412,279,63205,2,0,P|348:347|203:295,1,197.99999395752,2|0,0:0|0:0,0:0:0:0:
358,176,63720,1,0,0:0:0:0:
195,153,63891,2,0,P|128:180|42:284,1,197.99999395752
261,214,64405,1,0,0:0:0:0:
261,214,64577,1,0,0:0:0:0:
112,72,64748,1,0,0:0:0:0:
112,72,64920,1,0,0:0:0:0:
293,64,65091,1,0,0:0:0:0:
293,64,65263,2,0,L|404:125,1,98.9999969787599
393,254,65606,5,0,2:0:0:0:
380,275,65692,1,0,2:0:0:0:
361,290,65777,1,0,2:0:0:0:
338,299,65863,1,0,2:0:0:0:
315,307,65948,2,0,B|249:326|111:315,1,197.99999395752,2|0,0:0|0:0,0:0:0:0:
224,138,66463,1,0,0:0:0:0:
398,136,66634,2,0,P|327:204|219:214,1,197.99999395752
398,280,67149,1,0,0:0:0:0:
459,206,67320,1,0,0:0:0:0:
459,98,67491,1,0,0:0:0:0:
473,296,67663,1,0,0:0:0:0:
454,75,67834,1,0,0:0:0:0:
471,338,68006,2,0,L|321:286,1,98.9999969787599
360,193,68349,5,0,2:0:0:0:
360,193,68435,1,0,2:0:0:0:
360,193,68520,1,0,2:0:0:0:
360,193,68606,1,0,2:0:0:0:
360,193,68692,2,0,P|253:158|165:164,1,197.99999395752,2|0,0:0|0:0,0:0:0:0:
308,42,69206,1,0,0:0:0:0:
201,239,69377,2,0,P|254:162|200:86,1,197.99999395752
379,86,69892,1,0,0:0:0:0:
421,204,70063,1,0,0:0:0:0:
354,323,70235,1,0,0:0:0:0:
263,171,70406,1,0,0:0:0:0:
264,257,70577,1,0,0:0:0:0:
444,127,70749,2,0,L|313:185,1,98.9999969787599
273,53,71092,5,0,2:0:0:0:
251,64,71178,1,0,2:0:0:0:
231,79,71263,1,0,2:0:0:0:
213,97,71349,1,0,2:0:0:0:
199,117,71435,2,0,P|147:210|151:316,1,197.99999395752,2|0,0:0|0:0,0:0:0:0:
60,185,71949,1,0,0:0:0:0:
296,186,72120,2,0,P|198:286|127:299,1,197.99999395752
247,118,72635,1,0,0:0:0:0:
368,280,72806,1,0,0:0:0:0:
469,120,72978,1,0,0:0:0:0:
246,185,73149,1,0,0:0:0:0:
430,243,73321,1,0,0:0:0:0:
421,62,73492,2,0,L|285:61,1,98.9999969787599
194,61,73835,5,0,2:0:0:0:
169,66,73921,1,0,2:0:0:0:
148,80,74006,1,0,2:0:0:0:
131,98,74092,1,0,2:0:0:0:
111,113,74178,2,0,P|77:205|109:319,1,197.99999395752,2|0,0:0|0:0,0:0:0:0:
279,228,74692,1,0,0:0:0:0:
193,128,74864,2,0,P|146:211|195:306,1,197.99999395752
397,264,75378,1,0,0:0:0:0:
391,233,75549,1,0,0:0:0:0:
381,194,75721,1,0,0:0:0:0:
370,165,75892,1,0,0:0:0:0:
349,133,76064,1,0,0:0:0:0:
334,113,76235,2,0,B|299:77|299:77|188:44,1,98.9999969787599
149,107,76578,5,4,2:0:0:0:
149,107,76664,1,4,2:0:0:0:
149,107,76749,1,4,2:0:0:0:
144,97,76835,1,4,2:0:0:0:
149,107,76921,2,0,B|112:177|112:177|90:288,1,165.000006294251,6|0,0:0|0:0,0:0:0:0:
353,246,77435,1,0,0:0:0:0:
353,246,77607,2,0,P|298:301|206:316,1,165.000006294251,4|0,0:0|0:0,0:0:0:0:
249,154,78121,1,0,0:0:0:0:
249,154,78292,2,0,P|269:221|359:248,1,165.000006294251,4|0,0:0|0:0,0:0:0:0:
232,71,78807,1,0,0:0:0:0:
232,71,78978,2,0,P|307:96|332:172,1,165.000006294251,4|0,0:0|0:0,0:0:0:0:
458,72,79493,1,0,0:0:0:0:
458,72,79664,5,2,1:0:0:0:
409,265,80178,5,0,0:0:0:0:
409,265,80350,2,0,B|359:322|359:322|271:341,1,165.000006294251,4|0,0:0|0:0,0:0:0:0:
121,285,80864,1,0,0:0:0:0:
121,285,81036,2,0,B|184:332|184:332|271:341,1,165.000006294251,4|0,0:0|0:0,0:0:0:0:
409,265,81550,1,0,0:0:0:0:
409,265,81721,6,0,B|359:322|359:322|271:341,1,165.000006294251,4|0,0:0|0:0,0:0:0:0:
305,81,82236,1,0,0:0:0:0:
305,81,82407,2,0,P|373:138|322:228,1,165.000006294251,4|0,0:0|0:0,0:0:0:0:
372,130,82921,1,0,0:0:0:0:
372,130,83093,2,0,P|347:215|244:205,1,165.000006294251,4|0,0:0|0:0,0:0:0:0:
364,198,83607,1,0,0:0:0:0:
364,198,83778,2,0,P|280:228|228:139,1,165.000006294251,4|0,0:0|0:0,0:0:0:0:
288,230,84292,1,0,0:0:0:0:
288,230,84464,2,0,P|226:166|286:82,1,165.000006294251,4|0,0:0|0:0,0:0:0:0:
333,75,84979,1,0,0:0:0:0:
328,77,85150,6,0,P|234:108|383:174,2,330.000012588501,2|0|2,0:0|0:0|0:0,0:0:0:0:
121,93,87036,5,0,0:0:0:0:
204,185,87208,2,0,L|292:330,1,165.000006294251,4|0,0:0|0:0,0:0:0:0:
340,177,87722,1,0,0:0:0:0:
203,264,87893,2,0,L|369:236,1,165.000006294251,4|0,0:0|0:0,0:0:0:0:
251,127,88408,1,0,0:0:0:0:
276,279,88579,2,0,L|363:137,1,165.000006294251,4|0,0:0|0:0,0:0:0:0:
201,156,89094,1,0,0:0:0:0:
334,237,89265,2,0,L|292:74,1,165.000006294251,4|0,0:0|0:0,0:0:0:0:
192,201,89779,1,0,0:0:0:0:
346,180,89951,2,0,L|208:77,1,165.000006294251,4|0,0:0|0:0,0:0:0:0:
212,240,90465,1,0,0:0:0:0:
304,115,90637,2,0,L|135:158,1,165.000006294251,4|0,0:0|0:0,0:0:0:0:
266,257,91151,1,0,0:0:0:0:
246,102,91322,2,0,L|147:235,1,165.000006294251,4|0,0:0|0:0,0:0:0:0:
304,237,91837,1,0,0:0:0:0:
355,208,92008,5,2,1:0:0:0:
268,84,92522,5,0,0:0:0:0:
268,84,92694,2,0,P|204:100|179:212,1,165.000006294251,4|0,0:0|0:0,0:0:0:0:
124,85,93208,1,0,0:0:0:0:
124,85,93380,2,0,P|201:109|252:172,1,165.000006294251,4|0,0:0|0:0,0:0:0:0:
230,255,93894,1,0,0:0:0:0:
230,255,94065,2,0,P|309:234|332:150,1,165.000006294251,4|0,0:0|0:0,0:0:0:0:
252,172,94580,1,0,0:0:0:0:
252,172,94751,2,0,P|288:230|406:204,1,165.000006294251,4|0,0:0|0:0,0:0:0:0:
334,162,95266,1,0,0:0:0:0:
334,162,95437,2,0,P|296:230|350:308,1,165.000006294251,4|0,0:0|0:0,0:0:0:0:
377,232,95951,1,0,0:0:0:0:
377,232,96123,5,2,1:0:0:0:
147,172,96637,5,0,0:0:0:0:
147,172,96809,2,0,P|205:115|282:86,1,165.000006294251,4|0,0:0|0:0,0:0:0:0:
204,124,97323,1,0,0:0:0:0:
204,124,97494,2,0,P|257:82|377:37,1,143.999995605469,4|0,0:0|0:0,0:0:0:0:
282,86,98009,1,0,0:0:0:0:
282,86,98181,2,0,P|216:109|137:190,1,165.000006294251,4|0,0:0|0:0,0:0:0:0:
235,253,98694,1,0,0:0:0:0:
235,253,98866,5,2,1:0:0:0:
324,142,99552,6,0,P|239:127|324:144,1,275,2|2,0:0|0:0,0:0:0:0:
280,99,101609,6,0,P|272:186|279:99,1,275,2|2,0:0|0:0,0:0:0:0:
346,142,103666,6,0,P|219:118|346:144,2,412.5,2|2|0,0:0|0:0|0:0,0:0:0:0:
168,184,109838,6,0,P|166:124|270:62,2,165
253,149,111210,1,0,0:0:0:0:
274,63,111724,2,0,P|339:125|310:221,1,165
294,232,112582,2,0,P|213:232|162:153,2,165
253,149,113953,1,0,0:0:0:0:
178,99,114467,2,0,P|258:59|338:119,1,165
253,149,115325,1,0,0:0:0:0:
240,241,115839,2,0,P|168:186|187:87,1,165
254,151,116696,1,0,0:0:0:0:
343,162,117211,2,0,P|289:234|190:216,1,165
288,65,118068,5,0,0:0:0:0:
311,80,118153,1,0,0:0:0:0:
328,101,118239,1,0,0:0:0:0:
340,126,118325,1,0,0:0:0:0:
343,154,118411,1,0,0:0:0:0:
338,180,118496,1,0,0:0:0:0:
325,205,118582,1,0,0:0:0:0:
306,224,118668,1,0,0:0:0:0:
282,238,118754,1,0,0:0:0:0:
255,243,118839,1,0,0:0:0:0:
228,240,118925,1,0,0:0:0:0:
202,229,119011,1,0,0:0:0:0:
182,211,119096,1,0,0:0:0:0:
166,188,119182,1,0,0:0:0:0:
159,162,119268,1,0,0:0:0:0:
160,134,119354,1,0,0:0:0:0:
169,108,119439,1,0,0:0:0:0:
185,86,119525,1,0,0:0:0:0:
207,69,119611,1,0,0:0:0:0:
233,60,119696,1,0,0:0:0:0:
260,59,119782,1,0,0:0:0:0:
287,64,119868,1,0,0:0:0:0:
311,77,119954,1,0,0:0:0:0:
330,96,120039,1,0,0:0:0:0:
346,118,120125,5,10,0:0:0:0:
365,171,120811,6,0,P|339:237|279:290,1,98.9999969787599,10|0,0:0|0:0,0:0:0:0:
304,276,121068,1,0,2:0:0:0:
282,288,121154,1,0,2:0:0:0:
259,296,121239,1,0,2:0:0:0:
234,301,121325,1,0,2:0:0:0:
208,184,121497,2,0,P|138:189|71:265,1,98.9999969787599
191,67,121840,1,0,0:0:0:0:
318,109,122011,1,0,2:0:0:0:
318,109,122097,1,0,2:0:0:0:
318,109,122182,2,0,L|307:260,1,98.9999969787599
446,84,122525,1,0,0:0:0:0:
427,210,122697,1,0,0:0:0:0:
276,45,122868,2,0,L|178:170,1,98.9999969787599
200,143,123125,5,0,2:0:0:0:
184,162,123211,1,0,2:0:0:0:
167,180,123297,1,0,2:0:0:0:
151,199,123383,1,0,2:0:0:0:
137,219,123468,1,0,2:0:0:0:
121,238,123554,2,0,P|97:312|117:358,1,98.9999969787599,2|0,0:0|2:0,0:0:0:0:
126,335,123811,1,0,2:0:0:0:
149,343,123897,1,0,2:0:0:0:
173,346,123983,1,0,2:0:0:0:
197,350,124068,1,0,2:0:0:0:
344,222,124240,2,0,P|265:194|256:306,1,197.99999395752
194,88,124754,1,0,0:0:0:0:
288,251,124926,2,0,L|238:166,1,98.9999969787599
344,128,125268,1,0,2:0:0:0:
344,128,125354,1,0,2:0:0:0:
344,128,125440,1,0,2:0:0:0:
400,289,125611,2,0,P|443:241|456:178,1,98.9999969787599,0|0,0:0|2:0,0:0:0:0:
454,183,125869,5,0,2:0:0:0:
449,158,125954,1,0,2:0:0:0:
442,134,126040,1,0,2:0:0:0:
430,112,126126,1,0,2:0:0:0:
415,92,126211,1,0,2:0:0:0:
398,73,126297,2,0,P|355:46|277:35,1,98.9999969787599,2|0,0:0|0:0,0:0:0:0:
81,77,126640,1,0,2:0:0:0:
81,77,126726,1,0,2:0:0:0:
81,77,126811,1,0,2:0:0:0:
193,158,126983,2,0,P|243:206|260:265,1,98.9999969787599
59,198,127326,1,0,2:0:0:0:
59,198,127412,1,0,2:0:0:0:
59,198,127497,1,0,2:0:0:0:
225,61,127669,2,0,P|291:104|326:156,1,98.9999969787599
355,265,128012,1,0,0:0:0:0:
181,123,128183,1,0,0:0:0:0:
156,238,128354,2,0,P|111:183|98:130,1,98.9999969787599,0|0,0:0|2:0,0:0:0:0:
99,132,128612,5,0,2:0:0:0:
104,108,128697,1,0,2:0:0:0:
114,85,128783,1,0,2:0:0:0:
130,66,128869,1,0,2:0:0:0:
147,48,128955,1,0,2:0:0:0:
169,37,129040,2,0,P|241:31|366:84,1,197.99999395752,2|0,0:0|0:0,0:0:0:0:
165,230,129555,1,0,2:0:0:0:
165,230,129640,1,0,2:0:0:0:
165,230,129726,2,0,B|174:279|174:279|244:346,1,98.9999969787599
95,163,130069,1,0,2:0:0:0:
95,163,130155,1,0,2:0:0:0:
95,163,130240,1,0,2:0:0:0:
95,163,130326,1,0,2:0:0:0:
95,163,130412,2,0,B|141:191|141:191|190:270,1,98.9999969787599
308,111,130755,1,0,0:0:0:0:
350,214,130926,1,0,0:0:0:0:
212,97,131098,2,0,B|265:93|265:93|330:119,1,98.9999969787599
471,265,131440,5,0,2:0:0:0:
471,265,131526,1,0,2:0:0:0:
471,265,131612,1,0,2:0:0:0:
471,265,131698,1,0,2:0:0:0:
471,265,131783,2,0,B|431:302|431:302|365:339,1,98.9999969787599,2|0,0:0|0:0,0:0:0:0:
367,329,132041,1,0,2:0:0:0:
342,331,132126,1,0,2:0:0:0:
317,331,132212,1,0,2:0:0:0:
292,331,132298,1,0,2:0:0:0:
267,328,132383,1,0,2:0:0:0:
242,328,132469,2,0,L|116:309,1,98.9999969787599
82,101,132812,1,0,2:0:0:0:
82,101,132898,1,0,2:0:0:0:
82,101,132983,1,0,2:0:0:0:
203,106,133155,2,0,P|257:137|280:211,1,98.9999969787599
291,32,133498,1,0,0:0:0:0:
346,92,133669,1,0,0:0:0:0:
191,118,133841,2,0,P|235:139|262:179,1,98.9999969787599
99,147,134184,5,0,2:0:0:0:
99,147,134269,1,0,2:0:0:0:
99,147,134355,1,0,2:0:0:0:
99,147,134441,1,0,2:0:0:0:
99,147,134526,2,0,P|142:122|191:117,1,98.9999969787599,2|0,0:0|0:0,0:0:0:0:
346,187,134869,1,0,2:0:0:0:
346,187,134955,1,0,2:0:0:0:
346,187,135041,1,0,2:0:0:0:
188,275,135212,2,0,P|255:310|322:326,1,98.9999969787599
451,275,135555,1,0,2:0:0:0:
447,250,135641,1,0,2:0:0:0:
439,226,135727,1,0,2:0:0:0:
431,202,135812,1,0,2:0:0:0:
419,180,135898,2,0,P|377:120|258:57,1,197.99999395752
291,187,136412,1,0,0:0:0:0:
153,169,136584,2,0,P|201:226|258:255,1,98.9999969787599
241,253,136841,5,0,2:0:0:0:
263,262,136927,1,0,2:0:0:0:
286,268,137012,1,0,2:0:0:0:
310,271,137098,1,0,2:0:0:0:
334,271,137184,1,0,2:0:0:0:
358,266,137270,2,0,P|417:236|457:111,1,197.99999395752,2|0,0:0|0:0,0:0:0:0:
304,110,137784,1,0,0:0:0:0:
220,240,137955,2,0,P|286:268|415:239,1,197.99999395752
293,189,138470,1,0,2:0:0:0:
293,189,138555,1,0,2:0:0:0:
293,189,138641,2,0,P|240:159|159:153,1,98.9999969787599
342,62,138984,1,0,0:0:0:0:
132,197,139155,1,0,2:0:0:0:
132,197,139241,1,0,2:0:0:0:
132,197,139327,2,0,P|172:225|220:240,1,98.9999969787599
314,220,139670,5,0,2:0:0:0:
314,220,139756,1,0,2:0:0:0:
314,220,139841,1,0,2:0:0:0:
314,220,139927,1,0,2:0:0:0:
314,220,140013,2,0,P|266:167|205:135,1,98.9999969787599,2|0,0:0|0:0,0:0:0:0:
442,88,140356,1,0,2:0:0:0:
442,88,140441,1,0,2:0:0:0:
442,88,140527,1,0,2:0:0:0:
256,75,140699,2,0,P|174:118|212:226,1,197.99999395752
188,209,141384,5,8,0:0:0:0:
186,278,142756,6,0,P|270:290|394:219,1,197.99999395752,10|0,0:0|0:0,0:0:0:0:
304,122,143270,1,0,0:0:0:0:
204,132,143442,2,0,P|231:60|377:54,1,197.99999395752
411,216,143956,1,0,0:0:0:0:
267,252,144127,1,0,0:0:0:0:
441,206,144299,1,0,0:0:0:0:
241,258,144470,1,0,0:0:0:0:
435,296,144642,1,0,0:0:0:0:
215,185,144813,2,0,L|332:124,1,98.9999969787599
151,303,145156,5,0,2:0:0:0:
151,303,145241,1,0,2:0:0:0:
151,303,145328,1,0,2:0:0:0:
151,303,145413,1,0,2:0:0:0:
151,303,145499,2,0,P|79:203|64:114,1,197.99999395752,2|0,0:0|0:0,0:0:0:0:
323,191,146013,1,0,0:0:0:0:
193,252,146185,2,0,P|138:170|160:33,1,197.99999395752
229,155,146699,1,0,0:0:0:0:
276,55,146871,1,0,0:0:0:0:
360,116,147042,1,0,0:0:0:0:
215,160,147213,1,0,0:0:0:0:
285,45,147385,1,0,0:0:0:0:
360,116,147556,2,0,P|396:181|392:241,1,98.9999969787599
291,315,147899,5,0,2:0:0:0:
266,315,147984,1,0,2:0:0:0:
241,318,148071,1,0,2:0:0:0:
216,318,148156,1,0,2:0:0:0:
191,315,148242,2,0,P|99:257|61:155,1,197.99999395752,2|0,0:0|0:0,0:0:0:0:
281,204,148756,1,0,0:0:0:0:
53,78,148928,2,0,P|62:179|109:266,1,197.99999395752
189,67,149442,1,0,0:0:0:0:
448,168,149614,1,0,0:0:0:0:
271,60,149785,1,0,0:0:0:0:
372,273,149957,1,0,0:0:0:0:
135,74,150128,1,0,0:0:0:0:
294,267,150299,2,0,P|328:207|422:215,1,98.9999969787599
428,71,150642,5,0,2:0:0:0:
404,65,150727,1,0,2:0:0:0:
380,57,150814,1,0,2:0:0:0:
355,55,150899,1,0,2:0:0:0:
330,54,150985,2,0,B|243:41|243:41|126:54,1,197.99999395752,2|0,0:0|0:0,0:0:0:0:
291,147,151500,1,0,0:0:0:0:
142,246,151671,2,0,B|252:259|252:259|339:246,1,197.99999395752
233,147,152185,1,0,0:0:0:0:
439,153,152357,1,0,0:0:0:0:
198,148,152528,1,0,0:0:0:0:
430,221,152700,1,0,0:0:0:0:
430,221,152871,1,0,0:0:0:0:
430,221,153043,2,0,P|365:248|314:237,1,98.9999969787599
91,290,153385,5,0,2:0:0:0:
91,290,153471,1,0,2:0:0:0:
91,290,153557,1,0,2:0:0:0:
91,290,153643,1,0,2:0:0:0:
91,290,153728,2,0,B|125:336|287:305,1,197.99999395752,2|0,0:0|0:0,0:0:0:0:
146,121,154243,1,0,0:0:0:0:
325,241,154414,2,0,B|280:215|244:227|105:300|118:169,1,197.99999395752
343,133,154928,1,0,0:0:0:0:
343,133,155100,1,0,0:0:0:0:
343,133,155271,1,0,0:0:0:0:
436,271,155443,1,0,0:0:0:0:
436,271,155614,1,0,0:0:0:0:
436,271,155786,2,0,P|366:308|276:301,1,98.9999969787599
181,283,156129,5,0,2:0:0:0:
159,270,156215,1,0,2:0:0:0:
140,253,156300,1,0,2:0:0:0:
124,233,156386,1,0,2:0:0:0:
109,212,156471,2,0,P|155:143|276:89,1,197.99999395752,2|0,0:0|0:0,0:0:0:0:
298,255,156986,1,0,0:0:0:0:
432,162,157157,2,0,P|353:104|256:92,1,197.99999395752
264,278,157672,1,0,0:0:0:0:
332,276,157843,1,0,0:0:0:0:
201,279,158014,1,0,0:0:0:0:
400,278,158186,1,0,0:0:0:0:
135,276,158357,1,0,0:0:0:0:
467,275,158529,2,0,L|326:277,1,98.9999969787599
286,150,158872,5,0,2:0:0:0:
262,141,158958,1,0,2:0:0:0:
239,132,159043,1,0,2:0:0:0:
215,123,159129,1,0,2:0:0:0:
192,111,159215,2,0,P|113:161|233:192,1,197.99999395752,2|0,0:0|0:0,0:0:0:0:
77,298,159729,1,0,0:0:0:0:
179,172,159900,2,0,P|133:95|211:52,1,197.99999395752,2|0,0:0|0:0,0:0:0:0:
171,256,160415,1,0,0:0:0:0:
288,92,160586,1,0,0:0:0:0:
135,324,160758,1,0,0:0:0:0:
402,335,160929,1,0,0:0:0:0:
130,190,161100,1,0,0:0:0:0:
387,187,161272,2,0,B|413:146|413:146|469:98,1,98.9999969787599
273,59,161615,5,0,2:0:0:0:
273,59,161701,1,0,2:0:0:0:
273,59,161786,1,0,2:0:0:0:
273,59,161872,1,0,2:0:0:0:
273,59,161958,2,0,B|62:94,1,197.99999395752,2|0,0:0|0:0,0:0:0:0:
220,193,162472,1,0,0:0:0:0:
159,336,162643,2,0,P|87:267|66:144,1,197.99999395752
234,283,163158,1,0,0:0:0:0:
115,128,163329,1,0,0:0:0:0:
173,94,163501,1,0,0:0:0:0:
294,257,163672,1,0,0:0:0:0:
337,53,163844,1,0,0:0:0:0:
268,180,164015,2,0,B|364:174|364:174|466:202,1,197.99999395752
315,268,164701,6,0,L|374:275,1,55,2|4,0:0|0:0,0:0:0:0:
234,286,165387,2,0,L|273:332,1,55,2|4,0:0|0:0,0:0:0:0:
157,229,166073,2,0,L|154:290,1,55,2|4,0:0|0:0,0:0:0:0:
135,142,166759,2,0,L|78:192,1,55,2|4,0:0|0:0,0:0:0:0:
191,74,167444,2,0,L|112:58,1,55,2|4,0:0|0:0,0:0:0:0:
271,86,168130,2,0,L|259:19,2,55,2|4|0,0:0|0:0|0:0,0:0:0:0:
368,118,169501,6,0,L|429:107,1,55,2|4,0:0|0:0,0:0:0:0:
282,174,170187,2,0,L|351:201,1,55,2|4,0:0|0:0,0:0:0:0:
197,126,170872,2,0,L|255:77,1,55,2|4,0:0|0:0,0:0:0:0:
134,186,171558,2,0,L|198:228,1,55,2|4,0:0|0:0,0:0:0:0:
63,125,172244,2,0,L|124:101,1,55,2|4,0:0|0:0,0:0:0:0:
162,184,172930,2,0,L|115:235,2,55,2|4|0,0:0|0:0|0:0,0:0:0:0:
225,245,173959,2,0,L|216:318,2,55,2|0|10,0:0|0:0|0:0,0:0:0:0:
98,114,175673,6,0,L|71:57,1,55,2|4,0:0|0:0,0:0:0:0:
233,111,176359,2,0,L|173:80,1,55,2|4,0:0|0:0,0:0:0:0:
215,223,177044,2,0,L|180:167,1,55,2|4,0:0|0:0,0:0:0:0:
335,186,177730,2,0,L|279:166,1,55,2|4,0:0|0:0,0:0:0:0:
341,296,178416,2,0,L|291:242,1,55,2|4,0:0|0:0,0:0:0:0:
264,186,179102,2,2,L|236:130,2,55,2|6|2,0:0|0:0|0:0,0:0:0:0:
414,270,180474,6,0,L|441:327,1,55,2|4,0:0|0:0,0:0:0:0:
279,273,181160,2,0,L|339:304,1,55,2|4,0:0|0:0,0:0:0:0:
297,161,181845,2,0,L|332:217,1,55,2|4,0:0|0:0,0:0:0:0:
177,198,182531,2,0,L|233:217,1,55,2|4,0:0|0:0,0:0:0:0:
171,88,183217,2,0,L|221:142,1,55,2|4,0:0|0:0,0:0:0:0:
249,205,183903,2,2,L|269:258,2,55,2|6|2,0:0|0:0|0:0,0:0:0:0:
410,122,184931,5,0,0:0:0:0:
398,143,185017,1,0,0:0:0:0:
385,164,185103,1,0,0:0:0:0:
372,183,185189,1,0,0:0:0:0:
357,202,185274,1,0,0:0:0:0:
339,220,185360,1,0,0:0:0:0:
323,237,185446,1,0,0:0:0:0:
305,251,185531,1,0,0:0:0:0:
283,262,185617,1,0,0:0:0:0:
260,269,185703,1,0,0:0:0:0:
236,271,185789,1,0,0:0:0:0:
213,265,185874,1,0,0:0:0:0:
185,257,185960,5,8,0:0:0:0:
149,106,186646,6,0,P|161:183|191:241,1,98.9999969787599,10|0,0:0|0:0,0:0:0:0:
262,85,186989,1,0,0:0:0:0:
269,270,187160,1,0,0:0:0:0:
352,133,187332,2,0,P|407:167|428:224,1,98.9999969787599
222,307,187674,1,0,2:0:0:0:
222,307,187760,1,0,2:0:0:0:
222,307,187846,1,0,2:0:0:0:
131,119,188017,2,0,L|92:242,1,98.9999969787599
101,213,188532,1,0,0:0:0:0:
406,147,188703,2,0,P|417:197|414:274,1,98.9999969787599
277,316,189046,5,0,2:0:0:0:
252,315,189132,1,0,2:0:0:0:
227,318,189217,1,0,2:0:0:0:
202,315,189303,1,0,2:0:0:0:
177,312,189389,2,0,P|109:273|80:211,1,98.9999969787599,2|0,0:0|0:0,0:0:0:0:
83,70,189732,1,0,0:0:0:0:
83,70,189903,1,0,0:0:0:0:
150,192,190075,2,0,P|205:238|268:220,1,98.9999969787599
405,151,190418,1,0,2:0:0:0:
405,151,190503,1,0,2:0:0:0:
405,151,190589,1,0,2:0:0:0:
229,51,190760,2,0,P|150:67|78:109,1,98.9999969787599
133,73,191275,1,0,0:0:0:0:
312,312,191446,2,0,P|348:264|374:187,1,98.9999969787599
228,44,191789,5,0,2:0:0:0:
228,44,191874,1,0,2:0:0:0:
228,44,191961,1,0,2:0:0:0:
228,44,192046,1,0,2:0:0:0:
228,44,192132,2,0,P|299:80|346:119,1,98.9999969787599,2|0,0:0|0:0,0:0:0:0:
99,137,192475,1,0,0:0:0:0:
296,187,192646,1,0,0:0:0:0:
463,124,192818,2,0,P|422:182|364:215,1,98.9999969787599
176,40,193161,1,0,2:0:0:0:
176,40,193246,1,0,2:0:0:0:
176,40,193332,1,0,2:0:0:0:
87,161,193504,2,0,P|126:228|179:261,1,98.9999969787599
121,317,194018,1,0,0:0:0:0:
373,249,194189,2,0,P|435:215|463:166,1,98.9999969787599
360,77,194532,5,0,2:0:0:0:
336,71,194617,1,0,2:0:0:0:
311,67,194704,1,0,2:0:0:0:
286,64,194789,1,0,2:0:0:0:
261,65,194875,2,0,B|181:69|181:69|122:87,1,98.9999969787599,2|0,0:0|0:0,0:0:0:0:
336,165,195218,1,0,0:0:0:0:
54,159,195390,1,0,0:0:0:0:
410,155,195561,2,0,P|383:224|320:234,1,98.9999969787599
163,279,195904,1,0,2:0:0:0:
163,279,195990,1,0,2:0:0:0:
163,279,196075,1,0,2:0:0:0:
287,96,196247,2,0,B|237:80|237:80|157:72,1,98.9999969787599
182,74,196761,1,0,0:0:0:0:
382,118,196933,2,0,B|337:102|337:102|256:92,1,98.9999969787599
120,141,197275,5,0,2:0:0:0:
132,162,197361,1,0,2:0:0:0:
144,183,197447,1,0,2:0:0:0:
160,201,197533,1,0,2:0:0:0:
179,215,197618,2,0,B|214:252|297:289,1,98.9999969787599,2|0,0:0|0:0,0:0:0:0:
234,104,197961,1,0,0:0:0:0:
404,174,198133,1,0,0:0:0:0:
155,276,198304,2,0,P|203:304|264:307,1,98.9999969787599
179,149,198647,1,0,2:0:0:0:
179,149,198733,1,0,2:0:0:0:
179,149,198818,1,0,2:0:0:0:
94,64,198990,2,0,P|65:127|60:165,1,98.9999969787599
61,164,199504,1,0,0:0:0:0:
297,260,199676,2,0,P|357:276|439:272,1,98.9999969787599
453,207,200019,5,0,2:0:0:0:
428,200,200105,1,0,2:0:0:0:
403,195,200190,1,0,2:0:0:0:
378,189,200276,1,0,2:0:0:0:
356,185,200361,2,0,P|282:179|214:199,1,98.9999969787599,2|0,0:0|0:0,0:0:0:0:
359,250,200704,1,0,0:0:0:0:
202,117,200876,1,0,0:0:0:0:
261,306,201047,2,0,L|120:299,1,98.9999969787599
116,117,201390,1,0,2:0:0:0:
116,117,201476,1,0,2:0:0:0:
116,117,201562,1,0,2:0:0:0:
221,224,201733,2,0,P|259:187|348:182,1,98.9999969787599
313,173,202247,1,0,0:0:0:0:
184,63,202419,2,0,P|113:72|52:92,1,98.9999969787599
95,197,202762,5,0,2:0:0:0:
108,218,202848,1,0,2:0:0:0:
121,238,202933,1,0,2:0:0:0:
138,255,203019,1,0,2:0:0:0:
157,270,203105,2,0,P|221:306|283:321,1,98.9999969787599,2|0,0:0|0:0,0:0:0:0:
209,94,203447,1,0,0:0:0:0:
428,233,203619,1,0,0:0:0:0:
109,120,203790,2,0,P|170:164|227:177,1,98.9999969787599
286,61,204133,1,0,2:0:0:0:
286,61,204219,1,0,2:0:0:0:
286,61,204305,1,0,2:0:0:0:
363,214,204476,2,0,P|293:198|238:201,1,98.9999969787599
256,199,204990,1,0,0:0:0:0:
446,308,205162,2,0,P|375:317|316:298,1,98.9999969787599
197,311,205505,5,0,2:0:0:0:
173,303,205591,1,0,2:0:0:0:
151,290,205676,1,0,2:0:0:0:
131,274,205762,1,0,2:0:0:0:
112,257,205848,2,0,P|75:194|65:134,1,98.9999969787599,2|0,0:0|0:0,0:0:0:0:
66,160,206362,1,0,0:0:0:0:
378,93,206533,2,0,P|384:164|361:222,1,98.9999969787599
370,201,207219,5,8,0:0:0:0:
418,212,208591,6,0,P|354:278|226:283,1,197.99999395752,10|0,0:0|0:0,0:0:0:0:
281,143,209105,1,0,0:0:0:0:
238,207,209277,2,0,P|328:203|340:92,1,197.99999395752
179,238,209791,1,0,0:0:0:0:
244,47,209962,1,0,0:0:0:0:
278,306,210134,1,0,0:0:0:0:
317,47,210305,1,0,0:0:0:0:
175,320,210477,1,0,0:0:0:0:
460,250,210648,2,0,L|422:142,1,98.9999969787599
323,82,210991,5,0,2:0:0:0:
298,76,211077,1,0,2:0:0:0:
273,74,211162,1,0,2:0:0:0:
248,72,211248,1,0,2:0:0:0:
223,72,211334,2,0,P|153:93|88:196,1,197.99999395752,2|0,0:0|0:0,0:0:0:0:
208,262,211848,1,0,0:0:0:0:
147,146,212020,2,0,P|57:123|13:203,1,197.99999395752
103,281,212534,1,0,0:0:0:0:
216,296,212705,1,0,0:0:0:0:
325,261,212877,1,0,0:0:0:0:
410,174,213048,1,0,0:0:0:0:
454,72,213220,1,0,0:0:0:0:
353,100,213391,2,0,P|309:160|257:189,1,98.9999969787599
246,118,213734,5,0,2:0:0:0:
246,118,213819,1,0,2:0:0:0:
246,118,213906,1,0,2:0:0:0:
246,118,213991,1,0,2:0:0:0:
246,118,214077,2,0,P|347:132|345:219,1,197.99999395752,2|0,0:0|0:0,0:0:0:0:
199,235,214591,1,0,0:0:0:0:
421,223,214763,2,0,P|375:144|288:173,1,197.99999395752
354,307,215277,1,0,0:0:0:0:
194,246,215449,1,0,0:0:0:0:
370,318,215620,1,0,0:0:0:0:
180,235,215791,1,0,0:0:0:0:
384,330,215963,1,0,0:0:0:0:
114,198,216134,2,0,P|110:261|157:306,1,98.9999969787599
265,320,216477,5,0,2:0:0:0:
288,314,216562,1,0,2:0:0:0:
311,306,216649,1,0,2:0:0:0:
333,296,216734,1,0,2:0:0:0:
356,288,216820,2,0,B|413:257|457:204|463:125,1,197.99999395752,2|0,0:0|0:0,0:0:0:0:
233,110,217334,1,0,0:0:0:0:
451,290,217506,2,0,B|349:204|379:165|389:79,1,197.99999395752
218,53,218020,1,0,0:0:0:0:
125,251,218192,1,0,0:0:0:0:
294,146,218363,1,0,0:0:0:0:
95,66,218535,1,0,0:0:0:0:
210,306,218706,1,0,0:0:0:0:
392,142,218877,2,0,L|290:146,1,98.9999969787599
158,57,219220,5,0,2:0:0:0:
179,68,219306,1,0,2:0:0:0:
200,80,219392,1,0,2:0:0:0:
221,92,219478,1,0,2:0:0:0:
242,103,219563,2,0,P|302:171|306:297,1,197.99999395752,2|0,0:0|0:0,0:0:0:0:
164,334,220078,1,0,0:0:0:0:
139,198,220249,2,0,P|217:258|314:274,1,197.99999395752
161,94,220763,1,0,0:0:0:0:
197,97,220935,1,0,0:0:0:0:
122,95,221106,1,0,0:0:0:0:
234,96,221278,1,0,0:0:0:0:
91,93,221449,1,0,0:0:0:0:
271,97,221621,2,0,P|333:133|375:158,1,98.9999969787599
409,229,221963,5,0,2:0:0:0:
398,251,222049,1,0,2:0:0:0:
381,269,222135,1,0,2:0:0:0:
363,286,222221,1,0,2:0:0:0:
341,298,222306,2,0,B|288:333|136:329,1,197.99999395752,2|0,0:0|0:0,0:0:0:0:
287,228,222821,1,0,0:0:0:0:
80,247,222992,2,0,B|170:244|142:105|238:127,1,197.99999395752
389,251,223507,1,0,0:0:0:0:
328,62,223678,1,0,0:0:0:0:
285,257,223849,1,0,0:0:0:0:
418,143,224021,1,0,0:0:0:0:
248,139,224192,1,0,0:0:0:0:
396,258,224364,2,0,P|375:302|308:352,1,98.9999969787599
168,330,224707,5,0,2:0:0:0:
145,319,224793,1,0,2:0:0:0:
126,302,224878,1,0,2:0:0:0:
111,282,224964,1,0,2:0:0:0:
94,263,225050,2,0,P|63:200|131:96,1,197.99999395752,2|0,0:0|0:0,0:0:0:0:
157,184,225564,1,0,0:0:0:0:
253,204,225735,2,0,P|217:116|124:98,1,197.99999395752
329,71,226250,1,0,0:0:0:0:
403,181,226421,1,0,0:0:0:0:
241,71,226593,1,0,0:0:0:0:
346,278,226764,1,0,0:0:0:0:
169,83,226935,1,0,0:0:0:0:
268,339,227107,2,0,L|367:261,1,98.9999969787599
222,285,227450,5,0,2:0:0:0:
197,279,227536,1,0,2:0:0:0:
176,265,227621,1,0,2:0:0:0:
160,245,227707,1,0,2:0:0:0:
144,225,227793,2,0,P|127:173|261:134,1,197.99999395752,2|0,0:0|0:0,0:0:0:0:
366,292,228307,1,0,0:0:0:0:
271,197,228478,2,0,P|235:113|145:129,1,197.99999395752
402,142,228993,1,0,0:0:0:0:
402,142,229164,1,0,0:0:0:0:
402,142,229336,1,0,0:0:0:0:
402,142,229507,1,0,0:0:0:0:
402,142,229679,1,0,0:0:0:0:
402,142,229850,6,0,P|418:236|324:313,1,197.99999395752,8|0,0:0|0:0,0:0:0:0:
354,306,230536,5,8,1:0:0:0:
163,130,241508,5,10,0:0:0:0:
293,256,241851,5,0,0:0:0:0:
289,186,242108,1,0,0:0:0:0:
288,260,242365,1,0,0:0:0:0:
297,183,242623,1,0,0:0:0:0:
281,182,242880,1,0,0:0:0:0:
282,260,243137,1,0,0:0:0:0:
289,180,243394,1,0,0:0:0:0:
276,194,244594,5,0,0:0:0:0:
282,202,244851,1,0,0:0:0:0:
268,191,245109,1,0,0:0:0:0:
268,202,245366,1,0,0:0:0:0:
282,191,245623,1,0,0:0:0:0:
264,206,245880,1,0,0:0:0:0:
272,184,246137,1,0,0:0:0:0:
202,125,247337,5,0,0:0:0:0:
269,265,247595,1,0,0:0:0:0:
197,111,247852,1,0,0:0:0:0:
274,279,248109,1,0,0:0:0:0:
193,98,248366,1,0,0:0:0:0:
277,291,248623,1,0,0:0:0:0:
188,86,248880,1,0,0:0:0:0:
202,125,250080,5,0,0:0:0:0:
269,265,250338,1,0,0:0:0:0:
274,279,250595,1,0,0:0:0:0:
197,111,250852,1,0,0:0:0:0:
193,98,251109,1,0,0:0:0:0:
277,291,251366,1,0,0:0:0:0:
188,86,251623,1,0,0:0:0:0:
256,190,252481,5,10,1:0:0:0:
148,119,253167,6,0,P|379:74|304:315,1,577.5,10|2,0:0|0:0,0:0:0:0:
295,248,257281,6,0,P|334:125|213:139,1,288.75,10|2,0:0|0:0,0:0:0:0:
240,173,259853,6,0,P|312:177|274:215,2,165,10|2|0,0:0|0:0|0:0,0:0:0:0:
240,173,262425,6,0,P|277:136|202:121,1,165,10|2,0:0|0:0,0:0:0:0:
191,230,264139,6,0,P|128:198|106:145,2,110,4|0|4,0:0|0:0|0:0,0:0:0:0:
199,136,265168,1,0,0:0:0:0:
191,230,265511,2,0,P|257:213|288:178,2,110,4|0|4,0:0|0:0|0:0,0:0:0:0:
402,186,266539,1,0,0:0:0:0:
198,67,266882,6,0,P|261:99|283:152,2,110,4|0|4,0:0|0:0|0:0,0:0:0:0:
196,282,267911,1,0,0:0:0:0:
198,67,268254,2,0,P|132:84|101:119,2,110,4|0|4,0:0|0:0|0:0,0:0:0:0:
460,110,269282,5,4,0:0:0:0:
444,158,269625,1,4,0:0:0:0:
410,85,269968,1,4,0:0:0:0:
397,173,270311,1,4,0:0:0:0:
355,79,270654,1,4,0:0:0:0:
352,194,270997,1,4,0:0:0:0:
302,72,271340,1,4,0:0:0:0:
305,212,271683,1,4,0:0:0:0:
250,73,271854,5,4,0:0:0:0:
257,239,272025,1,4,0:0:0:0:
197,70,272197,1,4,0:0:0:0:
215,261,272368,1,4,0:0:0:0:
148,68,272540,1,4,0:0:0:0:
158,291,272711,1,4,0:0:0:0:
99,63,272883,1,4,0:0:0:0:
93,319,273054,1,12,0:0:0:0:
323,311,274426,6,0,P|297:245|237:192,1,98.9999969787599,10|0,0:0|0:0,0:0:0:0:
365,142,274769,1,0,2:0:0:0:
344,128,274854,1,0,2:0:0:0:
324,119,274940,1,0,2:0:0:0:
304,108,275026,1,0,2:0:0:0:
282,96,275112,1,0,2:0:0:0:
259,88,275197,1,0,2:0:0:0:
234,83,275283,1,0,2:0:0:0:
208,200,275455,2,0,P|138:195|71:119,1,98.9999969787599
191,317,275798,1,0,0:0:0:0:
318,275,275969,1,0,2:0:0:0:
318,275,276055,1,0,2:0:0:0:
318,275,276140,2,0,L|307:124,1,98.9999969787599
446,300,276483,1,0,0:0:0:0:
427,174,276655,1,0,0:0:0:0:
276,339,276826,2,0,L|178:214,1,98.9999969787599
200,241,277083,5,0,2:0:0:0:
184,222,277169,1,0,2:0:0:0:
167,204,277255,1,0,2:0:0:0:
151,185,277341,1,0,2:0:0:0:
137,165,277426,1,0,2:0:0:0:
121,146,277512,2,0,P|97:72|117:26,1,98.9999969787599,2|0,0:0|2:0,0:0:0:0:
126,49,277769,1,0,2:0:0:0:
149,41,277855,1,0,2:0:0:0:
173,38,277941,1,0,2:0:0:0:
197,34,278026,1,0,2:0:0:0:
344,162,278198,2,0,P|265:190|256:78,1,197.99999395752
194,296,278712,1,0,0:0:0:0:
407,125,278884,2,0,P|347:89|303:103,1,98.9999969787599
344,256,279226,1,0,2:0:0:0:
344,256,279312,1,0,2:0:0:0:
344,256,279398,1,0,2:0:0:0:
400,95,279569,2,0,P|443:143|456:206,1,98.9999969787599,0|0,0:0|2:0,0:0:0:0:
454,201,279827,5,0,2:0:0:0:
449,226,279912,1,0,2:0:0:0:
442,250,279998,1,0,2:0:0:0:
430,272,280084,1,0,2:0:0:0:
415,292,280169,1,0,2:0:0:0:
398,311,280255,2,0,P|355:338|277:349,1,98.9999969787599,2|0,0:0|0:0,0:0:0:0:
81,307,280598,1,0,2:0:0:0:
81,307,280684,1,0,2:0:0:0:
81,307,280769,1,0,2:0:0:0:
193,226,280941,2,0,P|243:178|260:119,1,98.9999969787599
59,186,281284,1,0,2:0:0:0:
59,186,281370,1,0,2:0:0:0:
59,186,281455,1,0,2:0:0:0:
225,323,281627,2,0,P|291:280|326:228,1,98.9999969787599
355,119,281970,1,0,0:0:0:0:
181,261,282141,1,0,0:0:0:0:
156,146,282312,2,0,P|111:201|98:254,1,98.9999969787599,0|0,0:0|2:0,0:0:0:0:
99,252,282570,5,0,2:0:0:0:
104,276,282655,1,0,2:0:0:0:
114,299,282741,1,0,2:0:0:0:
130,318,282827,1,0,2:0:0:0:
147,336,282913,1,0,2:0:0:0:
169,347,282998,2,0,P|241:353|366:300,1,197.99999395752,2|0,0:0|0:0,0:0:0:0:
165,154,283513,1,0,2:0:0:0:
165,154,283598,1,0,2:0:0:0:
165,154,283684,2,0,B|174:105|174:105|244:38,1,98.9999969787599
327,159,284027,1,0,2:0:0:0:
327,159,284113,1,0,2:0:0:0:
327,159,284198,1,0,2:0:0:0:
177,258,284370,2,0,B|223:230|272:151,1,98.9999969787599
308,273,284713,1,0,0:0:0:0:
350,170,284884,1,0,0:0:0:0:
230,331,285056,2,0,B|262:290|327:264,1,98.9999969787599
471,119,285398,5,0,2:0:0:0:
471,119,285484,1,0,2:0:0:0:
471,119,285570,1,0,2:0:0:0:
471,119,285656,1,0,2:0:0:0:
471,119,285741,2,0,B|431:82|431:82|365:45,1,98.9999969787599,2|0,0:0|0:0,0:0:0:0:
367,55,285999,1,0,2:0:0:0:
342,53,286084,1,0,2:0:0:0:
317,53,286170,1,0,2:0:0:0:
292,53,286256,1,0,2:0:0:0:
267,56,286341,1,0,2:0:0:0:
242,56,286427,2,0,L|116:75,1,98.9999969787599
82,283,286770,1,0,2:0:0:0:
82,283,286856,1,0,2:0:0:0:
82,283,286941,1,0,2:0:0:0:
203,278,287113,2,0,P|257:247|280:173,1,98.9999969787599
321,356,287456,1,0,0:0:0:0:
392,278,287627,1,0,0:0:0:0:
191,266,287799,2,0,P|217:225|262:205,1,98.9999969787599
98,126,288142,5,0,2:0:0:0:
92,149,288227,1,0,2:0:0:0:
86,172,288313,1,0,2:0:0:0:
83,196,288399,1,0,2:0:0:0:
77,219,288484,2,0,P|88:267|117:307,1,98.9999969787599,2|0,0:0|0:0,0:0:0:0:
346,197,288827,1,0,2:0:0:0:
346,197,288913,1,0,2:0:0:0:
346,197,288999,1,0,2:0:0:0:
188,109,289170,2,0,P|255:74|322:58,1,98.9999969787599
451,109,289513,1,0,2:0:0:0:
447,134,289599,1,0,2:0:0:0:
439,158,289685,1,0,2:0:0:0:
431,182,289770,1,0,2:0:0:0:
419,204,289856,2,0,P|377:264|258:327,1,197.99999395752
291,197,290370,1,0,0:0:0:0:
153,215,290542,2,0,P|201:158|258:129,1,98.9999969787599
241,131,290799,5,0,2:0:0:0:
263,122,290885,1,0,2:0:0:0:
286,116,290970,1,0,2:0:0:0:
310,113,291056,1,0,2:0:0:0:
334,113,291142,1,0,2:0:0:0:
358,118,291228,2,0,P|417:148|457:273,1,197.99999395752,2|0,0:0|0:0,0:0:0:0:
304,274,291742,1,0,0:0:0:0:
220,144,291913,2,0,P|286:116|415:145,1,197.99999395752
293,195,292428,1,0,2:0:0:0:
293,195,292513,1,0,2:0:0:0:
293,195,292599,2,0,P|240:225|159:231,1,98.9999969787599
342,322,292942,1,0,0:0:0:0:
132,187,293113,1,0,2:0:0:0:
132,187,293199,1,0,2:0:0:0:
132,187,293285,2,0,P|172:159|220:144,1,98.9999969787599
314,164,293628,5,0,2:0:0:0:
314,164,293714,1,0,2:0:0:0:
314,164,293799,1,0,2:0:0:0:
314,164,293885,1,0,2:0:0:0:
314,164,293971,2,0,P|266:217|205:249,1,98.9999969787599,2|0,0:0|0:0,0:0:0:0:
442,296,294314,1,0,2:0:0:0:
442,296,294399,1,0,2:0:0:0:
442,296,294485,1,0,2:0:0:0:
256,309,294657,2,0,P|174:266|212:158,2,197.99999395752
353,212,295685,5,8,0:0:0:0:
364,201,295856,1,8,0:0:0:0:
372,193,296028,1,8,0:0:0:0:
326,106,296371,6,0,P|242:94|118:165,2,197.99999395752,10|0|0,0:0|0:0|0:0,0:0:0:0:
208,262,297227,1,0,0:0:0:0:
308,252,297399,2,0,P|281:324|135:330,1,197.99999395752
101,168,297913,1,0,0:0:0:0:
245,132,298084,1,0,0:0:0:0:
71,178,298256,1,0,0:0:0:0:
271,126,298427,1,0,0:0:0:0:
77,88,298599,1,0,0:0:0:0:
297,199,298770,2,0,L|180:260,1,98.9999969787599
198,42,299113,5,0,2:0:0:0:
244,40,299198,1,0,2:0:0:0:
288,45,299285,1,0,2:0:0:0:
328,61,299370,1,0,2:0:0:0:
361,81,299456,2,0,P|433:181|448:270,1,197.99999395752,2|0,0:0|0:0,0:0:0:0:
189,193,299970,1,0,0:0:0:0:
319,132,300142,2,0,P|374:214|352:351,1,197.99999395752
283,229,300656,1,0,0:0:0:0:
236,329,300828,1,0,0:0:0:0:
152,268,300999,1,0,0:0:0:0:
297,224,301170,1,0,0:0:0:0:
227,339,301342,1,0,0:0:0:0:
152,268,301513,2,0,P|116:203|120:143,1,98.9999969787599
134,92,301856,5,0,2:0:0:0:
174,73,301941,1,0,2:0:0:0:
222,67,302028,1,0,2:0:0:0:
272,66,302113,1,0,2:0:0:0:
321,69,302199,2,0,P|413:127|451:229,1,197.99999395752,2|0,0:0|0:0,0:0:0:0:
231,180,302713,1,0,0:0:0:0:
459,306,302885,2,0,P|450:205|403:118,1,197.99999395752
323,317,303399,1,0,0:0:0:0:
64,216,303571,1,0,0:0:0:0:
241,324,303742,1,0,0:0:0:0:
140,111,303914,1,0,0:0:0:0:
377,310,304085,1,0,0:0:0:0:
218,117,304256,2,0,P|184:177|90:169,1,98.9999969787599
37,194,304599,5,0,2:0:0:0:
65,243,304684,1,0,2:0:0:0:
99,284,304771,1,0,2:0:0:0:
139,316,304856,1,0,2:0:0:0:
182,330,304942,2,0,B|269:343|269:343|386:330,1,197.99999395752,2|0,0:0|0:0,0:0:0:0:
221,237,305457,1,0,0:0:0:0:
370,138,305628,2,0,B|260:125|260:125|173:138,1,197.99999395752
279,237,306142,1,0,0:0:0:0:
73,231,306314,1,0,0:0:0:0:
314,236,306485,1,0,0:0:0:0:
82,163,306657,1,0,0:0:0:0:
82,163,306828,1,0,0:0:0:0:
82,163,307000,2,0,P|147:136|198:147,1,98.9999969787599
469,298,307342,5,0,2:0:0:0:
472,243,307428,1,0,2:0:0:0:
466,191,307514,1,0,2:0:0:0:
448,140,307600,1,0,2:0:0:0:
421,94,307685,2,0,B|387:48|225:79,1,197.99999395752,2|0,0:0|0:0,0:0:0:0:
366,263,308200,1,0,0:0:0:0:
77,192,308371,2,0,B|128:182|148:150|207:5|281:114,1,197.99999395752
175,300,308885,1,0,0:0:0:0:
175,300,309057,1,0,0:0:0:0:
220,175,309228,1,0,0:0:0:0:
220,175,309400,1,0,0:0:0:0:
175,300,309571,1,0,0:0:0:0:
175,300,309743,2,0,P|245:263|335:270,1,98.9999969787599
272,37,310086,5,0,2:0:0:0:
323,47,310172,1,0,2:0:0:0:
365,83,310257,1,0,2:0:0:0:
393,123,310343,1,0,2:0:0:0:
403,172,310428,2,0,P|357:241|236:295,1,197.99999395752,2|0,0:0|0:0,0:0:0:0:
214,129,310943,1,0,0:0:0:0:
80,222,311114,2,0,P|159:280|256:292,1,197.99999395752
239,128,311629,1,0,0:0:0:0:
185,169,311800,1,0,0:0:0:0:
289,90,311971,1,0,0:0:0:0:
128,207,312143,1,0,0:0:0:0:
344,53,312314,1,0,0:0:0:0:
76,249,312486,2,0,L|188:164,1,98.9999969787599
195,277,312829,5,0,2:0:0:0:
216,252,312915,1,0,2:0:0:0:
252,235,313000,1,0,2:0:0:0:
286,258,313086,1,0,2:0:0:0:
320,273,313172,2,0,P|399:223|279:192,1,197.99999395752,2|0,0:0|0:0,0:0:0:0:
435,86,313686,1,0,0:0:0:0:
333,212,313857,2,0,P|379:289|301:332,1,197.99999395752,2|0,0:0|0:0,0:0:0:0:
341,128,314372,1,0,0:0:0:0:
224,292,314543,1,0,0:0:0:0:
377,60,314715,1,0,0:0:0:0:
110,49,314886,1,0,0:0:0:0:
382,194,315057,1,0,0:0:0:0:
125,197,315229,2,0,B|99:238|99:238|43:286,1,98.9999969787599
71,235,315572,5,0,2:0:0:0:
102,275,315658,1,0,2:0:0:0:
142,304,315743,1,0,2:0:0:0:
189,322,315829,1,0,2:0:0:0:
239,325,315915,2,0,B|450:290,1,197.99999395752,2|0,0:0|0:0,0:0:0:0:
292,191,316429,1,0,0:0:0:0:
353,48,316600,2,0,P|425:117|446:240,1,197.99999395752
278,101,317115,1,0,0:0:0:0:
397,256,317286,1,0,0:0:0:0:
339,290,317458,1,0,0:0:0:0:
218,127,317629,1,0,0:0:0:0:
175,331,317801,1,0,0:0:0:0:
301,195,317973,1,10,0:0:0:0:
301,195,318316,5,10,1:0:0:0:
