osu file format v14

[General]
AudioFilename: audio.mp3
AudioLeadIn: 0
PreviewTime: 131657
Countdown: 0
SampleSet: Normal
StackLeniency: 0.7
Mode: 1
LetterboxInBreaks: 0
WidescreenStoryboard: 0

[Editor]
Bookmarks: 22057,44000,65943,109829,131742,153715,172885,175628,197571,219514,241457,263400,285342,307285,329228,340200,351171,373143,395057,417000
DistanceSpacing: 0.6
BeatDivisor: 4
GridSize: 32
TimelineZoom: 3.099999

[Metadata]
Title:Let This Go
TitleUnicode:Let This Go
Artist:Stan SB
ArtistUnicode:Stan SB
Creator:Remus
Version:Chance
Source:
Tags:breakcore dnb drum and bass marathon
BeatmapID:1065291
BeatmapSetID:500519

[Difficulty]
HPDrainRate:7
CircleSize:2
OverallDifficulty:6
ApproachRate:5
SliderMultiplier:1.4
SliderTickRate:1

[Events]
//Background and Video events
0,0,"fantasy-cosmos-planet-blue-universe-1366x768.jpg",0,0
//Break Periods
2,197771,207342
2,307485,328028
//Storyboard Layer 0 (Background)
//Storyboard Layer 1 (Fail)
//Storyboard Layer 2 (Pass)
//Storyboard Layer 3 (Foreground)
//Storyboard Sound Samples

[TimingPoints]
115,342.857142857143,4,1,1,100,1,0
22057,-200,4,1,1,50,0,0
44000,-133.333333333333,4,1,1,65,0,0
54972,-117.647058823529,4,1,1,75,0,0
60457,-100,4,1,1,80,0,0
65943,-90.9090909090909,4,1,1,90,0,1
75372,-90.9090909090909,4,1,1,80,0,0
76915,-90.9090909090909,4,1,1,90,0,1
109800,342.857142857143,4,1,1,100,1,0
109800,-90.9090909090909,4,1,1,80,0,0
109885,-100,4,1,1,80,0,0
131828,-90.9090909090909,4,1,1,90,0,1
153685,-100,4,1,1,80,0,0
219514,-90.9090909090909,4,1,1,90,0,1
229114,-90.9090909090909,4,1,1,80,0,0
230485,-90.9090909090909,4,1,1,90,0,1
263485,-100,4,1,1,80,0,0
285342,-90.9090909090909,4,1,1,90,0,1
307285,-100,4,1,1,50,0,0
329228,-100,4,1,1,75,0,0
351171,-90.9090909090909,4,1,1,90,0,1
360771,-90.9090909090909,4,1,1,80,0,0
362142,-90.9090909090909,4,1,1,90,0,1
395142,-100,4,1,1,70,0,0

[HitObjects]
256,192,22057,5,8,0:0:0:0:
256,192,22743,1,0,0:0:0:0:
256,192,23086,1,0,0:0:0:0:
256,192,23429,1,8,0:0:0:0:
256,192,23772,1,0,0:0:0:0:
256,192,24115,1,0,0:0:0:0:
256,192,24457,1,0,0:0:0:0:
256,192,24800,1,8,0:0:0:0:
256,192,25486,1,0,0:0:0:0:
256,192,26172,1,8,0:0:0:0:
256,192,26857,1,0,0:0:0:0:
256,192,27543,1,8,0:0:0:0:
256,192,28229,1,0,0:0:0:0:
256,192,28572,1,0,0:0:0:0:
256,192,28743,1,0,0:0:0:0:
256,192,28915,1,8,0:0:0:0:
256,192,29257,1,0,0:0:0:0:
256,192,29429,1,8,0:0:0:0:
256,192,29772,1,8,0:0:0:0:
256,192,29943,1,0,0:0:0:0:
256,192,30286,1,8,0:0:0:0:
256,192,30972,1,0,0:0:0:0:
256,192,31657,1,8,0:0:0:0:
256,192,32343,1,0,0:0:0:0:
256,192,33029,1,8,0:0:0:0:
256,192,33715,1,0,0:0:0:0:
256,192,34057,1,0,0:0:0:0:
256,192,34400,1,8,0:0:0:0:
256,192,34743,1,0,0:0:0:0:
256,192,35086,1,8,0:0:0:0:
256,192,35772,1,8,0:0:0:0:
256,192,36457,1,8,0:0:0:0:
256,192,37143,1,0,0:0:0:0:
256,192,37829,1,0,0:0:0:0:
256,192,38515,1,8,0:0:0:0:
256,192,38857,1,0,0:0:0:0:
256,192,39029,1,8,0:0:0:0:
256,192,39372,1,0,0:0:0:0:
256,192,39543,1,8,0:0:0:0:
256,192,39886,1,8,0:0:0:0:
256,192,40057,1,0,0:0:0:0:
256,192,40572,1,0,0:0:0:0:
256,192,41257,1,8,0:0:0:0:
256,192,41943,1,0,0:0:0:0:
256,192,42629,1,8,0:0:0:0:
256,192,43315,1,0,0:0:0:0:
256,192,44000,5,10,0:0:0:0:
256,192,44515,1,0,0:0:0:0:
256,192,44686,1,8,0:0:0:0:
256,193,45029,1,0,0:0:0:0:
256,193,45200,1,8,0:0:0:0:
256,192,45543,1,8,0:0:0:0:
256,192,45886,1,0,0:0:0:0:
256,192,46057,1,0,0:0:0:0:
256,192,46400,1,8,0:0:0:0:
256,192,46743,1,10,0:0:0:0:
256,192,47429,1,0,0:0:0:0:
255,192,47686,1,0,0:0:0:0:
255,192,47943,1,0,0:0:0:0:
255,192,48286,1,8,0:0:0:0:
256,192,48629,1,8,0:0:0:0:
256,192,48972,1,0,0:0:0:0:
256,192,49143,1,8,0:0:0:0:
256,192,49486,1,8,0:0:0:0:
256,192,49829,1,0,0:0:0:0:
256,192,50000,1,8,0:0:0:0:
256,192,50172,1,8,0:0:0:0:
256,192,50343,1,0,0:0:0:0:
256,192,50515,1,0,0:0:0:0:
256,192,50686,1,8,0:0:0:0:
256,192,50858,1,8,0:0:0:0:
256,192,51029,1,0,0:0:0:0:
256,192,51200,1,0,0:0:0:0:
256,192,51543,1,0,0:0:0:0:
256,192,51886,1,0,0:0:0:0:
256,192,52229,1,8,0:0:0:0:
257,192,52572,1,8,0:0:0:0:
257,192,52743,1,0,0:0:0:0:
257,192,53086,1,0,0:0:0:0:
257,192,53257,1,8,0:0:0:0:
257,192,53600,1,8,0:0:0:0:
256,192,53943,1,0,0:0:0:0:
256,192,54115,1,8,0:0:0:0:
256,192,54457,1,8,0:0:0:0:
256,192,54629,1,0,0:0:0:0:
256,192,54972,5,10,0:0:0:0:
256,191,55315,1,8,0:0:0:0:
256,191,55657,1,8,0:0:0:0:
256,191,56000,1,0,0:0:0:0:
256,191,56172,1,0,0:0:0:0:
256,191,56515,1,8,0:0:0:0:
256,191,56857,1,8,0:0:0:0:
256,191,57029,1,8,0:0:0:0:
256,191,57372,1,0,0:0:0:0:
256,191,57715,1,10,0:0:0:0:
256,191,58057,1,8,0:0:0:0:
256,191,58400,1,0,0:0:0:0:
256,191,58743,1,0,0:0:0:0:
256,191,58915,1,8,0:0:0:0:
256,191,59257,1,8,0:0:0:0:
256,191,59429,1,0,0:0:0:0:
256,191,59772,1,8,0:0:0:0:
256,191,60115,1,0,0:0:0:0:
256,191,60457,5,8,0:0:0:0:
256,191,60629,1,0,0:0:0:0:
256,191,60800,1,8,0:0:0:0:
256,191,60972,1,0,0:0:0:0:
256,191,61143,1,8,0:0:0:0:
256,191,61315,1,8,0:0:0:0:
256,191,61486,1,8,0:0:0:0:
255,192,61657,1,0,0:0:0:0:
255,192,61743,1,0,0:0:0:0:
255,192,61829,1,8,0:0:0:0:
255,192,62000,1,0,0:0:0:0:
255,192,62172,1,8,0:0:0:0:
255,192,62343,1,0,0:0:0:0:
255,192,62515,1,8,0:0:0:0:
255,192,62686,1,0,0:0:0:0:
255,192,62857,1,8,0:0:0:0:
255,192,63029,1,0,0:0:0:0:
255,192,63200,1,8,0:0:0:0:
255,192,63286,1,8,0:0:0:0:
255,192,63372,1,0,0:0:0:0:
255,192,63457,1,0,0:0:0:0:
255,192,63543,1,8,0:0:0:0:
255,192,63629,1,8,0:0:0:0:
255,192,63715,1,8,0:0:0:0:
255,192,63800,1,0,0:0:0:0:
255,192,63886,1,8,0:0:0:0:
255,192,63972,1,8,0:0:0:0:
255,192,64057,1,0,0:0:0:0:
255,192,64143,1,0,0:0:0:0:
255,192,64229,1,8,0:0:0:0:
255,192,64315,1,8,0:0:0:0:
255,192,64400,1,8,0:0:0:0:
255,192,64486,1,0,0:0:0:0:
256,192,64572,1,8,0:0:0:0:
256,192,64657,1,8,0:0:0:0:
256,192,64743,1,0,0:0:0:0:
256,192,64829,1,0,0:0:0:0:
256,192,64915,1,8,0:0:0:0:
256,192,65000,1,8,0:0:0:0:
256,192,65086,1,8,0:0:0:0:
256,192,65172,1,0,0:0:0:0:
256,192,65257,1,8,0:0:0:0:
256,192,65343,1,0,0:0:0:0:
256,192,65429,1,8,0:0:0:0:
256,192,65515,1,0,0:0:0:0:
256,192,65600,1,8,0:0:0:0:
256,192,65943,5,10,0:0:0:0:
256,192,66115,1,0,0:0:0:0:
256,192,66286,1,0,0:0:0:0:
256,192,66457,1,8,0:0:0:0:
256,192,66543,1,8,0:0:0:0:
256,192,66629,1,0,0:0:0:0:
256,192,66715,1,0,0:0:0:0:
256,192,66800,1,8,0:0:0:0:
256,192,66972,1,8,0:0:0:0:
256,192,67057,1,8,0:0:0:0:
256,192,67143,1,8,0:0:0:0:
256,192,67229,1,8,0:0:0:0:
256,193,67315,1,0,0:0:0:0:
256,193,67486,1,0,0:0:0:0:
256,193,67657,1,8,0:0:0:0:
256,193,67829,1,8,0:0:0:0:
256,193,67915,1,0,0:0:0:0:
256,193,68000,1,8,0:0:0:0:
256,193,68086,1,0,0:0:0:0:
256,193,68172,1,8,0:0:0:0:
255,192,68343,1,0,0:0:0:0:
255,192,68429,1,0,0:0:0:0:
255,192,68515,1,0,0:0:0:0:
255,192,68600,1,0,0:0:0:0:
255,192,68686,1,8,0:0:0:0:
255,192,68857,1,0,0:0:0:0:
255,192,69029,1,8,0:0:0:0:
255,192,69200,1,0,0:0:0:0:
255,192,69286,1,0,0:0:0:0:
255,192,69372,1,8,0:0:0:0:
256,192,69457,1,8,0:0:0:0:
255,192,69543,1,8,0:0:0:0:
255,192,69715,1,0,0:0:0:0:
255,192,69886,1,0,0:0:0:0:
255,192,70057,1,8,0:0:0:0:
255,192,70229,1,0,0:0:0:0:
255,192,70315,1,0,0:0:0:0:
255,192,70400,1,0,0:0:0:0:
255,192,70486,1,0,0:0:0:0:
256,191,70572,1,8,0:0:0:0:
255,192,70657,1,0,0:0:0:0:
256,191,70743,1,8,0:0:0:0:
255,192,70829,1,0,0:0:0:0:
256,191,70915,1,8,0:0:0:0:
255,192,71000,1,8,0:0:0:0:
256,191,71086,1,8,0:0:0:0:
255,192,71172,1,0,0:0:0:0:
256,191,71257,1,8,0:0:0:0:
255,192,71343,1,8,0:0:0:0:
256,191,71429,5,8,0:0:0:0:
256,191,71600,1,0,0:0:0:0:
256,191,71772,1,8,0:0:0:0:
256,191,71943,1,8,0:0:0:0:
256,191,72029,1,8,0:0:0:0:
256,191,72115,1,0,0:0:0:0:
256,191,72200,1,0,0:0:0:0:
256,191,72286,1,8,0:0:0:0:
256,191,72457,1,8,0:0:0:0:
256,191,72543,1,8,0:0:0:0:
256,191,72629,1,8,0:0:0:0:
256,191,72715,1,0,0:0:0:0:
256,191,72800,1,0,0:0:0:0:
256,191,72972,1,0,0:0:0:0:
256,191,73057,1,0,0:0:0:0:
256,191,73143,1,8,0:0:0:0:
256,191,73315,1,8,0:0:0:0:
256,191,73400,1,8,0:0:0:0:
256,191,73486,1,0,0:0:0:0:
256,191,73572,1,8,0:0:0:0:
256,191,73657,1,8,0:0:0:0:
256,191,73829,1,0,0:0:0:0:
256,191,73915,1,0,0:0:0:0:
256,191,74000,1,0,0:0:0:0:
256,191,74086,1,0,0:0:0:0:
256,191,74172,1,8,0:0:0:0:
256,191,74343,1,0,0:0:0:0:
256,191,74429,1,0,0:0:0:0:
256,191,74515,1,8,0:0:0:0:
256,191,74686,1,8,0:0:0:0:
256,191,74772,1,0,0:0:0:0:
256,191,74857,1,0,0:0:0:0:
256,191,74943,1,0,0:0:0:0:
256,191,75029,1,8,0:0:0:0:
256,191,75200,1,8,0:0:0:0:
256,191,75372,1,8,0:0:0:0:
254,197,75715,1,0,0:0:0:0:
254,197,76058,1,0,0:0:0:0:
255,190,76572,1,8,0:0:0:0:
255,190,76657,1,8,0:0:0:0:
257,194,76915,5,10,0:0:0:0:
257,194,77086,1,0,0:0:0:0:
257,194,77257,1,8,0:0:0:0:
257,194,77429,1,0,0:0:0:0:
257,194,77515,1,0,0:0:0:0:
257,194,77600,1,8,0:0:0:0:
257,194,77686,1,0,0:0:0:0:
257,194,77772,1,8,0:0:0:0:
257,194,77943,1,8,0:0:0:0:
257,194,78029,1,8,0:0:0:0:
257,194,78115,1,8,0:0:0:0:
257,194,78200,1,8,0:0:0:0:
257,194,78286,1,0,0:0:0:0:
257,194,78457,1,0,0:0:0:0:
257,194,78543,1,0,0:0:0:0:
257,194,78629,1,8,0:0:0:0:
257,194,78800,1,0,0:0:0:0:
257,194,78886,1,0,0:0:0:0:
257,194,78972,1,8,0:0:0:0:
257,194,79057,1,0,0:0:0:0:
257,194,79143,1,8,0:0:0:0:
257,194,79315,1,8,0:0:0:0:
257,194,79400,1,0,0:0:0:0:
257,194,79486,1,0,0:0:0:0:
256,192,79572,1,8,0:0:0:0:
257,194,79657,1,10,0:0:0:0:
257,194,79829,1,0,0:0:0:0:
257,194,80000,1,8,0:0:0:0:
257,194,80172,1,8,0:0:0:0:
257,194,80257,1,0,0:0:0:0:
257,194,80343,1,0,0:0:0:0:
257,194,80429,1,0,0:0:0:0:
257,194,80515,1,8,0:0:0:0:
257,194,80686,1,0,0:0:0:0:
257,194,80772,1,0,0:0:0:0:
257,194,80857,1,0,0:0:0:0:
257,194,80943,1,0,0:0:0:0:
256,192,81029,1,8,0:0:0:0:
256,192,81200,1,8,0:0:0:0:
256,192,81286,1,8,0:0:0:0:
256,192,81372,1,8,0:0:0:0:
256,192,81457,1,0,0:0:0:0:
256,192,81543,1,8,0:0:0:0:
256,192,81629,1,0,0:0:0:0:
256,192,81715,1,8,0:0:0:0:
256,192,81800,1,0,0:0:0:0:
256,192,81886,1,8,0:0:0:0:
256,192,81972,1,0,0:0:0:0:
256,192,82057,1,8,0:0:0:0:
256,192,82143,1,8,0:0:0:0:
256,192,82229,1,0,0:0:0:0:
256,192,82315,1,0,0:0:0:0:
256,192,82400,5,0,0:0:0:0:
256,192,82572,1,8,0:0:0:0:
256,192,82743,1,8,0:0:0:0:
256,192,82915,1,0,0:0:0:0:
256,192,83000,1,0,0:0:0:0:
256,192,83086,1,0,0:0:0:0:
256,192,83172,1,8,0:0:0:0:
256,192,83257,1,8,0:0:0:0:
256,192,83429,1,8,0:0:0:0:
256,192,83515,1,8,0:0:0:0:
256,192,83600,1,0,0:0:0:0:
256,192,83686,1,0,0:0:0:0:
256,192,83772,1,8,0:0:0:0:
256,192,83943,1,0,0:0:0:0:
256,192,84029,1,0,0:0:0:0:
256,192,84115,1,8,0:0:0:0:
256,192,84286,1,8,0:0:0:0:
256,192,84372,1,0,0:0:0:0:
256,192,84457,1,0,0:0:0:0:
256,192,84543,1,0,0:0:0:0:
256,192,84629,1,8,0:0:0:0:
256,192,84800,1,0,0:0:0:0:
256,192,84886,1,0,0:0:0:0:
256,192,84972,1,0,0:0:0:0:
256,192,85057,1,0,0:0:0:0:
256,192,85143,1,8,0:0:0:0:
256,192,85315,1,8,0:0:0:0:
256,192,85486,1,0,0:0:0:0:
256,192,85657,1,0,0:0:0:0:
256,192,85743,1,0,0:0:0:0:
256,192,85829,1,8,0:0:0:0:
256,192,85915,1,8,0:0:0:0:
256,192,86000,1,0,0:0:0:0:
256,192,86172,1,0,0:0:0:0:
256,192,86343,1,0,0:0:0:0:
256,192,86515,1,8,0:0:0:0:
256,192,86600,1,8,0:0:0:0:
256,192,86686,1,0,0:0:0:0:
256,192,86772,1,0,0:0:0:0:
256,192,86857,1,8,0:0:0:0:
256,192,86943,1,0,0:0:0:0:
256,192,87029,1,8,0:0:0:0:
256,192,87115,1,8,0:0:0:0:
256,192,87200,1,0,0:0:0:0:
256,192,87286,1,0,0:0:0:0:
256,192,87372,1,8,0:0:0:0:
256,192,87457,1,8,0:0:0:0:
256,192,87543,1,8,0:0:0:0:
256,192,87715,1,0,0:0:0:0:
256,192,87886,5,10,0:0:0:0:
256,192,88057,1,8,0:0:0:0:
256,192,88229,1,8,0:0:0:0:
256,192,88400,1,0,0:0:0:0:
256,192,88486,1,0,0:0:0:0:
256,192,88572,1,8,0:0:0:0:
256,192,88657,1,8,0:0:0:0:
256,192,88743,1,0,0:0:0:0:
256,191,88915,1,8,0:0:0:0:
256,191,89000,1,0,0:0:0:0:
256,191,89086,1,8,0:0:0:0:
256,191,89172,1,0,0:0:0:0:
256,191,89257,1,0,0:0:0:0:
256,191,89429,1,0,0:0:0:0:
256,191,89600,1,8,0:0:0:0:
256,191,89772,1,8,0:0:0:0:
256,191,89857,1,8,0:0:0:0:
256,191,89943,1,0,0:0:0:0:
256,192,90029,1,0,0:0:0:0:
256,191,90115,1,0,0:0:0:0:
256,191,90286,1,8,0:0:0:0:
256,191,90372,1,8,0:0:0:0:
256,191,90457,1,8,0:0:0:0:
256,191,90543,1,0,0:0:0:0:
256,191,90629,1,8,0:0:0:0:
256,191,90800,1,0,0:0:0:0:
256,191,90972,1,8,0:0:0:0:
256,191,91143,1,0,0:0:0:0:
256,191,91229,1,0,0:0:0:0:
256,191,91315,1,8,0:0:0:0:
256,192,91400,1,0,0:0:0:0:
256,191,91486,1,8,0:0:0:0:
256,191,91657,1,0,0:0:0:0:
256,191,91829,1,0,0:0:0:0:
256,191,92000,1,8,0:0:0:0:
256,191,92087,1,0,0:0:0:0:
256,191,92172,1,0,0:0:0:0:
256,191,92257,1,8,0:0:0:0:
256,191,92343,1,8,0:0:0:0:
256,191,92515,1,0,0:0:0:0:
256,191,92686,1,8,0:0:0:0:
256,191,92772,1,0,0:0:0:0:
256,191,92857,1,0,0:0:0:0:
256,191,93029,1,0,0:0:0:0:
256,191,93200,1,8,0:0:0:0:
256,191,93372,5,8,0:0:0:0:
256,191,93543,1,8,0:0:0:0:
256,191,93715,1,8,0:0:0:0:
256,191,93886,1,0,0:0:0:0:
256,191,93972,1,0,0:0:0:0:
256,191,94057,1,8,0:0:0:0:
256,191,94143,1,0,0:0:0:0:
256,191,94229,1,8,0:0:0:0:
256,191,94400,1,0,0:0:0:0:
256,191,94486,1,0,0:0:0:0:
256,191,94572,1,0,0:0:0:0:
256,191,94657,1,0,0:0:0:0:
256,191,94743,1,8,0:0:0:0:
256,191,94915,1,0,0:0:0:0:
256,191,95000,1,0,0:0:0:0:
256,191,95086,1,8,0:0:0:0:
256,191,95257,1,0,0:0:0:0:
256,191,95343,1,0,0:0:0:0:
256,191,95429,1,8,0:0:0:0:
256,191,95515,1,8,0:0:0:0:
256,191,95600,1,8,0:0:0:0:
256,191,95772,1,0,0:0:0:0:
256,191,95943,1,0,0:0:0:0:
260,193,96115,1,8,0:0:0:0:
260,193,96200,1,8,0:0:0:0:
260,193,96286,1,0,0:0:0:0:
260,193,96457,1,0,0:0:0:0:
257,194,96629,1,8,0:0:0:0:
260,193,96715,1,8,0:0:0:0:
257,194,96800,1,0,0:0:0:0:
257,194,96972,1,0,0:0:0:0:
257,194,97143,1,8,0:0:0:0:
257,194,97315,1,0,0:0:0:0:
257,194,97486,1,8,0:0:0:0:
260,193,97572,1,8,0:0:0:0:
257,194,97657,1,8,0:0:0:0:
257,194,97829,1,0,0:0:0:0:
258,194,98000,1,8,0:0:0:0:
260,193,98086,1,8,0:0:0:0:
262,191,98172,1,8,0:0:0:0:
262,191,98343,1,0,0:0:0:0:
260,194,98515,1,8,0:0:0:0:
260,194,98686,1,8,0:0:0:0:
260,194,98857,5,10,0:0:0:0:
255,193,99029,1,0,0:0:0:0:
255,193,99200,1,8,0:0:0:0:
255,193,99372,1,0,0:0:0:0:
255,193,99457,1,0,0:0:0:0:
255,193,99543,1,8,0:0:0:0:
255,193,99629,1,0,0:0:0:0:
255,193,99715,1,8,0:0:0:0:
255,193,99886,1,0,0:0:0:0:
255,193,99972,1,0,0:0:0:0:
255,193,100057,1,0,0:0:0:0:
255,193,100143,1,0,0:0:0:0:
255,193,100229,1,8,0:0:0:0:
255,193,100400,1,8,0:0:0:0:
255,193,100486,1,8,0:0:0:0:
255,193,100572,1,0,0:0:0:0:
255,193,100743,1,0,0:0:0:0:
255,193,100915,1,0,0:0:0:0:
255,193,101000,1,0,0:0:0:0:
255,193,101086,1,8,0:0:0:0:
256,192,101257,1,8,0:0:0:0:
256,192,101343,1,0,0:0:0:0:
255,193,101429,1,0,0:0:0:0:
256,192,101515,1,8,0:0:0:0:
255,193,101600,1,10,0:0:0:0:
255,193,101772,1,0,0:0:0:0:
255,193,101943,1,0,0:0:0:0:
255,193,102115,1,0,0:0:0:0:
255,193,102200,1,0,0:0:0:0:
255,193,102286,1,8,0:0:0:0:
255,193,102372,1,0,0:0:0:0:
255,193,102457,1,8,0:0:0:0:
255,193,102629,1,0,0:0:0:0:
255,193,102715,1,0,0:0:0:0:
255,193,102800,1,0,0:0:0:0:
255,193,102886,1,0,0:0:0:0:
255,193,102972,1,8,0:0:0:0:
255,193,103143,1,0,0:0:0:0:
255,193,103229,1,0,0:0:0:0:
255,193,103315,1,0,0:0:0:0:
255,193,103400,1,0,0:0:0:0:
257,190,103486,1,8,0:0:0:0:
255,193,103572,1,0,0:0:0:0:
257,190,103657,1,8,0:0:0:0:
255,193,103743,1,0,0:0:0:0:
257,190,103829,1,8,0:0:0:0:
255,193,103915,1,8,0:0:0:0:
257,190,104000,1,0,0:0:0:0:
255,193,104086,1,0,0:0:0:0:
257,190,104172,1,8,0:0:0:0:
255,193,104257,1,0,0:0:0:0:
257,190,104343,5,8,0:0:0:0:
257,190,104515,1,0,0:0:0:0:
257,190,104686,1,0,0:0:0:0:
257,190,104857,1,8,0:0:0:0:
257,190,104943,1,8,0:0:0:0:
257,190,105029,1,8,0:0:0:0:
257,190,105115,1,8,0:0:0:0:
257,190,105200,1,0,0:0:0:0:
261,190,105372,1,0,0:0:0:0:
261,190,105457,1,0,0:0:0:0:
261,190,105543,1,8,0:0:0:0:
261,190,105629,1,0,0:0:0:0:
261,190,105715,1,8,0:0:0:0:
261,190,105886,1,0,0:0:0:0:
261,190,105972,1,0,0:0:0:0:
261,190,106057,1,8,0:0:0:0:
261,190,106229,1,0,0:0:0:0:
261,190,106400,1,8,0:0:0:0:
261,190,106486,1,0,0:0:0:0:
261,190,106572,1,0,0:0:0:0:
256,192,106743,1,8,0:0:0:0:
256,192,106915,1,0,0:0:0:0:
256,192,107086,1,8,0:0:0:0:
256,192,107257,1,0,0:0:0:0:
256,192,107343,1,0,0:0:0:0:
256,192,107429,1,0,0:0:0:0:
256,192,107600,1,8,0:0:0:0:
256,192,107772,1,0,0:0:0:0:
256,192,107857,1,0,0:0:0:0:
256,192,107943,1,0,0:0:0:0:
256,192,108115,1,8,0:0:0:0:
256,192,108200,1,0,0:0:0:0:
256,192,108286,1,8,0:0:0:0:
256,192,108372,1,8,0:0:0:0:
256,192,108457,1,0,0:0:0:0:
257,192,108629,1,8,0:0:0:0:
256,192,108715,1,0,0:0:0:0:
257,192,108800,1,0,0:0:0:0:
257,192,108972,1,8,0:0:0:0:
257,192,109143,1,8,0:0:0:0:
257,192,109315,1,0,0:0:0:0:
257,192,109486,1,0,0:0:0:0:
257,192,109657,1,0,0:0:0:0:
257,192,109743,1,0,0:0:0:0:
257,192,109829,1,8,0:0:0:0:
256,192,110143,5,8,0:0:0:0:
256,192,110314,1,8,0:0:0:0:
256,192,110400,1,8,0:0:0:0:
256,192,110485,1,0,0:0:0:0:
256,192,110657,1,0,0:0:0:0:
256,192,110828,1,8,0:0:0:0:
256,192,110914,1,8,0:0:0:0:
256,192,111000,1,8,0:0:0:0:
256,192,111086,1,8,0:0:0:0:
256,192,111171,1,0,0:0:0:0:
256,188,111343,1,0,0:0:0:0:
256,188,111514,1,0,0:0:0:0:
256,188,111686,1,8,0:0:0:0:
256,188,111857,1,8,0:0:0:0:
256,192,112028,1,0,0:0:0:0:
260,188,112200,1,8,0:0:0:0:
252,188,112371,1,0,0:0:0:0:
252,188,112457,1,0,0:0:0:0:
256,192,112542,1,8,0:0:0:0:
256,192,112885,1,0,0:0:0:0:
256,192,113057,1,8,0:0:0:0:
256,192,113228,1,8,0:0:0:0:
256,192,113400,1,8,0:0:0:0:
256,192,113485,1,0,0:0:0:0:
256,192,113571,1,0,0:0:0:0:
256,192,113742,1,0,0:0:0:0:
256,192,113914,1,0,0:0:0:0:
256,192,114085,1,8,0:0:0:0:
256,192,114171,1,8,0:0:0:0:
256,192,114257,1,0,0:0:0:0:
256,192,114428,1,0,0:0:0:0:
256,192,114600,1,0,0:0:0:0:
256,192,114685,1,0,0:0:0:0:
256,192,114771,1,8,0:0:0:0:
256,192,114942,1,0,0:0:0:0:
256,192,115114,1,8,0:0:0:0:
256,192,115285,1,10,0:0:0:0:
256,196,115628,1,8,0:0:0:0:
256,196,115800,1,8,0:0:0:0:
256,196,115971,1,0,0:0:0:0:
256,192,116142,1,8,0:0:0:0:
256,192,116228,1,0,0:0:0:0:
256,192,116314,1,8,0:0:0:0:
256,192,116485,1,0,0:0:0:0:
256,192,116657,1,8,0:0:0:0:
256,192,116742,1,8,0:0:0:0:
256,192,116828,1,0,0:0:0:0:
256,192,116914,1,0,0:0:0:0:
256,192,117000,1,0,0:0:0:0:
256,192,117171,1,0,0:0:0:0:
256,192,117342,1,8,0:0:0:0:
256,192,117428,1,8,0:0:0:0:
256,192,117514,1,0,0:0:0:0:
256,192,117685,1,8,0:0:0:0:
256,192,117857,1,0,0:0:0:0:
256,192,117942,1,0,0:0:0:0:
256,192,118028,1,8,0:0:0:0:
256,192,118371,1,8,0:0:0:0:
256,192,118542,1,8,0:0:0:0:
256,192,118714,1,0,0:0:0:0:
256,192,118885,1,8,0:0:0:0:
256,192,119057,1,8,0:0:0:0:
256,192,119228,1,0,0:0:0:0:
256,192,119400,1,8,0:0:0:0:
256,192,119571,1,0,0:0:0:0:
256,192,119657,1,0,0:0:0:0:
256,192,119742,1,0,0:0:0:0:
256,192,119914,1,0,0:0:0:0:
256,192,120000,1,10,0:0:0:0:
256,192,120171,1,0,0:0:0:0:
256,192,120257,1,10,0:0:0:0:
256,192,120428,1,0,0:0:0:0:
256,192,120514,1,10,0:0:0:0:
252,192,120771,5,10,0:0:0:0:
256,192,120942,1,0,0:0:0:0:
256,192,121114,1,0,0:0:0:0:
256,192,121285,1,8,0:0:0:0:
256,192,121371,1,8,0:0:0:0:
256,192,121457,1,0,0:0:0:0:
256,192,121628,1,8,0:0:0:0:
256,192,121800,1,0,0:0:0:0:
256,192,121971,1,0,0:0:0:0:
256,192,122142,1,8,0:0:0:0:
256,192,122314,1,0,0:0:0:0:
256,192,122400,1,0,0:0:0:0:
256,192,122485,1,8,0:0:0:0:
256,192,122657,1,8,0:0:0:0:
256,192,122828,1,8,0:0:0:0:
256,192,123000,1,0,0:0:0:0:
256,192,123171,1,0,0:0:0:0:
256,192,123342,1,0,0:0:0:0:
256,192,123428,1,0,0:0:0:0:
256,192,123514,1,8,0:0:0:0:
256,192,123857,1,8,0:0:0:0:
260,192,124028,1,0,0:0:0:0:
260,192,124200,1,8,0:0:0:0:
260,192,124371,1,8,0:0:0:0:
260,192,124542,1,0,0:0:0:0:
264,196,124714,1,8,0:0:0:0:
256,192,124885,1,8,0:0:0:0:
256,192,124971,1,8,0:0:0:0:
264,196,125057,1,0,0:0:0:0:
256,192,125142,1,0,0:0:0:0:
256,192,125228,1,8,0:0:0:0:
256,192,125400,1,8,0:0:0:0:
256,192,125571,1,0,0:0:0:0:
256,192,125657,1,0,0:0:0:0:
256,192,125742,1,0,0:0:0:0:
260,192,125914,1,8,0:0:0:0:
264,192,126085,1,0,0:0:0:0:
264,192,126171,1,0,0:0:0:0:
256,192,126257,1,8,0:0:0:0:
256,192,126600,1,0,0:0:0:0:
256,192,126771,1,8,0:0:0:0:
256,192,126857,1,8,0:0:0:0:
256,192,126942,1,8,0:0:0:0:
256,192,127114,1,8,0:0:0:0:
256,192,127285,1,0,0:0:0:0:
256,192,127457,1,0,0:0:0:0:
256,192,127628,1,8,0:0:0:0:
256,192,127800,1,0,0:0:0:0:
256,192,127971,1,0,0:0:0:0:
256,192,128142,1,0,0:0:0:0:
256,192,128228,1,0,0:0:0:0:
256,192,128314,1,8,0:0:0:0:
256,192,128485,1,8,0:0:0:0:
256,192,128657,1,0,0:0:0:0:
256,192,128828,1,8,0:0:0:0:
256,192,128914,1,8,0:0:0:0:
256,192,129000,1,0,0:0:0:0:
256,192,129342,1,0,0:0:0:0:
256,192,129514,1,8,0:0:0:0:
256,192,129857,1,0,0:0:0:0:
256,192,130028,1,8,0:0:0:0:
256,192,130371,1,0,0:0:0:0:
256,192,130542,1,8,0:0:0:0:
256,192,130885,1,0,0:0:0:0:
256,192,131057,1,8,0:0:0:0:
256,192,131400,1,8,0:0:0:0:
256,192,131485,1,8,0:0:0:0:
256,192,131571,1,8,0:0:0:0:
256,192,131657,1,8,0:0:0:0:
256,192,131742,5,8,0:0:0:0:
256,184,131914,1,0,0:0:0:0:
256,184,132085,1,0,0:0:0:0:
256,184,132257,1,8,0:0:0:0:
256,184,132342,1,8,0:0:0:0:
256,184,132428,1,8,0:0:0:0:
256,184,132600,1,8,0:0:0:0:
256,184,132771,1,0,0:0:0:0:
256,192,132857,1,0,0:0:0:0:
256,184,132942,1,0,0:0:0:0:
256,184,133028,1,0,0:0:0:0:
256,184,133114,1,8,0:0:0:0:
256,192,133285,1,0,0:0:0:0:
256,192,133457,1,8,0:0:0:0:
256,192,133628,1,0,0:0:0:0:
256,192,133714,1,0,0:0:0:0:
256,192,133800,1,8,0:0:0:0:
256,192,133885,1,8,0:0:0:0:
256,192,133971,1,8,0:0:0:0:
256,192,134142,1,8,0:0:0:0:
256,192,134228,1,0,0:0:0:0:
256,192,134314,1,0,0:0:0:0:
264,192,134400,1,0,0:0:0:0:
256,192,134485,1,8,0:0:0:0:
256,192,134657,1,0,0:0:0:0:
256,192,134828,1,8,0:0:0:0:
256,192,135000,1,0,0:0:0:0:
256,192,135085,1,0,0:0:0:0:
256,192,135171,1,8,0:0:0:0:
256,192,135257,1,0,0:0:0:0:
256,192,135342,1,8,0:0:0:0:
256,192,135514,1,0,0:0:0:0:
256,192,135685,1,0,0:0:0:0:
256,192,135771,1,0,0:0:0:0:
256,192,135857,1,0,0:0:0:0:
256,192,136028,1,8,0:0:0:0:
256,192,136200,1,8,0:0:0:0:
256,192,136371,1,8,0:0:0:0:
256,192,136542,1,0,0:0:0:0:
256,192,136714,1,8,0:0:0:0:
256,192,136885,1,8,0:0:0:0:
256,192,137057,1,0,0:0:0:0:
256,192,137142,1,0,0:0:0:0:
256,192,137228,1,8,0:0:0:0:
256,192,137400,1,0,0:0:0:0:
256,192,137571,1,8,0:0:0:0:
256,192,137742,1,8,0:0:0:0:
256,192,137914,1,0,0:0:0:0:
256,192,138000,1,8,0:0:0:0:
256,192,138085,1,0,0:0:0:0:
256,192,138257,1,8,0:0:0:0:
256,192,138428,1,8,0:0:0:0:
256,192,138600,1,0,0:0:0:0:
256,192,138771,1,8,0:0:0:0:
256,192,138942,1,0,0:0:0:0:
256,192,139114,1,8,0:0:0:0:
256,192,139285,1,0,0:0:0:0:
256,192,139371,1,0,0:0:0:0:
256,192,139457,1,0,0:0:0:0:
260,193,139628,1,8,0:0:0:0:
260,193,139800,1,8,0:0:0:0:
256,192,139885,1,8,0:0:0:0:
260,193,139971,1,8,0:0:0:0:
260,193,140142,1,0,0:0:0:0:
260,193,140313,1,0,0:0:0:0:
257,194,140485,1,8,0:0:0:0:
260,193,140571,1,8,0:0:0:0:
257,194,140656,1,0,0:0:0:0:
257,194,140828,1,0,0:0:0:0:
257,194,140999,1,8,0:0:0:0:
257,194,141171,1,0,0:0:0:0:
260,193,141256,1,0,0:0:0:0:
257,194,141342,1,8,0:0:0:0:
257,194,141513,1,8,0:0:0:0:
257,194,141685,1,0,0:0:0:0:
258,194,141856,1,8,0:0:0:0:
260,193,141942,1,8,0:0:0:0:
262,191,142028,1,8,0:0:0:0:
262,191,142199,1,0,0:0:0:0:
260,194,142371,1,8,0:0:0:0:
260,194,142542,1,8,0:0:0:0:
260,194,142714,5,10,0:0:0:0:
256,196,142885,1,0,0:0:0:0:
256,196,143057,1,0,0:0:0:0:
256,196,143228,1,8,0:0:0:0:
256,196,143314,1,8,0:0:0:0:
256,196,143400,1,8,0:0:0:0:
256,196,143485,1,0,0:0:0:0:
256,196,143571,1,0,0:0:0:0:
256,196,143742,1,8,0:0:0:0:
256,196,143914,1,0,0:0:0:0:
256,196,144000,1,0,0:0:0:0:
256,196,144085,1,8,0:0:0:0:
256,196,144257,1,8,0:0:0:0:
256,196,144342,1,8,0:0:0:0:
256,196,144428,1,0,0:0:0:0:
256,196,144600,1,0,0:0:0:0:
256,196,144685,1,0,0:0:0:0:
256,196,144771,1,8,0:0:0:0:
256,196,144857,1,8,0:0:0:0:
256,196,144942,1,8,0:0:0:0:
256,196,145114,1,8,0:0:0:0:
256,192,145285,1,0,0:0:0:0:
256,192,145371,1,0,0:0:0:0:
256,192,145457,1,8,0:0:0:0:
256,192,145628,1,0,0:0:0:0:
256,192,145800,1,0,0:0:0:0:
256,192,145971,1,8,0:0:0:0:
256,192,146057,1,0,0:0:0:0:
256,192,146142,1,8,0:0:0:0:
256,192,146228,1,8,0:0:0:0:
256,192,146314,1,0,0:0:0:0:
256,192,146485,1,8,0:0:0:0:
256,192,146657,1,0,0:0:0:0:
256,192,146742,1,0,0:0:0:0:
256,192,146828,1,8,0:0:0:0:
256,192,147000,1,0,0:0:0:0:
256,192,147171,1,0,0:0:0:0:
256,192,147342,1,8,0:0:0:0:
256,192,147428,1,0,0:0:0:0:
256,192,147514,1,8,0:0:0:0:
256,192,147600,1,8,0:0:0:0:
256,192,147685,1,0,0:0:0:0:
256,192,147857,1,0,0:0:0:0:
256,192,148028,1,8,0:0:0:0:
256,192,148114,1,8,0:0:0:0:
256,192,148200,1,0,0:0:0:0:
256,192,148371,1,0,0:0:0:0:
256,192,148542,1,8,0:0:0:0:
256,192,148714,1,8,0:0:0:0:
256,192,148800,1,8,0:0:0:0:
256,192,148885,1,0,0:0:0:0:
256,192,148971,1,8,0:0:0:0:
256,192,149057,1,0,0:0:0:0:
256,188,149228,1,8,0:0:0:0:
256,188,149400,1,8,0:0:0:0:
256,188,149571,1,0,0:0:0:0:
256,188,149742,1,0,0:0:0:0:
256,188,149828,1,0,0:0:0:0:
256,192,149914,1,8,0:0:0:0:
260,192,150085,1,8,0:0:0:0:
260,192,150171,1,0,0:0:0:0:
256,192,150257,1,8,0:0:0:0:
256,192,150342,1,8,0:0:0:0:
256,192,150428,1,0,0:0:0:0:
256,192,150600,1,0,0:0:0:0:
256,192,150771,1,8,0:0:0:0:
256,192,150942,1,10,0:0:0:0:
256,192,151285,1,0,0:0:0:0:
256,192,151457,1,10,0:0:0:0:
256,192,151800,1,0,0:0:0:0:
256,192,151971,1,10,0:0:0:0:
256,192,152314,1,0,0:0:0:0:
256,192,152485,1,10,0:0:0:0:
256,192,152828,1,0,0:0:0:0:
256,192,153000,1,10,0:0:0:0:
256,192,153342,1,8,0:0:0:0:
256,192,153685,5,10,0:0:0:0:
256,196,154028,1,0,0:0:0:0:
256,192,154200,1,8,0:0:0:0:
256,196,154371,1,0,0:0:0:0:
256,196,154457,1,0,0:0:0:0:
256,196,154542,1,0,0:0:0:0:
256,196,154628,1,8,0:0:0:0:
256,196,154714,1,8,0:0:0:0:
256,196,154885,1,8,0:0:0:0:
256,196,155057,1,8,0:0:0:0:
256,196,155228,1,0,0:0:0:0:
252,192,155400,1,0,0:0:0:0:
252,192,155571,1,8,0:0:0:0:
252,192,155742,1,0,0:0:0:0:
252,192,155914,1,0,0:0:0:0:
252,192,156085,1,8,0:0:0:0:
260,184,156257,1,0,0:0:0:0:
260,184,156342,1,0,0:0:0:0:
256,192,156428,1,8,0:0:0:0:
256,192,156771,1,0,0:0:0:0:
256,192,157114,1,0,0:0:0:0:
256,192,157200,1,0,0:0:0:0:
256,192,157285,1,0,0:0:0:0:
256,192,157371,1,0,0:0:0:0:
256,192,157457,1,8,0:0:0:0:
256,192,157628,1,0,0:0:0:0:
256,192,157800,1,8,0:0:0:0:
256,192,157971,1,0,0:0:0:0:
256,196,158142,1,0,0:0:0:0:
256,196,158314,1,8,0:0:0:0:
256,196,158485,1,0,0:0:0:0:
256,196,158657,1,0,0:0:0:0:
256,196,158828,1,8,0:0:0:0:
256,196,159000,1,0,0:0:0:0:
256,196,159085,1,0,0:0:0:0:
256,192,159171,1,8,0:0:0:0:
252,192,159514,1,0,0:0:0:0:
256,192,159857,1,0,0:0:0:0:
256,192,159942,1,0,0:0:0:0:
256,192,160028,1,0,0:0:0:0:
256,192,160114,1,8,0:0:0:0:
256,192,160200,1,8,0:0:0:0:
256,192,160371,1,0,0:0:0:0:
256,192,160543,1,8,0:0:0:0:
256,192,160714,1,0,0:0:0:0:
260,192,160885,1,0,0:0:0:0:
260,192,161057,1,8,0:0:0:0:
260,192,161228,1,0,0:0:0:0:
260,192,161400,1,0,0:0:0:0:
260,192,161571,1,8,0:0:0:0:
256,192,161914,1,8,0:0:0:0:
256,192,162257,1,0,0:0:0:0:
256,192,162428,1,0,0:0:0:0:
256,192,162600,1,0,0:0:0:0:
256,192,162685,1,8,0:0:0:0:
256,192,162771,1,8,0:0:0:0:
256,192,162942,1,0,0:0:0:0:
256,192,163114,1,0,0:0:0:0:
256,192,163285,1,8,0:0:0:0:
256,192,163457,1,0,0:0:0:0:
256,192,163628,1,0,0:0:0:0:
256,192,163800,1,8,0:0:0:0:
256,192,163971,1,0,0:0:0:0:
256,192,164142,1,0,0:0:0:0:
256,192,164314,1,8,0:0:0:0:
256,192,164485,1,0,0:0:0:0:
256,192,164571,1,0,0:0:0:0:
256,192,164657,1,8,0:0:0:0:
256,196,165000,1,0,0:0:0:0:
256,196,165171,1,8,0:0:0:0:
256,196,165343,1,0,0:0:0:0:
256,196,165429,1,0,0:0:0:0:
256,196,165514,1,0,0:0:0:0:
256,196,165600,1,8,0:0:0:0:
256,196,165686,1,8,0:0:0:0:
256,196,165857,1,8,0:0:0:0:
256,196,166029,1,8,0:0:0:0:
256,196,166200,1,0,0:0:0:0:
252,192,166372,1,0,0:0:0:0:
252,192,166543,1,8,0:0:0:0:
252,192,166714,1,0,0:0:0:0:
252,192,166886,1,0,0:0:0:0:
252,192,167057,1,8,0:0:0:0:
260,184,167229,1,0,0:0:0:0:
260,184,167314,1,0,0:0:0:0:
256,192,167400,1,8,0:0:0:0:
256,192,167743,1,0,0:0:0:0:
256,192,168086,1,0,0:0:0:0:
256,192,168172,1,0,0:0:0:0:
256,192,168257,1,0,0:0:0:0:
256,192,168343,1,0,0:0:0:0:
256,192,168429,1,8,0:0:0:0:
256,192,168600,1,0,0:0:0:0:
256,192,168772,1,8,0:0:0:0:
256,192,168942,1,0,0:0:0:0:
256,196,169114,1,0,0:0:0:0:
256,196,169286,1,8,0:0:0:0:
256,196,169457,1,0,0:0:0:0:
256,196,169629,1,0,0:0:0:0:
256,196,169800,1,8,0:0:0:0:
256,196,169972,1,0,0:0:0:0:
256,196,170057,1,0,0:0:0:0:
256,192,170143,1,8,0:0:0:0:
252,192,170486,1,0,0:0:0:0:
256,192,170829,1,0,0:0:0:0:
256,192,170914,1,0,0:0:0:0:
256,192,171000,1,0,0:0:0:0:
256,192,171086,1,8,0:0:0:0:
256,192,171172,1,8,0:0:0:0:
256,192,171343,1,0,0:0:0:0:
256,192,171515,1,8,0:0:0:0:
256,192,171685,1,0,0:0:0:0:
260,192,171858,1,0,0:0:0:0:
260,192,172029,1,8,0:0:0:0:
260,192,172200,1,0,0:0:0:0:
260,192,172372,1,0,0:0:0:0:
260,192,172543,1,8,0:0:0:0:
256,192,172885,1,10,0:0:0:0:
256,192,173228,1,0,0:0:0:0:
256,192,173400,1,10,0:0:0:0:
256,192,173743,1,0,0:0:0:0:
256,192,173914,1,10,0:0:0:0:
256,192,174257,1,0,0:0:0:0:
256,192,174428,1,10,0:0:0:0:
256,192,174771,1,0,0:0:0:0:
256,192,174943,1,10,0:0:0:0:
256,192,175285,1,8,0:0:0:0:
256,192,175628,5,10,0:0:0:0:
256,192,175971,1,0,0:0:0:0:
256,192,176142,1,8,0:0:0:0:
256,192,176228,1,8,0:0:0:0:
256,192,176314,1,0,0:0:0:0:
256,192,176485,1,0,0:0:0:0:
256,192,176657,1,8,0:0:0:0:
256,192,176828,1,0,0:0:0:0:
256,192,177000,1,8,0:0:0:0:
256,192,177171,1,0,0:0:0:0:
256,192,177342,1,0,0:0:0:0:
256,192,177514,1,0,0:0:0:0:
256,192,177600,1,0,0:0:0:0:
256,192,177685,1,8,0:0:0:0:
256,192,177771,1,8,0:0:0:0:
256,192,177857,1,0,0:0:0:0:
256,192,178028,1,0,0:0:0:0:
256,192,178200,1,0,0:0:0:0:
256,192,178285,1,0,0:0:0:0:
256,192,178371,1,8,0:0:0:0:
256,192,178714,1,8,0:0:0:0:
256,192,178885,1,0,0:0:0:0:
256,192,178971,1,0,0:0:0:0:
256,192,179057,1,8,0:0:0:0:
256,192,179142,1,8,0:0:0:0:
256,192,179228,1,0,0:0:0:0:
256,192,179400,1,8,0:0:0:0:
256,192,179571,1,0,0:0:0:0:
256,192,179657,1,0,0:0:0:0:
256,192,179742,1,0,0:0:0:0:
256,192,179914,1,0,0:0:0:0:
256,192,180085,1,8,0:0:0:0:
256,192,180257,1,0,0:0:0:0:
256,192,180342,1,8,0:0:0:0:
256,192,180428,1,0,0:0:0:0:
256,192,180514,1,0,0:0:0:0:
256,192,180600,1,8,0:0:0:0:
256,192,180685,1,0,0:0:0:0:
252,192,180771,1,8,0:0:0:0:
252,192,180942,1,0,0:0:0:0:
252,192,181114,1,10,0:0:0:0:
252,192,181457,1,8,0:0:0:0:
256,192,181628,1,0,0:0:0:0:
256,192,181714,1,0,0:0:0:0:
256,192,181800,1,8,0:0:0:0:
256,192,181885,1,8,0:0:0:0:
256,192,181971,1,0,0:0:0:0:
256,192,182142,1,8,0:0:0:0:
256,192,182314,1,0,0:0:0:0:
256,192,182485,1,8,0:0:0:0:
256,192,182657,1,0,0:0:0:0:
256,192,182828,1,8,0:0:0:0:
256,192,183000,1,8,0:0:0:0:
256,192,183085,1,8,0:0:0:0:
256,192,183171,1,0,0:0:0:0:
256,192,183257,1,0,0:0:0:0:
256,192,183342,1,8,0:0:0:0:
256,192,183514,1,8,0:0:0:0:
256,192,183685,1,0,0:0:0:0:
256,192,183771,1,0,0:0:0:0:
256,192,183857,1,8,0:0:0:0:
256,192,184200,1,0,0:0:0:0:
256,192,184371,1,8,0:0:0:0:
256,192,184457,1,0,0:0:0:0:
256,192,184542,1,0,0:0:0:0:
256,192,184628,1,8,0:0:0:0:
256,192,184714,1,8,0:0:0:0:
256,192,184885,1,8,0:0:0:0:
256,192,185057,1,0,0:0:0:0:
256,192,185228,1,8,0:0:0:0:
256,192,185400,1,0,0:0:0:0:
256,192,185571,1,8,0:0:0:0:
256,192,185742,1,0,0:0:0:0:
248,196,185828,1,8,0:0:0:0:
256,192,185914,1,0,0:0:0:0:
248,196,186000,1,0,0:0:0:0:
248,196,186085,1,8,0:0:0:0:
260,196,186171,1,0,0:0:0:0:
256,192,186257,1,8,0:0:0:0:
256,192,186428,1,0,0:0:0:0:
256,192,186514,1,0,0:0:0:0:
256,192,186600,1,8,0:0:0:0:
256,192,186771,1,0,0:0:0:0:
256,192,186942,1,8,0:0:0:0:
256,192,187114,1,0,0:0:0:0:
256,192,187200,1,0,0:0:0:0:
256,192,187285,1,0,0:0:0:0:
256,192,187371,1,8,0:0:0:0:
256,192,187457,1,8,0:0:0:0:
256,192,187628,1,0,0:0:0:0:
256,192,187800,1,0,0:0:0:0:
256,192,187971,1,8,0:0:0:0:
256,192,188142,1,8,0:0:0:0:
256,192,188314,1,0,0:0:0:0:
256,192,188485,1,0,0:0:0:0:
256,192,188571,1,0,0:0:0:0:
256,192,188657,1,8,0:0:0:0:
256,192,188742,1,0,0:0:0:0:
256,192,188828,1,8,0:0:0:0:
256,192,189000,1,0,0:0:0:0:
256,192,189171,1,0,0:0:0:0:
256,192,189257,1,0,0:0:0:0:
256,192,189342,1,8,0:0:0:0:
256,192,189514,1,0,0:0:0:0:
256,192,189685,1,0,0:0:0:0:
256,192,189857,1,0,0:0:0:0:
256,192,189942,1,0,0:0:0:0:
256,192,190028,1,8,0:0:0:0:
256,192,190200,1,8,0:0:0:0:
256,192,190371,1,0,0:0:0:0:
256,192,190542,1,8,0:0:0:0:
256,192,190628,1,8,0:0:0:0:
256,192,190714,1,8,0:0:0:0:
256,192,190885,1,0,0:0:0:0:
256,192,191057,1,0,0:0:0:0:
256,192,191228,1,0,0:0:0:0:
256,192,191314,1,8,0:0:0:0:
256,192,191400,1,0,0:0:0:0:
256,192,191485,1,8,0:0:0:0:
256,192,191571,1,0,0:0:0:0:
256,192,191657,1,0,0:0:0:0:
256,192,191742,1,8,0:0:0:0:
256,192,191914,1,0,0:0:0:0:
256,192,192085,1,8,0:0:0:0:
256,192,192257,1,0,0:0:0:0:
256,192,192342,1,0,0:0:0:0:
256,192,192428,1,0,0:0:0:0:
256,192,192600,1,8,0:0:0:0:
256,192,192771,1,0,0:0:0:0:
256,160,192857,1,0,0:0:0:0:
256,192,192942,1,0,0:0:0:0:
256,192,193114,1,8,0:0:0:0:
256,192,193285,1,0,0:0:0:0:
256,160,193371,1,0,0:0:0:0:
260,192,193457,1,0,0:0:0:0:
260,192,193628,1,8,0:0:0:0:
260,192,193800,1,0,0:0:0:0:
260,192,193971,1,8,0:0:0:0:
260,192,194057,1,0,0:0:0:0:
260,192,194142,1,8,0:0:0:0:
260,192,194228,1,0,0:0:0:0:
260,192,194314,1,0,0:0:0:0:
260,192,194485,1,8,0:0:0:0:
260,192,194657,1,0,0:0:0:0:
260,192,194828,1,8,0:0:0:0:
260,192,195000,1,0,0:0:0:0:
260,192,195171,1,8,0:0:0:0:
256,192,195342,1,8,0:0:0:0:
256,192,195428,1,0,0:0:0:0:
256,192,195514,1,8,0:0:0:0:
256,192,195600,1,0,0:0:0:0:
352,256,195685,1,0,0:0:0:0:
256,192,195857,5,8,0:0:0:0:
256,192,196028,1,0,0:0:0:0:
256,192,196200,1,0,0:0:0:0:
256,192,196371,1,8,0:0:0:0:
288,192,196542,1,0,0:0:0:0:
288,192,196714,1,8,0:0:0:0:
288,192,196800,1,0,0:0:0:0:
264,192,196885,5,0,0:0:0:0:
264,192,196971,1,0,0:0:0:0:
264,192,197057,1,8,0:0:0:0:
264,192,197142,1,0,0:0:0:0:
264,192,197228,1,8,0:0:0:0:
256,192,197400,1,0,0:0:0:0:
256,192,197571,1,10,0:0:0:0:
260,192,208542,5,8,0:0:0:0:
256,192,208885,1,8,0:0:0:0:
256,192,209228,1,8,0:0:0:0:
256,192,209571,1,8,0:0:0:0:
256,192,209742,1,0,0:0:0:0:
256,192,210085,1,0,0:0:0:0:
248,188,210257,1,8,0:0:0:0:
256,192,210600,1,0,0:0:0:0:
256,192,210942,1,0,0:0:0:0:
256,192,211285,1,8,0:0:0:0:
256,192,211628,1,8,0:0:0:0:
256,192,211971,1,8,0:0:0:0:
256,192,212314,1,8,0:0:0:0:
256,192,212485,1,0,0:0:0:0:
256,192,212828,1,0,0:0:0:0:
260,192,213000,1,8,0:0:0:0:
260,192,213342,1,8,0:0:0:0:
260,192,213685,1,8,0:0:0:0:
256,191,214028,1,8,0:0:0:0:
256,191,214200,1,0,0:0:0:0:
256,191,214371,1,8,0:0:0:0:
256,191,214542,1,0,0:0:0:0:
256,191,214714,1,8,0:0:0:0:
256,191,214885,1,0,0:0:0:0:
256,191,215057,1,8,0:0:0:0:
255,192,215228,1,0,0:0:0:0:
255,192,215314,1,0,0:0:0:0:
255,192,215400,1,8,0:0:0:0:
255,192,215571,1,0,0:0:0:0:
255,192,215743,1,0,0:0:0:0:
255,192,215914,1,8,0:0:0:0:
255,192,216086,1,8,0:0:0:0:
255,192,216257,1,0,0:0:0:0:
255,192,216428,1,0,0:0:0:0:
255,192,216600,1,0,0:0:0:0:
255,192,216771,1,8,0:0:0:0:
255,192,216857,1,8,0:0:0:0:
255,192,216943,1,0,0:0:0:0:
255,192,217028,1,0,0:0:0:0:
255,192,217114,1,8,0:0:0:0:
255,192,217200,1,8,0:0:0:0:
255,192,217286,1,8,0:0:0:0:
255,192,217371,1,0,0:0:0:0:
255,192,217457,1,8,0:0:0:0:
255,192,217543,1,8,0:0:0:0:
255,192,217628,1,0,0:0:0:0:
255,192,217714,1,0,0:0:0:0:
255,192,217800,1,8,0:0:0:0:
255,192,217886,1,8,0:0:0:0:
255,192,217971,1,8,0:0:0:0:
255,192,218057,1,0,0:0:0:0:
256,192,218143,1,8,0:0:0:0:
256,192,218228,1,8,0:0:0:0:
256,192,218314,1,0,0:0:0:0:
256,192,218400,1,0,0:0:0:0:
256,192,218486,1,8,0:0:0:0:
256,192,218571,1,8,0:0:0:0:
256,192,218657,1,8,0:0:0:0:
256,192,218743,1,0,0:0:0:0:
256,192,218828,1,8,0:0:0:0:
256,192,218914,1,0,0:0:0:0:
256,192,219000,1,8,0:0:0:0:
256,192,219086,1,0,0:0:0:0:
256,192,219171,1,8,0:0:0:0:
256,192,219514,5,10,0:0:0:0:
256,192,219685,1,0,0:0:0:0:
256,192,219857,1,0,0:0:0:0:
256,192,220028,1,8,0:0:0:0:
256,192,220114,1,8,0:0:0:0:
256,192,220200,1,0,0:0:0:0:
256,192,220285,1,0,0:0:0:0:
256,192,220371,1,8,0:0:0:0:
256,192,220542,1,8,0:0:0:0:
256,192,220628,1,8,0:0:0:0:
256,192,220714,1,8,0:0:0:0:
256,192,220800,1,8,0:0:0:0:
256,193,220885,1,0,0:0:0:0:
256,193,221057,1,0,0:0:0:0:
256,193,221228,1,8,0:0:0:0:
256,193,221400,1,0,0:0:0:0:
256,193,221486,1,0,0:0:0:0:
256,193,221571,1,0,0:0:0:0:
256,193,221657,1,0,0:0:0:0:
256,193,221743,1,8,0:0:0:0:
255,192,221914,1,0,0:0:0:0:
255,192,222000,1,0,0:0:0:0:
255,192,222086,1,0,0:0:0:0:
255,192,222171,1,8,0:0:0:0:
255,192,222257,1,8,0:0:0:0:
255,192,222428,1,8,0:0:0:0:
255,192,222600,1,0,0:0:0:0:
255,192,222771,1,8,0:0:0:0:
255,192,222857,1,0,0:0:0:0:
255,192,222943,1,0,0:0:0:0:
255,192,223028,1,8,0:0:0:0:
255,192,223114,1,8,0:0:0:0:
255,192,223286,1,0,0:0:0:0:
255,192,223457,1,0,0:0:0:0:
255,192,223628,1,8,0:0:0:0:
255,192,223714,1,0,0:0:0:0:
255,192,223800,1,8,0:0:0:0:
255,192,223886,1,8,0:0:0:0:
255,192,223971,1,8,0:0:0:0:
255,192,224057,1,0,0:0:0:0:
256,191,224143,1,8,0:0:0:0:
255,192,224228,1,0,0:0:0:0:
256,191,224314,1,8,0:0:0:0:
255,192,224400,1,0,0:0:0:0:
256,191,224486,1,8,0:0:0:0:
255,192,224571,1,0,0:0:0:0:
256,191,224657,1,8,0:0:0:0:
255,192,224743,1,8,0:0:0:0:
256,191,224828,1,8,0:0:0:0:
255,192,224914,1,0,0:0:0:0:
256,191,225000,1,8,0:0:0:0:
256,191,225171,1,0,0:0:0:0:
256,191,225343,1,0,0:0:0:0:
256,191,225514,1,8,0:0:0:0:
256,191,225600,1,0,0:0:0:0:
256,191,225686,1,8,0:0:0:0:
256,191,225771,1,0,0:0:0:0:
256,191,225857,1,0,0:0:0:0:
256,191,226028,1,8,0:0:0:0:
256,191,226114,1,8,0:0:0:0:
256,191,226200,1,8,0:0:0:0:
256,191,226286,1,8,0:0:0:0:
256,191,226371,1,0,0:0:0:0:
256,191,226543,1,0,0:0:0:0:
256,191,226628,1,0,0:0:0:0:
256,191,226714,1,8,0:0:0:0:
256,191,226886,1,8,0:0:0:0:
256,191,226971,1,8,0:0:0:0:
256,191,227057,1,0,0:0:0:0:
256,191,227228,1,8,0:0:0:0:
256,191,227400,1,0,0:0:0:0:
256,191,227486,1,0,0:0:0:0:
256,191,227571,1,8,0:0:0:0:
256,191,227657,1,0,0:0:0:0:
256,191,227743,1,8,0:0:0:0:
256,191,227914,1,0,0:0:0:0:
256,191,228086,1,8,0:0:0:0:
256,191,228257,1,8,0:0:0:0:
256,191,228343,1,0,0:0:0:0:
256,191,228428,1,0,0:0:0:0:
256,191,228514,1,0,0:0:0:0:
256,191,228600,1,8,0:0:0:0:
256,191,228771,1,8,0:0:0:0:
256,191,228943,1,8,0:0:0:0:
254,197,229286,1,0,0:0:0:0:
254,197,229629,1,0,0:0:0:0:
255,190,230143,1,8,0:0:0:0:
255,190,230228,1,8,0:0:0:0:
257,194,230485,5,10,0:0:0:0:
257,194,230656,1,0,0:0:0:0:
257,194,230827,1,8,0:0:0:0:
257,194,230999,1,8,0:0:0:0:
257,194,231085,1,0,0:0:0:0:
257,194,231170,1,8,0:0:0:0:
257,194,231256,1,0,0:0:0:0:
257,194,231342,1,0,0:0:0:0:
257,194,231513,1,8,0:0:0:0:
257,194,231599,1,8,0:0:0:0:
257,194,231685,1,8,0:0:0:0:
257,194,231770,1,8,0:0:0:0:
257,194,231856,1,0,0:0:0:0:
257,194,232027,1,0,0:0:0:0:
257,194,232113,1,0,0:0:0:0:
257,194,232199,1,8,0:0:0:0:
257,194,232370,1,0,0:0:0:0:
257,194,232456,1,0,0:0:0:0:
257,194,232542,1,8,0:0:0:0:
257,194,232627,1,0,0:0:0:0:
257,194,232713,1,8,0:0:0:0:
257,194,232885,1,8,0:0:0:0:
257,194,232970,1,0,0:0:0:0:
257,194,233056,1,0,0:0:0:0:
256,192,233142,1,8,0:0:0:0:
257,194,233227,1,10,0:0:0:0:
257,194,233399,1,0,0:0:0:0:
257,194,233570,1,8,0:0:0:0:
257,194,233742,1,8,0:0:0:0:
257,194,233827,1,0,0:0:0:0:
257,194,233913,1,0,0:0:0:0:
257,194,233999,1,0,0:0:0:0:
257,194,234085,1,8,0:0:0:0:
257,194,234256,1,0,0:0:0:0:
257,194,234342,1,0,0:0:0:0:
257,194,234427,1,0,0:0:0:0:
257,194,234513,1,0,0:0:0:0:
256,192,234599,1,8,0:0:0:0:
256,192,234770,1,8,0:0:0:0:
256,192,234856,1,8,0:0:0:0:
256,192,234942,1,8,0:0:0:0:
256,192,235027,1,0,0:0:0:0:
256,192,235113,1,8,0:0:0:0:
256,192,235199,1,0,0:0:0:0:
256,192,235285,1,8,0:0:0:0:
256,192,235370,1,0,0:0:0:0:
256,192,235456,1,8,0:0:0:0:
256,192,235542,1,0,0:0:0:0:
256,192,235627,1,8,0:0:0:0:
256,192,235713,1,8,0:0:0:0:
256,192,235799,1,0,0:0:0:0:
256,192,235885,1,0,0:0:0:0:
256,192,235970,5,0,0:0:0:0:
256,192,236142,1,8,0:0:0:0:
256,192,236313,1,8,0:0:0:0:
256,192,236485,1,0,0:0:0:0:
256,192,236570,1,0,0:0:0:0:
256,192,236656,1,0,0:0:0:0:
256,192,236742,1,8,0:0:0:0:
256,192,236827,1,8,0:0:0:0:
256,192,236999,1,8,0:0:0:0:
256,192,237085,1,8,0:0:0:0:
256,192,237170,1,0,0:0:0:0:
256,192,237256,1,0,0:0:0:0:
256,192,237342,1,8,0:0:0:0:
256,192,237513,1,0,0:0:0:0:
256,192,237599,1,0,0:0:0:0:
256,192,237685,1,8,0:0:0:0:
256,192,237856,1,8,0:0:0:0:
256,192,237942,1,0,0:0:0:0:
256,192,238027,1,0,0:0:0:0:
256,192,238113,1,0,0:0:0:0:
256,192,238199,1,8,0:0:0:0:
256,192,238370,1,0,0:0:0:0:
256,192,238456,1,0,0:0:0:0:
256,192,238542,1,0,0:0:0:0:
256,192,238627,1,0,0:0:0:0:
256,192,238713,1,8,0:0:0:0:
256,192,238885,1,8,0:0:0:0:
256,192,239056,1,0,0:0:0:0:
256,192,239227,1,0,0:0:0:0:
256,192,239313,1,0,0:0:0:0:
256,192,239399,1,8,0:0:0:0:
256,192,239485,1,8,0:0:0:0:
256,192,239570,1,0,0:0:0:0:
256,192,239742,1,0,0:0:0:0:
256,192,239913,1,0,0:0:0:0:
256,192,240085,1,8,0:0:0:0:
256,192,240170,1,8,0:0:0:0:
256,192,240256,1,0,0:0:0:0:
256,192,240342,1,0,0:0:0:0:
256,192,240427,1,8,0:0:0:0:
256,192,240513,1,0,0:0:0:0:
256,192,240599,1,8,0:0:0:0:
256,192,240685,1,8,0:0:0:0:
256,192,240770,1,0,0:0:0:0:
256,192,240856,1,0,0:0:0:0:
256,192,240942,1,8,0:0:0:0:
256,192,241027,1,8,0:0:0:0:
256,192,241113,1,8,0:0:0:0:
256,192,241285,1,0,0:0:0:0:
256,192,241456,5,10,0:0:0:0:
256,192,241627,1,8,0:0:0:0:
256,192,241799,1,8,0:0:0:0:
256,192,241970,1,0,0:0:0:0:
256,192,242056,1,0,0:0:0:0:
256,192,242142,1,8,0:0:0:0:
256,192,242227,1,8,0:0:0:0:
256,192,242313,1,0,0:0:0:0:
256,191,242485,1,8,0:0:0:0:
256,191,242570,1,0,0:0:0:0:
256,191,242656,1,8,0:0:0:0:
256,191,242742,1,0,0:0:0:0:
256,191,242827,1,0,0:0:0:0:
256,191,242999,1,0,0:0:0:0:
256,191,243170,1,8,0:0:0:0:
256,191,243342,1,8,0:0:0:0:
256,191,243427,1,8,0:0:0:0:
256,191,243513,1,0,0:0:0:0:
256,192,243599,1,0,0:0:0:0:
256,191,243685,1,0,0:0:0:0:
256,191,243856,1,8,0:0:0:0:
256,191,243942,1,8,0:0:0:0:
256,191,244027,1,8,0:0:0:0:
256,191,244113,1,0,0:0:0:0:
256,191,244199,1,8,0:0:0:0:
256,191,244370,1,0,0:0:0:0:
256,191,244542,1,8,0:0:0:0:
256,191,244713,1,0,0:0:0:0:
256,191,244799,1,0,0:0:0:0:
256,191,244885,1,8,0:0:0:0:
256,192,244970,1,0,0:0:0:0:
256,191,245056,1,8,0:0:0:0:
256,191,245227,1,0,0:0:0:0:
256,191,245399,1,0,0:0:0:0:
256,191,245570,1,8,0:0:0:0:
256,191,245657,1,0,0:0:0:0:
256,191,245742,1,0,0:0:0:0:
256,191,245827,1,8,0:0:0:0:
256,191,245913,1,8,0:0:0:0:
256,191,246085,1,0,0:0:0:0:
256,191,246256,1,8,0:0:0:0:
256,191,246342,1,0,0:0:0:0:
256,191,246427,1,0,0:0:0:0:
256,191,246599,1,0,0:0:0:0:
256,191,246770,1,8,0:0:0:0:
256,191,246942,5,8,0:0:0:0:
256,191,247113,1,8,0:0:0:0:
256,191,247285,1,8,0:0:0:0:
256,191,247456,1,0,0:0:0:0:
256,191,247542,1,0,0:0:0:0:
256,191,247627,1,8,0:0:0:0:
256,191,247713,1,0,0:0:0:0:
256,191,247799,1,8,0:0:0:0:
256,191,247970,1,0,0:0:0:0:
256,191,248056,1,0,0:0:0:0:
256,191,248142,1,0,0:0:0:0:
256,191,248227,1,0,0:0:0:0:
256,191,248313,1,8,0:0:0:0:
256,191,248485,1,0,0:0:0:0:
256,191,248570,1,0,0:0:0:0:
256,191,248656,1,8,0:0:0:0:
256,191,248827,1,0,0:0:0:0:
256,191,248913,1,0,0:0:0:0:
256,191,248999,1,8,0:0:0:0:
256,191,249085,1,8,0:0:0:0:
256,191,249170,1,8,0:0:0:0:
256,191,249342,1,0,0:0:0:0:
256,192,249428,1,8,0:0:0:0:
256,191,249513,1,0,0:0:0:0:
256,192,249600,1,8,0:0:0:0:
260,193,249685,1,8,0:0:0:0:
260,193,249856,1,0,0:0:0:0:
260,193,250027,1,0,0:0:0:0:
257,194,250199,1,8,0:0:0:0:
260,193,250285,1,8,0:0:0:0:
257,194,250370,1,0,0:0:0:0:
257,194,250542,1,0,0:0:0:0:
257,194,250713,1,8,0:0:0:0:
257,194,250885,1,0,0:0:0:0:
257,194,251056,1,8,0:0:0:0:
260,193,251142,1,8,0:0:0:0:
257,194,251227,1,8,0:0:0:0:
257,194,251399,1,0,0:0:0:0:
258,194,251570,1,8,0:0:0:0:
260,193,251656,1,8,0:0:0:0:
262,191,251742,1,8,0:0:0:0:
262,191,251913,1,0,0:0:0:0:
260,194,252085,1,8,0:0:0:0:
260,194,252256,1,8,0:0:0:0:
260,194,252427,5,10,0:0:0:0:
255,193,252599,1,0,0:0:0:0:
255,193,252770,1,8,0:0:0:0:
255,193,252942,1,0,0:0:0:0:
255,193,253027,1,0,0:0:0:0:
255,193,253113,1,8,0:0:0:0:
255,193,253199,1,0,0:0:0:0:
255,193,253285,1,8,0:0:0:0:
255,193,253456,1,0,0:0:0:0:
255,193,253542,1,0,0:0:0:0:
255,193,253627,1,0,0:0:0:0:
255,193,253713,1,0,0:0:0:0:
255,193,253799,1,8,0:0:0:0:
255,193,253970,1,8,0:0:0:0:
255,193,254056,1,8,0:0:0:0:
255,193,254142,1,0,0:0:0:0:
255,193,254313,1,0,0:0:0:0:
256,192,254400,1,0,0:0:0:0:
255,193,254485,1,8,0:0:0:0:
255,193,254570,1,8,0:0:0:0:
255,193,254656,1,8,0:0:0:0:
256,192,254827,1,8,0:0:0:0:
256,192,254913,1,0,0:0:0:0:
255,193,254999,1,0,0:0:0:0:
256,192,255085,1,8,0:0:0:0:
255,193,255170,1,10,0:0:0:0:
255,193,255342,1,0,0:0:0:0:
255,193,255513,1,0,0:0:0:0:
255,193,255685,1,0,0:0:0:0:
255,193,255770,1,0,0:0:0:0:
255,193,255856,1,8,0:0:0:0:
255,193,255942,1,0,0:0:0:0:
255,193,256027,1,8,0:0:0:0:
255,193,256199,1,0,0:0:0:0:
255,193,256285,1,0,0:0:0:0:
255,193,256370,1,0,0:0:0:0:
255,193,256456,1,0,0:0:0:0:
255,193,256542,1,8,0:0:0:0:
255,193,256713,1,0,0:0:0:0:
255,193,256799,1,0,0:0:0:0:
255,193,256885,1,0,0:0:0:0:
255,193,256970,1,0,0:0:0:0:
257,190,257056,1,8,0:0:0:0:
255,193,257142,1,0,0:0:0:0:
257,190,257227,1,8,0:0:0:0:
255,193,257313,1,0,0:0:0:0:
257,190,257399,1,8,0:0:0:0:
255,193,257485,1,8,0:0:0:0:
257,190,257570,1,0,0:0:0:0:
255,193,257656,1,0,0:0:0:0:
257,190,257742,1,8,0:0:0:0:
255,193,257827,1,0,0:0:0:0:
257,190,257913,5,8,0:0:0:0:
257,190,258085,1,0,0:0:0:0:
257,190,258256,1,0,0:0:0:0:
257,190,258427,1,8,0:0:0:0:
257,190,258513,1,8,0:0:0:0:
257,190,258599,1,8,0:0:0:0:
257,190,258685,1,8,0:0:0:0:
257,190,258770,1,0,0:0:0:0:
261,190,258942,1,0,0:0:0:0:
261,190,259027,1,0,0:0:0:0:
261,190,259113,1,8,0:0:0:0:
261,190,259199,1,0,0:0:0:0:
261,190,259285,1,8,0:0:0:0:
261,190,259456,1,0,0:0:0:0:
261,190,259542,1,0,0:0:0:0:
261,190,259627,1,8,0:0:0:0:
261,190,259799,1,0,0:0:0:0:
261,190,259970,1,8,0:0:0:0:
261,190,260056,1,0,0:0:0:0:
261,190,260142,1,0,0:0:0:0:
256,192,260313,1,8,0:0:0:0:
256,192,260400,1,0,0:0:0:0:
256,192,260485,1,8,0:0:0:0:
256,192,260571,1,0,0:0:0:0:
256,192,260656,1,8,0:0:0:0:
256,192,260827,1,0,0:0:0:0:
256,192,260913,1,0,0:0:0:0:
256,192,260999,1,0,0:0:0:0:
256,192,261170,1,8,0:0:0:0:
256,192,261342,1,0,0:0:0:0:
256,192,261427,1,0,0:0:0:0:
256,192,261513,1,0,0:0:0:0:
256,192,261685,1,8,0:0:0:0:
256,192,261770,1,0,0:0:0:0:
256,192,261856,1,8,0:0:0:0:
256,192,261942,1,8,0:0:0:0:
256,192,262027,1,0,0:0:0:0:
257,192,262199,1,8,0:0:0:0:
256,192,262285,1,0,0:0:0:0:
257,192,262370,1,0,0:0:0:0:
257,192,262542,1,8,0:0:0:0:
257,192,262713,5,8,0:0:0:0:
257,192,262885,1,0,0:0:0:0:
257,192,263056,1,0,0:0:0:0:
257,192,263227,1,0,0:0:0:0:
257,192,263313,1,0,0:0:0:0:
257,192,263399,1,8,0:0:0:0:
256,192,263742,5,8,0:0:0:0:
256,192,263914,1,8,0:0:0:0:
256,192,264000,1,8,0:0:0:0:
256,192,264084,1,0,0:0:0:0:
256,192,264256,1,0,0:0:0:0:
256,192,264427,1,8,0:0:0:0:
256,192,264513,1,8,0:0:0:0:
256,192,264599,1,8,0:0:0:0:
256,192,264685,1,8,0:0:0:0:
256,192,264770,1,0,0:0:0:0:
256,188,264942,1,0,0:0:0:0:
256,188,265113,1,0,0:0:0:0:
256,188,265285,1,8,0:0:0:0:
256,188,265456,1,8,0:0:0:0:
256,192,265627,1,0,0:0:0:0:
260,188,265799,1,8,0:0:0:0:
252,188,265970,1,0,0:0:0:0:
252,188,266056,1,0,0:0:0:0:
256,192,266141,1,8,0:0:0:0:
256,192,266484,1,0,0:0:0:0:
256,192,266656,1,8,0:0:0:0:
256,192,266827,1,8,0:0:0:0:
256,192,266999,1,8,0:0:0:0:
256,192,267085,1,0,0:0:0:0:
256,192,267170,1,0,0:0:0:0:
256,192,267341,1,0,0:0:0:0:
256,192,267513,1,0,0:0:0:0:
256,192,267684,1,8,0:0:0:0:
256,192,267770,1,8,0:0:0:0:
256,192,267856,1,0,0:0:0:0:
256,192,268027,1,0,0:0:0:0:
256,192,268199,1,0,0:0:0:0:
256,192,268284,1,0,0:0:0:0:
256,192,268370,1,8,0:0:0:0:
256,192,268541,1,0,0:0:0:0:
256,192,268713,1,8,0:0:0:0:
256,192,268884,1,10,0:0:0:0:
256,196,269227,1,8,0:0:0:0:
256,196,269399,1,8,0:0:0:0:
256,196,269570,1,0,0:0:0:0:
256,192,269741,1,8,0:0:0:0:
288,192,269828,1,0,0:0:0:0:
256,192,269913,1,8,0:0:0:0:
256,192,270084,1,0,0:0:0:0:
256,192,270256,1,8,0:0:0:0:
256,192,270341,1,8,0:0:0:0:
256,192,270427,1,0,0:0:0:0:
256,192,270513,1,0,0:0:0:0:
256,192,270599,1,0,0:0:0:0:
256,192,270770,1,0,0:0:0:0:
256,192,270941,1,8,0:0:0:0:
256,192,271027,1,8,0:0:0:0:
256,192,271113,1,0,0:0:0:0:
256,192,271284,1,8,0:0:0:0:
256,192,271456,1,0,0:0:0:0:
256,192,271541,1,0,0:0:0:0:
256,192,271627,1,8,0:0:0:0:
256,192,271970,1,8,0:0:0:0:
256,192,272141,1,8,0:0:0:0:
256,192,272313,1,0,0:0:0:0:
256,192,272484,1,8,0:0:0:0:
256,192,272656,1,8,0:0:0:0:
256,192,272827,1,0,0:0:0:0:
256,192,272999,1,8,0:0:0:0:
256,192,273170,1,0,0:0:0:0:
256,192,273256,1,0,0:0:0:0:
256,192,273341,1,0,0:0:0:0:
256,192,273513,1,0,0:0:0:0:
256,192,273599,1,10,0:0:0:0:
256,192,273770,1,0,0:0:0:0:
256,192,273856,1,10,0:0:0:0:
256,192,274027,1,0,0:0:0:0:
256,192,274113,1,10,0:0:0:0:
252,192,274370,5,10,0:0:0:0:
256,192,274541,1,0,0:0:0:0:
256,192,274713,1,0,0:0:0:0:
256,192,274884,1,8,0:0:0:0:
256,192,274970,1,8,0:0:0:0:
256,192,275056,1,0,0:0:0:0:
256,192,275227,1,8,0:0:0:0:
256,192,275399,1,0,0:0:0:0:
256,192,275570,1,0,0:0:0:0:
256,192,275741,1,8,0:0:0:0:
256,192,275913,1,0,0:0:0:0:
256,192,275999,1,0,0:0:0:0:
256,192,276084,1,8,0:0:0:0:
256,192,276256,1,8,0:0:0:0:
256,192,276427,1,8,0:0:0:0:
256,192,276599,1,0,0:0:0:0:
256,192,276770,1,0,0:0:0:0:
256,192,276941,1,0,0:0:0:0:
256,192,277027,1,0,0:0:0:0:
256,192,277113,1,8,0:0:0:0:
256,192,277456,1,8,0:0:0:0:
260,192,277627,1,0,0:0:0:0:
260,192,277799,1,8,0:0:0:0:
260,192,277970,1,8,0:0:0:0:
260,192,278141,1,0,0:0:0:0:
264,196,278313,1,8,0:0:0:0:
256,192,278484,1,8,0:0:0:0:
256,192,278570,1,8,0:0:0:0:
264,196,278656,1,0,0:0:0:0:
256,192,278741,1,0,0:0:0:0:
256,192,278827,1,8,0:0:0:0:
256,192,278999,1,8,0:0:0:0:
256,192,279170,1,8,0:0:0:0:
256,192,279256,1,0,0:0:0:0:
256,192,279341,1,0,0:0:0:0:
260,192,279513,1,8,0:0:0:0:
264,192,279684,1,0,0:0:0:0:
264,192,279770,1,0,0:0:0:0:
256,192,279856,1,8,0:0:0:0:
256,192,280199,1,0,0:0:0:0:
256,192,280370,1,8,0:0:0:0:
256,192,280456,1,8,0:0:0:0:
256,192,280541,1,8,0:0:0:0:
256,192,280713,1,8,0:0:0:0:
256,192,280884,1,0,0:0:0:0:
256,192,281056,1,0,0:0:0:0:
256,192,281227,1,8,0:0:0:0:
256,192,281399,1,0,0:0:0:0:
256,192,281570,1,0,0:0:0:0:
256,192,281741,1,0,0:0:0:0:
256,192,281827,1,0,0:0:0:0:
256,192,281913,1,8,0:0:0:0:
256,192,282084,1,8,0:0:0:0:
256,192,282256,1,0,0:0:0:0:
256,192,282427,1,8,0:0:0:0:
256,192,282513,1,8,0:0:0:0:
256,192,282599,1,0,0:0:0:0:
256,192,282941,1,0,0:0:0:0:
256,192,283113,1,8,0:0:0:0:
256,192,283456,1,0,0:0:0:0:
256,192,283627,1,8,0:0:0:0:
256,192,283970,1,0,0:0:0:0:
256,192,284141,1,8,0:0:0:0:
256,192,284484,5,0,0:0:0:0:
256,192,284656,1,8,0:0:0:0:
256,192,284999,1,8,0:0:0:0:
256,192,285084,1,8,0:0:0:0:
256,192,285170,1,8,0:0:0:0:
256,192,285256,1,8,0:0:0:0:
256,192,285341,5,8,0:0:0:0:
256,184,285513,5,0,0:0:0:0:
256,184,285684,1,0,0:0:0:0:
256,184,285856,1,8,0:0:0:0:
256,184,285941,1,8,0:0:0:0:
256,184,286027,1,8,0:0:0:0:
256,184,286199,1,0,0:0:0:0:
256,184,286370,1,8,0:0:0:0:
256,192,286456,1,0,0:0:0:0:
256,184,286541,1,0,0:0:0:0:
256,184,286627,1,0,0:0:0:0:
256,184,286713,1,8,0:0:0:0:
256,192,286884,1,0,0:0:0:0:
256,192,287056,1,8,0:0:0:0:
256,192,287227,1,0,0:0:0:0:
256,192,287313,1,0,0:0:0:0:
256,192,287400,1,8,0:0:0:0:
256,192,287570,1,0,0:0:0:0:
256,192,287741,1,8,0:0:0:0:
256,192,287827,1,8,0:0:0:0:
256,192,287913,1,0,0:0:0:0:
264,192,287999,1,0,0:0:0:0:
256,192,288084,1,8,0:0:0:0:
256,192,288256,1,0,0:0:0:0:
256,192,288427,1,8,0:0:0:0:
256,192,288599,1,0,0:0:0:0:
256,192,288685,1,0,0:0:0:0:
256,192,288770,1,8,0:0:0:0:
256,192,288857,1,8,0:0:0:0:
256,192,288941,1,0,0:0:0:0:
256,192,289113,1,8,0:0:0:0:
256,192,289284,1,0,0:0:0:0:
256,192,289370,1,0,0:0:0:0:
256,192,289457,1,8,0:0:0:0:
256,192,289627,1,0,0:0:0:0:
256,192,289799,1,8,0:0:0:0:
256,192,289970,1,8,0:0:0:0:
256,192,290141,1,0,0:0:0:0:
256,192,290313,1,8,0:0:0:0:
256,192,290484,1,8,0:0:0:0:
256,192,290656,1,0,0:0:0:0:
256,192,290741,1,0,0:0:0:0:
256,192,290827,1,8,0:0:0:0:
256,192,290999,1,0,0:0:0:0:
256,192,291170,1,8,0:0:0:0:
256,192,291341,1,8,0:0:0:0:
256,192,291513,1,8,0:0:0:0:
256,192,291599,1,0,0:0:0:0:
256,192,291684,1,0,0:0:0:0:
256,192,291770,1,0,0:0:0:0:
256,192,291856,1,8,0:0:0:0:
256,192,292027,1,8,0:0:0:0:
256,192,292199,1,0,0:0:0:0:
256,192,292284,1,0,0:0:0:0:
256,192,292370,1,8,0:0:0:0:
256,192,292456,1,8,0:0:0:0:
256,192,292541,1,0,0:0:0:0:
256,192,292713,1,8,0:0:0:0:
256,192,292884,1,0,0:0:0:0:
256,192,292970,1,0,0:0:0:0:
256,192,293056,1,0,0:0:0:0:
260,193,293227,1,8,0:0:0:0:
260,193,293399,1,8,0:0:0:0:
260,193,293571,1,0,0:0:0:0:
260,193,293657,1,0,0:0:0:0:
260,193,293741,1,8,0:0:0:0:
260,193,293914,1,0,0:0:0:0:
257,194,294085,1,8,0:0:0:0:
260,193,294171,1,8,0:0:0:0:
257,194,294257,1,0,0:0:0:0:
257,194,294428,1,0,0:0:0:0:
257,194,294600,1,8,0:0:0:0:
257,194,294771,1,0,0:0:0:0:
257,194,294942,1,8,0:0:0:0:
260,193,295028,1,8,0:0:0:0:
257,194,295114,1,8,0:0:0:0:
257,194,295285,1,0,0:0:0:0:
258,194,295457,1,8,0:0:0:0:
260,193,295542,1,8,0:0:0:0:
262,191,295628,1,8,0:0:0:0:
262,191,295800,1,0,0:0:0:0:
260,194,295971,1,8,0:0:0:0:
260,194,296141,1,8,0:0:0:0:
260,194,296314,5,10,0:0:0:0:
256,196,296657,1,0,0:0:0:0:
256,196,296828,1,8,0:0:0:0:
256,196,296914,1,8,0:0:0:0:
256,196,297000,1,8,0:0:0:0:
256,196,297085,1,0,0:0:0:0:
256,196,297171,1,0,0:0:0:0:
256,196,297342,1,8,0:0:0:0:
256,196,297514,1,0,0:0:0:0:
256,196,297600,1,0,0:0:0:0:
256,196,297685,1,8,0:0:0:0:
256,196,297857,1,8,0:0:0:0:
256,196,297942,1,8,0:0:0:0:
256,196,298028,1,0,0:0:0:0:
256,196,298200,1,0,0:0:0:0:
256,196,298285,1,0,0:0:0:0:
256,196,298371,1,8,0:0:0:0:
256,196,298457,1,8,0:0:0:0:
256,196,298542,1,8,0:0:0:0:
256,196,298714,1,8,0:0:0:0:
256,192,298885,1,0,0:0:0:0:
256,192,298971,1,0,0:0:0:0:
256,192,299057,1,8,0:0:0:0:
256,192,299228,1,0,0:0:0:0:
256,192,299400,1,0,0:0:0:0:
256,192,299571,1,8,0:0:0:0:
256,192,299657,1,0,0:0:0:0:
256,192,299742,1,8,0:0:0:0:
256,192,299828,1,8,0:0:0:0:
256,192,299914,1,0,0:0:0:0:
256,192,300085,1,8,0:0:0:0:
256,192,300257,1,0,0:0:0:0:
256,192,300342,1,0,0:0:0:0:
256,192,300428,1,8,0:0:0:0:
256,192,300600,1,0,0:0:0:0:
256,192,300771,1,0,0:0:0:0:
256,192,300942,1,8,0:0:0:0:
256,192,301028,1,0,0:0:0:0:
256,192,301114,1,8,0:0:0:0:
256,192,301200,1,8,0:0:0:0:
256,192,301285,1,0,0:0:0:0:
256,192,301457,1,0,0:0:0:0:
256,192,301628,1,8,0:0:0:0:
256,192,301714,1,8,0:0:0:0:
256,192,301800,1,0,0:0:0:0:
256,192,301971,1,0,0:0:0:0:
256,192,302142,1,8,0:0:0:0:
256,192,302314,1,8,0:0:0:0:
256,192,302400,1,8,0:0:0:0:
256,192,302485,1,0,0:0:0:0:
256,192,302571,1,8,0:0:0:0:
256,192,302657,1,0,0:0:0:0:
256,188,302828,1,8,0:0:0:0:
256,188,303000,1,8,0:0:0:0:
256,188,303171,1,0,0:0:0:0:
256,188,303342,1,0,0:0:0:0:
256,188,303428,1,0,0:0:0:0:
256,192,303514,1,8,0:0:0:0:
260,192,303685,1,8,0:0:0:0:
260,192,303771,1,0,0:0:0:0:
256,192,303857,1,8,0:0:0:0:
256,192,303942,1,8,0:0:0:0:
256,192,304028,1,0,0:0:0:0:
256,192,304200,1,0,0:0:0:0:
256,192,304371,1,8,0:0:0:0:
256,192,304542,1,10,0:0:0:0:
256,192,304885,1,0,0:0:0:0:
256,192,305057,1,10,0:0:0:0:
256,192,305400,1,0,0:0:0:0:
256,192,305571,1,10,0:0:0:0:
256,192,305914,1,0,0:0:0:0:
256,192,306085,1,10,0:0:0:0:
256,192,306428,1,0,0:0:0:0:
256,192,306600,1,10,0:0:0:0:
256,192,306942,1,8,0:0:0:0:
256,192,307285,5,10,0:0:0:0:
256,192,329228,5,8,0:0:0:0:
256,192,329571,1,0,0:0:0:0:
256,192,329742,1,0,0:0:0:0:
256,192,329914,1,8,0:0:0:0:
256,193,330257,1,0,0:0:0:0:
256,193,330428,1,0,0:0:0:0:
256,193,330600,1,8,0:0:0:0:
256,192,330771,1,8,0:0:0:0:
256,192,331114,1,0,0:0:0:0:
256,192,331285,1,0,0:0:0:0:
256,192,331628,1,8,0:0:0:0:
256,192,331971,1,10,0:0:0:0:
256,192,332142,1,0,0:0:0:0:
256,192,332314,1,0,0:0:0:0:
256,192,332657,1,8,0:0:0:0:
255,192,333000,1,0,0:0:0:0:
255,192,333171,1,0,0:0:0:0:
255,192,333342,1,8,0:0:0:0:
255,192,333514,1,8,0:0:0:0:
256,192,333857,1,8,0:0:0:0:
256,192,334200,1,0,0:0:0:0:
256,192,334371,1,8,0:0:0:0:
256,192,334714,1,8,0:0:0:0:
256,192,335057,1,0,0:0:0:0:
256,192,335228,1,8,0:0:0:0:
256,192,335400,1,8,0:0:0:0:
256,192,335571,1,0,0:0:0:0:
256,192,335742,1,0,0:0:0:0:
256,192,336085,1,8,0:0:0:0:
256,192,336257,1,0,0:0:0:0:
256,192,336428,1,0,0:0:0:0:
256,192,336771,1,0,0:0:0:0:
256,192,337114,1,0,0:0:0:0:
256,192,337457,1,8,0:0:0:0:
257,192,337800,1,0,0:0:0:0:
257,192,337971,1,8,0:0:0:0:
257,192,338314,1,8,0:0:0:0:
257,192,338485,1,0,0:0:0:0:
257,192,338828,1,8,0:0:0:0:
256,192,339171,1,0,0:0:0:0:
256,192,339343,1,8,0:0:0:0:
256,192,339685,1,8,0:0:0:0:
256,192,339857,1,0,0:0:0:0:
260,192,340200,5,8,0:0:0:0:
256,192,340542,1,8,0:0:0:0:
256,192,340885,1,8,0:0:0:0:
248,184,341228,1,0,0:0:0:0:
256,192,341399,1,0,0:0:0:0:
256,192,341571,1,8,0:0:0:0:
248,188,341914,1,0,0:0:0:0:
256,192,342257,1,8,0:0:0:0:
256,192,342600,1,0,0:0:0:0:
256,192,342942,1,8,0:0:0:0:
256,192,343285,1,8,0:0:0:0:
256,192,343456,1,0,0:0:0:0:
256,192,343628,1,8,0:0:0:0:
256,192,343971,1,0,0:0:0:0:
256,192,344142,1,8,0:0:0:0:
256,192,344314,1,0,0:0:0:0:
260,192,344657,1,0,0:0:0:0:
260,192,344999,1,8,0:0:0:0:
260,192,345342,1,8,0:0:0:0:
256,191,345685,1,8,0:0:0:0:
256,191,345857,1,0,0:0:0:0:
256,191,346028,1,8,0:0:0:0:
256,191,346200,1,0,0:0:0:0:
256,191,346371,1,8,0:0:0:0:
256,191,346542,1,8,0:0:0:0:
256,191,346714,1,0,0:0:0:0:
255,192,346885,1,8,0:0:0:0:
255,192,346971,1,8,0:0:0:0:
255,192,347057,1,8,0:0:0:0:
255,192,347228,1,0,0:0:0:0:
255,192,347400,1,0,0:0:0:0:
255,192,347571,1,8,0:0:0:0:
255,192,347742,1,8,0:0:0:0:
255,192,347915,1,0,0:0:0:0:
255,192,348085,1,0,0:0:0:0:
255,192,348257,1,0,0:0:0:0:
255,192,348428,1,8,0:0:0:0:
255,192,348514,1,8,0:0:0:0:
255,192,348600,1,0,0:0:0:0:
255,192,348685,1,0,0:0:0:0:
255,192,348771,1,8,0:0:0:0:
255,192,348857,1,8,0:0:0:0:
255,192,348943,1,8,0:0:0:0:
255,192,349028,1,0,0:0:0:0:
255,192,349114,1,8,0:0:0:0:
255,192,349200,1,8,0:0:0:0:
255,192,349285,1,0,0:0:0:0:
255,192,349371,1,0,0:0:0:0:
255,192,349457,1,8,0:0:0:0:
255,192,349543,1,8,0:0:0:0:
255,192,349628,1,8,0:0:0:0:
255,192,349714,1,0,0:0:0:0:
256,192,349800,1,8,0:0:0:0:
256,192,349885,1,0,0:0:0:0:
256,192,349971,1,8,0:0:0:0:
256,192,350057,1,0,0:0:0:0:
256,192,350143,1,8,0:0:0:0:
256,192,350228,1,8,0:0:0:0:
256,192,350314,1,8,0:0:0:0:
256,192,350400,1,0,0:0:0:0:
256,192,350485,1,8,0:0:0:0:
256,192,350571,1,0,0:0:0:0:
256,192,350657,1,8,0:0:0:0:
256,192,350743,1,0,0:0:0:0:
256,192,350828,1,8,0:0:0:0:
256,192,350914,1,8,0:0:0:0:
256,192,351000,1,0,0:0:0:0:
256,192,351171,5,10,0:0:0:0:
256,192,351343,1,0,0:0:0:0:
256,192,351514,1,0,0:0:0:0:
256,192,351685,1,8,0:0:0:0:
256,192,351771,1,8,0:0:0:0:
256,192,351857,1,0,0:0:0:0:
256,192,351943,1,0,0:0:0:0:
256,192,352028,1,8,0:0:0:0:
256,192,352200,1,8,0:0:0:0:
256,192,352285,1,8,0:0:0:0:
256,192,352371,1,8,0:0:0:0:
256,192,352457,1,8,0:0:0:0:
256,193,352543,1,0,0:0:0:0:
256,193,352714,1,0,0:0:0:0:
256,193,352885,1,8,0:0:0:0:
256,193,353057,1,8,0:0:0:0:
256,193,353143,1,0,0:0:0:0:
256,193,353228,1,8,0:0:0:0:
256,193,353314,1,0,0:0:0:0:
256,193,353400,1,8,0:0:0:0:
255,192,353571,1,0,0:0:0:0:
255,192,353657,1,0,0:0:0:0:
255,192,353743,1,0,0:0:0:0:
255,192,353828,1,0,0:0:0:0:
255,192,353914,1,8,0:0:0:0:
255,192,354085,1,0,0:0:0:0:
255,192,354257,1,8,0:0:0:0:
255,192,354428,1,0,0:0:0:0:
255,192,354514,1,0,0:0:0:0:
255,192,354600,1,8,0:0:0:0:
256,192,354685,1,8,0:0:0:0:
255,192,354771,1,8,0:0:0:0:
256,192,354942,1,8,0:0:0:0:
256,192,355028,1,0,0:0:0:0:
256,192,355114,1,8,0:0:0:0:
256,192,355200,1,0,0:0:0:0:
255,192,355285,1,8,0:0:0:0:
255,192,355457,1,0,0:0:0:0:
255,192,355543,1,0,0:0:0:0:
255,192,355628,1,0,0:0:0:0:
255,192,355714,1,0,0:0:0:0:
256,191,355800,1,8,0:0:0:0:
255,192,355885,1,0,0:0:0:0:
256,191,355971,1,8,0:0:0:0:
255,192,356057,1,0,0:0:0:0:
256,191,356143,1,8,0:0:0:0:
255,192,356228,1,8,0:0:0:0:
256,191,356314,1,8,0:0:0:0:
255,192,356400,1,0,0:0:0:0:
256,191,356485,1,8,0:0:0:0:
255,192,356571,1,8,0:0:0:0:
256,191,356657,5,8,0:0:0:0:
256,191,356828,1,0,0:0:0:0:
256,191,357000,1,8,0:0:0:0:
256,191,357171,1,8,0:0:0:0:
256,191,357257,1,8,0:0:0:0:
256,191,357343,1,0,0:0:0:0:
256,191,357428,1,0,0:0:0:0:
256,191,357514,1,8,0:0:0:0:
256,191,357685,1,8,0:0:0:0:
256,191,357771,1,8,0:0:0:0:
256,191,357857,1,8,0:0:0:0:
256,191,357943,1,0,0:0:0:0:
256,191,358028,1,0,0:0:0:0:
256,191,358200,1,0,0:0:0:0:
256,191,358285,1,0,0:0:0:0:
256,191,358371,1,8,0:0:0:0:
256,191,358543,1,8,0:0:0:0:
256,191,358628,1,8,0:0:0:0:
256,191,358714,1,0,0:0:0:0:
256,191,358800,1,8,0:0:0:0:
256,191,358885,1,8,0:0:0:0:
256,191,359057,1,0,0:0:0:0:
256,191,359143,1,0,0:0:0:0:
256,191,359228,1,0,0:0:0:0:
256,191,359314,1,0,0:0:0:0:
256,191,359400,1,8,0:0:0:0:
256,191,359571,1,0,0:0:0:0:
256,191,359657,1,0,0:0:0:0:
256,191,359743,1,8,0:0:0:0:
256,191,359914,1,8,0:0:0:0:
256,191,360000,1,0,0:0:0:0:
256,191,360085,1,0,0:0:0:0:
256,191,360171,1,0,0:0:0:0:
256,191,360257,1,8,0:0:0:0:
256,191,360428,1,8,0:0:0:0:
256,191,360600,1,8,0:0:0:0:
254,197,360943,1,0,0:0:0:0:
254,197,361286,1,0,0:0:0:0:
255,190,361800,1,8,0:0:0:0:
255,190,361885,1,8,0:0:0:0:
257,194,362143,5,10,0:0:0:0:
257,194,362314,1,0,0:0:0:0:
257,194,362485,1,8,0:0:0:0:
257,194,362657,1,0,0:0:0:0:
257,194,362743,1,0,0:0:0:0:
257,194,362828,1,8,0:0:0:0:
257,194,362914,1,0,0:0:0:0:
257,194,363000,1,8,0:0:0:0:
257,194,363171,1,8,0:0:0:0:
257,194,363257,1,8,0:0:0:0:
257,194,363343,1,8,0:0:0:0:
257,194,363428,1,8,0:0:0:0:
257,194,363514,1,0,0:0:0:0:
257,194,363685,1,0,0:0:0:0:
257,194,363771,1,0,0:0:0:0:
257,194,363857,1,8,0:0:0:0:
257,194,364028,1,0,0:0:0:0:
257,194,364200,1,8,0:0:0:0:
257,194,364285,1,0,0:0:0:0:
257,194,364371,1,8,0:0:0:0:
257,194,364543,1,8,0:0:0:0:
257,194,364628,1,0,0:0:0:0:
257,194,364714,1,0,0:0:0:0:
256,192,364800,1,8,0:0:0:0:
257,194,364885,1,10,0:0:0:0:
257,194,365057,1,0,0:0:0:0:
257,194,365228,1,8,0:0:0:0:
257,194,365400,1,8,0:0:0:0:
257,194,365485,1,0,0:0:0:0:
257,194,365571,1,0,0:0:0:0:
257,194,365657,1,0,0:0:0:0:
257,194,365743,1,8,0:0:0:0:
257,194,365914,1,0,0:0:0:0:
257,194,366000,1,0,0:0:0:0:
257,194,366085,1,0,0:0:0:0:
257,194,366171,1,0,0:0:0:0:
256,192,366257,1,8,0:0:0:0:
256,192,366428,1,8,0:0:0:0:
256,192,366514,1,8,0:0:0:0:
256,192,366600,1,8,0:0:0:0:
256,192,366685,1,0,0:0:0:0:
256,192,366771,1,8,0:0:0:0:
256,192,366857,1,0,0:0:0:0:
256,192,366943,1,8,0:0:0:0:
256,192,367028,1,0,0:0:0:0:
256,192,367114,1,8,0:0:0:0:
256,192,367200,1,0,0:0:0:0:
256,192,367285,1,8,0:0:0:0:
256,192,367371,1,8,0:0:0:0:
256,192,367457,1,0,0:0:0:0:
256,192,367543,1,0,0:0:0:0:
256,192,367628,5,0,0:0:0:0:
256,192,367800,1,8,0:0:0:0:
256,192,367971,1,8,0:0:0:0:
256,192,368143,1,0,0:0:0:0:
256,192,368228,1,0,0:0:0:0:
256,192,368314,1,0,0:0:0:0:
256,192,368400,1,8,0:0:0:0:
256,192,368485,1,8,0:0:0:0:
256,192,368657,1,8,0:0:0:0:
256,192,368743,1,8,0:0:0:0:
256,192,368828,1,0,0:0:0:0:
256,192,368914,1,0,0:0:0:0:
256,192,369000,1,8,0:0:0:0:
256,192,369171,1,0,0:0:0:0:
256,192,369257,1,0,0:0:0:0:
256,192,369343,1,8,0:0:0:0:
256,192,369514,1,8,0:0:0:0:
256,192,369600,1,0,0:0:0:0:
256,192,369685,1,0,0:0:0:0:
256,192,369771,1,0,0:0:0:0:
256,192,369857,1,8,0:0:0:0:
256,192,370028,1,0,0:0:0:0:
256,192,370114,1,0,0:0:0:0:
256,192,370200,1,0,0:0:0:0:
256,192,370285,1,0,0:0:0:0:
256,192,370371,1,8,0:0:0:0:
256,192,370543,1,8,0:0:0:0:
256,192,370714,1,0,0:0:0:0:
256,192,370885,1,0,0:0:0:0:
256,192,370971,1,0,0:0:0:0:
256,192,371057,1,8,0:0:0:0:
256,192,371143,1,8,0:0:0:0:
256,192,371228,1,0,0:0:0:0:
256,192,371400,1,0,0:0:0:0:
256,192,371571,1,0,0:0:0:0:
256,192,371743,1,8,0:0:0:0:
256,192,371828,1,8,0:0:0:0:
256,192,371914,1,0,0:0:0:0:
256,192,372000,1,0,0:0:0:0:
256,192,372085,1,8,0:0:0:0:
256,192,372171,1,0,0:0:0:0:
256,192,372257,1,8,0:0:0:0:
256,192,372343,1,8,0:0:0:0:
256,192,372428,1,0,0:0:0:0:
256,192,372514,1,0,0:0:0:0:
256,192,372600,1,8,0:0:0:0:
256,192,372685,1,8,0:0:0:0:
256,192,372771,1,8,0:0:0:0:
256,192,372943,1,0,0:0:0:0:
256,192,373114,5,10,0:0:0:0:
256,192,373285,1,8,0:0:0:0:
256,192,373457,1,8,0:0:0:0:
256,192,373628,1,0,0:0:0:0:
256,192,373714,1,0,0:0:0:0:
256,192,373800,1,8,0:0:0:0:
256,192,373885,1,8,0:0:0:0:
256,192,373971,1,0,0:0:0:0:
256,191,374143,1,8,0:0:0:0:
256,191,374228,1,0,0:0:0:0:
256,191,374314,1,8,0:0:0:0:
256,191,374400,1,0,0:0:0:0:
256,191,374485,1,0,0:0:0:0:
256,191,374657,1,0,0:0:0:0:
256,191,374828,1,8,0:0:0:0:
256,191,375000,1,8,0:0:0:0:
256,191,375085,1,8,0:0:0:0:
256,191,375171,1,0,0:0:0:0:
256,192,375257,1,0,0:0:0:0:
256,191,375343,1,0,0:0:0:0:
256,191,375514,1,8,0:0:0:0:
256,191,375600,1,8,0:0:0:0:
256,191,375685,1,8,0:0:0:0:
256,191,375771,1,0,0:0:0:0:
256,191,375857,1,8,0:0:0:0:
256,191,376028,1,0,0:0:0:0:
256,191,376200,1,8,0:0:0:0:
256,191,376371,1,0,0:0:0:0:
256,191,376457,1,0,0:0:0:0:
256,191,376543,1,8,0:0:0:0:
256,192,376628,1,0,0:0:0:0:
256,191,376714,1,8,0:0:0:0:
256,191,376885,1,0,0:0:0:0:
256,191,377057,1,0,0:0:0:0:
256,191,377228,1,8,0:0:0:0:
256,191,377315,1,0,0:0:0:0:
256,191,377400,1,0,0:0:0:0:
256,191,377485,1,8,0:0:0:0:
256,191,377571,1,8,0:0:0:0:
256,191,377743,1,0,0:0:0:0:
256,191,377914,1,8,0:0:0:0:
256,191,378000,1,0,0:0:0:0:
256,191,378085,1,0,0:0:0:0:
256,191,378257,1,0,0:0:0:0:
256,191,378428,1,8,0:0:0:0:
256,191,378600,5,8,0:0:0:0:
256,191,378771,1,8,0:0:0:0:
256,191,378943,1,8,0:0:0:0:
256,191,379114,1,0,0:0:0:0:
256,191,379200,1,0,0:0:0:0:
256,191,379285,1,8,0:0:0:0:
256,191,379371,1,0,0:0:0:0:
256,191,379457,1,8,0:0:0:0:
256,191,379628,1,0,0:0:0:0:
256,191,379714,1,0,0:0:0:0:
256,191,379800,1,0,0:0:0:0:
256,191,379885,1,0,0:0:0:0:
256,191,379971,1,8,0:0:0:0:
256,191,380143,1,0,0:0:0:0:
256,191,380228,1,0,0:0:0:0:
256,191,380314,1,8,0:0:0:0:
256,191,380485,1,0,0:0:0:0:
256,191,380571,1,0,0:0:0:0:
256,191,380657,1,8,0:0:0:0:
256,191,380743,1,8,0:0:0:0:
256,191,380828,1,8,0:0:0:0:
256,191,381000,1,0,0:0:0:0:
256,191,381171,1,0,0:0:0:0:
260,193,381343,1,8,0:0:0:0:
260,193,381428,1,8,0:0:0:0:
260,193,381514,1,0,0:0:0:0:
260,193,381685,1,0,0:0:0:0:
257,194,381857,1,8,0:0:0:0:
260,193,381943,1,8,0:0:0:0:
257,194,382028,1,0,0:0:0:0:
257,194,382200,1,0,0:0:0:0:
257,194,382371,1,8,0:0:0:0:
257,194,382543,1,0,0:0:0:0:
257,194,382714,1,8,0:0:0:0:
260,193,382800,1,8,0:0:0:0:
257,194,382885,1,8,0:0:0:0:
257,194,383057,1,0,0:0:0:0:
258,194,383228,1,8,0:0:0:0:
260,193,383314,1,8,0:0:0:0:
262,191,383400,1,8,0:0:0:0:
262,191,383571,1,0,0:0:0:0:
260,194,383743,1,8,0:0:0:0:
260,194,383914,1,8,0:0:0:0:
260,194,384085,5,10,0:0:0:0:
255,193,384257,1,0,0:0:0:0:
255,193,384428,1,8,0:0:0:0:
255,193,384600,1,0,0:0:0:0:
255,193,384685,1,0,0:0:0:0:
255,193,384771,1,8,0:0:0:0:
255,193,384857,1,0,0:0:0:0:
255,193,384943,1,8,0:0:0:0:
255,193,385114,1,0,0:0:0:0:
255,193,385200,1,0,0:0:0:0:
255,193,385285,1,0,0:0:0:0:
255,193,385371,1,0,0:0:0:0:
255,193,385457,1,8,0:0:0:0:
255,193,385628,1,8,0:0:0:0:
255,193,385714,1,8,0:0:0:0:
255,193,385800,1,0,0:0:0:0:
255,193,385971,1,0,0:0:0:0:
255,193,386143,1,0,0:0:0:0:
255,193,386228,1,0,0:0:0:0:
255,193,386314,1,8,0:0:0:0:
256,192,386485,1,8,0:0:0:0:
256,192,386571,1,0,0:0:0:0:
255,193,386657,1,0,0:0:0:0:
256,192,386743,1,8,0:0:0:0:
255,193,386828,1,10,0:0:0:0:
255,193,387000,1,0,0:0:0:0:
255,193,387171,1,0,0:0:0:0:
255,193,387343,1,0,0:0:0:0:
255,193,387428,1,0,0:0:0:0:
255,193,387514,1,8,0:0:0:0:
255,193,387600,1,0,0:0:0:0:
255,193,387685,1,8,0:0:0:0:
255,193,387857,1,0,0:0:0:0:
255,193,387943,1,0,0:0:0:0:
255,193,388028,1,0,0:0:0:0:
255,193,388114,1,0,0:0:0:0:
255,193,388200,1,8,0:0:0:0:
255,193,388371,1,0,0:0:0:0:
255,193,388457,1,0,0:0:0:0:
255,193,388543,1,0,0:0:0:0:
255,193,388628,1,0,0:0:0:0:
257,190,388714,1,8,0:0:0:0:
255,193,388800,1,0,0:0:0:0:
257,190,388885,1,8,0:0:0:0:
255,193,388971,1,0,0:0:0:0:
257,190,389057,1,8,0:0:0:0:
255,193,389143,1,8,0:0:0:0:
257,190,389228,1,0,0:0:0:0:
255,193,389314,1,0,0:0:0:0:
257,190,389400,1,8,0:0:0:0:
255,193,389485,1,0,0:0:0:0:
257,190,389571,5,8,0:0:0:0:
257,190,389743,1,0,0:0:0:0:
257,190,389914,1,0,0:0:0:0:
257,190,390085,1,8,0:0:0:0:
257,190,390171,1,8,0:0:0:0:
257,190,390257,1,8,0:0:0:0:
257,190,390343,1,8,0:0:0:0:
257,190,390428,1,0,0:0:0:0:
261,190,390600,1,0,0:0:0:0:
261,190,390685,1,0,0:0:0:0:
261,190,390771,1,8,0:0:0:0:
261,190,390857,1,0,0:0:0:0:
261,190,390943,1,8,0:0:0:0:
261,190,391114,1,0,0:0:0:0:
261,190,391200,1,0,0:0:0:0:
261,190,391285,1,8,0:0:0:0:
261,190,391457,1,0,0:0:0:0:
261,190,391542,1,0,0:0:0:0:
261,190,391628,1,8,0:0:0:0:
261,190,391714,1,0,0:0:0:0:
261,190,391800,1,0,0:0:0:0:
256,192,391971,1,8,0:0:0:0:
256,192,392143,1,0,0:0:0:0:
256,192,392314,1,8,0:0:0:0:
256,192,392485,1,0,0:0:0:0:
256,192,392571,1,0,0:0:0:0:
256,192,392657,1,0,0:0:0:0:
256,192,392828,1,8,0:0:0:0:
256,192,393000,1,0,0:0:0:0:
256,192,393085,1,0,0:0:0:0:
256,192,393171,1,0,0:0:0:0:
256,192,393343,1,8,0:0:0:0:
256,192,393428,1,0,0:0:0:0:
256,192,393514,1,8,0:0:0:0:
256,192,393600,1,8,0:0:0:0:
256,192,393685,1,0,0:0:0:0:
257,192,393857,1,8,0:0:0:0:
256,192,393943,1,0,0:0:0:0:
257,192,394028,1,0,0:0:0:0:
257,192,394200,5,8,0:0:0:0:
257,192,394371,1,8,0:0:0:0:
257,192,394543,1,0,0:0:0:0:
257,192,394714,1,0,0:0:0:0:
257,192,394885,1,0,0:0:0:0:
257,192,394971,1,0,0:0:0:0:
257,192,395057,1,8,0:0:0:0:
257,192,395228,5,0,0:0:0:0:
257,192,395400,1,0,0:0:0:0:
257,192,395571,1,8,0:0:0:0:
257,192,395657,1,8,0:0:0:0:
257,192,395742,1,0,0:0:0:0:
257,192,395828,1,0,0:0:0:0:
257,192,395914,1,8,0:0:0:0:
257,192,396085,1,8,0:0:0:0:
257,192,396171,1,8,0:0:0:0:
257,192,396257,1,8,0:0:0:0:
257,192,396342,1,8,0:0:0:0:
257,192,396428,1,0,0:0:0:0:
257,192,396600,1,0,0:0:0:0:
257,192,396771,1,0,0:0:0:0:
257,192,396942,1,0,0:0:0:0:
257,192,397028,1,0,0:0:0:0:
257,192,397114,1,8,0:0:0:0:
256,192,397200,1,0,0:0:0:0:
257,192,397285,1,8,0:0:0:0:
257,192,397457,1,0,0:0:0:0:
256,192,397542,1,0,0:0:0:0:
272,192,397628,1,8,0:0:0:0:
272,192,397800,1,10,0:0:0:0:
272,192,397971,1,0,0:0:0:0:
272,192,398142,1,0,0:0:0:0:
272,192,398314,1,8,0:0:0:0:
272,192,398400,1,8,0:0:0:0:
272,192,398485,1,0,0:0:0:0:
272,192,398571,1,0,0:0:0:0:
272,192,398657,1,8,0:0:0:0:
260,192,398828,1,0,0:0:0:0:
260,192,398914,1,0,0:0:0:0:
260,192,399000,1,0,0:0:0:0:
260,192,399085,1,0,0:0:0:0:
260,192,399171,1,8,0:0:0:0:
260,192,399342,1,8,0:0:0:0:
260,192,399428,1,8,0:0:0:0:
260,192,399514,1,8,0:0:0:0:
260,192,399600,1,0,0:0:0:0:
260,192,399685,1,8,0:0:0:0:
260,192,399771,1,0,0:0:0:0:
260,192,399857,1,8,0:0:0:0:
260,192,399942,1,8,0:0:0:0:
260,192,400028,1,8,0:0:0:0:
260,192,400114,1,0,0:0:0:0:
260,192,400200,1,8,0:0:0:0:
260,192,400285,1,0,0:0:0:0:
260,192,400371,1,8,0:0:0:0:
260,192,400457,1,0,0:0:0:0:
260,192,400542,1,8,0:0:0:0:
260,192,400714,1,0,0:0:0:0:
260,192,400885,1,0,0:0:0:0:
260,192,401057,1,0,0:0:0:0:
260,192,401142,1,0,0:0:0:0:
260,192,401228,1,8,0:0:0:0:
260,192,401314,1,0,0:0:0:0:
260,192,401400,1,8,0:0:0:0:
260,192,401571,1,0,0:0:0:0:
260,192,401657,1,0,0:0:0:0:
260,192,401742,1,0,0:0:0:0:
260,192,401828,1,0,0:0:0:0:
260,192,401914,1,8,0:0:0:0:
260,192,402085,1,8,0:0:0:0:
260,192,402171,1,8,0:0:0:0:
260,192,402257,1,8,0:0:0:0:
260,192,402428,1,0,0:0:0:0:
260,192,402600,1,8,0:0:0:0:
256,192,402685,1,8,0:0:0:0:
260,192,402771,1,0,0:0:0:0:
260,192,402942,1,8,0:0:0:0:
260,192,403114,1,0,0:0:0:0:
260,192,403285,1,10,0:0:0:0:
260,192,403457,1,0,0:0:0:0:
260,192,403628,1,0,0:0:0:0:
260,192,403800,1,8,0:0:0:0:
260,192,403885,1,0,0:0:0:0:
260,192,403971,1,0,0:0:0:0:
260,192,404057,1,0,0:0:0:0:
260,192,404142,1,8,0:0:0:0:
260,192,404314,1,8,0:0:0:0:
260,192,404400,1,0,0:0:0:0:
260,192,404485,1,8,0:0:0:0:
260,192,404571,1,0,0:0:0:0:
260,192,404657,1,8,0:0:0:0:
260,192,404828,1,0,0:0:0:0:
260,192,404914,1,0,0:0:0:0:
260,192,405000,1,8,0:0:0:0:
260,192,405171,1,0,0:0:0:0:
260,192,405342,1,8,0:0:0:0:
260,192,405514,1,0,0:0:0:0:
260,192,405685,1,8,0:0:0:0:
260,192,405857,1,0,0:0:0:0:
260,192,406028,1,10,0:0:0:0:
260,192,406200,1,0,0:0:0:0:
260,192,406371,1,8,0:0:0:0:
260,192,406542,1,0,0:0:0:0:
260,192,406628,1,0,0:0:0:0:
260,192,406714,1,0,0:0:0:0:
260,192,406800,1,0,0:0:0:0:
260,192,406885,1,8,0:0:0:0:
260,192,407057,1,8,0:0:0:0:
260,192,407142,1,0,0:0:0:0:
260,192,407228,1,8,0:0:0:0:
260,192,407314,1,8,0:0:0:0:
260,192,407400,1,0,0:0:0:0:
260,192,407571,1,0,0:0:0:0:
260,192,407742,1,0,0:0:0:0:
260,192,407914,1,8,0:0:0:0:
260,192,408000,1,8,0:0:0:0:
260,192,408085,1,0,0:0:0:0:
260,192,408171,1,0,0:0:0:0:
260,192,408257,1,8,0:0:0:0:
260,192,408428,1,8,0:0:0:0:
260,192,408514,1,0,0:0:0:0:
260,192,408600,1,0,0:0:0:0:
260,192,408685,1,0,0:0:0:0:
256,192,408771,1,8,0:0:0:0:
256,192,408943,1,8,0:0:0:0:
256,192,409114,1,8,0:0:0:0:
256,192,409286,1,0,0:0:0:0:
256,192,409371,1,0,0:0:0:0:
256,192,409457,1,0,0:0:0:0:
256,192,409543,1,0,0:0:0:0:
256,192,409628,1,8,0:0:0:0:
256,192,409800,1,8,0:0:0:0:
256,192,409886,1,0,0:0:0:0:
256,192,409971,1,8,0:0:0:0:
256,192,410057,1,0,0:0:0:0:
256,192,410143,1,0,0:0:0:0:
256,192,410314,1,8,0:0:0:0:
256,192,410400,1,8,0:0:0:0:
256,192,410485,1,8,0:0:0:0:
256,192,410657,1,0,0:0:0:0:
256,192,410828,1,8,0:0:0:0:
256,192,411000,1,0,0:0:0:0:
256,192,411171,1,8,0:0:0:0:
256,192,411342,1,0,0:0:0:0:
256,192,411514,1,10,0:0:0:0:
256,192,411685,1,8,0:0:0:0:
256,192,411857,1,0,0:0:0:0:
256,192,412028,1,10,0:0:0:0:
256,192,412200,1,8,0:0:0:0:
256,192,412371,1,0,0:0:0:0:
256,192,412542,1,8,0:0:0:0:
256,192,412628,1,8,0:0:0:0:
256,192,412714,1,8,0:0:0:0:
256,192,412800,1,0,0:0:0:0:
256,192,412885,1,0,0:0:0:0:
256,192,413057,1,0,0:0:0:0:
256,192,413228,1,8,0:0:0:0:
256,192,413400,1,8,0:0:0:0:
256,192,413485,1,0,0:0:0:0:
256,192,413571,1,8,0:0:0:0:
256,192,413657,1,8,0:0:0:0:
256,192,413742,1,0,0:0:0:0:
256,192,413914,1,8,0:0:0:0:
256,192,414000,1,0,0:0:0:0:
256,192,414085,1,8,0:0:0:0:
256,192,414171,1,0,0:0:0:0:
256,192,414257,1,10,0:0:0:0:
256,192,414428,1,8,0:0:0:0:
256,192,414600,1,0,0:0:0:0:
256,192,414771,1,10,0:0:0:0:
256,192,414942,1,8,0:0:0:0:
256,192,415114,1,0,0:0:0:0:
256,192,415285,1,8,0:0:0:0:
256,192,415457,1,8,0:0:0:0:
256,192,415628,8,8,417000,0:0:0:0:
