osu file format v13

[General]
AudioFilename: Flat Foot Face.mp3
AudioLeadIn: 0
PreviewTime: 87592
Countdown: 0
SampleSet: Soft
StackLeniency: 0.7
Mode: 0
LetterboxInBreaks: 0
WidescreenStoryboard: 0

[Editor]
Bookmarks: 11040,22074,33109,165178
DistanceSpacing: 0.8
BeatDivisor: 2
GridSize: 4
TimelineZoom: 1

[Metadata]
Title:Flat Foot Face
TitleUnicode:Flat Foot Face
Artist:Stan SB
ArtistUnicode:Stan SB
Creator:Hullahopp
Version:Normal
Source:
Tags:
BeatmapID:553545
BeatmapSetID:233248

[Difficulty]
HPDrainRate:4
CircleSize:3.5
OverallDifficulty:4
ApproachRate:5
SliderMultiplier:1.4
SliderTickRate:1

[Events]
//Background and Video events
0,0,"cold-universe-HD-Wallpapers.jpg",0,0
//Break Periods
2,110553,120188
2,154691,176050
//Storyboard Layer 0 (Background)
//Storyboard Layer 1 (Fail)
//Storyboard Layer 2 (Pass)
//Storyboard Layer 3 (Foreground)
//Storyboard Sound Samples
//Background Colour Transformations
3,100,163,162,255

[TimingPoints]
6,344.827586206897,4,1,0,100,1,0
11040,-117.647058823529,4,2,1,40,0,0
22074,-117.647058823529,4,2,1,40,0,0
33109,-117.647058823529,4,1,1,40,0,0
44143,-117.647058823529,4,1,1,80,0,1
64833,-117.647058823529,4,2,0,60,0,0
77247,-117.647058823529,4,1,0,60,0,0
85006,-117.647058823529,4,2,0,10,0,0
87592,-117.647058823529,4,2,0,80,0,0
88281,-117.647058823529,4,1,0,80,0,1
108971,-117.647058823529,4,2,0,60,0,0
132419,-117.647058823529,4,1,0,80,0,1
153109,-117.647058823529,4,2,0,60,0,0
182074,-117.647058823529,4,2,0,80,0,1
202764,-117.647058823529,4,2,0,60,0,0
204143,-117.647058823529,4,1,0,80,0,1
220695,-117.647058823529,4,2,0,60,0,0

[Colours]
Combo1 : 66,66,255
Combo2 : 255,0,0
Combo3 : 108,0,217
Combo4 : 0,255,255
Combo5 : 0,255,0

[HitObjects]
256,192,16560,12,0,22077,0:0:0:0:
384,276,22767,6,0,P|400:176|292:116,1,238.00000453949
316,208,23802,2,0,P|204:132|224:48,1,238.00000453949
296,112,24836,1,0,0:0:0:0:
388,144,25181,1,0,0:0:0:0:
420,236,25526,2,0,B|348:248|312:200|312:200|256:236|188:192,1,238.00000453949
256,124,26560,5,0,0:0:0:0:
160,112,26905,2,0,P|112:164|104:216,1,119.000002269745
128,304,27595,1,0,0:0:0:0:
220,328,27940,6,0,B|220:300|220:300|232:240|232:240|232:196,1,119.000002269745
324,240,28629,2,0,B|324:212|324:212|336:152|336:152|336:108,1,119.000002269745
240,108,29319,2,0,B|240:136|240:136|228:196|228:196|228:240,1,119.000002269745
136,208,30009,2,0,B|136:236|136:236|124:296|124:296|124:340,1,119.000002269745
220,328,30698,1,0,0:0:0:0:
308,296,31043,6,0,B|340:276|340:276|372:240|372:240|404:220,2,119.000002269745,0|0|0,0:0|0:0|0:0,0:0:0:0:
376,112,33112,6,0,P|268:148|244:136,1,119.000002269745
224,68,33802,2,0,P|176:136|184:184,1,119.000002269745
140,256,34491,2,0,P|216:256|256:220,1,119.000002269745
344,232,35181,2,0,P|320:164|280:140,1,119.000002269745
188,124,35871,6,0,L|116:124,2,59.5000011348725,0|0|0,0:0|0:0|0:0,0:0:0:0:
284,124,36560,2,0,P|352:140|384:208,1,119.000002269745
408,268,37250,2,0,L|468:268,2,59.5000011348725,0|0|0,0:0|0:0|0:0,0:0:0:0:
316,248,37940,2,0,P|252:248|212:296,1,119.000002269745
292,340,38629,1,0,0:0:0:0:
256,192,38974,12,0,42767,0:0:0:0:
360,144,44146,6,0,P|256:196|152:144,1,238.00000453949
92,220,45181,1,0,0:0:0:0:
156,292,45526,2,0,P|216:324|268:316,1,119.000002269745
344,264,46215,2,0,P|384:196|376:144,1,119.000002269745
332,76,46905,2,0,P|220:24|112:72,1,238.00000453949
100,156,47940,1,0,0:0:0:0:
120,248,48284,6,0,P|168:308|220:316,1,119.000002269745
300,312,48974,2,0,P|376:280|396:232,1,119.000002269745
304,216,49664,6,0,B|220:136|220:136|128:216,1,238.00000453949
216,252,50698,1,0,0:0:0:0:
276,180,51043,2,0,P|208:156|160:176,1,119.000002269745
136,260,51733,2,0,P|76:208|76:152,1,119.000002269745
120,88,52422,2,0,P|228:60|340:116,1,238.00000453949
404,180,53457,5,0,0:0:0:0:
376,272,53802,2,0,P|320:228|312:172,1,119.000002269745
404,180,54491,2,0,L|456:136,4,59.5000011348725,0|0|0|0|0,0:0|0:0|0:0|0:0|0:0,0:0:0:0:
308,168,55526,5,0,0:0:0:0:
264,84,55871,2,0,P|212:152|216:188,1,119.000002269745
292,232,56560,2,0,P|208:276|172:264,1,119.000002269745
104,316,57250,2,0,P|100:232|124:204,1,119.000002269745
68,128,57940,6,0,P|192:140|212:240,1,238.00000453949
276,308,58974,1,0,0:0:0:0:
328,228,59319,6,0,P|362:121|473:121,1,238.00000453949
416,196,60353,1,0,0:0:0:0:
400,292,60698,2,0,P|328:328|284:316,1,119.000002269745
208,276,61388,2,0,P|156:224|152:172,1,119.000002269745
244,188,62077,6,0,L|312:156,4,59.5000011348725,0|0|0|0|0,0:0|0:0|0:0|0:0|0:0,0:0:0:0:
256,192,63112,12,0,66215,0:0:0:0:
324,160,66905,5,0,0:0:0:0:
252,224,67250,1,0,0:0:0:0:
164,260,67595,1,0,0:0:0:0:
100,332,67940,2,0,P|80:232|204:164,1,238.00000453949
276,164,68974,2,0,P|360:152|392:120,1,119.000002269745
308,76,69664,2,0,P|220:84|184:124,1,119.000002269745
112,64,70353,6,0,P|156:184|268:168,1,238.00000453949
332,132,71388,1,0,0:0:0:0:
424,148,71733,1,0,0:0:0:0:
456,236,72077,6,0,P|388:236|344:196,1,119.000002269745
288,276,72767,2,0,P|256:196|272:148,1,119.000002269745
256,72,73457,2,0,P|176:128|168:172,1,119.000002269745
92,92,74146,2,0,P|80:172|104:212,1,119.000002269745
164,272,74836,5,0,0:0:0:0:
248,232,75181,1,0,0:0:0:0:
316,300,75526,1,0,0:0:0:0:
392,244,75871,1,0,0:0:0:0:
56,64,77250,5,0,0:0:0:0:
152,68,77595,2,0,L|276:84,1,119.000002269745
322,167,78284,2,0,L|204:152,1,119.000002269745
136,220,78974,2,0,L|260:236,1,119.000002269745
348,260,79664,1,0,0:0:0:0:
276,324,80009,6,0,L|212:348,2,59.5000011348725,0|0|0,0:0|0:0|0:0,0:0:0:0:
228,240,80698,2,0,L|84:240,1,119.000002269745
140,152,81388,2,0,L|80:128,2,59.5000011348725,0|0|0,0:0|0:0|0:0,0:0:0:0:
228,116,82077,2,0,L|136:24,1,119.000002269745
256,192,82767,12,0,87595,0:0:0:0:
360,236,88284,6,0,P|332:108|240:80,1,238.00000453949
168,140,89319,1,0,0:0:0:0:
72,156,89664,2,0,P|104:220|148:236,1,119.000002269745
108,324,90353,2,0,P|196:316|220:296,1,119.000002269745
288,236,91043,6,0,B|396:152|288:120|444:36,1,238.00000453949
440,144,92077,1,0,0:0:0:0:
432,240,92422,2,0,P|372:316|352:324,1,119.000002269745
268,360,93112,2,0,P|164:340|152:324,1,119.000002269745
228,268,93802,6,0,P|184:172|272:88,1,238.00000453949
276,184,94836,1,0,0:0:0:0:
340,252,95181,2,0,P|368:192|352:128,1,119.000002269745
292,76,95871,2,0,P|264:136|288:200,1,119.000002269745
248,276,96560,6,0,B|168:276|168:276|120:304,1,119.000002269745
108,204,97250,2,0,B|141:184|141:184|221:184,1,119.000002269745
316,184,97940,1,0,0:0:0:0:
412,184,98284,1,0,0:0:0:0:
364,100,98629,6,0,L|364:32,4,59.5000011348725,0|0|0|0|0,0:0|0:0|0:0|0:0|0:0,0:0:0:0:
268,100,99664,1,0,0:0:0:0:
172,100,100009,2,0,P|120:120|96:176,1,119.000002269745
192,192,100698,2,0,P|208:264|248:288,1,119.000002269745
288,204,101388,6,0,P|396:196|424:80,1,238.00000453949
336,120,102422,1,0,0:0:0:0:
244,92,102767,1,0,0:0:0:0:
152,116,103112,1,0,0:0:0:0:
108,200,103457,6,0,P|88:280|112:324,1,119.000002269745
184,260,104146,2,0,P|220:312|288:320,1,119.000002269745
272,228,104836,1,0,0:0:0:0:
364,208,105181,2,0,P|316:144|268:132,1,119.000002269745
184,132,105871,1,0,0:0:0:0:
104,80,106215,6,0,P|92:152|112:196,1,119.000002269745
176,260,106905,1,0,0:0:0:0:
268,288,107250,1,0,0:0:0:0:
256,192,107595,12,0,110353,0:0:0:0:
400,272,121388,6,0,P|344:304|288:296,1,119.000002269745
328,208,122077,2,0,P|244:212|216:236,1,119.000002269745
156,304,122767,2,0,P|124:240|132:192,1,119.000002269745
196,124,123457,2,0,P|228:188|216:240,1,119.000002269745
292,296,124146,6,0,L|344:348,2,59.5000011348725,0|0|0,0:0|0:0|0:0,0:0:0:0:
368,236,124836,2,0,L|276:144,1,119.000002269745
188,164,125526,2,0,L|136:112,2,59.5000011348725,0|0|0,0:0|0:0|0:0,0:0:0:0:
112,220,126215,2,0,L|196:304,1,119.000002269745
256,192,126905,12,0,129664,0:0:0:0:
256,192,131733,5,0,0:0:0:0:
436,252,132422,6,0,P|456:192|440:128,1,119.000002269745
360,188,133112,2,0,P|328:116|292:96,1,119.000002269745
268,188,133802,2,0,P|188:156|148:168,1,119.000002269745
196,252,134491,2,0,P|312:272|364:180,1,238.00000453949
432,112,135526,6,0,P|356:84|320:96,1,119.000002269745
244,144,136215,2,0,P|200:188|196:248,1,119.000002269745
288,228,136905,1,0,0:0:0:0:
300,324,137250,2,0,P|384:232|336:144,1,238.00000453949
248,112,138284,5,0,0:0:0:0:
180,180,138629,2,0,L|60:176,1,119.000002269745
112,256,139319,2,0,L|232:260,1,119.000002269745
308,316,140009,2,0,P|320:228|304:200,1,119.000002269745
404,208,140698,2,0,P|336:112|228:148,1,238.00000453949
168,212,141733,5,0,0:0:0:0:
148,304,142077,2,0,P|80:248|76:204,1,119.000002269745
76,128,142767,2,0,L|76:44,4,59.5000011348725,0|0|0|0|0,0:0|0:0|0:0|0:0|0:0,0:0:0:0:
172,128,143802,1,0,0:0:0:0:
264,148,144146,1,0,0:0:0:0:
332,216,144491,1,0,0:0:0:0:
328,312,144836,6,0,P|428:216|392:140,1,238.00000453949
312,96,145871,1,0,0:0:0:0:
220,112,146215,1,0,0:0:0:0:
156,180,146560,1,0,0:0:0:0:
64,212,146905,2,0,P|120:272|160:276,1,119.000002269745
248,268,147595,6,0,P|372:216|440:112,1,238.00000453949
412,40,148629,1,0,0:0:0:0:
336,100,148974,2,0,P|276:160|228:168,1,119.000002269745
244,72,149664,2,0,P|180:96|152:144,1,119.000002269745
64,172,150353,6,0,P|128:232|168:232,1,119.000002269745
252,224,151043,2,0,P|312:244|344:300,1,119.000002269745
256,192,151733,12,0,154491,0:0:0:0:
256,192,177250,12,0,181388,0:0:0:0:
360,308,182077,6,0,B|332:280|328:220|328:220|224:240|192:124,1,238.00000453949
296,128,183112,1,0,0:0:0:0:
328,40,183457,2,0,P|384:96|388:132,1,119.000002269745
372,224,184146,2,0,P|312:296|288:300,1,119.000002269745
200,284,184836,6,0,B|216:220|284:208|284:208|340:132|284:56,1,238.00000453949
220,136,185871,1,0,0:0:0:0:
124,140,186215,2,0,P|152:64|200:40,2,119.000002269745,0|0|0,0:0|0:0|0:0,0:0:0:0:
132,236,187250,1,0,0:0:0:0:
200,300,187595,6,0,P|288:340|380:252,1,238.00000453949
284,252,188629,1,0,0:0:0:0:
316,164,188974,2,0,P|240:168|204:204,1,119.000002269745
152,120,189664,2,0,P|116:192|124:236,1,119.000002269745
172,308,190353,6,0,B|228:308|228:308|268:348|268:348|332:348|332:348|372:308|372:308|376:308|376:308,1,238.00000453949
300,252,191388,1,0,0:0:0:0:
360,180,191733,2,0,P|304:156|244:176,1,119.000002269745
232,264,192422,6,0,P|156:164|216:84,1,238.00000453949
300,52,193457,1,0,0:0:0:0:
392,72,193802,2,0,P|447:168|371:250,1,238.00000453949
280,276,194836,1,0,0:0:0:0:
184,264,195181,6,0,P|100:204|128:84,1,238.00000453949
176,168,196215,1,0,0:0:0:0:
260,212,196560,1,0,0:0:0:0:
268,308,196905,1,0,0:0:0:0:
360,332,197250,6,0,L|400:80,2,238.00000453949,0|0|0,0:0|0:0|0:0,0:0:0:0:
264,320,198974,1,0,0:0:0:0:
172,300,199319,1,0,0:0:0:0:
124,216,199664,1,0,0:0:0:0:
76,132,200009,2,0,P|160:128|196:152,1,119.000002269745
256,80,200698,2,0,P|280:156|264:196,1,119.000002269745
256,192,201388,12,8,203457,0:0:0:0:
392,84,204146,6,0,B|392:132|392:132|372:276|372:276|372:336,1,238.00000453949
284,288,205181,1,0,0:0:0:0:
212,352,205526,2,0,P|192:264|216:220,1,119.000002269745
108,244,206215,2,0,P|172:152|288:208,1,238.00000453949
352,244,207250,5,0,0:0:0:0:
440,284,207595,2,0,P|432:204|404:176,1,119.000002269745
444,92,208284,2,0,P|364:96|324:132,1,119.000002269745
260,60,208974,2,0,P|260:176|372:204,1,238.00000453949
312,288,210009,5,0,0:0:0:0:
216,300,210353,1,0,0:0:0:0:
128,264,210698,1,0,0:0:0:0:
88,176,211043,1,0,0:0:0:0:
96,80,211388,2,0,P|168:124|184:160,1,119.000002269745
260,100,212077,6,0,P|276:160|248:220,1,119.000002269745
164,244,212767,1,0,0:0:0:0:
88,300,213112,2,0,P|136:336|204:328,1,119.000002269745
280,292,213802,2,0,P|332:248|336:188,1,119.000002269745
304,112,214491,6,0,L|304:48,4,59.5000011348725,0|0|0|0|0,0:0|0:0|0:0|0:0|0:0,0:0:0:0:
212,128,215526,5,0,0:0:0:0:
116,112,215871,2,0,P|128:180|180:220,1,119.000002269745
108,288,216560,2,0,B|164:300|164:300|288:276|288:276|344:288,2,238.00000453949,0|0|0,0:0|0:0|0:0,0:0:0:0:
168,212,218284,5,0,0:0:0:0:
228,136,218629,1,0,0:0:0:0:
316,100,218974,1,0,0:0:0:0:
408,80,219319,6,0,B|392:136|392:136|316:244|316:244|300:296,2,238.00000453949,0|0|0,0:0|0:0|0:0,0:0:0:0:
256,192,221043,12,0,225526,0:0:0:0:
