osu file format v14

[General]
AudioFilename: audio.mp3
AudioLeadIn: 0
PreviewTime: 152599
Countdown: 1
SampleSet: Drum
StackLeniency: 0.4
Mode: 0
LetterboxInBreaks: 0
WidescreenStoryboard: 1

[Editor]
Bookmarks: 11084,33027,54970,65941,76913,98855,120798,142741,153713,175655,197598,219541,241484,252455,274398,296341,312798,318284,340227,362170
DistanceSpacing: 1.7
BeatDivisor: 4
GridSize: 16
TimelineZoom: 3.099999

[Metadata]
Title:Dead
TitleUnicode:Dead
Artist:Stan SB
ArtistUnicode:Stan SB
Creator:Flevius
Version:Reincarnation
Source:
Tags:Fox Stevenson Liquicity Drum and Bass marathon DnB Anyone Out There edm electronic english
BeatmapID:4050090
BeatmapSetID:679946

[Difficulty]
HPDrainRate:4
CircleSize:4.2
OverallDifficulty:8.8
ApproachRate:9.3
SliderMultiplier:1.8
SliderTickRate:1

[Events]
//Background and Video events
0,0,"balance_by_ryky_dbpddyo.png",0,0
//Break Periods
2,274598,295101
//Storyboard Layer 0 (Background)
//Storyboard Layer 1 (Fail)
//Storyboard Layer 2 (Pass)
//Storyboard Layer 3 (Foreground)
//Storyboard Layer 4 (Overlay)
//Storyboard Sound Samples

[TimingPoints]
113,342.857142857143,4,2,0,30,1,0
113,-142.857142857143,4,2,0,30,0,0
8341,-142.857142857143,4,2,0,30,0,0
9027,-200,4,2,0,20,0,0
9713,-142.857142857143,4,2,0,40,0,0
10398,-142.857142857143,4,2,0,30,0,0
10827,-142.857142857143,4,2,0,5,0,0
10913,-142.857142857143,4,2,0,30,0,0
11084,-142.857142857143,4,2,0,40,0,0
13827,-142.857142857143,4,2,0,40,0,0
14341,-199.999999999999,4,2,0,40,0,0
14855,-111.111111111111,4,2,0,40,0,0
15884,-142.857142857143,4,2,0,40,0,0
16827,-142.857142857143,4,2,0,5,0,0
16913,-142.857142857143,4,2,0,40,0,0
18627,-199.999999999999,4,2,0,40,0,0
18884,-200,4,2,0,5,0,0
18970,-142.857142857143,4,2,0,40,0,0
23770,-142.857142857143,4,2,0,40,0,0
24027,-142.857142857143,4,2,0,5,0,0
24113,-200,4,2,0,40,0,0
24370,-200,4,2,0,5,0,0
24455,-111.111111111111,4,2,0,40,0,0
24713,-111.111111111111,4,2,0,5,0,0
24798,-142.857142857143,4,2,0,40,0,0
26084,-142.857142857143,4,2,0,5,0,0
26170,-142.857142857143,4,2,0,40,0,0
27198,-200,4,2,0,30,0,0
29941,-199.999999999999,4,2,0,30,0,0
30627,-142.857142857143,4,2,0,30,0,0
31655,-111.111111111111,4,2,0,20,0,0
33027,-125,4,2,0,50,0,0
34741,-125,4,2,0,30,0,0
35084,-166.666666666667,4,2,0,50,0,0
35941,-125,4,2,0,50,0,0
37484,-125,4,2,0,30,0,0
37827,-166.666666666667,4,2,0,50,0,0
38084,-166.666666666667,4,2,0,5,0,0
38170,-125,4,2,0,50,0,0
38427,-125,4,2,0,5,0,0
38513,-125,4,2,0,50,0,0
40141,-125,4,2,0,5,0,0
40227,-166.666666666667,4,2,0,50,0,0
40913,-111.111111111111,4,2,0,50,0,0
41513,-111.111111111111,4,2,0,5,0,0
41598,-142.857142857143,4,2,0,50,0,0
43313,-111.111111111111,4,2,0,60,0,0
43998,-111.111111111111,4,2,0,60,0,0
46055,-166.666666666666,4,2,0,60,0,0
46655,-111.111111111111,4,2,0,5,0,0
46741,-111.111111111111,4,2,0,60,0,0
50513,-142.857142857143,4,2,0,60,0,0
51884,-1000,4,2,0,50,0,0
52913,-1000,4,2,0,40,0,0
53255,-1000,4,2,0,30,0,0
53598,-1000,4,2,0,20,0,0
53684,-1000,4,2,0,50,0,0
54798,-1000,4,2,0,10,0,0
54970,-100,4,2,1,50,0,0
65598,-100,4,2,1,60,0,0
67998,-100,4,2,1,70,0,0
70741,-100,4,2,1,80,0,0
74170,-100,4,2,1,90,0,0
75713,-100,4,2,1,95,0,0
76227,-100,4,2,1,100,0,0
76913,-71.4285714285714,4,3,1,85,0,1
79655,-83.3333333333333,4,3,1,85,0,1
82398,-71.4285714285714,4,3,1,85,0,1
87798,-71.4285714285714,4,3,1,40,0,1
87884,-71.4285714285714,4,3,1,85,0,1
90627,-83.3333333333333,4,3,1,85,0,1
93370,-71.4285714285714,4,3,1,85,0,1
96113,-71.4285714285714,4,3,1,95,0,1
98513,-71.4285714285714,4,2,1,85,0,0
98855,-71.4285714285714,4,3,1,85,0,1
100913,-55.5555555555556,4,3,1,85,0,1
101255,-71.4285714285714,4,3,1,85,0,1
104341,-55.5555555555556,4,3,1,85,0,1
104684,-71.4285714285714,4,3,1,85,0,1
109827,-55.5555555555556,4,3,1,85,0,1
110341,-71.4285714285714,4,3,1,85,0,1
118055,-83.3333333333333,4,2,1,70,0,0
118741,-83.3333333333333,4,2,1,50,0,0
119427,-83.3333333333333,4,2,1,30,0,0
120113,-125,4,2,1,50,0,0
120455,-100,4,2,1,60,0,0
129370,-100,4,2,1,60,0,0
131941,-100,4,2,1,60,0,0
141884,-100,4,2,1,80,0,0
142741,-100,4,2,1,60,0,0
146513,-100,4,2,1,75,0,0
149255,-100,4,2,1,80,0,0
150627,-100,4,2,1,90,0,0
151655,-100,4,2,1,95,0,0
151998,-100,4,2,1,100,0,0
153370,-100,4,3,1,85,0,0
153713,-71.4285714285714,4,3,1,85,0,1
155770,-55.5555555555556,4,3,1,85,0,1
156113,-71.4285714285714,4,3,1,85,0,1
159198,-55.5555555555556,4,3,1,85,0,1
159541,-71.4285714285714,4,3,1,85,0,1
164684,-55.5555555555556,4,3,1,85,0,1
165198,-71.4285714285714,4,3,1,85,0,1
172913,-83.3333333333333,4,2,1,70,0,0
173599,-83.3333333333333,4,2,1,50,0,0
174285,-83.3333333333333,4,2,1,30,0,0
174970,-125,4,2,1,50,0,0
175313,-100,4,2,1,60,0,0
175655,-71.4285714285714,4,3,1,85,0,1
178398,-83.3333333333333,4,3,1,85,0,1
181141,-71.4285714285714,4,3,1,85,0,1
186541,-71.4285714285714,4,3,1,40,0,1
186627,-71.4285714285714,4,3,1,85,0,1
189370,-83.3333333333333,4,3,1,85,0,1
192113,-71.4285714285714,4,3,1,85,0,1
194855,-71.4285714285714,4,2,1,70,0,0
197255,-100,4,2,1,70,0,0
197598,-125,4,2,1,50,0,0
216455,-142.857142857143,4,2,1,40,0,0
216798,-200,4,2,1,30,0,0
218513,-100,4,2,1,70,0,0
218855,-100,4,2,1,80,0,0
219198,-100,4,2,1,90,0,0
219370,-100,4,2,1,50,0,0
219541,-100,4,2,1,60,0,0
228113,-100,4,2,1,60,0,0
230684,-100,4,2,1,60,0,0
239427,-111.111111111111,4,2,1,30,0,0
241484,-100,4,2,1,60,0,0
245255,-100,4,2,1,75,0,0
247998,-100,4,2,1,80,0,0
249370,-100,4,2,1,90,0,0
250398,-100,4,2,1,95,0,0
250741,-100,4,2,1,100,0,0
252455,-71.4285714285714,4,3,1,85,0,1
254513,-55.5555555555556,4,3,1,85,0,1
254855,-71.4285714285714,4,3,1,85,0,1
257941,-55.5555555555556,4,3,1,85,0,1
258284,-71.4285714285714,4,3,1,85,0,1
263427,-55.5555555555556,4,3,1,85,0,1
263941,-71.4285714285714,4,3,1,85,0,1
271655,-83.3333333333333,4,2,1,70,0,0
272341,-83.3333333333333,4,2,1,50,0,0
273027,-83.3333333333333,4,2,1,30,0,0
273713,-125,4,2,1,30,0,0
274398,-125,4,2,1,50,0,0
295655,-125,4,2,1,50,0,0
299084,-125,4,2,1,50,0,0
307313,-100,4,2,1,60,0,0
310055,-100,4,2,1,65,0,0
312798,-83.3333333333333,4,2,1,70,0,0
315198,-83.3333333333333,4,2,1,90,0,0
317255,-83.3333333333333,4,2,1,100,0,0
318284,-62.5,4,3,1,90,0,1
321027,-71.4285714285714,4,3,1,90,0,1
323770,-62.5,4,3,1,90,0,1
331998,-71.4285714285714,4,3,1,90,0,1
334741,-62.5,4,3,1,90,0,1
337484,-62.5,4,3,1,100,0,1
340227,-50,4,3,1,95,0,1
340570,-62.5,4,3,1,95,0,1
342284,-50,4,3,1,95,0,1
342455,-62.5,4,3,1,95,0,1
345713,-50,4,3,1,95,0,1
346055,-62.5,4,3,1,95,0,1
351198,-50,4,3,1,95,0,1
351713,-62.5,4,3,1,95,0,1
361141,-83.3333333333333,4,3,1,65,0,1
362170,-111.111111111111,4,2,0,30,0,0
370398,-153.846153846154,4,2,0,25,0,0
371084,-166.666666666667,4,2,0,20,0,0
371770,-181.818181818182,4,2,0,15,0,0
372455,-200,4,2,0,10,0,0
373141,-222.222222222222,4,2,0,20,0,0
373827,-222.222222222222,4,2,0,15,0,0
374513,-222.222222222222,4,2,0,10,0,0
375198,-222.222222222222,4,2,0,5,0,0

[Colours]
Combo1 : 0,159,96
Combo2 : 89,89,255
Combo3 : 255,117,186
Combo4 : 255,26,26

[HitObjects]
179,292,113,6,0,P|233:320|309:298,1,125.999996154785,2|0,0:0|0:0,0:0:0:0:
285,161,627,2,0,P|250:148|209:154,1,62.9999980773926,0|2,0:0|0:0,0:0:0:0:
161,201,970,1,0,0:0:0:0:
239,231,1141,1,0,0:0:0:0:
224,149,1313,1,0,0:0:0:0:
209,67,1484,5,2,0:0:0:0:
146,119,1655,1,0,0:0:0:0:
83,171,1827,2,0,P|78:223|122:277,1,125.999996154785,0|2,0:0|0:0,0:0:0:0:
269,321,2513,1,0,0:0:0:0:
271,340,2855,6,0,B|332:347|406:327,1,125.999996154785,2|0,0:0|0:0,0:0:0:0:
481,305,3370,1,0,0:0:0:0:
511,177,3541,2,0,P|485:199|471:229,1,62.9999980773926,2|0,0:0|0:0,0:0:0:0:
485,320,3884,1,0,0:0:0:0:
341,211,4227,5,2,0:0:0:0:
334,224,4570,1,0,0:0:0:0:
141,234,4913,1,2,0:0:0:0:
151,243,5255,1,0,0:0:0:0:
261,133,5598,6,0,P|230:198|249:269,1,125.999996154785,2|0,0:0|0:0,0:0:0:0:
326,209,6113,2,0,P|344:178|378:158,1,62.9999980773926,0|2,0:0|0:0,0:0:0:0:
446,127,6455,1,0,0:0:0:0:
505,192,6627,1,0,0:0:0:0:
479,276,6798,1,0,0:0:0:0:
415,213,6970,5,2,0:0:0:0:
383,295,7141,1,0,0:0:0:0:
320,237,7313,2,0,P|311:177|353:127,1,125.999996154785,0|2,0:0|0:0,0:0:0:0:
512,93,7998,1,0,0:0:0:0:
506,76,8341,6,0,P|474:32|406:16,1,125.999996154785,2|0,0:0|0:0,0:0:0:0:
247,65,9027,2,0,P|229:116|236:170,1,90,2|0,0:0|0:0,0:0:0:0:
411,191,9713,2,0,B|437:236|428:267|428:267|392:266|367:290,1,125.999996154785,2|0,0:0|0:0,0:0:0:0:
153,201,10398,1,2,0:0:0:0:
179,315,10570,2,0,P|223:312|263:269,1,94.499997116089
268,262,10913,1,0,0:0:0:0:
445,115,11084,6,0,B|419:129|379:116|379:116|335:139|300:128,2,125.999996154785,6|0|2,0:0|0:0|0:0,0:0:0:0:
495,184,12113,1,0,0:0:0:0:
417,43,12455,1,2,0:0:0:0:
197,67,12798,5,0,0:0:0:0:
154,186,13141,1,2,0:0:0:0:
53,45,13484,1,0,0:0:0:0:
66,268,13827,6,0,P|118:290|184:273,1,125.999996154785,2|0,0:0|0:0,0:0:0:0:
283,185,14341,2,0,P|288:214|241:195,1,90,0|0,2:0|2:0,2:0:0:0:
168,99,14855,2,0,B|112:108|101:177|138:196|138:196|144:174|159:164,1,161.999995056153,0|2,0:0|2:0,2:0:0:0:
180,346,15541,5,0,0:0:0:0:
152,169,15884,1,2,0:0:0:0:
242,211,16227,1,0,0:0:0:0:
200,355,16570,6,0,P|232:374|289:373,1,94.499997116089,2|0,0:0|0:0,0:0:0:0:
303,365,16913,1,0,0:0:0:0:
384,274,17084,2,0,L|391:191,1,62.9999980773926,0|2,0:0|0:0,0:0:0:0:
462,62,17598,1,0,0:0:0:0:
300,71,17941,6,0,B|237:82|238:43|172:67,1,125.999996154785,2|0,0:0|0:0,0:0:0:0:
95,127,18455,1,0,0:0:0:0:
158,208,18627,2,0,P|184:231|220:235,1,67.5,2|0,2:0|2:0,2:0:0:0:
283,270,18970,6,0,L|135:281,2,125.999996154785,0|2|0,0:0|0:0|0:0,0:0:0:0:
360,174,19998,1,2,0:0:0:0:
343,167,20341,1,0,0:0:0:0:
350,323,20684,1,2,0:0:0:0:
366,330,21027,1,0,0:0:0:0:
190,201,21370,5,2,0:0:0:0:
274,223,21541,2,0,L|190:215,1,62.9999980773926
165,108,21884,1,0,0:0:0:0:
249,130,22055,2,0,L|165:122,1,62.9999980773926,2|0,0:0|0:0,0:0:0:0:
118,202,22398,2,0,P|94:184|79:156,1,62.9999980773926
92,32,22741,6,0,B|86:58|66:74|66:74|30:87|5:118,1,125.999996154785,2|0,0:0|0:0,0:0:0:0:
237,233,23427,1,2,0:0:0:0:
237,233,23598,1,0,0:0:0:0:
180,168,23770,2,0,P|136:178|95:227,1,94.499997116089
59,283,24113,2,0,L|133:289,1,67.5,2|0,0:0|0:0,0:0:0:0:
168,353,24455,2,0,B|189:341|198:320|198:320|240:296|292:339,1,121.499996292114
334,370,24798,5,2,0:0:0:0:
413,301,24970,2,0,P|429:274|434:243,1,62.9999980773926
386,144,25313,2,0,L|379:64,1,62.9999980773926,0|2,0:0|0:0,0:0:0:0:
377,65,25827,6,0,P|333:94|279:85,1,94.499997116089
254,40,26170,2,0,L|240:194,1,125.999996154785,2|0,0:0|0:0,0:0:0:0:
57,236,26855,1,2,0:0:0:0:
74,243,27198,2,0,P|109:215|124:161,2,90,0|2|0,0:0|0:0|0:0,0:0:0:0:
90,63,28227,1,2,0:0:0:0:
195,117,28570,2,0,B|228:97|228:97|236:76|229:31,2,90,0|2|0,0:0|0:0|0:0,0:0:0:0:
174,230,29598,1,2,0:0:0:0:
349,107,29941,6,0,P|378:134|334:138,1,90,0|2,0:0|0:0,0:0:0:0:
254,133,30455,1,0,0:0:0:0:
256,230,30627,2,0,P|281:287|352:332,1,125.999996154785,0|2,0:0|0:0,0:0:0:0:
432,344,31141,1,0,0:0:0:0:
455,188,31313,1,0,0:0:0:0:
253,77,31655,5,2,0:0:0:0:
368,52,31827,1,0,0:0:0:0:
320,227,31998,1,0,0:0:0:0:
84,227,32341,5,2,0:0:0:0:
96,238,32684,1,0,0:0:0:0:
108,246,33027,6,0,B|169:269|249:217|249:217|187:209|126:139|126:139|47:159|-33:240|36:316|75:328|75:328|127:321|167:334|167:334|248:312,1,720,6|0,0:0|0:0,0:0:0:0:
398,384,35084,2,0,P|397:343|369:283,1,107.999996704102,2|0,2:0|2:0,2:0:0:0:
313,192,35770,5,2,0:0:0:0:
313,192,35941,2,0,B|368:189|416:113|416:113|407:-9|548:-21|598:94|515:196|416:113|416:113|334:39|264:93,1,648
183,0,37827,6,0,P|161:40|165:91,1,80.9999975280763,2|0,0:0|0:0,0:0:0:0:
168,134,38170,2,0,P|138:90|64:91,1,108
67,88,38513,5,2,0:0:0:0:
85,177,38684,2,0,P|48:190|2:286,1,144
152,295,39198,2,0,P|117:290|91:267,1,72,2|0,0:0|0:0,0:0:0:0:
161,200,39541,6,0,B|189:140|263:140|263:140|274:214|206:265,1,252
208,276,40227,2,0,P|247:310|316:316,1,107.999996704102,0|2,0:0|0:0,0:0:0:0:
443,201,40913,6,0,B|423:145|444:127|465:113|486:71|486:71|435:7|349:28,1,283.499991348267
348,27,41598,2,0,B|289:36|256:93|256:93|219:36|156:29|156:29|124:105|191:164,1,377.999988464356,0|2,0:0|0:0,0:0:0:0:
118,227,43313,5,2,0:0:0:0:
119,241,43655,1,0,0:0:0:0:
121,255,43998,2,0,P|175:310|257:301,1,161.999995056153,2|0,0:0|0:0,0:0:0:0:
285,231,44513,1,0,0:0:0:0:
333,165,44684,2,0,P|256:155|205:214,1,161.999995056153,2|0,0:0|0:0,0:0:0:0:
237,288,45198,1,0,0:0:0:0:
182,348,45370,6,0,P|272:362|320:293,1,161.999995056153,2|0,0:0|0:0,0:0:0:0:
311,227,45884,1,0,0:0:0:0:
319,135,46055,2,0,P|233:177|227:263,1,188.999994232178,2|0,0:0|0:0,0:0:0:0:
238,276,46741,5,2,0:0:0:0:
317,249,46913,2,0,P|304:325|232:361,1,161.999995056153
163,343,47427,1,2,0:0:0:0:
142,166,47770,1,0,0:0:0:0:
60,139,47941,2,0,P|113:82|190:95,1,161.999995056153,0|0,0:0|0:0,0:3:0:0:
235,161,48455,1,0,0:0:0:0:
411,62,48798,6,0,P|434:99|448:140,1,80.9999975280763,2|0,0:0|0:0,0:0:0:0:
385,306,49141,2,0,P|415:273|435:235,1,80.9999975280763
353,133,49484,2,0,B|329:172|338:214|338:214|293:206|263:230,2,161.999995056153,2|0|2,0:0|0:0|0:0,0:0:0:0:
237,17,50513,2,0,P|172:24|116:62,1,125.999996154785,0|2,0:0|0:0,0:0:0:0:
214,145,51198,2,0,P|162:180|133:235,1,125.999996154785,0|2,0:0|0:0,0:0:0:0:
337,285,51884,6,0,B|366:303|366:303|387:288|418:288,1,90
256,192,53684,12,0,54798,0:0:0:0:
320,268,54970,5,6,0:0:0:0:
235,295,55141,2,0,P|279:302|337:274,1,90,2|0,0:0|0:0,0:0:0:0:
425,175,55484,1,2,0:0:0:0:
512,204,55655,2,0,P|468:211|410:183,1,90,2|0,0:0|0:0,0:0:0:0:
277,53,55998,5,2,0:0:0:0:
365,25,56170,2,0,P|321:18|263:46,1,90,2|0,0:0|0:0,0:0:0:0:
181,141,56513,1,2,0:0:0:0:
94,113,56684,2,0,P|138:106|196:134,1,90,2|0,0:0|0:0,0:0:0:0:
262,269,57027,5,2,0:0:0:0:
274,111,57198,1,2,0:0:0:0:
174,319,57370,1,2,0:0:0:0:
342,214,57541,1,2,0:0:0:0:
344,205,57627,1,0,0:0:0:0:
346,196,57713,5,2,0:0:0:0:
259,189,57884,2,0,L|365:179,1,90,2|0,0:0|0:0,0:0:0:0:
425,90,58227,1,2,0:0:0:0:
512,83,58398,2,0,L|406:73,1,90,2|0,0:0|0:0,0:0:0:0:
217,24,58741,5,2,0:0:0:0:
304,17,58913,2,0,L|198:7,1,90,2|0,0:0|0:0,0:0:0:0:
72,123,59255,1,2,0:0:0:0:
159,116,59427,2,0,L|53:106,1,90,2|0,0:0|0:0,0:0:0:0:
0,232,59770,5,2,0:0:0:0:
14,49,59941,1,2,0:0:0:0:
141,196,60113,1,2,0:0:0:0:
180,0,60284,2,0,P|210:0|239:13,1,45,2|0,0:0|0:0,0:0:0:0:
377,56,60455,5,2,0:0:0:0:
365,157,60627,2,0,P|388:118|385:53,1,90,2|0,0:0|0:0,0:0:0:0:
260,126,60970,1,2,0:0:0:0:
272,227,61141,2,0,P|249:188|252:123,1,90,2|0,0:0|0:0,0:0:0:0:
439,200,61484,5,2,0:0:0:0:
427,301,61655,2,0,P|450:262|447:197,1,90,2|0,0:0|0:0,0:0:0:0:
211,276,61998,1,2,0:0:0:0:
223,377,62170,2,0,P|200:338|203:273,1,90,2|0,0:0|0:0,0:0:0:0:
305,199,62513,5,2,0:0:0:0:
159,148,62684,1,2,0:0:0:0:
346,80,62855,1,2,0:0:0:0:
195,26,63027,1,2,0:0:0:0:
187,21,63113,1,0,0:0:0:0:
179,15,63198,5,2,0:0:0:0:
92,8,63370,2,0,L|198:-2,1,90,2|0,0:0|0:0,0:0:0:0:
194,156,63713,5,2,0:0:0:0:
281,149,63884,2,0,L|175:139,1,90,2|0,0:0|0:0,0:0:0:0:
52,283,64227,5,2,0:0:0:0:
139,290,64398,2,0,L|33:300,1,90,2|0,0:0|0:0,0:0:0:0:
0,179,64741,1,2,0:0:0:0:
104,368,64913,1,2,0:0:0:0:
132,168,65084,1,2,0:0:0:0:
250,234,65255,1,2,0:0:0:0:
118,75,65427,2,0,P|135:50|160:33,1,45,2|0,0:0|0:0,0:0:0:0:
270,23,65598,6,0,P|265:85|211:136,1,135,2|0,0:0|0:0,0:0:0:0:
58,137,65941,5,14,0:0:0:0:
58,137,66027,1,0,0:0:0:0:
58,137,66113,2,0,L|-8:143,3,45,2|0|0|0,0:0|0:0|0:0|0:0,0:0:0:0:
151,235,66455,1,2,0:0:0:0:
151,235,66541,1,0,0:0:0:0:
151,235,66627,2,0,L|216:241,3,45,2|0|0|0,0:0|0:0|0:0|0:0,0:0:0:0:
39,294,66970,5,2,0:0:0:0:
39,294,67055,1,0,0:0:0:0:
39,294,67141,2,0,L|32:359,3,45,2|0|0|0,0:0|0:0|0:0|0:0,0:0:0:0:
59,196,67484,1,2,0:0:0:0:
59,196,67570,1,0,0:0:0:0:
59,196,67655,2,0,L|52:130,3,45,2|0|0|0,0:0|0:0|0:0|0:0,0:0:0:0:
121,303,67998,5,2,0:0:0:0:
133,315,68084,1,0,0:0:0:0:
147,326,68170,1,2,0:0:0:0:
163,335,68255,1,0,0:0:0:0:
180,341,68341,1,2,0:0:0:0:
198,345,68427,1,0,0:0:0:0:
215,346,68513,1,2,0:0:0:0:
233,344,68598,1,0,0:0:0:0:
251,339,68684,6,0,L|306:334,1,45,2|0,0:0|0:0,0:0:0:0:
440,277,68855,2,0,L|384:272,3,45,2|0|0|0,0:0|0:0|0:0|0:0,0:0:0:0:
181,254,69198,2,0,L|236:249,1,45,2|0,0:0|0:0,0:0:0:0:
356,180,69370,2,0,L|300:175,3,45,2|0|0|0,0:0|0:0|0:0|0:0,0:0:0:0:
97,157,69713,2,0,L|152:152,1,45,2|0,0:0|0:0,0:0:0:0:
228,51,69884,1,2,0:0:0:0:
244,44,69970,1,0,0:0:0:0:
262,39,70055,1,0,0:0:0:0:
279,36,70141,1,0,0:0:0:0:
297,36,70227,2,0,L|345:40,1,45,2|0,0:0|0:0,0:0:0:0:
512,104,70398,2,0,L|452:109,3,45,2|0|0|0,0:0|0:0|0:0|0:0,0:0:0:0:
338,141,70741,5,2,0:0:0:0:
301,139,70827,1,0,0:0:0:0:
269,156,70913,1,2,0:0:0:0:
246,183,70998,1,0,0:0:0:0:
230,215,71084,1,2,0:0:0:0:
204,240,71170,1,0,0:0:0:0:
169,248,71255,1,2,0:0:0:0:
133,242,71341,1,0,0:0:0:0:
101,223,71427,6,0,P|83:202|76:164,1,45,2|0,0:0|0:0,0:0:0:0:
100,19,71598,2,0,L|104:81,3,45,2|0|0|0,0:0|0:0|0:0|0:0,0:0:0:0:
163,159,71941,2,0,P|172:132|201:107,1,45,2|0,0:0|0:0,0:0:0:0:
246,0,72113,1,2,0:0:0:0:
266,17,72198,1,0,0:0:0:0:
282,38,72284,1,0,0:0:0:0:
294,62,72370,1,0,0:0:0:0:
301,89,72455,2,0,P|296:114|285:130,1,45,2|0,0:0|0:0,0:0:0:0:
182,119,72627,5,2,0:0:0:0:
187,91,72713,1,0,0:0:0:0:
188,65,72798,1,0,0:0:0:0:
174,41,72884,1,0,0:0:0:0:
152,23,72970,2,0,L|93:27,1,45,2|0,0:0|0:0,0:0:0:0:
24,114,73141,1,2,0:0:0:0:
16,139,73227,1,0,0:0:0:0:
20,166,73313,1,0,0:0:0:0:
30,190,73398,1,0,0:0:0:0:
51,207,73484,2,0,L|113:234,1,45,2|0,0:0|0:0,0:0:0:0:
102,332,73655,5,2,0:0:0:0:
129,328,73741,1,0,0:0:0:0:
154,318,73827,1,0,0:0:0:0:
175,301,73913,1,0,0:0:0:0:
190,278,73998,2,0,L|185:232,1,45,2|0,0:0|0:0,0:0:0:0:
117,135,74170,5,2,0:0:0:0:
133,102,74255,1,0,0:0:0:0:
157,76,74341,1,2,0:0:0:0:
187,57,74427,1,0,0:0:0:0:
221,46,74513,1,0,0:0:0:0:
257,46,74598,1,0,0:0:0:0:
289,60,74684,5,2,0:0:0:0:
298,98,74770,1,0,0:0:0:0:
282,135,74855,1,2,0:0:0:0:
250,158,74941,1,0,0:0:0:0:
210,156,75027,1,0,0:0:0:0:
177,132,75113,1,0,0:0:0:0:
155,97,75198,5,2,0:0:0:0:
176,56,75284,1,0,0:0:0:0:
206,26,75370,1,2,0:0:0:0:
248,8,75455,1,0,0:0:0:0:
293,12,75541,1,0,0:0:0:0:
335,23,75627,1,0,0:0:0:0:
373,48,75713,5,2,0:0:0:0:
374,101,75798,1,0,0:0:0:0:
356,153,75884,1,2,0:0:0:0:
321,194,75970,1,0,0:0:0:0:
273,220,76055,1,2,0:0:0:0:
220,225,76141,1,0,0:0:0:0:
170,206,76227,1,2,0:0:0:0:
117,159,76313,1,0,0:0:0:0:
49,170,76398,1,2,0:0:0:0:
17,231,76484,1,0,0:0:0:0:
44,296,76570,1,12,0:2:0:0:
202,96,76913,5,12,0:0:0:0:
273,220,77084,1,2,0:0:0:0:
288,235,77170,1,0,0:0:0:0:
309,240,77255,1,8,0:1:0:0:
486,181,77427,2,0,L|423:185,1,62.9999980773926,2|0,0:0|0:0,0:0:0:0:
197,77,77598,2,0,L|259:81,1,62.9999980773926,2|0,0:0|0:0,0:0:0:0:
444,54,77770,1,8,0:0:0:0:
204,178,77941,5,8,0:1:0:0:
347,89,78113,1,2,0:0:0:0:
351,126,78198,1,0,0:0:0:0:
345,163,78284,1,0,0:0:0:0:
326,196,78370,1,0,0:0:0:0:
300,223,78455,1,8,0:0:0:0:
197,77,78627,1,8,0:1:0:0:
187,255,78798,1,2,0:0:0:0:
168,272,78884,1,0,0:0:0:0:
142,275,78970,6,0,P|122:259|108:223,1,62.9999980773926,2|0,0:0|0:0,0:0:0:0:
132,0,79141,1,8,0:0:0:0:
54,288,79313,1,8,0:1:0:0:
113,80,79484,1,2,0:0:0:0:
92,68,79570,1,0,0:0:0:0:
71,68,79655,5,8,0:0:0:0:
14,171,79827,2,0,P|23:233|66:285,1,107.999996704102,2|8,0:0|0:1,0:0:0:0:
228,269,80170,2,0,P|217:231|191:201,1,53.9999983520508,2|0,0:0|0:0,0:0:0:0:
127,97,80341,2,0,P|165:131|225:143,1,107.999996704102,2|8,0:0|0:0,0:0:0:0:
388,101,80684,1,8,0:1:0:0:
224,0,80855,2,0,P|281:10|329:56,1,107.999996704102,2|0,0:0|0:0,0:0:0:0:
418,173,81198,1,8,0:0:0:0:
441,0,81370,1,8,0:1:0:0:
491,152,81541,1,2,0:0:0:0:
496,173,81627,1,0,0:0:0:0:
500,194,81713,6,0,P|483:227|447:255,1,53.9999983520508,2|0,0:0|0:0,0:0:0:0:
266,360,81884,1,8,0:0:0:0:
319,145,82055,1,8,0:1:0:0:
426,358,82227,1,2,0:0:0:0:
408,103,82398,5,8,0:0:0:0:
384,240,82570,1,2,0:0:0:0:
376,263,82655,1,0,0:0:0:0:
359,282,82741,1,8,0:1:0:0:
319,145,82913,2,0,P|296:128|261:120,1,62.9999980773926,2|0,0:0|0:0,0:0:0:0:
90,93,83084,2,0,P|93:120|112:151,1,62.9999980773926,2|0,0:0|0:0,0:0:0:0:
248,218,83255,1,8,0:0:0:0:
104,0,83427,5,8,0:1:0:0:
31,162,83598,1,2,0:0:0:0:
29,199,83684,1,0,0:0:0:0:
41,234,83770,1,0,0:0:0:0:
63,265,83855,1,0,0:0:0:0:
95,286,83941,1,8,0:0:0:0:
327,230,84113,2,0,L|186:215,1,125.999996154785,8|0,0:1|0:0,0:0:0:0:
130,214,84370,1,0,0:0:0:0:
130,214,84455,2,0,P|126:185|142:132,1,62.9999980773926,2|0,0:0|0:0,0:0:0:0:
227,32,84627,1,8,0:0:0:0:
365,140,84798,1,8,0:1:0:0:
204,195,84970,1,2,0:0:0:0:
342,25,85141,5,8,0:0:0:0:
296,192,85313,1,2,0:0:0:0:
140,0,85484,1,8,0:1:0:0:
118,247,85655,2,0,L|125:160,1,62.9999980773926,2|0,0:0|3:0,3:0:0:0:
249,43,85827,1,2,0:0:0:0:
269,56,85913,1,0,0:0:0:0:
282,78,85998,1,8,0:0:0:0:
82,98,86170,5,8,0:1:0:0:
253,181,86341,1,2,0:0:0:0:
268,213,86427,1,0,0:0:0:0:
277,249,86513,1,0,0:0:0:0:
274,287,86598,1,0,0:0:0:0:
262,323,86684,1,8,0:0:0:0:
115,268,86855,1,8,0:1:0:0:
381,300,87027,2,0,P|374:273|344:240,1,62.9999980773926,2|0,0:0|0:0,0:0:0:0:
205,117,87198,2,0,P|186:137|176:181,1,62.9999980773926,2|0,0:0|0:0,0:0:0:0:
189,336,87370,1,8,0:0:0:0:
341,61,87541,2,0,B|359:19|418:17|418:17|421:74|468:97,1,188.999994232178,8|0,0:1|0:0,0:0:0:0:
503,18,87884,5,8,0:0:0:0:
462,209,88055,2,0,P|415:279|340:310,1,125.999996154785,2|8,0:0|0:1,0:0:0:0:
165,169,88398,2,0,P|190:144|216:135,1,62.9999980773926,2|0,0:0|0:0,0:0:0:0:
384,188,88570,2,0,P|368:214|342:231,1,62.9999980773926,2|0,0:0|0:0,0:0:0:0:
146,280,88741,1,8,0:0:0:0:
311,106,88913,5,8,0:1:0:0:
247,236,89084,1,2,0:0:0:0:
219,261,89170,1,0,0:0:0:0:
184,277,89255,1,0,0:0:0:0:
146,280,89341,1,0,0:0:0:0:
110,276,89427,1,8,0:0:0:0:
78,14,89598,2,0,P|43:66|38:128,1,125.999996154785,8|2,0:1|0:0,0:0:0:0:
0,200,89855,1,0,0:0:0:0:
0,200,89941,6,0,L|62:206,1,62.9999980773926,2|0,0:0|0:0,0:0:0:0:
274,206,90113,1,8,0:0:0:0:
154,0,90284,1,8,0:1:0:0:
139,242,90455,2,0,P|172:251|211:246,1,62.9999980773926,2|0,0:0|0:0,0:0:0:0:
350,140,90627,5,8,0:0:0:0:
194,62,90798,2,0,L|181:199,1,107.999996704102,2|8,0:0|0:1,0:0:0:0:
58,241,91141,2,0,P|64:271|81:298,1,53.9999983520508,2|0,0:0|0:0,0:0:0:0:
179,367,91313,2,0,L|286:357,1,107.999996704102,2|8,0:0|0:0,0:0:0:0:
358,185,91655,6,0,P|375:141|450:110,1,107.999996704102,8|2,0:1|0:0,0:0:0:0:
503,108,91913,1,0,0:0:0:0:
494,145,91998,1,0,0:0:0:0:
472,175,92084,1,0,0:0:0:0:
440,194,92170,1,8,0:0:0:0:
243,0,92341,1,8,0:1:0:0:
339,201,92513,6,0,P|308:208|276:203,1,53.9999983520508,2|0,0:0|0:0,0:0:0:0:
256,12,92684,2,0,P|276:35|286:67,1,53.9999983520508,2|0,0:0|0:0,0:0:0:0:
214,259,92855,1,8,0:0:0:0:
132,11,93027,1,8,0:1:0:0:
302,131,93198,1,2,0:0:0:0:
30,124,93370,5,8,0:0:0:0:
79,269,93541,1,2,0:0:0:0:
96,287,93627,1,0,0:0:0:0:
119,296,93713,1,8,0:1:0:0:
121,120,93884,2,0,P|128:152|145:185,1,62.9999980773926,2|0,0:0|0:0,0:0:0:0:
189,348,94055,2,0,P|199:316|201:279,1,62.9999980773926,2|0,0:0|0:0,0:0:0:0:
206,121,94227,1,8,0:0:0:0:
401,169,94398,5,8,0:1:0:0:
281,289,94570,2,0,L|292:164,1,125.999996154785,2|0,0:0|0:0,0:0:0:0:
340,107,94827,1,0,0:0:0:0:
340,107,94913,1,8,0:0:0:0:
512,351,95084,2,0,L|500:218,1,125.999996154785,8|2,0:1|0:0,0:0:0:0:
483,158,95341,1,0,0:0:0:0:
483,158,95427,2,0,P|450:157|420:163,1,62.9999980773926,2|0,0:0|0:0,0:0:0:0:
323,232,95598,1,8,0:0:0:0:
375,31,95770,1,8,0:1:0:0:
428,176,95941,1,2,0:0:0:0:
437,199,96027,1,0,0:0:0:0:
437,224,96113,6,0,L|346:231,1,62.9999980773926,10|0,0:0|0:0,0:0:0:0:
320,323,96284,2,0,L|267:248,1,62.9999980773926,2|0,0:0|0:0,0:0:0:0:
273,91,96455,1,8,0:1:0:0:
210,211,96627,6,0,L|184:269,1,62.9999980773926,2|0,0:0|0:0,0:0:0:0:
66,161,96798,2,0,L|102:212,1,62.9999980773926,2|0,0:0|0:0,0:0:0:0:
64,362,96970,1,8,0:0:0:0:
8,81,97141,2,0,L|70:75,1,62.9999980773926,10|0,0:1|0:0,0:0:0:0:
158,0,97313,2,0,L|194:51,1,62.9999980773926,2|0,0:0|0:0,0:0:0:0:
251,205,97484,1,8,0:0:0:0:
333,56,98513,5,8,0:1:0:0:
350,58,98855,6,0,P|365:120|353:188,1,125.999996154785,12|0,0:0|0:0,0:0:0:0:
213,351,99198,1,8,0:1:0:0:
194,191,99370,1,0,0:0:0:0:
198,166,99455,1,0,0:0:0:0:
213,145,99541,2,0,P|241:136|274:145,1,62.9999980773926,2|0,0:0|0:0,0:0:0:0:
428,295,99713,1,8,0:0:0:0:
327,50,99884,6,0,L|201:60,1,125.999996154785,8|0,0:1|0:0,0:0:0:0:
131,20,100141,1,0,0:0:0:0:
131,20,100227,2,0,L|125:87,1,62.9999980773926,2|0,0:0|0:0,0:0:0:0:
243,256,100398,1,8,0:0:0:0:
19,198,100570,2,0,P|86:194|137:227,1,125.999996154785,8|0,0:1|0:0,0:0:0:0:
122,306,100827,1,0,0:0:0:0:
122,306,100913,6,0,P|193:340|282:333,1,161.999995056153,2|8,0:0|0:0,0:0:0:0:
246,117,101255,2,0,P|296:75|381:83,1,125.999996154785,8|0,0:1|0:0,0:0:0:0:
413,24,101513,1,0,0:0:0:0:
413,24,101598,2,0,P|453:70|459:133,1,125.999996154785,8|0,0:0|0:0,0:0:0:0:
254,258,101941,1,8,0:1:0:0:
371,155,102113,1,0,0:0:0:0:
397,180,102198,1,0,0:0:0:0:
416,213,102284,1,0,0:0:0:0:
425,250,102370,1,0,0:0:0:0:
424,288,102455,1,8,0:0:0:0:
172,242,102627,5,8,0:1:0:0:
232,112,102798,1,0,0:0:0:0:
270,109,102884,1,0,0:0:0:0:
307,115,102970,1,0,0:0:0:0:
342,131,103055,1,0,0:0:0:0:
371,155,103141,1,8,0:0:0:0:
341,347,103313,2,0,P|282:366|208:353,1,125.999996154785,8|0,0:1|0:0,0:0:0:0:
137,361,103570,1,0,0:0:0:0:
137,361,103655,2,0,P|164:295|171:215,1,125.999996154785,2|8,0:0|0:0,0:0:0:0:
127,9,103998,2,0,P|100:75|93:155,1,125.999996154785,8|0,0:1|0:0,0:0:0:0:
98,206,104255,1,0,0:0:0:0:
98,206,104341,6,0,L|324:185,1,161.999995056153,8|0,0:0|0:0,0:0:0:0:
437,40,104684,1,8,0:1:0:0:
489,210,104855,1,0,0:0:0:0:
488,234,104941,1,0,0:0:0:0:
480,257,105027,2,0,P|454:254|416:231,1,62.9999980773926,2|0,0:0|0:0,0:0:0:0:
299,97,105198,1,8,0:0:0:0:
502,80,105370,6,0,P|450:119|378:112,1,125.999996154785,8|0,3:1|0:0,0:0:0:0:
365,49,105627,1,0,0:0:0:0:
365,49,105713,2,0,P|340:29|304:18,1,62.9999980773926,2|0,0:0|0:0,0:0:0:0:
116,12,105884,1,8,0:0:0:0:
72,220,106055,2,0,P|110:284|170:309,1,125.999996154785,8|0,0:1|0:0,0:0:0:0:
229,305,106313,1,0,3:0:0:0:
229,305,106398,2,0,P|246:271|251:234,1,62.9999980773926,2|0,3:0|3:0,3:0:0:0:
248,70,106570,1,8,0:0:0:0:
339,338,106741,6,0,P|396:292|410:237,1,125.999996154785,8|0,0:1|0:0,0:0:0:0:
411,169,106998,1,0,0:0:0:0:
411,169,107084,2,0,L|258:182,1,125.999996154785,8|0,0:0|0:0,0:0:0:0:
191,21,107427,2,0,L|65:10,1,125.999996154785,8|0,0:1|0:0,0:0:0:0:
10,56,107684,1,0,0:0:0:0:
0,91,107770,1,0,0:0:0:0:
2,129,107855,1,0,0:0:0:0:
15,165,107941,1,8,0:0:0:0:
240,95,108113,5,8,0:1:0:0:
92,86,108284,1,0,0:0:0:0:
57,102,108370,1,0,0:0:0:0:
32,130,108455,1,0,0:0:0:0:
15,165,108541,1,0,0:0:0:0:
10,203,108627,1,8,0:0:0:0:
208,179,108798,2,0,P|271:222|291:304,1,125.999996154785,8|0,0:1|0:0,0:0:0:0:
251,338,109055,1,0,0:0:0:0:
251,338,109141,2,0,L|337:345,1,62.9999980773926,2|0,0:0|0:0,0:0:0:0:
496,384,109313,1,8,0:0:0:0:
388,193,109484,2,0,P|376:129|406:62,1,125.999996154785,8|0,0:1|0:0,0:0:0:0:
458,26,109741,1,0,0:0:0:0:
458,26,109827,6,0,P|465:167|305:169,1,323.999990112305,8|8,0:0|0:1,0:0:0:0:
171,102,110341,1,0,0:0:0:0:
186,136,110427,1,0,0:0:0:0:
192,173,110513,1,0,0:0:0:0:
191,211,110598,1,0,0:0:0:0:
180,247,110684,1,8,0:0:0:0:
27,112,110855,6,0,P|79:79|156:86,1,125.999996154785,8|0,0:1|0:0,0:0:0:0:
186,136,111113,1,0,0:0:0:0:
220,151,111198,1,0,0:0:0:0:
256,157,111284,1,0,0:0:0:0:
295,156,111370,1,8,0:0:0:0:
376,18,111541,2,0,P|390:86|438:133,1,125.999996154785,8|0,0:1|0:0,0:0:0:0:
504,124,111798,1,0,0:0:0:0:
504,124,111884,2,0,P|502:162|490:186,1,62.9999980773926,2|0,0:0|0:0,0:0:0:0:
376,332,112055,1,8,0:0:0:0:
329,139,112227,2,0,P|303:76|252:33,1,125.999996154785,8|0,0:1|0:0,0:0:0:0:
187,26,112484,1,0,0:0:0:0:
187,26,112570,6,0,P|177:100|129:142,1,125.999996154785,8|0,0:0|0:0,0:0:0:0:
1,220,112913,1,8,0:1:0:0:
39,52,113084,2,0,P|42:127|86:173,1,125.999996154785,2|0,0:0|0:0,0:0:0:0:
137,210,113341,1,0,0:0:0:0:
137,210,113427,1,8,0:0:0:0:
0,349,113598,6,0,P|59:365|131:346,1,125.999996154785,8|0,0:1|0:0,0:0:0:0:
190,312,113855,1,0,0:0:0:0:
190,312,113941,2,0,P|205:351|230:371,1,62.9999980773926,2|0,0:0|0:0,0:0:0:0:
413,384,114113,1,8,0:0:0:0:
388,170,114284,1,8,0:1:0:0:
269,301,114455,1,0,0:3:0:0:
302,311,114541,1,0,0:3:0:0:
341,313,114627,1,0,0:3:0:0:
378,303,114713,1,0,0:3:0:0:
413,288,114798,1,8,0:0:0:0:
344,86,114970,1,8,0:1:0:0:
218,197,115141,1,0,0:0:0:0:
211,221,115227,1,0,0:0:0:0:
211,246,115313,6,0,P|180:182|108:165,1,125.999996154785,8|0,0:0|0:0,0:0:0:0:
28,0,115655,2,0,P|86:39|157:18,1,125.999996154785,8|0,0:1|0:0,0:0:0:0:
206,3,115913,1,0,0:0:0:0:
233,28,115998,1,0,0:0:0:0:
249,62,116084,1,0,0:0:0:0:
251,99,116170,1,8,0:0:0:0:
461,0,116341,6,0,P|409:43|413:109,1,125.999996154785,8|0,0:1|0:0,0:0:0:0:
342,134,116598,1,0,0:0:0:0:
345,171,116684,1,0,0:0:0:0:
348,209,116770,1,0,0:0:0:0:
351,246,116855,1,8,0:0:0:0:
497,125,117027,2,0,P|512:191|474:249,1,125.999996154785,8|0,0:1|0:0,0:0:0:0:
501,311,117284,1,0,0:0:0:0:
463,314,117370,1,0,0:0:0:0:
425,317,117455,1,0,0:0:0:0:
387,320,117541,1,8,0:0:0:0:
342,134,117713,2,0,P|305:191|238:205,1,125.999996154785,8|0,0:1|0:0,0:0:0:0:
189,166,117970,1,0,0:0:0:0:
189,166,118055,6,0,B|197:82|276:26|276:26|181:83|103:52|103:52|121:172|53:160|96:264|96:264|142:381|-6:434|-58:248|95:264|95:264|204:255|190:322|301:288,1,1079.99996704102,8|0,0:3|0:0,0:0:0:0:
277,149,120113,6,0,P|284:131|295:118,3,36,2|0|0|0,0:0|0:0|0:0|0:0,0:0:0:0:
373,64,120455,1,8,0:1:0:0:
15,52,120798,5,12,0:0:0:0:
66,175,120970,1,2,0:0:0:0:
175,68,121141,2,0,L|161:218,1,135,8|0,0:1|0:0,0:0:0:0:
164,211,121484,2,0,L|158:272,1,45,2|0,0:0|0:0,0:0:0:0:
75,328,121655,1,8,0:0:0:0:
232,343,121827,5,8,0:1:0:0:
255,235,121998,2,0,L|268:84,1,135,2|0,0:0|0:0,0:0:0:0:
268,91,122341,1,8,0:0:0:0:
386,133,122513,1,8,0:1:0:0:
488,69,122684,1,0,0:0:0:0:
487,77,122770,1,0,0:0:0:0:
486,86,122855,2,0,L|481:144,1,45,2|0,0:0|0:0,0:0:0:0:
476,254,123027,1,8,0:0:0:0:
381,155,123198,5,8,0:1:0:0:
384,260,123370,1,2,0:0:0:0:
384,268,123455,1,0,0:0:0:0:
384,277,123541,2,0,L|375:383,1,90,8|0,0:0|0:0,0:0:0:0:
377,375,123798,1,0,0:0:0:0:
377,384,123884,1,8,0:1:0:0:
277,326,124055,2,0,L|281:273,1,45,2|0,0:0|0:0,0:0:0:0:
184,360,124227,2,0,L|187:315,1,45,2|0,0:0|0:0,0:0:0:0:
193,192,124398,1,8,0:0:0:0:
82,384,124570,6,0,L|92:258,1,90,8|0,0:1|0:0,0:0:0:0:
93,285,124827,1,0,0:0:0:0:
94,276,124913,2,0,L|100:178,1,90,2|8,0:0|0:0,0:0:0:0:
203,40,125255,2,0,L|194:142,1,90,8|0,0:1|0:0,0:0:0:0:
195,138,125513,1,0,0:0:0:0:
195,147,125598,2,0,L|192:192,1,45,2|0,0:0|0:0,0:0:0:0:
229,307,125770,1,8,0:0:0:0:
313,220,125941,5,8,0:1:0:0:
399,295,126113,2,0,L|416:92,1,180,2|0,0:0|0:0,0:0:0:0:
416,106,126541,1,0,0:0:0:0:
416,97,126627,1,8,0:1:0:0:
336,15,126798,2,0,L|333:60,1,45,2|0,0:0|0:0,0:0:0:0:
244,68,126970,2,0,L|241:113,1,45,2|0,0:0|0:0,0:0:0:0:
145,157,127141,1,8,0:0:0:0:
69,22,127313,5,8,0:1:0:0:
59,137,127484,2,0,L|46:278,1,135,2|0,0:0|0:0,0:0:0:0:
47,280,127827,1,8,0:0:0:0:
147,178,127998,1,8,0:1:0:0:
223,252,128170,1,2,0:0:0:0:
223,260,128255,1,0,0:0:0:0:
224,268,128341,2,0,L|212:384,1,90,2|8,0:0|0:0,0:0:0:0:
345,305,128684,6,0,L|354:215,1,90,8|0,0:1|0:0,0:0:0:0:
354,206,128941,1,0,0:0:0:0:
354,196,129027,2,0,L|361:106,1,90,8|0,0:0|0:0,0:0:0:0:
362,97,129284,1,0,0:0:0:0:
363,88,129370,6,0,P|318:77|259:89,1,90,10|0,0:1|0:0,0:0:0:0:
268,88,129627,1,0,0:0:0:0:
263,95,129713,2,0,P|231:99|211:96,2,45,2|0|8,0:0|0:0|0:0,0:0:0:0:
147,18,130055,2,0,L|137:129,1,90,10|0,0:1|0:0,0:0:0:0:
140,116,130313,1,0,0:0:0:0:
141,124,130398,2,0,L|51:131,1,90,2|8,0:0|0:0,0:0:0:0:
0,257,130741,2,0,L|96:265,1,90,10|0,0:1|0:0,0:0:0:0:
98,267,130998,1,0,0:0:0:0:
106,268,131084,2,0,P|110:318|129:370,1,90,2|8,0:0|0:0,0:0:0:0:
283,384,131427,2,0,P|304:338|314:284,1,90,10|0,0:1|0:0,0:0:0:0:
174,177,131770,6,0,P|178:226|236:301,1,135,10|0,0:0|0:0,0:0:0:0:
234,299,132113,1,8,0:1:0:0:
344,225,132284,2,0,P|365:235|382:253,1,45,2|0,0:0|0:0,0:0:0:0:
347,365,132455,2,0,P|326:377|300:379,1,45,2|0,0:0|0:0,0:0:0:0:
226,294,132627,1,8,0:0:0:0:
288,155,132798,6,0,L|302:-5,1,135,8|0,0:1|0:0,0:0:0:0:
302,11,133141,2,0,L|240:16,1,45,2|0,0:0|0:0,0:0:0:0:
183,95,133313,1,8,0:0:0:0:
89,0,133484,2,0,L|78:114,1,90,8|0,0:1|0:0,0:0:0:0:
82,98,133741,1,0,0:0:0:0:
82,107,133827,2,0,P|77:162|53:215,1,90,2|8,0:0|0:0,0:0:0:0:
0,309,134170,5,8,0:1:0:0:
123,255,134341,2,0,P|145:242|170:216,1,45,2|0,0:0|0:0,0:0:0:0:
275,152,134513,1,8,0:0:0:0:
233,37,134684,2,0,P|246:54|253:76,1,45,2|0,0:0|0:0,0:0:0:0:
279,229,134855,1,8,0:1:0:0:
157,124,135027,2,0,P|179:137|214:146,1,45,2|0,0:0|0:0,0:0:0:0:
335,92,135198,2,0,P|357:79|392:70,1,45,2|0,0:0|0:0,0:0:0:0:
499,44,135370,1,8,0:0:0:0:
372,200,135541,5,8,0:1:0:0:
258,170,135713,2,0,P|254:192|256:214,1,45,2|0,0:0|0:0,0:0:0:0:
317,382,135884,2,0,P|363:381|407:350,1,90,2|8,0:0|0:0,0:0:0:0:
502,195,136227,2,0,P|480:239|483:287,1,90,8|0,0:1|0:0,0:0:0:0:
482,287,136484,1,0,0:0:0:0:
484,295,136570,2,0,L|474:402,1,90,2|8,0:0|0:0,0:0:0:0:
407,228,136913,6,0,P|365:243|339:280,1,90,8|0,0:1|0:0,0:0:0:0:
338,287,137170,1,0,0:0:0:0:
336,295,137255,1,8,0:0:0:0:
217,257,137427,1,0,0:0:0:0:
217,265,137513,1,0,0:0:0:0:
218,273,137598,1,8,0:1:0:0:
321,384,137770,2,0,L|167:370,1,135,2|0,0:0|0:0,0:0:0:0:
177,370,138113,1,8,0:0:0:0:
185,179,138284,5,8,0:1:0:0:
90,248,138455,2,0,P|86:275|92:298,1,45,2|0,0:0|0:0,0:0:0:0:
217,286,138627,2,0,P|195:269|172:262,1,45,2|0,0:0|0:0,0:0:0:0:
12,290,138798,1,8,0:0:0:0:
130,121,138970,2,0,P|174:97|227:109,1,90,8|0,0:1|0:0,0:0:0:0:
219,106,139227,1,0,0:0:0:0:
227,110,139313,2,0,L|347:119,1,90,2|8,0:0|0:0,0:0:0:0:
478,170,139655,2,0,L|470:266,1,90,8|0,0:1|0:0,0:0:0:0:
472,269,139913,1,0,0:0:0:0:
473,277,139998,6,0,P|427:270|383:277,1,90,8|0,0:0|0:0,0:0:0:0:
378,283,140255,1,0,0:0:0:0:
375,291,140341,1,8,0:1:0:0:
263,349,140513,1,0,0:0:0:0:
257,342,140598,1,0,0:0:0:0:
250,336,140684,1,0,0:0:0:0:
243,330,140770,1,0,0:0:0:0:
235,326,140855,1,8,0:0:0:0:
286,199,141027,5,8,0:1:0:0:
170,222,141198,1,0,0:0:0:0:
161,222,141284,1,0,0:0:0:0:
153,226,141370,1,0,0:0:0:0:
144,228,141455,1,0,0:0:0:0:
136,233,141541,1,8,0:0:0:0:
235,88,141713,1,8,0:1:0:0:
134,137,141884,1,2,0:0:0:0:
126,142,141970,1,0,0:0:0:0:
119,147,142055,2,0,P|104:129|84:119,1,45,2|0,0:0|0:0,0:0:0:0:
0,66,142227,1,8,0:0:0:0:
53,192,142398,2,0,L|43:299,1,90,8|0,0:1|0:0,0:0:0:0:
45,290,142655,1,0,0:0:0:0:
45,299,142741,6,0,P|40:326|15:356,5,45,14|0|0|0|0|0,0:0|0:0|0:0|0:0|0:0|0:0,0:0:0:0:
153,343,143255,2,0,P|158:370|183:400,5,45
196,245,143770,2,0,L|263:249,3,45,2|0|0|0,0:0|0:0|0:0|0:0,0:0:0:0:
290,321,144113,6,0,P|290:353|304:386,5,45,2|0|0|0|0|0,0:0|0:0|0:0|0:0|0:0|0:0,0:0:0:0:
380,334,144627,2,0,P|407:350|443:354,5,45,2|0|0|0|0|0,0:0|0:0|0:0|0:0|0:0|0:0,0:0:0:0:
454,251,145141,1,2,0:0:0:0:
465,236,145227,1,0,0:0:0:0:
474,221,145313,1,0,0:0:0:0:
481,204,145398,1,0,0:0:0:0:
486,187,145484,1,0,0:0:0:0:
488,170,145570,1,0,0:0:0:0:
488,151,145655,1,0,0:0:0:0:
486,133,145741,1,0,0:0:0:0:
482,116,145827,1,0,0:0:0:0:
475,99,145913,1,0,0:0:0:0:
466,84,145998,1,0,0:0:0:0:
455,69,146084,1,0,0:0:0:0:
442,57,146170,2,0,L|391:52,3,45
382,138,146513,6,0,B|393:162|394:192,1,45,2|0,0:0|0:0,0:0:0:0:
297,84,146684,2,0,B|286:110|284:138,1,45,2|0,0:0|0:0,0:0:0:0:
306,231,146855,2,0,P|310:265|304:301,5,45,2|0|0|0|0|0,0:0|0:0|0:0|0:0|0:0|0:0,0:0:0:0:
289,372,147370,2,0,P|267:364|248:352,5,45,2|0|0|0|0|0,0:0|0:0|0:0|0:0|0:0|0:0,0:0:0:0:
213,242,147884,2,0,L|207:182,3,45,2|0|0|0,0:0|0:0|0:0|0:0,0:0:0:0:
96,219,148227,5,0,0:0:0:0:
90,192,148313,1,0,0:0:0:0:
90,165,148398,1,0,0:0:0:0:
96,139,148484,1,0,0:0:0:0:
107,115,148570,1,0,0:0:0:0:
124,93,148655,1,0,0:0:0:0:
144,76,148741,1,0,0:0:0:0:
168,63,148827,1,0,0:0:0:0:
194,56,148913,1,0,0:0:0:0:
220,58,148998,1,0,0:0:0:0:
245,67,149084,1,0,0:0:0:0:
264,85,149170,1,0,0:0:0:0:
277,108,149255,2,0,L|341:113,1,45,2|0,0:0|0:0,0:0:0:0:
416,173,149427,2,0,L|351:178,1,45,2|0,0:0|0:0,0:0:0:0:
286,194,149598,5,2,0:0:0:0:
265,217,149684,1,0,0:0:0:0:
253,246,149770,1,0,0:0:0:0:
251,277,149855,1,0,0:0:0:0:
260,307,149941,1,0,0:0:0:0:
279,333,150027,1,0,0:0:0:0:
304,351,150113,2,0,L|358:355,1,45,2|0,0:0|0:0,0:0:0:0:
512,384,150284,2,0,L|458:379,1,45
336,262,150455,2,0,L|390:257,1,45
502,222,150627,5,2,0:0:0:0:
503,177,150713,1,0,0:0:0:0:
491,134,150798,1,0,0:0:0:0:
466,96,150884,1,0,0:0:0:0:
431,69,150969,1,0,0:0:0:0:
389,53,151055,1,0,0:0:0:0:
344,51,151141,1,0,0:0:0:0:
301,63,151227,1,0,0:0:0:0:
264,88,151313,1,2,0:0:0:0:
235,128,151398,1,0,0:0:0:0:
235,177,151484,1,0,0:0:0:0:
244,225,151570,1,0,0:0:0:0:
243,278,151655,5,2,0:0:0:0:
222,327,151740,1,0,0:0:0:0:
182,363,151826,1,0,0:0:0:0:
127,364,151912,1,0,0:0:0:0:
80,335,151998,1,2,0:0:0:0:
53,270,152083,1,0,0:0:0:0:
65,200,152169,1,2,0:0:0:0:
121,157,152255,1,0,0:0:0:0:
191,157,152341,1,12,0:0:0:0:
381,157,153370,5,8,0:0:0:0:
392,176,153713,6,0,P|394:259|363:297,1,125.999996154785,12|0,0:0|0:0,0:0:0:0:
307,334,153970,1,0,0:0:0:0:
307,334,154055,1,8,0:1:0:0:
280,171,154227,1,0,0:0:0:0:
285,146,154313,1,0,0:0:0:0:
296,124,154398,2,0,P|317:98|378:86,1,62.9999980773926,2|0,0:0|0:3,0:3:0:0:
505,79,154570,1,8,0:3:0:0:
238,0,154741,5,8,0:1:0:0:
207,150,154913,1,0,0:0:0:0:
202,174,154998,1,0,3:0:0:0:
189,196,155084,2,0,P|163:224|36:236,1,125.999996154785,2|8,3:0|0:0,3:0:0:0:
0,97,155427,2,0,P|29:41|87:16,1,125.999996154785,8|0,0:1|0:0,0:0:0:0:
157,3,155684,1,0,0:0:0:0:
157,3,155770,6,0,P|167:93|219:160,1,161.999995056153,2|8,0:0|0:0,0:0:0:0:
444,10,156113,2,0,P|483:69|481:138,1,125.999996154785,8|0,0:1|3:0,3:0:0:0:
474,198,156370,1,0,3:0:0:0:
474,198,156455,1,8,3:0:0:0:
302,228,156627,1,0,0:0:0:0:
289,206,156713,1,0,0:0:0:0:
284,181,156798,1,8,0:1:0:0:
316,49,156970,1,0,0:0:0:0:
285,28,157055,1,0,0:0:0:0:
250,13,157141,1,0,0:0:0:0:
213,6,157227,1,0,0:0:0:0:
175,7,157313,1,8,0:0:0:0:
0,58,157484,5,8,0:1:0:0:
82,131,157655,1,0,0:3:0:0:
118,141,157741,1,0,0:3:0:0:
156,143,157827,1,0,0:3:0:0:
194,136,157913,1,0,0:3:0:0:
227,122,157998,1,8,0:0:0:0:
399,2,158170,2,0,L|411:144,1,125.999996154785,8|0,0:1|0:0,0:0:0:0:
471,179,158427,1,0,0:0:0:0:
471,179,158513,2,0,P|453:253|394:299,1,125.999996154785,2|8,0:0|0:0,0:0:0:0:
227,205,158855,1,8,0:1:0:0:
188,364,159027,1,0,0:3:0:0:
162,365,159113,1,0,0:3:0:0:
139,356,159198,6,0,P|97:331|64:217,1,161.999995056153,8|0,0:3|0:3,0:3:0:0:
123,32,159541,1,8,0:1:0:0:
226,115,159713,1,0,0:0:0:0:
244,131,159798,1,0,0:0:0:0:
268,138,159884,2,0,P|307:134|341:115,1,62.9999980773926,2|0,0:0|0:0,0:0:0:0:
461,0,160055,1,8,0:0:0:0:
432,179,160227,6,0,L|443:315,1,125.999996154785,8|0,0:1|0:0,0:0:0:0:
448,384,160484,1,0,0:0:0:0:
448,384,160570,2,0,P|419:387|373:364,1,62.9999980773926,2|0,0:0|0:0,0:0:0:0:
225,238,160741,1,8,0:0:0:0:
407,104,160913,1,8,0:1:0:0:
308,274,161084,1,0,0:0:0:0:
293,294,161170,1,0,0:0:0:0:
274,309,161255,2,0,P|236:326|199:324,1,62.9999980773926,2|0,0:0|0:0,0:0:0:0:
64,334,161427,1,8,0:0:0:0:
279,173,161598,6,0,P|219:143|155:154,1,125.999996154785,8|0,0:1|0:0,0:0:0:0:
16,267,161941,1,8,0:0:0:0:
165,256,162113,1,0,0:0:0:0:
188,246,162198,1,0,0:0:0:0:
207,229,162284,1,8,0:1:0:0:
239,36,162455,1,0,0:0:0:0:
276,42,162541,1,0,0:0:0:0:
311,57,162627,1,0,0:0:0:0:
341,79,162713,1,0,0:0:0:0:
363,110,162798,1,8,0:0:0:0:
408,313,162970,5,8,0:1:0:0:
455,172,163141,1,0,0:0:0:0:
430,143,163227,1,0,0:0:0:0:
398,123,163313,1,0,0:0:0:0:
363,110,163398,1,0,0:0:0:0:
325,110,163484,1,8,0:0:0:0:
320,364,163655,2,0,L|166:350,1,125.999996154785,8|0,0:1|0:0,0:0:0:0:
121,362,163913,1,0,0:0:0:0:
121,362,163998,2,0,L|127:293,1,62.9999980773926,2|0,0:0|0:0,0:0:0:0:
229,119,164170,1,8,0:0:0:0:
54,296,164341,2,0,L|40:140,1,125.999996154785,8|0,0:1|0:0,0:0:0:0:
48,93,164598,1,0,0:0:0:0:
48,93,164684,6,0,P|179:21|316:117,1,323.999990112305,8|8,0:0|0:1,0:0:0:0:
270,257,165198,1,0,0:0:0:0:
235,239,165284,1,0,0:0:0:0:
205,215,165370,1,0,0:0:0:0:
186,183,165455,1,0,0:0:0:0:
174,148,165541,1,8,0:0:0:0:
372,57,165713,6,0,P|440:61|490:116,1,125.999996154785,8|0,0:1|0:0,0:0:0:0:
509,167,165970,1,0,0:0:0:0:
512,205,166055,1,0,0:0:0:0:
501,240,166141,1,0,0:0:0:0:
477,270,166227,1,8,0:0:0:0:
313,136,166398,1,8,0:1:0:0:
392,288,166570,1,0,0:0:0:0:
379,308,166655,1,0,0:0:0:0:
362,326,166741,2,0,P|329:352|286:354,1,62.9999980773926,2|0,0:0|0:0,0:0:0:0:
118,362,166913,1,8,0:0:0:0:
255,198,167084,1,8,0:1:0:0:
283,358,167255,1,0,0:0:0:0:
257,353,167341,1,0,0:0:0:0:
233,343,167427,6,0,P|198:318|170:236,1,125.999996154785,8|0,0:0|0:0,0:0:0:0:
162,172,167684,1,0,0:0:0:0:
162,172,167770,1,8,0:1:0:0:
183,11,167941,1,2,0:0:0:0:
149,12,168027,1,0,0:0:0:0:
113,21,168113,1,0,0:0:0:0:
79,39,168198,1,0,0:0:0:0:
50,63,168284,1,8,0:0:0:0:
59,231,168455,6,0,P|122:216|171:153,1,125.999996154785,8|0,0:1|0:0,0:0:0:0:
199,106,168713,1,0,0:0:0:0:
199,106,168798,2,0,P|240:107|277:125,1,62.9999980773926,2|0,0:0|0:0,0:0:0:0:
387,210,168970,1,8,0:0:0:0:
197,363,169141,2,0,P|250:331|271:251,1,125.999996154785,8|0,0:1|0:0,0:0:0:0:
275,199,169398,1,0,0:0:0:0:
237,190,169484,1,0,0:0:0:0:
200,182,169570,1,0,0:0:0:0:
163,173,169655,1,8,0:0:0:0:
36,30,169827,2,0,P|92:-4|169:8,1,125.999996154785,8|0,0:1|0:0,0:0:0:0:
313,102,170170,6,0,P|374:110|427:79,1,125.999996154785,8|0,0:0|0:0,0:0:0:0:
478,27,170427,1,0,0:0:0:0:
478,27,170513,2,0,P|509:80|501:141,1,125.999996154785,8|0,0:1|0:0,0:0:0:0:
463,204,170770,1,0,0:0:0:0:
425,216,170855,1,0,0:0:0:0:
387,216,170941,1,0,0:0:0:0:
351,206,171027,1,8,0:0:0:0:
320,21,171198,6,0,P|252:29|211:85,1,125.999996154785,8|0,0:1|0:0,0:0:0:0:
187,140,171455,1,0,0:0:0:0:
149,137,171541,1,0,0:0:0:0:
112,134,171627,1,0,0:0:0:0:
74,130,171713,1,8,0:0:0:0:
20,334,171884,2,0,P|60:279|129:271,1,125.999996154785,8|0,0:1|0:0,0:0:0:0:
169,320,172141,1,0,0:0:0:0:
207,316,172227,1,0,0:0:0:0:
243,313,172313,1,0,0:0:0:0:
282,310,172398,1,8,0:0:0:0:
251,103,172570,1,8,0:1:0:0:
401,251,172741,1,0,0:0:0:0:
421,265,172827,1,0,0:0:0:0:
442,270,172913,6,0,B|529:234|549:56|423:9|283:25|267:172|267:172|230:90|129:75|36:154|52:256|93:320|193:344|255:279|255:279|238:232|171:206,1,1079.99996704102,8|0,0:3|0:0,0:0:0:0:
378,315,174970,6,0,P|366:293|362:268,3,36,2|0|0|0,0:0|0:0|0:0|0:0,0:0:0:0:
384,172,175313,1,8,0:0:0:0:
111,226,175655,5,12,0:0:0:0:
150,83,175827,1,2,0:0:0:0:
168,65,175913,1,0,0:0:0:0:
192,58,175998,1,8,0:1:0:0:
0,44,176170,2,0,L|69:50,1,62.9999980773926,2|0,0:0|0:0,0:0:0:0:
278,130,176341,2,0,L|208:136,1,62.9999980773926,2|0,0:0|0:0,0:0:0:0:
28,180,176513,1,8,0:0:0:0:
213,57,176684,5,8,0:1:0:0:
124,169,176855,1,2,0:0:0:0:
128,206,176941,1,0,0:0:0:0:
145,240,177027,1,0,0:0:0:0:
171,266,177113,1,0,0:0:0:0:
205,283,177198,1,8,0:0:0:0:
313,135,177370,1,8,0:1:0:0:
418,264,177541,1,2,0:3:0:0:
438,278,177627,1,0,0:3:0:0:
462,282,177713,6,0,P|480:264|490:224,1,62.9999980773926,2|0,0:3|0:3,0:3:0:0:
486,33,177884,1,8,0:0:0:0:
345,213,178055,1,8,0:1:0:0:
344,21,178227,2,0,P|310:27|264:54,1,62.9999980773926,2|0,0:0|0:0,0:0:0:0:
185,191,178398,6,0,P|246:181|286:158,1,107.999996704102,8|0,0:0|0:0,0:0:0:0:
342,109,178655,1,0,0:0:0:0:
342,109,178741,1,8,0:1:0:0:
208,7,178913,2,0,P|172:21|150:50,1,53.9999983520508,2|0,0:0|0:0,0:0:0:0:
35,131,179084,2,0,P|72:140|161:121,1,107.999996704102,2|8,0:0|0:0,0:0:0:0:
288,48,179427,1,8,0:1:0:0:
200,208,179598,2,0,P|213:172|242:149,1,53.9999983520508,2|0,0:0|0:0,0:0:0:0:
342,109,179770,2,0,P|351:146|332:235,1,107.999996704102,2|8,0:0|0:0,0:0:0:0:
267,362,180113,1,8,0:1:0:0:
423,335,180284,1,0,0:0:0:0:
444,330,180370,1,0,0:0:0:0:
463,321,180455,6,0,P|489:295|495:253,1,53.9999983520508,2|0,0:0|0:0,0:0:0:0:
512,69,180627,1,8,0:0:0:0:
417,253,180798,1,8,0:1:0:0:
364,100,180970,1,2,0:0:0:0:
243,302,181141,5,8,0:0:0:0:
261,129,181313,1,2,0:0:0:0:
252,104,181398,1,0,0:0:0:0:
235,86,181484,1,8,0:1:0:0:
109,56,181655,2,0,P|95:82|92:124,1,62.9999980773926,2|0,0:0|0:0,0:0:0:0:
137,312,181827,2,0,P|156:289|169:249,1,62.9999980773926,2|0,0:0|0:0,0:0:0:0:
220,75,181998,1,8,0:0:0:0:
409,167,182170,5,8,0:1:0:0:
286,232,182341,1,2,0:3:0:0:
253,262,182427,1,0,0:3:0:0:
242,296,182513,1,0,0:3:0:0:
241,334,182598,1,0,0:3:0:0:
251,372,182684,1,8,0:3:0:0:
480,278,182855,1,8,0:1:0:0:
435,95,183027,1,2,0:0:0:0:
421,71,183113,1,0,0:0:0:0:
404,53,183198,2,0,P|381:33|342:24,1,62.9999980773926,2|0,0:0|0:0,0:0:0:0:
146,28,183370,1,8,0:0:0:0:
171,255,183541,1,8,0:1:0:0:
261,104,183713,1,2,0:0:0:0:
5,58,183884,5,8,0:0:0:0:
35,204,184055,2,0,P|113:253|196:247,1,125.999996154785,2|8,0:0|0:1,0:0:0:0:
146,45,184398,1,2,0:3:0:0:
164,27,184484,1,0,0:3:0:0:
188,21,184570,2,0,P|228:23|256:45,1,62.9999980773926,2|0,0:3|0:3,0:3:0:0:
343,170,184741,1,8,0:0:0:0:
390,3,184913,5,8,0:1:0:0:
249,122,185084,1,2,0:0:0:0:
239,145,185170,1,0,0:0:0:0:
238,169,185255,2,0,P|244:215|277:251,1,62.9999980773926,2|0,0:0|0:0,0:0:0:0:
423,360,185427,1,8,0:0:0:0:
492,175,185598,1,8,0:1:0:0:
339,251,185770,2,0,P|335:218|343:179,1,62.9999980773926,2|0,0:0|0:0,0:0:0:0:
512,31,185941,2,0,P|516:64|508:103,1,62.9999980773926,2|0,0:0|0:0,0:0:0:0:
420,226,186113,1,8,0:0:0:0:
371,13,186284,2,0,B|328:27|272:15|272:15|262:62|218:84,1,188.999994232178,8|0,0:1|0:0,0:0:0:0:
186,8,186627,5,8,0:0:0:0:
149,217,186798,1,2,0:0:0:0:
16,8,186970,1,8,0:1:0:0:
0,189,187141,2,0,P|35:196|69:192,1,62.9999980773926,2|0,0:0|0:0,0:0:0:0:
228,164,187313,2,0,L|239:311,1,125.999996154785,2|8,0:0|0:0,0:0:0:0:
457,384,187655,5,8,0:1:0:0:
457,228,187827,1,2,0:0:0:0:
443,196,187913,1,0,0:0:0:0:
417,170,187998,1,0,0:0:0:0:
383,150,188084,1,0,0:0:0:0:
347,146,188170,1,8,0:0:0:0:
341,351,188341,2,0,P|265:323|237:288,1,125.999996154785,8|2,0:1|0:0,0:0:0:0:
208,224,188598,1,0,0:0:0:0:
208,224,188684,6,0,P|209:198|229:149,1,62.9999980773926,2|0,0:0|0:0,0:0:0:0:
367,23,188855,1,8,0:0:0:0:
345,263,189027,1,8,0:1:0:0:
231,88,189198,2,0,P|195:93|163:119,1,62.9999980773926,2|0,0:0|0:0,0:0:0:0:
67,265,189370,5,8,0:0:0:0:
96,90,189541,1,2,0:0:0:0:
141,316,189713,1,8,0:1:0:0:
220,163,189884,2,0,L|225:225,1,53.9999983520508,2|0,0:0|0:0,0:0:0:0:
308,365,190055,2,0,L|319:219,1,107.999996704102,2|8,0:0|0:0,0:0:0:0:
400,90,190398,5,8,0:1:0:0:
492,283,190570,2,0,L|480:147,1,107.999996704102,2|0,0:3|0:3,0:3:0:0:
348,5,190913,1,8,0:3:0:0:
208,224,191084,6,0,L|220:83,1,107.999996704102,8|2,0:1|0:0,0:0:0:0:
243,47,191341,1,0,0:0:0:0:
243,47,191427,2,0,P|273:67|300:105,1,53.9999983520508,2|0,0:3|0:3,0:3:0:0:
340,262,191598,1,8,0:0:0:0:
498,120,191770,1,8,0:1:0:0:
323,148,191941,1,2,0:0:0:0:
441,0,192113,5,8,0:0:0:0:
426,203,192284,1,2,0:0:0:0:
242,27,192455,1,8,0:1:0:0:
157,150,192627,2,0,P|142:185|140:211,1,62.9999980773926,2|0,0:3|0:0,0:0:0:0:
268,354,192798,2,0,P|272:316|268:290,1,62.9999980773926,2|0,0:3|0:0,0:0:0:0:
246,155,192970,1,8,0:0:0:0:
153,316,193141,5,8,0:1:0:0:
73,123,193313,1,2,0:0:0:0:
58,157,193398,1,0,0:0:0:0:
51,194,193484,1,0,0:0:0:0:
52,232,193570,1,0,0:0:0:0:
60,269,193655,1,8,0:0:0:0:
262,274,193827,1,8,0:1:0:0:
247,135,193998,1,2,0:0:0:0:
252,110,194084,1,0,0:0:0:0:
267,90,194170,2,0,L|339:96,1,62.9999980773926,2|0,0:0|0:0,0:0:0:0:
508,207,194341,1,8,0:0:0:0:
503,25,194513,1,8,0:1:0:0:
392,146,194684,1,2,0:0:0:0:
379,168,194770,1,0,0:0:0:0:
378,192,194855,5,10,0:3:0:0:
414,367,195027,1,2,0:3:0:0:
303,98,195370,5,10,0:3:0:0:
267,273,195541,1,2,0:3:0:0:
87,31,195884,5,10,0:3:0:0:
123,206,196055,1,2,0:3:0:0:
287,278,196398,5,10,0:3:0:0:
393,242,196570,1,2,0:3:0:0:
230,181,196741,1,2,0:3:0:0:
380,52,196913,1,10,0:3:0:0:
272,87,197084,1,2,0:3:0:0:
442,154,197255,2,0,P|434:198|401:233,1,90,2|0,0:3|0:0,0:0:0:0:
287,278,197598,6,0,P|217:288|162:245,1,144,12|8,0:0|0:1,0:0:0:8:normal-hitclap2.wav
230,181,198113,2,0,P|198:157|149:155,1,72,2|0,0:0|0:0,0:0:0:0:
75,171,198455,1,8,0:0:0:0:
158,61,198627,2,0,P|213:42|301:106,1,144,8|0,0:1|0:0,0:0:0:0:
326,205,199141,1,8,0:0:0:0:
376,54,199313,1,8,0:1:0:0:
395,47,199655,5,2,0:0:0:0:
430,186,199827,1,8,0:0:0:0:
512,93,199998,2,0,P|519:135|497:179,1,72,8|0,0:1|0:0,0:0:0:0:
466,275,200341,6,0,P|424:282|380:260,1,72,8|0,0:0|0:0,0:0:0:0:
311,205,200684,1,8,0:1:0:0:
308,327,200855,2,0,L|218:334,1,72,2|0,0:0|0:0,0:0:0:0:
137,259,201198,1,8,0:0:0:0:
92,373,201370,6,0,P|42:319|30:225,1,144,8|0,0:1|0:0,0:0:0:0:
71,137,201884,1,8,0:0:0:0:
140,237,202055,2,0,L|229:228,2,72,8|0|0,0:1|0:0|0:0,0:0:0:0:
56,145,202570,1,8,0:0:0:0:
113,36,202741,6,0,P|156:27|200:36,1,72,8|0,0:1|0:0,0:0:0:0:
229,144,203084,2,0,P|273:154|318:145,1,72,8|0,0:0|0:0,0:0:0:0:
404,74,203427,2,0,P|426:114|417:159,1,72,8|0,0:1|0:0,0:0:0:0:
402,230,203770,1,2,0:0:0:0:
316,74,203941,1,8,0:0:0:0:
314,234,204113,6,0,P|252:273|182:253,1,144,8|0,0:1|0:0,0:0:0:0:
118,119,204627,1,8,0:0:0:0:
94,251,204798,2,0,P|83:294|57:331,1,72,8|0,0:1|0:0,0:0:0:0:
0,384,205141,1,2,0:0:0:0:
0,258,205313,1,8,0:0:0:0:
140,363,205484,2,0,P|185:367|228:353,1,72,8|0,0:1|0:0,0:0:0:0:
303,324,205827,1,8,0:0:0:0:
320,339,206170,6,0,L|397:346,2,72,8|0|0,0:1|0:0|0:0,0:0:0:0:
365,233,206684,1,8,0:0:0:0:
227,215,206855,2,0,P|234:180|254:150,2,72,8|0|0,0:1|0:0|0:0,0:0:0:0:
222,369,207370,5,8,0:0:0:0:
149,219,207541,1,8,0:1:0:0:
117,299,207713,5,2,0:0:0:0:
62,231,207884,1,2,0:0:0:0:
200,288,208055,1,8,0:0:0:0:
97,158,208227,1,8,0:1:0:0:
182,144,208398,1,2,0:0:0:0:
43,101,208570,6,0,P|21:138|21:186,1,72,8|0,0:0|0:0,0:0:0:0:
39,313,208913,2,0,L|200:326,1,144,8|0,0:1|0:0,0:0:0:0:
290,229,209427,1,8,0:0:0:0:
279,369,209598,2,0,L|380:360,2,72,8|0|0,0:1|0:0|0:0,0:0:0:0:
207,242,210113,1,8,0:0:0:0:
355,284,210284,1,8,0:1:0:0:
364,190,210455,5,2,0:0:0:0:
433,252,210627,1,2,0:0:0:0:
290,229,210798,1,8,0:0:0:0:
448,172,210970,2,0,L|441:92,1,72,8|0,0:1|0:0,0:0:0:0:
324,15,211313,6,0,P|308:56|278:82,1,72,8|0,0:0|0:0,0:0:0:0:
168,147,211655,1,8,0:1:0:0:
202,63,211827,2,0,L|112:71,1,72,2|0,0:0|0:0,0:0:0:0:
126,213,212170,1,8,0:0:0:0:
31,119,212341,2,8,P|1:184|7:260,1,144,8|0,0:1|0:0,0:0:0:0:
95,364,212855,1,8,0:0:0:0:
148,216,213027,2,0,L|225:222,1,72,8|0,0:1|0:0,0:0:0:0:
234,241,213541,5,8,0:0:0:0:
347,187,213713,2,0,P|386:187|440:203,1,72,8|0,0:1|0:0,0:0:0:0:
390,334,214055,2,0,P|351:334|297:318,1,72,8|0,0:0|0:0,0:0:0:0:
346,170,214398,2,0,P|385:170|439:186,1,72,8|0,0:1|0:0,0:0:0:0:
489,222,214741,1,2,0:0:0:0:
368,258,214913,1,8,0:0:0:0:
389,92,215084,6,0,P|355:24|262:7,1,144,8|0,0:1|0:0,0:0:0:0:
191,51,215598,1,8,0:0:0:0:
226,198,215770,2,0,P|237:154|230:109,1,72,8|0,0:1|0:3,0:3:0:0:
211,45,216113,1,2,0:0:0:0:
66,78,216284,1,8,0:0:0:0:
134,204,216455,2,0,P|134:248|121:283,1,62.9999980773926,8|0,0:1|0:0,0:0:0:0:
83,339,216798,6,0,L|146:344,1,45
203,287,217141,2,0,L|259:282,1,45,2|0,0:0|0:0,0:0:0:0:
318,335,217484,1,0,0:0:0:0:
439,195,217998,5,0,0:0:0:0:
439,195,218170,5,0,0:0:0:0:
256,192,218255,12,0,219370,0:0:0:0:
205,85,219541,6,0,L|213:180,1,90,12|0,0:0|0:0,0:0:0:0:
139,334,219884,2,0,L|124:165,1,135,8|0,0:1|0:0,0:0:0:0:
126,190,220227,2,0,L|121:143,1,45,2|0,0:0|0:0,0:0:0:0:
186,0,220398,1,8,0:0:0:0:
32,48,220570,6,0,L|39:138,1,90,8|0,0:1|0:0,0:0:0:0:
40,146,220827,1,0,0:0:0:0:
42,154,220913,2,0,L|50:253,1,90,2|8,0:0|0:0,0:0:0:0:
161,376,221255,2,0,L|151:271,1,90,8|0,0:1|0:0,0:0:0:0:
152,277,221513,1,0,0:0:0:0:
152,268,221598,2,0,L|148:223,1,45,2|0,0:0|0:0,0:0:0:0:
205,100,221770,1,8,0:0:0:0:
276,258,221941,5,8,0:1:0:0:
306,164,222113,1,0,0:0:0:0:
305,156,222198,1,0,0:0:0:0:
304,148,222284,1,8,0:0:0:0:
371,1,222455,2,0,L|375:46,1,45,2|0,0:0|0:0,0:0:0:0:
383,146,222627,1,8,0:1:0:0:
489,191,222798,2,0,L|493:247,1,45,2|0,0:0|0:0,0:0:0:0:
395,278,222970,2,0,L|399:334,1,45,2|0,0:0|0:0,0:0:0:0:
301,365,223141,1,8,0:0:0:0:
284,246,223313,6,0,L|277:157,1,90,8|0,0:1|0:0,0:0:0:0:
276,148,223570,1,0,0:0:0:0:
274,140,223655,2,0,L|269:77,1,45,2|0,0:0|0:0,0:0:0:0:
170,0,223827,1,8,0:0:0:0:
133,114,223998,2,0,L|144:248,1,135,8|0,0:1|0:0,0:0:0:0:
147,257,224341,2,0,L|150:301,1,45,2|0,0:0|0:0,0:0:0:0:
63,384,224513,1,8,0:0:0:0:
8,236,224684,5,8,0:1:0:0:
119,227,224855,1,0,0:0:0:0:
118,217,224941,1,0,0:0:0:0:
118,208,225027,2,0,L|111:118,1,90,8|0,0:0|0:0,0:0:0:0:
111,109,225284,1,0,0:0:0:0:
110,99,225370,1,8,0:1:0:0:
231,83,225541,2,0,L|235:137,3,45,2|0|0|0,0:0|0:0|0:0|0:0,0:0:0:0:
296,0,225884,1,8,0:0:0:0:
332,130,226055,6,0,L|340:230,1,90,8|0,0:1|0:0,0:0:0:0:
341,228,226313,1,0,0:0:0:0:
343,236,226398,2,0,L|352:349,1,90,2|8,0:0|0:0,0:0:0:0:
495,225,226741,1,8,0:1:0:0:
505,340,226913,2,0,L|511:397,3,45,2|0|0|0,0:0|0:0|0:0|0:0,0:0:0:0:
434,284,227255,1,8,0:0:0:0:
512,134,227427,5,8,0:1:0:0:
405,176,227598,1,0,0:0:0:0:
403,167,227684,1,0,0:0:0:0:
402,158,227770,2,0,L|393:62,1,90,8|0,0:0|0:0,0:0:0:0:
392,59,228027,1,0,0:0:0:0:
389,50,228113,6,0,P|344:45|305:65,1,90,10|0,0:1|0:0,0:0:0:0:
301,72,228370,1,0,0:0:0:0:
297,80,228455,2,0,P|271:101|230:114,2,45,2|0|8,0:0|0:0|0:0,0:0:0:0:
329,187,228798,2,0,L|238:179,1,90,10|0,0:1|0:0,0:0:0:0:
230,176,229055,1,0,0:0:0:0:
220,176,229141,2,0,P|192:217|181:269,1,90,2|8,0:0|0:0,0:0:0:0:
319,336,229484,2,0,P|296:291|257:255,1,90,10|0,0:1|0:0,0:0:0:0:
110,199,229827,2,0,L|119:93,1,90,2|8,0:0|0:0,0:0:0:0:
227,2,230170,1,10,0:1:0:0:
209,125,230341,1,0,0:0:0:0:
211,133,230427,1,0,0:0:0:0:
212,141,230513,6,0,P|243:171|346:151,1,135,10|0,0:0|0:0,0:0:0:0:
337,162,230855,1,8,0:1:0:0:
428,95,231027,2,0,L|422:154,1,45,2|0,0:0|0:0,0:0:0:0:
353,248,231198,2,0,L|343:136,1,90,2|8,0:0|0:0,0:0:0:0:
297,37,231541,5,8,0:1:0:0:
217,207,231713,2,0,P|245:208|285:198,1,45,2|0,0:0|0:0,0:0:0:0:
239,110,231884,2,0,P|201:79|131:60,1,90,2|8,0:0|0:0,0:0:0:0:
32,55,232227,1,8,0:1:0:0:
4,168,232398,1,0,0:0:0:0:
2,175,232484,1,0,0:0:0:0:
0,183,232570,2,0,P|10:227|65:266,1,90,2|8,0:0|0:0,0:0:0:0:
113,384,232913,6,0,L|208:375,1,90,8|0,0:1|0:0,0:0:0:0:
211,375,233170,1,0,0:0:0:0:
217,370,233255,2,0,P|252:333|263:266,1,90,8|0,0:0|0:0,0:0:0:0:
263,288,233513,1,0,0:0:0:0:
261,280,233598,1,8,0:1:0:0:
404,288,233770,1,0,0:0:0:0:
401,279,233855,1,0,0:0:0:0:
398,270,233941,2,0,P|395:242|406:180,1,90,2|8,0:0|0:0,0:0:0:0:
479,83,234284,5,8,0:1:0:0:
372,44,234455,2,0,P|368:72|369:99,1,45,2|0,0:0|0:0,0:0:0:0:
294,195,234627,2,0,P|298:167|297:140,1,45,2|0,0:0|0:0,0:0:0:0:
270,25,234798,1,8,0:0:0:0:
207,167,234970,2,0,P|150:170|101:150,1,90,8|0,0:1|0:0,0:0:0:0:
110,157,235227,1,0,0:0:0:0:
101,154,235313,2,0,L|96:207,1,45,2|0,0:0|0:0,0:0:0:0:
75,363,235484,1,8,0:0:0:0:
208,287,235655,5,8,0:1:0:0:
85,281,235827,1,0,0:0:0:0:
76,277,235913,1,0,0:0:0:0:
67,274,235998,2,0,P|34:246|17:194,1,90,8|0,0:0|0:0,0:0:0:0:
6,58,236341,1,8,0:1:0:0:
122,67,236513,1,0,0:0:0:0:
130,70,236598,1,0,0:0:0:0:
138,73,236684,6,0,P|153:91|163:118,1,45,2|0,0:0|0:0,0:0:0:0:
202,244,236855,2,0,P|212:203|255:153,1,90,8|8,0:0|0:1,0:0:0:0:
338,101,237198,2,0,L|388:96,3,45,2|0|0|0,0:0|0:0|0:0|0:0,0:0:0:0:
294,22,237541,1,8,0:0:0:0:
392,175,237713,1,8,0:1:0:0:
288,232,237884,2,0,P|286:260|296:287,1,45,2|0,0:0|0:0,0:0:0:0:
322,375,238055,2,0,P|350:376|377:367,1,45,2|0,0:0|0:0,0:0:0:0:
467,325,238227,1,8,0:0:0:0:
403,184,238398,2,0,L|413:73,1,90,8|0,0:1|0:0,0:0:0:0:
413,85,238655,1,0,0:0:0:0:
414,76,238741,1,8,0:0:0:0:
274,229,239427,5,0,0:0:0:0:
156,84,240113,1,0,0:0:0:0:
71,233,240455,1,2,0:0:0:0:
65,258,240627,1,2,0:0:0:0:
72,285,240798,1,2,0:0:0:0:
205,166,241141,1,2,0:0:0:0:
174,350,241484,6,0,P|160:374|133:392,5,45,14|0|0|0|0|0,0:0|0:0|0:0|0:0|0:0|0:0,0:0:0:0:
99,321,241998,2,0,P|83:305|73:286,5,45
168,207,242513,2,0,L|123:203,3,45,2|0|0|0,0:0|0:0|0:0|0:0,0:0:0:0:
236,148,242855,6,0,P|249:172|251:204,5,45,2|0|0|0|0|0,0:0|0:0|0:0|0:0|0:0|0:0,0:0:0:0:
228,70,243370,2,0,P|255:70|284:84,5,45,2|0|0|0|0|0,0:0|0:0|0:0|0:0|0:0|0:0,0:0:0:0:
391,15,243884,1,2,0:0:0:0:
380,29,243970,1,0,0:0:0:0:
371,45,244055,1,0,0:0:0:0:
363,61,244141,1,0,0:0:0:0:
357,78,244227,1,0,0:0:0:0:
353,95,244313,1,0,0:0:0:0:
351,113,244398,1,0,0:0:0:0:
350,131,244484,1,0,0:0:0:0:
351,149,244570,1,0,0:0:0:0:
354,167,244655,1,0,0:0:0:0:
358,184,244741,1,0,0:0:0:0:
364,201,244827,1,0,0:0:0:0:
372,218,244913,2,0,L|435:223,3,45
466,305,245255,6,0,P|437:316|391:317,1,45,2|0,0:0|0:0,0:0:0:0:
351,384,245427,2,0,P|327:365|303:325,1,45,2|0,0:0|0:0,0:0:0:0:
286,231,245598,2,0,P|281:207|265:184,5,45,2|0|0|0|0|0,0:0|0:0|0:0|0:0|0:0|0:0,0:0:0:0:
176,174,246113,2,0,P|181:150|196:127,5,45,2|0|0|0|0|0,0:0|0:0|0:0|0:0|0:0|0:0,0:0:0:0:
267,58,246627,2,0,L|321:53,3,45,2|0|0|0,0:0|0:0|0:0|0:0,0:0:0:0:
154,35,246970,5,0,0:0:0:0:
129,24,247055,1,0,0:0:0:0:
102,20,247141,1,0,0:0:0:0:
76,25,247227,1,0,0:0:0:0:
52,37,247313,1,0,0:0:0:0:
32,55,247398,1,0,0:0:0:0:
18,78,247484,1,0,0:0:0:0:
12,104,247570,1,0,0:0:0:0:
14,131,247655,1,0,0:0:0:0:
23,157,247741,1,0,0:0:0:0:
39,178,247827,1,0,0:0:0:0:
61,194,247913,1,0,0:0:0:0:
87,200,247998,2,0,L|131:196,1,45,2|0,0:0|0:0,0:0:0:0:
44,305,248170,2,0,L|0:301,1,45,2|0,0:0|0:0,0:0:0:0:
140,374,248341,5,2,0:0:0:0:
170,365,248427,1,0,0:0:0:0:
198,350,248513,1,0,0:0:0:0:
221,330,248598,1,0,0:0:0:0:
240,305,248684,1,0,0:0:0:0:
253,276,248770,1,0,0:0:0:0:
259,245,248855,2,0,P|262:221|248:187,1,45,2|0,0:0|0:0,0:0:0:0:
366,174,249027,2,0,P|376:153|406:131,1,45
257,63,249198,2,0,P|260:39|246:5,1,45
453,61,249370,5,2,0:0:0:0:
487,89,249455,1,0,0:0:0:0:
510,128,249541,1,0,0:0:0:0:
512,172,249627,1,0,0:0:0:0:
512,216,249712,1,0,0:0:0:0:
493,256,249798,1,0,0:0:0:0:
461,288,249884,1,0,0:0:0:0:
421,307,249970,1,0,0:0:0:0:
376,305,250055,1,2,0:0:0:0:
337,275,250140,1,0,0:0:0:0:
319,228,250226,1,0,0:0:0:0:
334,180,250312,1,0,0:0:0:0:
374,151,250398,5,2,0:0:0:0:
427,146,250484,1,0,0:0:0:0:
471,177,250569,1,0,0:0:0:0:
487,228,250655,1,0,0:0:0:0:
470,279,250741,1,2,0:0:0:0:
416,324,250826,1,0,0:0:0:0:
348,344,250912,1,2,0:0:0:0:
281,319,250998,1,0,0:0:0:0:
247,257,251083,1,12,0:0:0:0:
289,57,252113,5,8,0:1:0:0:
288,82,252455,6,0,P|271:154|226:200,1,125.999996154785,12|0,0:0|0:0,0:0:0:0:
0,172,252798,2,0,P|35:106|90:74,1,125.999996154785,8|0,0:1|0:0,0:0:0:0:
151,65,253055,1,0,0:0:0:0:
151,65,253141,2,0,P|165:96|172:131,1,62.9999980773926,2|0,0:0|0:0,0:0:0:0:
175,296,253313,1,8,0:0:0:0:
341,200,253484,5,8,0:1:0:0:
252,339,253655,1,0,0:0:0:0:
237,356,253741,1,0,0:0:0:0:
217,371,253827,2,0,P|179:380|88:332,1,125.999996154785,2|8,0:0|0:0,0:0:0:0:
0,197,254170,2,0,P|7:126|37:62,1,125.999996154785,8|0,0:1|0:0,0:0:0:0:
77,16,254427,1,0,0:0:0:0:
80,21,254513,2,0,P|128:58|249:48,1,161.999995056153,2|8,0:0|0:0,0:0:0:0:
462,0,254855,6,0,P|495:43|496:121,1,125.999996154785,8|0,0:1|0:3,0:3:0:0:
487,187,255113,1,0,0:0:0:0:
487,187,255198,1,8,0:0:0:0:
353,239,255370,1,0,0:0:0:0:
327,238,255455,1,0,0:0:0:0:
304,226,255541,1,8,0:1:0:0:
252,98,255713,1,0,0:0:0:0:
277,70,255798,1,0,0:0:0:0:
309,50,255884,1,0,0:0:0:0:
346,39,255970,1,0,0:0:0:0:
383,38,256055,1,8,0:0:0:0:
443,263,256227,5,8,0:1:0:0:
390,147,256398,1,0,0:0:0:0:
361,120,256484,1,0,0:0:0:0:
327,103,256570,1,0,0:0:0:0:
289,95,256655,1,0,0:0:0:0:
252,98,256741,1,8,0:0:0:0:
276,306,256913,2,0,P|316:353|375:375,1,125.999996154785,8|8,0:1|0:0,0:0:0:0:
453,383,257170,1,0,0:0:0:0:
453,383,257255,2,0,P|463:333|422:238,1,125.999996154785,2|8,0:0|0:0,0:0:0:0:
192,303,257598,6,0,P|130:291|82:251,1,125.999996154785,8|8,0:1|0:0,0:0:0:0:
63,176,257855,1,0,0:0:0:0:
63,176,257941,2,0,P|105:108|201:77,1,161.999995056153,8|0,0:0|0:0,0:0:0:0:
436,37,258284,2,0,P|468:89|468:178,1,125.999996154785,8|0,0:1|0:0,0:0:0:0:
482,229,258541,1,0,0:0:0:0:
482,229,258627,2,0,L|409:234,1,62.9999980773926,2|0,0:0|0:0,0:0:0:0:
291,328,258798,1,8,0:0:0:0:
177,157,258970,5,8,0:1:0:0:
317,77,259141,1,0,0:0:0:0:
339,90,259227,1,0,0:0:0:0:
354,110,259313,2,0,P|374:141|379:168,1,62.9999980773926,2|0,0:0|0:0,0:0:0:0:
406,357,259484,1,8,0:0:0:0:
284,165,259655,1,8,0:1:0:0:
291,328,259827,1,0,0:0:0:0:
266,333,259913,1,0,0:0:0:0:
241,328,259998,2,0,P|216:313|196:277,1,62.9999980773926,2|0,0:0|0:0,0:0:0:0:
180,92,260170,1,8,0:0:0:0:
102,335,260341,6,0,P|97:267|53:211,1,125.999996154785,8|0,0:1|0:0,0:0:0:0:
6,180,260598,1,0,0:0:0:0:
6,180,260684,1,8,0:0:0:0:
197,104,260855,1,0,0:0:0:0:
214,122,260941,1,0,0:0:0:0:
222,145,261027,1,8,0:1:0:0:
78,136,261198,1,0,0:0:0:0:
48,111,261284,1,0,0:0:0:0:
25,81,261370,1,0,0:0:0:0:
8,47,261455,1,0,0:0:0:0:
0,11,261541,1,8,0:0:0:0:
224,166,261713,5,8,0:1:0:0:
158,11,261884,1,0,0:0:0:0:
127,36,261970,1,0,0:0:0:0:
104,66,262055,1,0,0:0:0:0:
86,100,262141,1,0,0:0:0:0:
78,136,262227,1,8,0:0:0:0:
189,359,262398,2,0,P|247:368|325:356,1,125.999996154785,8|0,0:1|0:0,0:0:0:0:
388,381,262655,1,0,0:0:0:0:
388,381,262741,2,0,L|382:316,1,62.9999980773926,2|0,0:0|0:0,0:0:0:0:
324,106,262913,1,8,0:0:0:0:
142,285,263084,6,0,P|142:222|177:167,1,125.999996154785,8|0,0:1|0:0,0:0:0:0:
233,120,263341,1,0,0:0:0:0:
233,120,263427,2,0,P|317:223|485:167,1,323.999990112305,8|8,0:0|0:1,0:0:0:0:
405,0,263941,1,0,0:0:0:0:
364,1,264027,1,0,0:0:0:0:
329,10,264113,1,0,0:0:0:0:
293,25,264198,1,0,0:0:0:0:
263,49,264284,1,8,0:0:0:0:
202,261,264455,6,0,L|68:250,1,125.999996154785,8|0,0:1|0:0,0:0:0:0:
7,233,264713,1,0,0:0:0:0:
20,198,264798,1,0,0:0:0:0:
47,172,264884,1,0,0:0:0:0:
81,157,264970,1,8,0:0:0:0:
269,316,265141,1,8,0:1:0:0:
312,151,265313,1,0,0:0:0:0:
315,126,265398,1,0,0:0:0:0:
308,101,265484,2,0,P|280:85|231:84,1,62.9999980773926,2|0,0:0|0:0,0:0:0:0:
58,74,265655,1,8,0:0:0:0:
202,261,265827,1,8,0:1:0:0:
150,109,265998,1,0,0:0:0:0:
150,83,266084,1,0,0:0:0:0:
160,60,266170,6,0,P|203:12|296:8,1,125.999996154785,8|0,0:0|0:0,0:0:0:0:
495,9,266513,1,8,0:1:0:0:
414,126,266684,2,0,P|409:194|457:276,1,125.999996154785,2|0,0:0|0:0,0:0:0:0:
487,300,266941,1,0,0:0:0:0:
487,300,267027,1,8,0:0:0:0:
277,350,267198,6,0,L|130:362,1,125.999996154785,8|0,0:1|0:0,0:0:0:0:
80,375,267455,1,0,0:0:0:0:
80,375,267541,2,0,L|73:305,1,62.9999980773926,2|0,0:0|0:0,0:0:0:0:
58,118,267713,1,8,0:0:0:0:
0,323,267884,1,8,0:1:0:0:
150,288,268055,1,0,0:0:0:0:
187,282,268140,1,0,0:0:0:0:
221,266,268226,1,0,0:0:0:0:
249,241,268312,1,0,0:0:0:0:
268,208,268397,1,8,0:0:0:0:
132,99,268570,5,8,0:1:0:0:
51,198,268741,1,0,0:0:0:0:
25,203,268827,1,0,0:0:0:0:
0,195,268913,2,0,P|-18:142|10:63,1,125.999996154785,8|0,0:0|0:0,0:0:0:0:
29,12,269170,1,0,0:0:0:0:
29,12,269255,2,0,L|156:23,1,125.999996154785,8|0,0:1|0:0,0:0:0:0:
207,77,269513,1,0,0:0:0:0:
239,96,269598,1,0,0:0:0:0:
276,101,269684,1,0,0:0:0:0:
312,91,269770,1,8,0:0:0:0:
505,22,269941,6,0,P|463:87|476:180,1,125.999996154785,8|0,0:1|0:0,0:0:0:0:
459,208,270198,1,0,0:0:0:0:
421,211,270284,1,0,0:0:0:0:
383,214,270370,1,0,0:0:0:0:
345,217,270455,1,8,0:0:0:0:
271,16,270627,2,0,P|229:81|242:174,1,125.999996154785,8|0,0:1|0:0,0:0:0:0:
259,197,270884,1,0,0:0:0:0:
255,234,270970,1,0,0:0:0:0:
252,272,271055,1,0,0:0:0:0:
249,310,271141,1,8,0:0:0:0:
90,98,271313,2,0,P|123:151|129:217,1,125.999996154785,8|0,0:1|0:0,0:0:0:0:
89,277,271570,1,0,0:0:0:0:
89,277,271655,6,0,B|19:368|-71:251|15:174|78:223|78:223|144:264|261:244|261:244|232:192|276:135|276:135|317:167|317:167|396:236|477:151|410:76|364:68|317:89|317:167|317:167|358:240|348:301|278:324,1,1079.99996704102,8|0,0:3|0:0,0:0:0:0:
150,373,273713,5,2,0:0:0:0:
162,154,274055,1,2,0:0:0:0:
291,327,274398,5,12,0:0:0:0:
350,231,295655,5,0,0:0:0:0:
407,83,295998,1,0,0:0:0:0:
231,97,296341,6,0,B|195:176|241:316|241:316|274:254|350:232|350:232|264:146|140:202|140:202|124:144|160:70,1,720,2|0,0:0|0:0,0:0:0:0:
354,144,298398,2,0,B|398:167|423:204|423:204|427:256,1,144
336,356,299084,5,2,0:0:0:0:
336,356,299255,2,0,L|244:347,1,72,2|0,0:0|0:0,0:0:0:0:
179,246,299598,1,2,0:0:0:0:
179,246,299770,1,2,0:0:0:0:
398,192,300113,5,2,0:0:0:0:
398,192,300284,1,2,0:0:0:0:
205,141,300627,1,2,0:0:0:0:
205,141,300798,2,0,L|295:148,1,72,2|0,0:0|0:0,0:0:0:0:
468,102,301141,1,2,0:0:0:0:
311,229,301313,1,2,0:0:0:0:
487,223,301484,1,2,0:0:0:0:
351,102,301655,1,2,0:0:0:0:
408,285,301827,5,2,0:0:0:0:
408,285,301998,1,2,0:0:0:0:
197,277,302341,1,2,0:0:0:0:
197,277,302513,1,2,0:0:0:0:
268,96,302855,5,2,0:0:0:0:
268,96,303027,1,2,0:0:0:0:
123,241,303370,1,2,0:0:0:0:
123,241,303541,2,0,L|116:163,1,72,2|0,0:0|0:0,0:0:0:0:
193,55,303884,1,2,0:0:0:0:
239,177,304055,1,2,0:0:0:0:
92,90,304227,1,2,0:0:0:0:
92,90,304398,1,2,0:0:0:0:
268,96,304570,5,2,0:0:0:0:
268,96,304741,1,2,0:0:0:0:
411,187,305084,1,2,0:0:0:0:
411,187,305255,1,2,0:0:0:0:
315,336,305598,5,2,0:0:0:0:
315,336,305770,2,0,L|213:327,1,72,2|0,0:0|0:0,0:0:0:0:
139,229,306113,1,2,0:0:0:0:
113,362,306284,1,2,0:0:0:0:
113,362,306455,1,2,0:0:0:0:
239,249,306627,1,2,0:0:0:0:
239,249,306798,1,2,0:0:0:0:
50,237,306970,2,0,L|152:246,1,72,2|0,0:0|0:0,0:0:0:0:
243,127,307313,6,0,P|313:81|412:102,1,180,2|0,0:0|0:0,0:0:0:0:
340,197,307827,1,2,0:0:0:0:
437,270,307998,2,0,P|367:317|272:295,1,180,2|0,0:0|0:0,0:0:0:0:
229,161,308513,1,2,0:0:0:0:
246,46,308684,2,0,P|319:85|343:180,1,180,2|0,0:0|0:0,0:0:0:0:
268,278,309198,1,2,0:0:0:0:
211,381,309370,2,0,P|156:316|170:218,1,180,2|0,0:0|0:0,0:0:0:0:
221,111,309884,1,2,0:0:0:0:
278,203,310055,5,2,0:0:0:0:
392,175,310227,2,0,P|365:125|310:87,1,90,2|0,0:0|0:0,0:0:0:0:
212,91,310570,1,2,0:0:0:0:
97,56,310741,2,0,P|95:112|123:172,1,90,2|0,0:0|0:0,0:0:0:0:
188,225,311084,5,2,0:0:0:0:
211,339,311255,2,0,P|259:318|298:257,1,90,2|0,0:0|0:0,0:0:0:0:
298,174,311598,1,2,0:0:0:0:
384,94,311770,2,0,P|336:64|270:59,1,90,2|0,0:0|0:0,0:0:0:0:
132,83,312113,1,2,0:0:0:0:
204,228,312284,1,2,0:0:0:0:
203,6,312455,1,2,0:0:0:0:
107,216,312627,1,2,0:0:0:0:
310,74,312798,5,2,0:0:0:0:
337,89,312884,1,0,0:0:0:0:
365,106,312970,2,0,L|433:99,3,53.9999983520508,2|0|0|0,0:0|0:0|0:0|0:0,0:0:0:0:
395,247,313313,2,0,P|380:223|344:196,1,53.9999983520508,2|0,0:0|0:0,0:0:0:0:
238,154,313484,2,0,L|169:160,3,53.9999983520508,2|0|0|0,0:0|0:0|0:0|0:0,0:0:0:0:
309,276,313827,5,2,0:0:0:0:
285,297,313913,1,0,0:0:0:0:
260,318,313998,2,0,L|191:324,3,53.9999983520508,2|0|0|0,0:0|0:0|0:0|0:0,0:0:0:0:
59,342,314341,2,0,P|55:313|65:270,1,53.9999983520508,2|0,0:0|0:0,0:0:0:0:
92,118,314513,1,2,0:0:0:0:
105,82,314598,1,0,0:0:0:0:
129,54,314684,1,0,0:0:0:0:
163,37,314770,1,0,0:0:0:0:
200,32,314855,2,0,L|269:38,1,53.9999983520508,2|0,0:0|0:0,0:0:0:0:
291,154,315027,2,0,L|360:147,1,53.9999983520508
418,37,315198,5,2,0:0:0:0:
465,60,315284,1,0,0:0:0:0:
498,103,315370,1,2,0:0:0:0:
510,155,315455,1,0,0:0:0:0:
497,207,315541,1,2,0:0:0:0:
464,249,315627,1,0,0:0:0:0:
415,272,315713,1,2,0:0:0:0:
361,274,315798,1,0,0:0:0:0:
309,259,315884,5,0,0:0:0:0:
269,224,315970,1,0,0:0:0:0:
237,180,316055,1,2,0:0:0:0:
202,139,316141,1,0,0:0:0:0:
153,120,316227,1,2,0:0:0:0:
99,116,316313,1,0,0:0:0:0:
49,136,316398,1,0,0:0:0:0:
13,176,316484,1,0,0:0:0:0:
0,227,316570,1,2,0:0:0:0:
7,280,316655,1,0,0:0:0:0:
37,324,316741,1,2,0:0:0:0:
82,353,316827,1,0,0:0:0:0:
134,365,316913,1,0,0:0:0:0:
187,355,316998,1,0,0:0:0:0:
236,333,317084,1,0,0:0:0:0:
287,315,317170,1,0,0:0:0:0:
339,323,317255,5,2,0:3:0:0:
330,255,317341,1,0,0:0:0:0:
362,193,317427,1,0,0:0:0:0:
424,162,317513,1,0,0:0:0:0:
492,171,317598,5,2,0:3:0:0:
449,225,317684,1,0,0:0:0:0:
386,256,317770,1,0,0:0:0:0:
316,256,317855,1,0,0:0:0:0:
254,226,317941,5,12,0:0:0:0:
337,9,318284,5,8,0:0:0:0:
176,111,318455,1,2,0:0:0:0:
165,145,318541,1,0,0:0:0:0:
176,179,318627,1,8,0:1:0:0:
357,127,318798,2,0,P|325:105|280:108,1,72,2|0,0:0|0:0,0:0:0:0:
111,217,318970,2,0,P|135:245|181:254,1,72,2|0,0:0|0:0,0:0:0:0:
329,235,319141,1,8,0:0:0:0:
92,338,319313,5,8,0:1:0:0:
31,209,319484,1,2,0:0:0:0:
42,159,319570,1,0,0:0:0:0:
68,116,319655,1,0,0:0:0:0:
106,84,319741,1,0,0:0:0:0:
153,65,319827,1,8,0:0:0:0:
258,265,319998,1,8,0:1:0:0:
316,134,320170,1,2,0:3:0:0:
338,106,320255,1,0,0:3:0:0:
371,91,320341,6,0,P|399:115|416:167,1,72,2|0,0:0|0:3,0:3:0:0:
430,361,320513,1,8,0:0:0:0:
246,173,320684,1,8,0:1:0:0:
495,273,320855,2,0,L|424:279,1,72,2|0,0:0|0:0,0:0:0:0:
290,344,321027,6,0,L|360:350,1,62.9999980773926,8|0,0:0|0:0,0:0:0:0:
464,194,321198,1,2,0:0:0:0:
277,255,321370,1,8,0:1:0:0:
312,97,321541,2,0,L|304:169,1,62.9999980773926,2|0,0:0|0:0,0:0:0:0:
198,278,321713,2,0,L|191:202,1,62.9999980773926,2|0,0:0|0:0,0:0:0:0:
87,99,321884,1,8,0:0:0:0:
110,315,322055,5,8,0:1:0:0:
201,194,322227,1,2,0:0:0:0:
211,164,322313,1,0,0:0:0:0:
218,133,322398,2,0,P|198:106|144:82,1,62.9999980773926,2|0,0:0|0:0,0:0:0:0:
1,39,322570,1,8,0:0:0:0:
66,227,322741,1,8,0:1:0:0:
91,72,322913,1,2,0:0:0:0:
109,46,322998,1,0,0:0:0:0:
130,22,323084,2,0,P|167:8|225:15,1,62.9999980773926,2|0,0:0|0:0,0:0:0:0:
384,33,323255,1,8,0:0:0:0:
192,215,323427,1,8,0:1:0:0:
290,18,323598,2,0,P|289:66|269:111,1,62.9999980773926,2|0,0:0|0:0,0:0:0:0:
113,202,323770,5,8,0:0:0:0:
379,207,323941,1,2,0:0:0:0:
175,80,324113,1,8,0:1:0:0:
233,271,324284,2,0,P|207:246|191:213,1,72,2|0,0:0|0:0,0:0:0:0:
354,117,324455,2,0,P|332:142|298:158,1,72,2|0,0:0|0:0,0:0:0:0:
101,120,324627,1,8,0:0:0:0:
197,352,324798,5,8,0:1:0:0:
350,329,324970,1,2,0:0:0:0:
384,291,325055,1,0,0:0:0:0:
406,245,325141,1,0,0:0:0:0:
408,195,325227,1,0,0:0:0:0:
393,148,325313,1,8,0:0:0:0:
185,193,325484,1,8,0:1:0:0:
226,330,325655,1,2,0:0:0:0:
197,352,325741,1,0,0:0:0:0:
162,363,325827,2,0,P|129:363|95:329,1,72,2|0,0:0|0:0,0:0:0:0:
24,127,325998,1,8,0:0:0:0:
23,384,326170,1,8,0:1:0:0:
112,163,326341,1,2,0:0:0:0:
130,131,326427,1,0,0:0:0:0:
162,115,326513,5,8,0:0:0:0:
248,271,326684,1,2,0:0:0:0:
6,227,326855,1,8,0:1:0:0:
184,110,327027,2,0,L|275:102,1,72,2|0,0:0|0:0,0:0:0:0:
338,252,327198,2,0,L|247:259,1,72,2|0,0:0|0:0,0:0:0:0:
144,332,327370,1,8,0:0:0:0:
317,166,327541,5,8,0:1:0:0:
296,353,327713,1,2,0:0:0:0:
340,376,327798,1,0,0:0:0:0:
390,378,327884,1,0,0:0:0:0:
435,357,327970,1,0,0:0:0:0:
467,319,328055,1,8,0:0:0:0:
394,55,328227,1,8,0:1:0:0:
375,285,328398,2,0,P|393:249|397:200,1,72,2|0,0:0|0:0,0:0:0:0:
227,76,328570,2,0,P|208:111|204:160,1,72,2|0,0:0|0:0,0:0:0:0:
222,315,328741,1,8,0:0:0:0:
314,92,328913,2,0,P|266:7|144:44,1,216,8|0,0:1|0:0,0:0:0:0:
108,87,329255,5,8,0:0:0:0:
239,230,329427,1,2,0:0:0:0:
0,101,329598,1,8,0:1:0:0:
57,271,329770,2,0,P|90:288|132:288,1,72,2|0,0:0|0:0,0:0:0:0:
303,171,329941,2,0,P|269:154|227:152,1,72,2|0,0:0|0:0,0:0:0:0:
65,176,330113,1,8,0:0:0:0:
132,371,330284,5,8,0:1:0:0:
233,257,330455,1,2,0:0:0:0:
282,246,330541,1,0,0:0:0:0:
332,248,330627,1,0,0:0:0:0:
380,265,330713,1,0,0:0:0:0:
423,293,330798,1,8,0:0:0:0:
270,384,330970,1,8,0:1:0:0:
443,384,331141,1,2,0:0:0:0:
476,370,331227,1,0,0:0:0:0:
499,342,331313,6,0,P|509:314|509:268,1,72,2|0,0:0|0:0,0:0:0:0:
434,80,331484,1,8,0:0:0:0:
299,162,331655,1,8,0:1:0:0:
458,152,331827,1,2,0:0:0:0:
491,138,331913,1,0,0:0:0:0:
506,110,331998,5,8,0:0:0:0:
324,3,332170,1,2,0:0:0:0:
380,236,332341,1,8,0:1:0:0:
205,90,332513,2,0,P|194:124|194:160,1,62.9999980773926,2|0,0:0|0:0,0:0:0:0:
294,252,332684,2,0,P|304:217|304:181,1,62.9999980773926,2|0,0:0|0:0,0:0:0:0:
284,69,332855,1,8,0:0:0:0:
192,316,333027,6,0,L|45:329,1,125.999996154785,8|2,0:1|0:0,0:0:0:0:
14,274,333284,1,0,0:0:0:0:
8,224,333370,1,0,0:0:0:0:
15,174,333455,1,0,0:0:0:0:
38,129,333541,1,8,0:0:0:0:
214,233,333713,1,8,0:1:0:0:
151,133,333884,5,2,0:0:0:0:
142,102,333970,1,0,0:0:0:0:
146,71,334055,2,0,P|177:50|225:50,1,62.9999980773926,2|0,0:0|0:0,0:0:0:0:
411,97,334227,1,8,0:0:0:0:
275,307,334398,1,8,0:1:0:0:
407,251,334570,1,2,0:0:0:0:
438,264,334655,1,0,0:0:0:0:
463,290,334741,5,8,0:0:0:0:
336,149,334913,1,2,0:0:0:0:
306,384,335084,1,8,0:1:0:0:
216,257,335255,2,0,L|209:186,1,72,2|0,0:0|0:0,0:0:0:0:
343,77,335427,2,0,L|336:147,1,72,2|0,0:0|0:0,0:0:0:0:
396,334,335598,1,8,0:0:0:0:
237,92,335770,5,8,0:1:0:0:
295,229,335941,2,0,P|326:235|375:227,1,72,2|0,0:0|0:0,0:0:0:0:
485,128,336113,2,0,P|461:107|414:89,1,72,2|0,0:0|0:0,0:0:0:0:
222,74,336284,1,8,0:0:0:0:
268,306,336455,1,8,0:1:0:0:
154,265,336627,1,2,0:0:0:0:
133,236,336713,1,0,0:0:0:0:
124,201,336798,2,0,P|126:166|167:124,1,72,2|0,0:0|0:0,0:0:0:0:
328,55,336970,1,8,0:0:0:0:
384,260,337141,2,0,P|361:341|277:369,1,144,8|2,0:1|0:0,0:0:0:0:
234,372,337398,1,0,0:0:0:0:
198,376,337484,6,0,L|105:367,1,72,10|0,0:0|0:0,0:0:0:0:
0,283,337655,2,0,L|71:276,1,72,2|0,0:0|0:0,0:0:0:0:
212,132,337827,1,8,0:1:0:0:
297,236,337998,6,0,L|389:227,1,72,2|0,0:0|0:0,0:0:0:0:
512,122,338170,2,0,L|420:113,1,72,2|0,0:0|0:0,0:0:0:0:
266,24,338341,1,8,0:0:0:0:
202,283,338513,6,0,L|208:211,1,72,10|0,0:1|0:0,0:0:0:0:
139,27,338684,2,0,L|145:98,1,72,2|0,0:0|0:0,0:0:0:0:
46,230,338855,1,2,0:0:0:0:
54,12,339027,1,8,0:1:0:0:
201,303,339198,2,0,P|272:320|362:286,1,144,8|0,0:0|0:0,0:0:0:0:
394,253,339455,1,0,0:0:0:0:
413,222,339541,2,0,L|406:149,1,72,2|0,0:0|0:0,0:0:0:0:
236,0,339713,1,8,0:0:0:0:
275,223,339884,1,8,0:1:0:0:
340,85,340055,1,0,0:0:0:0:
369,64,340141,1,0,0:0:0:0:
404,58,340227,6,0,P|469:105|496:202,1,180,12|0,0:0|0:0,0:0:0:0:
395,384,340570,1,8,0:1:0:0:
287,135,340741,1,0,0:0:0:0:
460,275,340913,2,0,P|430:295|395:302,1,72,2|0,0:0|0:0,0:0:0:0:
180,312,341084,1,8,0:0:0:0:
170,58,341255,5,8,0:1:0:0:
311,162,341427,1,0,0:0:0:0:
319,198,341513,1,0,0:0:0:0:
297,226,341598,2,0,P|266:242|209:247,1,72,2|0,0:0|0:0,0:0:0:0:
14,251,341770,1,8,0:0:0:0:
167,41,341941,2,0,P|230:4|306:20,1,144,8|0,0:1|0:0,0:0:0:0:
360,51,342198,1,0,0:0:0:0:
383,68,342284,6,0,B|384:118|384:118|396:171,1,90,2|0,0:0|0:0,0:0:0:0:
480,337,342455,1,8,0:0:0:0:
257,384,342627,2,0,P|188:369|126:322,1,144,8|0,0:1|0:0,0:0:0:0:
77,277,342884,1,0,0:0:0:0:
62,243,342970,2,0,L|75:92,1,144,8|0,0:0|0:0,0:0:0:0:
320,0,343313,1,8,0:1:0:0:
194,84,343484,1,2,0:3:0:0:
176,131,343570,1,0,0:0:0:0:
178,181,343655,1,2,0:3:0:0:
198,227,343741,1,0,0:0:0:0:
234,262,343827,1,8,0:0:0:0:
346,7,343998,5,8,0:1:0:0:
325,160,344170,1,2,0:3:0:0:
292,198,344255,1,0,0:0:0:0:
248,221,344341,1,2,0:3:0:0:
198,227,344427,1,0,0:0:0:0:
150,213,344513,1,8,0:0:0:0:
390,93,344684,2,0,P|445:133|482:203,1,144,8|0,0:1|0:0,0:0:0:0:
503,266,344941,1,0,0:0:0:0:
495,301,345027,2,0,L|406:308,1,72,2|0,0:0|0:0,0:0:0:0:
253,130,345198,1,8,0:0:0:0:
355,375,345370,1,8,0:1:0:0:
177,366,345541,1,0,0:0:0:0:
142,355,345627,1,0,0:0:0:0:
110,337,345713,6,0,P|56:279|47:166,1,180,8|0,0:0|0:0,0:0:0:0:
204,14,346055,2,0,L|375:28,1,144,8|0,0:1|0:0,0:0:0:0:
425,39,346313,1,0,0:0:0:0:
455,58,346398,2,0,P|470:122|448:207,1,144,2|8,0:0|0:0,0:0:0:0:
291,343,346741,6,0,P|222:333|155:297,1,144,8|0,0:1|0:0,0:0:0:0:
111,236,346998,1,0,0:0:0:0:
107,201,347084,1,2,0:0:0:0:
84,0,347255,1,8,0:0:0:0:
267,221,347427,1,8,0:1:0:0:
344,43,347598,1,0,0:0:0:0:
366,14,347684,1,0,0:0:0:0:
399,0,347770,2,0,P|431:9|465:48,1,72,2|0,0:0|0:0,0:0:0:0:
512,207,347941,1,8,0:0:0:0:
308,342,348113,6,0,P|238:319|201:248,1,144,8|0,0:1|0:0,0:0:0:0:
196,186,348370,1,0,0:0:0:0:
190,150,348455,2,0,P|158:87|92:60,1,144,8|0,0:0|0:0,0:0:0:0:
0,281,348798,1,8,0:1:0:0:
165,379,348970,1,2,0:3:0:0:
214,379,349055,1,0,0:0:0:0:
263,365,349141,1,2,0:3:0:0:
308,342,349227,1,0,0:0:0:0:
346,311,349313,1,8,0:0:0:0:
213,79,349484,5,8,0:1:0:0:
364,119,349655,1,2,0:3:0:0:
377,167,349741,1,0,0:0:0:0:
377,217,349827,1,2,0:3:0:0:
366,266,349913,1,0,0:0:0:0:
346,311,349998,1,8,0:0:0:0:
174,139,350170,1,8,0:1:0:0:
203,313,350341,1,0,0:3:0:0:
181,341,350427,1,0,0:3:0:0:
145,346,350513,2,0,P|114:333|88:293,1,72,2|0,0:3|0:3,0:3:0:0:
45,59,350684,1,8,0:0:0:0:
290,277,350855,1,8,0:1:0:0:
215,79,351027,1,0,0:0:0:0:
187,54,351113,1,0,0:0:0:0:
152,43,351198,6,0,P|-8:113|5:286,1,360,8|8,0:0|0:1,0:0:0:0:
195,332,351713,1,0,0:0:0:0:
239,309,351798,1,0,0:0:0:0:
272,272,351884,1,0,0:0:0:0:
288,224,351970,1,0,0:0:0:0:
285,174,352055,1,8,0:0:0:0:
160,16,352227,6,0,P|230:-4|305:7,1,144,8|0,0:1|0:0,0:0:0:0:
371,24,352484,1,0,0:0:0:0:
384,72,352570,1,0,0:0:0:0:
380,122,352655,1,0,0:0:0:0:
359,168,352741,1,8,0:0:0:0:
91,65,352913,1,8,0:1:0:0:
159,209,353084,1,0,0:0:0:0:
184,234,353170,1,0,0:0:0:0:
213,253,353255,2,0,P|249:260|286:254,1,72,2|0,0:0|0:0,0:0:0:0:
467,135,353427,1,8,0:0:0:0:
291,370,353598,1,8,0:1:0:0:
280,171,353770,1,0,0:0:0:0:
275,135,353855,1,0,0:0:0:0:
259,101,353941,6,0,P|218:43|136:22,1,144,8|0,0:0|0:0,0:0:0:0:
0,253,354284,1,8,0:1:0:0:
134,169,354455,1,2,0:0:0:0:
149,216,354541,1,0,0:0:0:0:
150,267,354627,1,0,0:0:0:0:
137,315,354713,1,0,0:0:0:0:
112,358,354798,1,8,0:0:0:0:
0,144,354970,5,8,0:1:0:0:
175,89,355141,1,0,0:0:0:0:
209,98,355227,1,0,0:0:0:0:
241,113,355313,2,0,P|265:149|274:182,1,72,2|0,0:0|0:0,0:0:0:0:
237,362,355484,1,8,0:0:0:0:
357,119,355655,1,8,0:1:0:0:
419,267,355827,1,0,0:0:0:0:
407,315,355913,1,0,0:0:0:0:
377,355,355998,1,0,0:0:0:0:
333,379,356084,1,0,0:0:0:0:
283,384,356170,1,8,0:0:0:0:
241,113,356341,2,0,P|176:74|111:78,1,144,8|0,0:1|0:0,0:0:0:0:
53,126,356598,1,0,0:0:0:0:
44,161,356684,6,0,L|56:304,1,144,8|0,0:0|0:0,0:0:0:0:
25,377,356941,1,0,0:0:0:0:
60,382,357027,2,0,P|130:379|194:325,1,144,8|0,0:1|0:0,0:0:0:0:
203,259,357284,1,0,0:0:0:0:
253,255,357369,1,0,0:0:0:0:
303,251,357455,1,0,0:0:0:0:
353,246,357541,1,8,0:0:0:0:
261,100,357713,6,0,P|316:77|406:104,1,144,8|0,0:1|0:0,0:0:0:0:
446,158,357970,1,0,0:0:0:0:
441,208,358055,1,0,0:0:0:0:
437,258,358141,1,0,0:0:0:0:
433,308,358227,1,8,0:0:0:0:
203,259,358398,2,0,P|149:223|130:143,1,144,8|0,0:1|0:0,0:0:0:0:
166,83,358655,1,0,0:0:0:0:
115,76,358741,1,0,0:0:0:0:
65,73,358827,1,0,0:0:0:0:
16,70,358913,1,8,0:0:0:0:
114,291,359084,2,0,P|175:343|239:353,1,144,8|0,0:1|0:0,0:0:0:0:
311,325,359341,1,0,0:0:0:0:
330,294,359427,6,0,L|476:281,1,144,8|0,0:0|0:0,0:0:0:0:
512,60,359770,1,8,0:1:0:0:
350,73,359941,1,2,0:0:0:0:
301,86,360027,1,0,0:0:0:0:
261,117,360113,1,2,0:0:0:0:
235,159,360198,1,0,0:0:0:0:
226,209,360284,1,8,0:0:0:0:
512,161,360455,5,8,0:1:0:0:
401,266,360627,1,2,0:0:0:0:
352,278,360713,1,0,0:0:0:0:
302,271,360798,1,2,0:0:0:0:
259,248,360884,1,0,0:0:0:0:
226,209,360970,1,8,0:0:0:0:
438,106,361141,5,8,0:1:0:0:
325,189,361313,2,0,P|326:162|315:127,1,53.9999983520508,2|0,0:0|0:0,0:0:0:0:
368,40,361484,2,0,P|345:25|309:17,1,53.9999983520508,2|0,0:0|0:0,0:0:0:0:
181,30,361655,1,8,0:0:0:0:
232,127,361827,1,8,0:1:0:0:
121,120,361998,5,0,0:0:0:0:
122,147,362084,1,0,0:0:0:0:
132,173,362170,6,0,P|155:212|161:249,1,80.9999975280763,6|0,0:0|0:0,0:0:0:0:
129,352,362513,1,0,0:0:0:0:
32,309,362684,2,0,P|50:271|90:239,1,80.9999975280763,0|4,0:0|0:0,0:0:0:0:
233,205,363027,1,0,0:0:0:0:
267,277,363198,1,0,0:0:0:0:
344,300,363370,1,0,0:0:0:0:
418,269,363541,5,2,0:0:0:0:
432,349,363713,1,0,0:0:0:0:
506,380,363884,1,0,0:0:0:0:
512,180,364227,2,0,P|492:147|446:122,1,80.9999975280763,2|0,0:0|0:0,0:0:0:0:
377,107,364570,1,0,0:0:0:0:
474,259,364913,5,2,0:0:0:0:
293,193,365255,1,0,0:0:0:0:
296,102,365427,2,0,P|256:109|223:132,2,80.9999975280763,2|0|0,0:0|0:0|0:0,0:0:0:0:
380,128,365941,1,0,0:0:0:0:
351,293,366284,6,0,P|266:307|204:263,1,161.999995056153,2|0,0:0|0:0,0:0:0:0:
45,288,366970,2,0,P|99:221|92:145,1,161.999995056153,2|0,0:0|0:0,0:0:0:0:
4,15,367655,1,2,0:0:0:0:
231,51,367998,1,0,0:0:0:0:
185,141,368170,2,0,L|290:150,1,80.9999975280763,2|0,0:0|0:0,0:0:0:0:
330,98,368513,1,0,0:0:0:0:
387,155,368684,1,0,0:0:0:0:
387,235,368855,1,0,0:0:0:0:
341,302,369027,5,2,0:0:0:0:
283,245,369198,1,0,0:0:0:0:
204,225,369370,2,0,P|152:232|118:260,1,80.9999975280763
78,361,369713,2,0,L|242:376,1,161.999995056153,2|0,0:0|0:0,0:0:0:0:
383,380,370398,6,0,P|382:335|341:273,1,116.999994644165,2|0,0:0|0:0,0:0:0:0:
274,189,371084,2,0,P|326:178|386:134,1,107.999996704102,2|0,0:0|0:0,0:0:0:0:
432,29,371770,2,0,P|388:14|334:18,1,99.0000030212403,2|0,0:0|0:0,0:0:0:0:
184,16,372455,2,0,P|153:49|139:93,1,90,2|0,0:0|0:0,0:0:0:0:
84,240,373141,6,0,B|134:287|221:246|221:246|335:232|260:45|110:192|221:246|221:246|283:280|332:271|332:271|330:341|373:371,1,647.99998022461,6|4,0:0|0:0,0:0:0:0:
