osu file format v14

[General]
AudioFilename: Stan SB - Anyone Out There.mp3
AudioLeadIn: 0
PreviewTime: 118263
Countdown: 0
SampleSet: Soft
StackLeniency: 0.7
Mode: 0
LetterboxInBreaks: 1
StoryFireInFront: 0
EpilepsyWarning: 1
WidescreenStoryboard: 1

[Editor]
DistanceSpacing: 0.7
BeatDivisor: 4
GridSize: 32
TimelineZoom: 2.700006

[Metadata]
Title:Anyone Out There
TitleUnicode:Anyone Out There
Artist:Stan SB
ArtistUnicode:Stan SB
Creator:lsahi
Version:Lsa Style
Source:
Tags:
BeatmapID:484827
BeatmapSetID:205387

[Difficulty]
HPDrainRate:6.5
CircleSize:4
OverallDifficulty:8
ApproachRate:9.3
SliderMultiplier:1.9
SliderTickRate:2

[Events]
//Background and Video events
0,0,"BG.jpg",0,0
//Break Periods
2,26609,29938
//Storyboard Layer 0 (Background)
//Storyboard Layer 1 (Fail)
//Storyboard Layer 2 (Pass)
//Storyboard Layer 3 (Foreground)
//Storyboard Sound Samples

[TimingPoints]
12643,342.857142857143,4,2,0,100,1,0
22472,342.857142857143,4,2,1,100,1,0
30492,342.857142857143,4,2,1,40,1,0
31177,-83.3333333333333,4,2,1,40,0,0
31349,-100,4,2,1,40,0,0
41463,-100,4,2,1,100,0,1
41549,-100,4,2,1,60,0,0
52092,-100,4,2,1,70,0,0
52434,-90.9090909090909,4,2,1,70,0,1
52520,-90.9090909090909,4,2,1,70,0,0
63406,-83.3333333333333,4,2,1,60,0,1
63492,-83.3333333333333,4,2,1,60,0,0
74377,-83.3333333333333,4,2,1,100,0,0
74477,-83.3333333333333,4,2,1,60,0,0
90834,-76.9230769230769,4,2,1,60,0,0
94092,-76.9230769230769,4,2,1,5,0,1
95977,-76.9230769230769,4,2,1,60,0,0
112777,-76.9230769230769,4,2,1,30,0,0
113463,-76.9230769230769,4,2,1,50,0,0
114149,-76.9230769230769,4,2,1,70,0,0
117920,-76.9230769230769,4,2,1,70,0,1
118006,-76.9230769230769,4,2,1,70,0,0
118263,-66.6666666666667,4,2,1,80,0,1
138834,-66.6666666666667,4,2,1,80,0,0
140034,-66.6666666666667,4,2,1,5,0,0

[Colours]
Combo1 : 255,255,255
Combo2 : 4,158,251
Combo3 : 216,12,129

[HitObjects]
256,192,22414,5,0,0:0:0:0:
256,192,22643,1,0,0:0:0:0:
152,69,30492,5,0,0:0:0:0:
256,247,31006,5,0,0:0:0:0:
287,235,31092,1,0,0:0:0:0:
316,208,31177,2,0,B|335:148|335:148|362:144|402:121,1,113.999996520996
66,149,31692,6,0,B|141:120|141:120|217:147|257:144,1,190
266,62,32206,2,0,P|203:51|144:24,1,95
66,149,32549,1,0,0:0:0:0:
135,316,32720,1,0,0:0:0:0:
273,215,32892,2,0,L|178:186,1,95
411,253,33234,5,0,0:0:0:0:
107,154,33749,5,0,0:0:0:0:
129,137,33834,1,0,0:0:0:0:
152,121,33920,2,0,B|182:139|223:123|223:123|249:143,1,95
426,307,34434,6,0,P|337:314|276:229,1,190
426,97,34949,2,0,L|382:202,1,95
327,310,35292,1,0,0:0:0:0:
98,333,35463,2,0,L|200:322,1,95
39,109,35977,5,0,0:0:0:0:
299,201,36492,1,0,0:0:0:0:
341,181,36577,1,0,0:0:0:0:
388,184,36663,1,0,0:0:0:0:
254,304,36834,1,0,0:0:0:0:
55,257,37177,6,0,B|99:192|99:192|97:127|157:84,1,190
242,191,37692,1,0,0:0:0:0:
347,88,37863,1,0,0:0:0:0:
351,236,38034,2,0,P|302:237|247:187,1,95
189,117,38377,1,0,0:0:0:0:
134,199,38549,1,0,0:0:0:0:
91,112,38720,6,0,B|146:96|146:96|190:118|190:118|242:93|291:119|291:119|367:112,1,285
364,112,39320,1,0,0:0:0:0:
364,112,39406,2,0,P|329:177|329:228,1,95
75,309,39920,5,0,0:0:0:0:
364,112,40263,1,0,0:0:0:0:
383,252,40434,1,0,0:0:0:0:
260,202,40606,1,0,0:0:0:0:
479,194,40777,1,0,0:0:0:0:
218,43,40949,1,0,0:0:0:0:
190,328,41120,1,0,0:0:0:0:
92,87,41463,5,4,0:0:0:0:
116,317,41634,2,0,L|183:221,1,95
370,120,41977,6,0,L|433:85,2,47.5,0|0|0,0:0|0:0|0:0,0:0:0:0:
330,269,42320,1,0,0:0:0:0:
72,193,42663,6,0,B|131:111|131:111|170:140|230:131,1,190
395,107,43177,2,0,L|291:121,1,95
186,274,43520,1,0,0:0:0:0:
200,43,43692,2,0,P|247:22|306:26,1,95
351,213,44034,1,0,0:0:0:0:
127,340,44206,6,0,B|88:296|104:244|104:244|39:203|39:203|71:141|33:95,1,285
45,31,44806,1,0,0:0:0:0:
106,73,44892,2,0,B|148:121|148:121|190:121,1,95
183,286,45406,5,0,0:0:0:0:
337,117,45749,2,0,L|376:107,1,23.75
193,167,45920,2,0,L|151:178,1,23.75
309,240,46092,2,0,L|332:278,1,23.75
219,93,46263,2,0,P|161:61|113:66,1,95
231,234,46606,1,0,0:0:0:0:
379,177,46949,6,0,B|441:141|523:177|523:177|461:198,1,190
243,334,47463,1,0,0:0:0:0:
243,334,47549,1,0,0:0:0:0:
243,334,47634,2,0,B|271:280|271:280|304:248,1,95
114,288,47977,1,0,0:0:0:0:
252,171,48149,6,0,B|330:124|377:215|445:174,1,190
405,79,48663,5,0,0:0:0:0:
231,56,48834,1,0,0:0:0:0:
165,212,49006,5,0,0:0:0:0:
378,182,49177,1,0,0:0:0:0:
455,344,49349,5,0,0:0:0:0:
210,305,49520,1,0,0:0:0:0:
352,128,49692,6,8,L|450:90,1,95
160,256,50034,2,8,L|62:291,1,95
306,52,50377,1,8,0:0:0:0:
295,54,50549,1,8,0:0:0:0:
215,317,50720,1,8,0:0:0:0:
234,301,50892,1,8,0:0:0:0:
400,290,51063,5,0,0:0:0:0:
382,267,51149,1,0,0:0:0:0:
361,247,51234,1,0,0:0:0:0:
335,234,51320,1,0,0:0:0:0:
308,223,51406,1,0,0:0:0:0:
279,218,51492,1,0,0:0:0:0:
250,218,51577,1,0,0:0:0:0:
221,222,51663,1,0,0:0:0:0:
179,245,51749,5,0,0:0:0:0:
157,203,51834,1,0,0:0:0:0:
136,159,51920,1,0,0:0:0:0:
115,115,52006,1,0,0:0:0:0:
95,71,52092,5,12,0:0:0:0:
293,280,52434,6,0,B|223:308|223:308|146:300|81:320,1,209.000006378174,4|0,0:0|0:0,0:0:0:0:
256,168,52949,1,0,0:0:0:0:
299,130,53034,1,0,0:0:0:0:
340,89,53120,1,0,0:0:0:0:
277,27,53292,2,0,P|221:56|159:63,1,104.500003189087,0|8,0:0|0:0,0:0:0:0:
66,57,53634,2,0,B|136:55|136:55|206:69|206:69|276:66,1,209.000006378174
453,102,54149,2,0,L|333:114,1,104.500003189087
164,146,54492,1,0,0:0:0:0:
107,293,54664,1,0,0:0:0:0:
254,349,54835,1,0,0:0:0:0:
310,202,55006,1,0,0:0:0:0:
397,67,55177,6,0,B|456:57|456:57|384:3|296:55,1,209.000006378174
171,77,55692,1,0,0:0:0:0:
171,77,55777,1,0,0:0:0:0:
171,77,55863,2,0,B|232:84|273:136,1,104.500003189087
163,197,56206,1,8,0:0:0:0:
404,166,56377,1,0,0:0:0:0:
163,197,56549,1,0,0:0:0:0:
359,99,56720,6,0,P|420:51|466:38,2,104.500003189087,0|0|0,0:0|0:0|0:0,0:0:0:0:
275,231,57234,2,0,P|237:266|187:279,2,104.500003189087,4|0|0,0:0|0:0|0:0,0:0:0:0:
185,175,57749,1,0,0:0:0:0:
31,291,57920,6,0,B|108:307|108:307|148:345|148:345|228:361,1,209.000006378174
411,108,58434,1,0,0:0:0:0:
369,76,58520,1,0,0:0:0:0:
317,66,58606,2,0,P|257:54|192:64,1,104.500003189087
247,241,58949,1,8,0:0:0:0:
210,149,59120,2,0,B|261:127|309:161|309:161|352:198|422:181,1,209.000006378174
379,306,59634,2,0,L|348:358,1,52.2500015945435
278,291,59806,2,0,L|229:322,1,52.2500015945435
172,251,59977,2,0,L|67:259,2,104.500003189087,0|0|8,0:0|0:0|0:0,0:0:0:0:
333,205,60492,1,0,0:0:0:0:
225,160,60663,6,0,L|101:154,2,104.500003189087,4|0|0,0:0|0:0|0:0,0:0:0:0:
400,215,61177,2,0,L|457:198,1,52.2500015945435
434,222,61349,2,0,B|428:293|364:312,1,104.500003189087
269,351,61692,1,8,0:0:0:0:
314,142,61863,2,0,L|292:254,1,104.500003189087
158,291,62206,6,0,L|115:305,1,26.1250007972718,8|0,0:0|0:0,0:0:0:0:
298,120,62377,2,0,L|337:104,1,26.1250007972718,8|0,0:0|0:0,0:0:0:0:
104,131,62549,2,0,L|64:118,1,26.1250007972718,8|0,0:0|0:0,0:0:0:0:
265,188,62720,2,0,B|306:203|355:188|394:208,1,104.500003189087
219,286,63063,1,8,0:0:0:0:
381,111,63234,1,0,0:0:0:0:
109,75,63406,6,0,P|84:173|94:200,1,113.999996520996,4|0,0:0|0:0,0:0:0:0:
176,306,63749,1,8,0:0:0:0:
87,182,63920,2,0,L|58:127,2,56.9999982604981
173,102,64263,2,0,P|234:167|276:186,1,113.999996520996
426,51,64606,2,0,B|428:195|428:195|362:278,1,227.999993041992
196,193,65120,2,0,L|131:192,1,56.9999982604981
284,132,65292,2,0,L|293:75,1,56.9999982604981
297,235,65463,2,0,P|333:298|368:335,1,113.999996520996
423,208,65806,1,8,0:0:0:0:
239,331,65977,1,0,0:0:0:0:
81,150,66149,5,0,0:0:0:0:
217,82,66320,2,0,P|285:64|344:74,1,113.999996520996
422,160,66663,2,0,L|483:185,1,56.9999982604981
299,178,66834,1,0,0:0:0:0:
184,241,67006,2,0,B|125:278|125:278|97:296|97:323,1,113.999996520996
284,132,67349,1,0,0:0:0:0:
97,136,67520,1,0,0:0:0:0:
301,232,67692,2,0,L|341:247,1,28.4999991302491,8|0,0:0|0:0,0:0:0:0:
204,270,67863,2,0,L|240:305,1,28.4999991302491,8|0,0:0|0:0,0:0:0:0:
101,286,68034,2,0,L|118:332,1,28.4999991302491,8|0,0:0|0:0,0:0:0:0:
231,92,68206,2,0,P|331:91|373:109,1,113.999996520996
457,196,68549,1,12,0:0:0:0:
343,96,68720,1,0,0:0:0:0:
433,278,68892,6,0,L|337:355,1,113.999996520996,4|0,0:0|0:0,0:0:0:0:
366,187,69234,1,0,0:0:0:0:
188,209,69406,1,0,0:0:0:0:
177,209,69492,1,0,0:0:0:0:
166,210,69577,2,0,B|108:211|108:211|46:200,1,113.999996520996
47,286,69920,2,0,L|171:305,1,113.999996520996,8|0,0:0|0:0,0:0:0:0:
374,317,70263,6,0,P|327:239|316:186,1,113.999996520996
203,83,70606,2,0,L|217:213,1,113.999996520996
84,333,70949,2,0,P|108:273|101:206,1,113.999996520996
27,91,71292,2,0,P|4:156|1:229,1,113.999996520996
302,123,71634,6,0,P|359:101|418:107,1,113.999996520996
491,155,71977,1,0,0:0:0:0:
342,276,72149,1,0,0:0:0:0:
289,252,72234,1,0,0:0:0:0:
243,218,72320,2,0,B|198:164|198:164|164:104,1,113.999996520996
81,170,72663,1,0,0:0:0:0:
257,88,72834,2,0,L|318:58,1,56.9999982604981
159,138,73006,5,0,0:0:0:0:
337,195,73177,1,0,0:0:0:0:
126,330,73349,1,8,0:0:0:0:
282,115,73520,1,8,0:0:0:0:
38,208,73692,1,8,0:0:0:0:
315,287,73863,1,8,0:0:0:0:
128,71,74034,1,12,0:0:0:0:
102,225,74377,5,4,0:0:0:0:
398,87,74549,1,0,0:0:0:0:
159,106,74720,2,0,B|91:102|91:102|41:77,1,113.999996520996
39,76,74977,1,0,0:0:0:0:
28,70,75063,2,0,L|133:135,1,113.999996520996
345,248,75406,1,8,0:0:0:0:
133,128,75577,1,0,0:0:0:0:
317,126,75749,6,0,L|388:101,1,56.9999982604981
197,238,75920,2,0,L|148:289,1,56.9999982604981
342,198,76092,2,0,P|424:175|464:173,1,113.999996520996,8|0,0:0|0:0,0:0:0:0:
284,65,76434,2,0,L|276:6,1,56.9999982604981
183,281,76606,2,0,L|142:324,1,56.9999982604981
294,173,76777,2,0,P|351:125|401:108,1,113.999996520996,8|0,0:0|0:0,0:0:0:0:
179,238,77120,5,0,0:0:0:0:
97,279,77292,1,0,0:0:0:0:
16,320,77463,1,0,0:0:0:0:
225,170,77634,1,0,0:0:0:0:
256,156,77720,1,0,0:0:0:0:
290,153,77806,1,0,0:0:0:0:
203,83,77977,2,0,P|132:95|77:95,1,113.999996520996,8|0,0:0|0:0,0:0:0:0:
303,197,78320,1,0,0:0:0:0:
96,215,78492,1,0,0:0:0:0:
341,297,78663,6,0,L|387:311,1,28.4999991302491,8|0,0:0|0:0,0:0:0:0:
375,182,78834,2,0,L|415:183,1,28.4999991302491,8|0,0:0|0:0,0:0:0:0:
331,58,79006,2,0,L|381:46,1,28.4999991302491,8|0,0:0|0:0,0:0:0:0:
136,104,79177,2,0,L|136:240,1,113.999996520996
65,317,79520,1,12,0:0:0:0:
277,160,79692,1,0,0:0:0:0:
124,259,79863,6,0,P|239:321|349:320,1,227.999993041992,4|0,0:0|0:0,0:0:0:0:
174,157,80377,2,0,L|98:121,2,56.9999982604981,0|0|0,0:0|0:0|0:0,0:0:0:0:
303,213,80720,2,0,L|432:266,1,113.999996520996,0|8,0:0|0:0,0:0:0:0:
194,284,81063,1,0,0:0:0:0:
428,147,81234,1,0,0:0:0:0:
350,48,81406,1,0,0:0:0:0:
315,44,81577,1,8,0:0:0:0:
281,38,81749,1,0,0:0:0:0:
244,176,81920,2,0,B|318:188|318:188|362:211,1,113.999996520996,8|0,0:0|0:0,0:0:0:0:
149,47,82263,2,0,B|75:35|75:35|31:12,1,113.999996520996,8|0,0:0|0:0,0:0:0:0:
52,261,82606,6,0,B|123:270|123:270|187:294,1,113.999996520996
312,337,82949,1,8,0:0:0:0:
190,262,83120,1,0,0:0:0:0:
190,262,83206,1,0,0:0:0:0:
190,262,83292,2,0,P|228:221|288:196,1,113.999996520996
419,86,83634,1,8,0:0:0:0:
79,116,83806,5,0,0:0:0:0:
344,126,83977,1,0,0:0:0:0:
168,207,84149,2,0,L|114:217,1,28.4999991302491,8|0,0:0|0:0,0:0:0:0:
332,217,84320,2,0,L|374:200,1,28.4999991302491,8|0,0:0|0:0,0:0:0:0:
209,306,84492,2,0,L|165:325,1,28.4999991302491,8|0,0:0|0:0,0:0:0:0:
341,316,84663,2,0,B|386:269|461:269,1,113.999996520996
285,196,85006,2,0,P|212:228|150:229,1,113.999996520996,8|0,0:0|0:0,0:0:0:0:
343,50,85349,6,0,P|410:110|422:157,1,113.999996520996,4|0,0:0|0:0,0:0:0:0:
237,248,85692,1,8,0:0:0:0:
317,164,85863,1,0,0:0:0:0:
365,136,85949,1,0,0:0:0:0:
418,131,86034,1,0,0:0:0:0:
212,183,86206,2,0,P|146:205|86:208,1,113.999996520996
352,320,86549,5,0,0:0:0:0:
352,208,86720,1,0,0:0:0:0:
155,291,86892,1,0,0:0:0:0:
224,93,87063,1,0,0:0:0:0:
284,294,87234,1,0,0:0:0:0:
129,137,87406,5,0,0:0:0:0:
241,227,87577,1,8,0:0:0:0:
411,187,87749,1,8,0:0:0:0:
301,317,87920,1,0,0:0:0:0:
148,348,88092,6,0,B|118:319|118:319|83:239,2,113.999996520996
214,297,88606,1,0,0:0:0:0:
188,245,88692,1,0,0:0:0:0:
164,193,88777,1,8,0:0:0:0:
110,57,88949,2,0,P|153:111|206:123,1,113.999996520996
77,284,89292,1,0,0:0:0:0:
294,101,89463,5,0,0:0:0:0:
100,180,89634,2,0,L|54:188,1,28.4999991302491,8|0,0:0|0:0,0:0:0:0:
148,261,89806,2,0,L|119:292,1,28.4999991302491,8|0,0:0|0:0,0:0:0:0:
225,308,89977,2,0,L|222:349,1,28.4999991302491,8|0,0:0|0:0,0:0:0:0:
299,195,90149,2,0,L|210:98,1,113.999996520996,0|8,0:0|0:0,0:0:0:0:
214,320,90492,1,0,0:0:0:0:
102,188,90663,1,0,0:0:0:0:
274,165,90834,6,0,P|336:133|392:127,1,123.499994346619,4|0,0:0|0:0,0:0:0:0:
122,289,91177,1,8,0:0:0:0:
245,244,91349,1,0,0:0:0:0:
287,240,91434,1,0,0:0:0:0:
329,249,91520,1,0,0:0:0:0:
463,278,91692,2,0,L|368:144,1,123.499994346619,0|8,0:0|0:0,0:0:0:0:
95,167,92034,1,0,0:0:0:0:
198,114,92206,6,0,L|160:66,1,61.7499971733095
166,209,92377,2,0,L|128:161,1,61.7499971733095
256,323,92549,2,0,L|198:344,1,61.7499971733095
235,248,92720,2,0,L|293:227,1,61.7499971733095
160,96,92892,2,0,L|133:152,1,61.7499971733095
379,152,93063,2,0,L|352:96,1,61.7499971733095
351,257,93234,2,0,L|409:280,1,61.7499971733095
124,190,93406,2,0,L|67:167,1,61.7499971733095
222,113,93577,6,0,P|297:87|358:82,1,123.499994346619
184,289,93920,1,0,0:0:0:0:
256,192,94092,1,0,0:0:0:0:
256,160,94177,1,0,0:0:0:0:
256,128,94263,1,0,0:0:0:0:
384,80,94434,6,0,P|457:123|514:138,1,123.499994346619
493,134,94777,1,0,0:0:0:0:
128,112,94949,6,0,P|55:155|-2:170,1,123.499994346619
18,166,95292,1,0,0:0:0:0:
384,160,95463,6,0,P|457:203|514:218,1,123.499994346619
493,214,95806,1,0,0:0:0:0:
128,224,95977,5,0,0:0:0:0:
419,51,96149,5,0,0:0:0:0:
358,44,96234,1,0,0:0:0:0:
297,55,96320,2,0,P|226:87|193:157,1,123.499994346619,0|0,0:0|0:0,0:0:0:0:
223,322,96663,2,0,B|261:243|261:243|313:218,1,123.499994346619,8|0,0:0|0:0,0:0:0:0:
327,191,96920,1,0,0:0:0:0:
344,144,97006,1,0,0:0:0:0:
324,98,97092,1,0,0:0:0:0:
298,56,97177,2,0,P|245:19|176:15,1,123.499994346619,0|8,0:0|0:0,0:0:0:0:
173,166,97520,1,8,0:0:0:0:
409,62,97692,5,0,0:0:0:0:
310,266,97863,1,0,0:0:0:0:
152,96,98034,2,0,P|224:100|295:156,1,123.499994346619,8|0,0:0|0:0,0:0:0:0:
301,152,98292,1,0,0:0:0:0:
330,183,98377,1,0,0:0:0:0:
353,219,98463,1,0,0:0:0:0:
355,262,98549,1,0,0:0:0:0:
343,313,98634,1,0,0:0:0:0:
315,346,98720,2,0,P|233:308|170:328,1,123.499994346619
71,278,99063,6,0,L|186:226,1,123.499994346619
316,252,99406,1,8,0:0:0:0:
99,146,99577,2,0,L|34:112,2,61.7499971733095,0|0|0,0:0|0:0|0:0,0:0:0:0:
256,233,99920,2,0,L|331:179,1,61.7499971733095
439,100,100092,1,8,0:0:0:0:
217,173,100263,1,0,0:0:0:0:
217,173,100349,1,0,0:0:0:0:
217,173,100434,6,0,L|89:216,1,123.499994346619
127,55,100777,2,0,L|257:49,1,123.499994346619,8|0,0:0|0:0,0:0:0:0:
106,247,101120,1,0,0:0:0:0:
295,144,101292,1,0,0:0:0:0:
335,156,101377,1,0,0:0:0:0:
371,179,101463,1,0,0:0:0:0:
401,209,101549,1,0,0:0:0:0:
423,245,101634,1,0,0:0:0:0:
236,249,101806,5,0,0:0:0:0:
236,249,101977,1,0,0:0:0:0:
65,184,102149,2,0,B|137:119|137:119|149:70,1,123.499994346619,8|0,0:0|0:0,0:0:0:0:
170,127,102406,1,0,0:0:0:0:
208,147,102492,1,0,0:0:0:0:
250,151,102577,1,0,0:0:0:0:
292,140,102663,1,0,0:0:0:0:
401,228,102834,2,0,L|271:214,1,123.499994346619,8|0,0:0|0:0,0:0:0:0:
278,214,103092,1,0,0:0:0:0:
278,214,103177,6,0,P|202:217|130:243,1,123.499994346619
72,351,103520,2,0,L|215:322,1,123.499994346619,8|0,0:0|0:0,0:0:0:0:
401,304,103863,1,0,0:0:0:0:
222,210,104034,1,0,0:0:0:0:
37,233,104206,1,8,0:0:0:0:
231,65,104377,1,0,0:0:0:0:
447,209,104549,6,0,P|348:189|298:198,1,123.499994346619
321,234,104806,1,0,0:0:0:0:
296,269,104892,1,8,0:0:0:0:
260,292,104977,1,0,0:0:0:0:
217,298,105063,1,0,0:0:0:0:
176,283,105149,1,0,0:0:0:0:
138,262,105234,2,0,B|106:245|106:245|186:236|187:176,1,123.499994346619
190,163,105492,1,0,0:0:0:0:
181,120,105577,1,8,0:0:0:0:
366,204,105749,1,0,0:0:0:0:
175,41,105920,5,0,0:0:0:0:
133,222,106092,1,0,0:0:0:0:
328,154,106263,1,8,0:0:0:0:
119,85,106434,1,0,0:0:0:0:
200,236,106606,5,0,0:0:0:0:
105,154,106777,1,0,0:0:0:0:
72,178,106863,1,0,0:0:0:0:
58,219,106949,1,8,0:0:0:0:
67,260,107034,1,0,0:0:0:0:
93,293,107120,1,0,0:0:0:0:
133,309,107206,1,0,0:0:0:0:
176,304,107292,6,0,B|181:233|250:191,1,123.499994346619
324,33,107634,2,0,B|319:104|250:146,1,123.499994346619
263,209,107892,1,0,0:0:0:0:
263,207,107977,2,0,P|328:202|398:209,1,123.499994346619
473,314,108320,1,8,0:0:0:0:
341,286,108492,1,0,0:0:0:0:
105,297,108663,2,0,P|175:270|247:256,1,123.499994346619
417,239,109006,1,8,0:0:0:0:
125,229,109177,1,0,0:0:0:0:
125,229,109263,1,0,0:0:0:0:
125,229,109349,6,0,B|76:196|76:196|72:118,1,123.499994346619
97,88,109606,1,0,0:0:0:0:
145,75,109692,2,0,P|208:75|271:96,1,123.499994346619,8|0,0:0|0:0,0:0:0:0:
402,315,110034,1,0,0:0:0:0:
248,179,110206,1,0,0:0:0:0:
94,311,110377,2,0,P|62:193|72:150,1,123.499994346619,8|0,0:0|0:0,0:0:0:0:
71,152,110634,1,0,0:0:0:0:
97,118,110720,1,0,0:0:0:0:
136,99,110806,1,0,0:0:0:0:
178,97,110892,1,0,0:0:0:0:
218,112,110977,1,0,0:0:0:0:
258,135,111063,6,0,P|296:201|353:229,1,123.499994346619,8|0,0:0|0:0,0:0:0:0:
183,235,111406,2,0,P|108:174|65:155,1,123.499994346619
366,62,111749,2,0,L|460:106,1,61.7499971733095,8|0,0:0|0:0,0:0:0:0:
399,106,111920,2,0,B|399:213|399:213|395:274|381:301,1,185.249991519928
349,310,112263,1,0,0:0:0:0:
307,318,112349,2,0,P|230:300|122:320,1,185.249991519928
47,215,112777,5,0,0:0:0:0:
80,149,112949,1,0,0:0:0:0:
133,98,113120,1,0,0:0:0:0:
199,65,113292,1,0,0:0:0:0:
285,56,113463,5,0,0:0:0:0:
365,86,113634,1,0,0:0:0:0:
301,145,113806,1,0,0:0:0:0:
383,170,113977,1,0,0:0:0:0:
185,263,114149,6,0,P|156:169|114:106,1,123.499994346619
304,201,114492,2,0,P|326:126|362:72,1,123.499994346619
117,84,114834,2,0,L|252:138,1,123.499994346619
360,227,115177,2,0,L|228:322,1,123.499994346619
74,260,115520,5,0,0:0:0:0:
108,139,115692,1,0,0:0:0:0:
253,66,115863,1,0,0:0:0:0:
131,246,116034,5,0,0:0:0:0:
239,146,116206,1,0,0:0:0:0:
405,87,116377,1,0,0:0:0:0:
192,229,116549,5,0,0:0:0:0:
406,246,116720,1,0,0:0:0:0:
438,124,116892,5,0,0:0:0:0:
404,245,117063,1,0,0:0:0:0:
259,318,117234,1,0,0:0:0:0:
381,138,117406,5,0,0:0:0:0:
273,238,117577,1,0,0:0:0:0:
107,297,117749,1,0,0:0:0:0:
205,190,117920,5,14,0:0:0:0:
88,131,118263,6,0,P|163:106|248:102,1,142.500005435944,4|0,0:0|0:0,0:0:0:0:
459,233,118606,1,0,0:0:0:0:
150,275,118777,1,0,0:0:0:0:
137,283,118863,1,0,0:0:0:0:
125,293,118949,1,0,0:0:0:0:
281,180,119120,2,0,B|355:122|355:122|407:84,1,142.500005435944,0|8,0:0|0:0,0:0:0:0:
258,77,119463,1,0,0:0:0:0:
138,97,119634,1,0,0:0:0:0:
60,187,119806,6,0,L|-3:174,1,35.625001358986,8|0,0:0|0:0,0:0:0:0:
292,255,119977,2,0,L|341:264,1,35.625001358986,8|0,0:0|0:0,0:0:0:0:
127,336,120149,2,0,L|96:381,1,35.625001358986,8|0,0:0|0:0,0:0:0:0:
242,159,120320,2,0,P|309:102|383:84,1,142.500005435944
386,130,120577,1,0,0:0:0:0:
361,175,120663,2,0,P|448:189|503:231,1,142.500005435944,4|0,0:0|0:0,0:0:0:0:
185,334,121006,5,4,0:0:0:0:
359,89,121177,1,0,0:0:0:0:
91,173,121349,1,0,0:0:0:0:
360,224,121520,2,0,L|453:240,1,71.2500027179719
332,298,121692,2,0,P|243:271|176:278,1,142.500005435944,4|0,0:0|0:0,0:0:0:0:
69,301,122034,1,0,0:0:0:0:
345,81,122206,1,0,0:0:0:0:
54,132,122377,5,0,0:0:0:0:
327,52,122549,2,0,L|384:56,1,35.625001358986,8|0,0:0|0:0,0:0:0:0:
293,217,122720,2,0,L|349:240,1,35.625001358986,8|0,0:0|0:0,0:0:0:0:
187,340,122892,2,0,L|229:378,1,35.625001358986,8|0,0:0|0:0,0:0:0:0:
96,212,123063,1,0,0:0:0:0:
367,282,123234,1,0,0:0:0:0:
162,90,123406,1,0,0:0:0:0:
367,282,123577,1,0,0:0:0:0:
232,99,123749,6,0,P|161:91|97:62,1,142.500005435944
137,199,124092,1,0,0:0:0:0:
326,78,124263,1,0,0:0:0:0:
326,78,124349,1,0,0:0:0:0:
326,78,124434,2,0,P|394:53|469:53,1,142.500005435944
261,275,124777,1,0,0:0:0:0:
400,170,124949,2,0,L|463:110,1,71.2500027179719
94,200,125120,6,0,L|12:200,1,71.2500027179719,0|0,0:0|0:0,0:0:0:0:
315,167,125292,2,8,L|400:145,1,71.2500027179719,8|0,0:0|0:0,0:0:0:0:
158,295,125463,2,0,L|117:357,1,71.2500027179719,8|0,0:0|0:0,0:0:0:0:
151,107,125634,2,0,L|99:37,1,71.2500027179719,8|0,0:0|0:0,0:0:0:0:
209,178,125806,2,0,L|312:300,1,142.500005435944,4|0,0:0|0:0,0:0:0:0:
446,295,126149,1,4,0:0:0:0:
153,340,126320,1,4,0:0:0:0:
89,55,126492,6,0,B|90:155|90:155|111:206,1,142.500005435944,4|0,0:0|0:0,0:0:0:0:
184,337,126834,1,0,0:0:0:0:
360,241,127006,2,0,L|422:206,1,71.2500027179719
333,159,127177,2,0,P|239:174|177:159,1,142.500005435944
258,49,127520,1,0,0:0:0:0:
125,250,127692,2,0,L|70:327,1,71.2500027179719,0|0,0:0|0:0,0:0:0:0:
378,260,127863,1,0,0:0:0:0:
128,103,128034,6,0,L|156:81,1,35.625001358986,8|0,0:0|0:0,0:0:0:0:
67,252,128206,2,0,L|38:273,1,35.625001358986,8|0,0:0|0:0,0:0:0:0:
222,236,128377,2,0,L|250:214,1,35.625001358986,8|0,0:0|0:0,0:0:0:0:
414,212,128549,2,0,P|469:213|421:262,1,142.500005435944,4|0,0:0|0:0,0:0:0:0:
141,193,128892,2,0,P|86:191|134:142,1,142.500005435944,12|0,0:0|0:0,0:0:0:0:
94,302,129234,5,4,0:0:0:0:
274,138,129406,1,0,0:0:0:0:
46,56,129577,1,0,0:0:0:0:
426,327,129749,1,0,0:0:0:0:
382,303,129834,1,0,0:0:0:0:
332,293,129920,1,0,0:0:0:0:
159,313,130092,1,0,0:0:0:0:
366,157,130263,1,0,0:0:0:0:
96,59,130434,5,0,0:0:0:0:
141,93,130520,1,0,0:0:0:0:
171,140,130606,1,0,0:0:0:0:
159,314,130777,1,0,0:0:0:0:
294,48,130949,1,0,0:0:0:0:
414,142,131120,1,0,0:0:0:0:
208,122,131292,6,0,L|161:107,1,35.625001358986
354,204,131463,2,0,L|397:168,1,35.625001358986,4|0,0:0|0:0,0:0:0:0:
152,247,131634,2,0,L|114:263,1,35.625001358986
301,315,131806,2,0,L|352:331,1,35.625001358986,4|0,0:0|0:0,0:0:0:0:
76,168,131977,5,4,0:0:0:0:
407,229,132149,1,0,0:0:0:0:
97,291,132320,1,0,0:0:0:0:
323,89,132492,1,0,0:0:0:0:
364,62,132577,1,0,0:0:0:0:
412,51,132663,1,0,0:0:0:0:
168,182,132834,1,0,0:0:0:0:
370,164,133006,2,0,L|429:158,1,35.625001358986
208,280,133177,1,0,0:0:0:0:
136,58,133349,5,0,0:0:0:0:
312,176,133520,2,0,L|353:209,1,35.625001358986,8|0,0:0|0:0,0:0:0:0:
224,221,133692,2,0,L|265:254,1,35.625001358986,8|0,0:0|0:0,0:0:0:0:
135,260,133863,2,0,L|176:293,1,35.625001358986,8|0,0:0|0:0,0:0:0:0:
45,307,134034,2,0,P|27:222|39:156,1,142.500005435944,4|0,0:0|0:0,0:0:0:0:
458,45,134377,2,0,P|484:141|472:206,1,142.500005435944,4|0,0:0|0:0,0:0:0:0:
161,281,134720,6,0,P|195:187|236:150,1,142.500005435944,4|0,0:0|0:0,0:0:0:0:
401,97,135063,1,0,0:0:0:0:
112,160,135234,2,0,L|52:222,1,71.2500027179719
182,203,135406,2,0,P|267:161|349:158,1,142.500005435944
92,104,135749,1,0,0:0:0:0:
363,235,135920,2,0,L|435:274,1,71.2500027179719
246,42,136092,5,0,0:0:0:0:
83,185,136263,1,0,0:0:0:0:
448,138,136434,1,0,0:0:0:0:
114,323,136606,1,0,0:0:0:0:
136,138,136777,2,0,L|143:61,1,71.2500027179719
254,173,136949,2,0,L|292:91,1,71.2500027179719
363,235,137120,2,0,L|416:169,1,71.2500027179719
441,340,137292,2,0,L|503:289,1,71.2500027179719
195,345,137463,6,0,P|109:308|60:242,1,142.500005435944,4|0,0:0|0:0,0:0:0:0:
317,39,137806,6,0,P|403:76|452:142,1,142.500005435944,4|0,0:0|0:0,0:0:0:0:
144,96,138149,6,4,L|112:128,1,35.625001358986
160,112,138234,2,0,L|192:80,1,35.625001358986
176,128,138320,2,4,L|144:160,1,35.625001358986
192,144,138406,2,0,L|224:112,1,35.625001358986
208,160,138492,2,4,L|176:192,1,35.625001358986
224,176,138577,2,0,L|256:144,1,35.625001358986
240,192,138663,2,4,L|192:240,1,35.625001358986
256,208,138749,2,0,L|288:176,1,35.625001358986
272,224,138834,1,4,0:0:0:0:
256,192,138920,12,0,140206,0:0:0:0:
