osu file format v14

[General]
AudioFilename: Stan SB - Anyone Out There.mp3
AudioLeadIn: 0
PreviewTime: 118263
Countdown: 0
SampleSet: Soft
StackLeniency: 0.7
Mode: 0
LetterboxInBreaks: 1
StoryFireInFront: 0
EpilepsyWarning: 1
WidescreenStoryboard: 1

[Editor]
DistanceSpacing: 0.6
BeatDivisor: 4
GridSize: 4
TimelineZoom: 2.300006

[Metadata]
Title:Anyone Out There
TitleUnicode:Anyone Out There
Artist:Stan SB
ArtistUnicode:Stan SB
Creator:lsahi
Version:L-Insane
Source:
Tags:
BeatmapID:566986
BeatmapSetID:205387

[Difficulty]
HPDrainRate:7
CircleSize:4
OverallDifficulty:8
ApproachRate:9.3
SliderMultiplier:1.9
SliderTickRate:2

[Events]
//Background and Video events
0,0,"BG.jpg",0,0
//Break Periods
2,113120,114966
//Storyboard Layer 0 (Background)
//Storyboard Layer 1 (Fail)
//Storyboard Layer 2 (Pass)
//Storyboard Layer 3 (Foreground)
//Storyboard Sound Samples

[TimingPoints]
12643,342.857142857143,4,2,0,100,1,0
22472,342.857142857143,4,2,1,100,1,0
30492,342.857142857143,4,2,1,40,1,0
41463,-100,4,2,1,100,0,1
41549,-100,4,2,1,60,0,0
52092,-50,4,2,1,70,0,0
52434,-90.9090909090909,4,2,1,70,0,1
52520,-90.9090909090909,4,2,1,70,0,0
63407,-83.3333333333333,4,2,1,60,0,1
63492,-83.3333333333333,4,2,1,60,0,0
74377,-83.3333333333333,4,2,1,100,0,0
74477,-83.3333333333333,4,2,1,60,0,0
90834,-76.9230769230769,4,2,1,60,0,0
94092,-76.9230769230769,4,2,1,5,0,1
95977,-76.9230769230769,4,2,1,60,0,0
112777,-133.333333333333,4,2,1,30,0,0
113463,-111.111111111111,4,2,1,50,0,0
114149,-76.9230769230769,4,2,1,70,0,0
117920,-76.9230769230769,4,2,1,70,0,1
118006,-76.9230769230769,4,2,1,70,0,0
118263,-66.6666666666667,4,2,1,80,0,1
138834,-66.6666666666667,4,2,1,80,0,0
140034,-66.6666666666667,4,2,1,5,0,0

[Colours]
Combo1 : 255,255,255
Combo2 : 4,158,251
Combo3 : 216,12,129

[HitObjects]
152,164,30492,5,0,0:0:0:0:
192,276,31006,1,0,0:0:0:0:
196,284,31092,1,0,0:0:0:0:
200,292,31177,2,0,L|312:296,1,95
472,144,31692,6,0,B|412:172|368:132|368:132|312:136,1,142.5
284,144,32034,1,0,0:0:0:0:
424,80,32206,1,0,0:0:0:0:
240,80,32377,1,0,0:0:0:0:
344,44,32549,2,0,B|364:68|364:68|372:116|356:168,1,95
332,236,32892,1,0,0:0:0:0:
240,116,33234,5,0,0:0:0:0:
208,236,33748,1,0,0:0:0:0:
204,248,33834,1,0,0:0:0:0:
200,260,33920,2,0,L|104:268,1,95
56,116,34434,6,0,B|96:108|128:120|128:120|168:136|212:116,1,142.5
240,116,34777,1,0,0:0:0:0:
124,80,34949,1,0,0:0:0:0:
232,208,35120,1,0,0:0:0:0:
80,172,35292,1,0,0:0:0:0:
224,304,35463,1,0,0:0:0:0:
44,260,35634,2,0,L|220:276,1,142.5
224,304,35977,6,0,P|272:328|340:308,1,95
432,200,36491,1,0,0:0:0:0:
424,204,36577,1,0,0:0:0:0:
416,208,36663,2,0,L|408:308,1,95
172,240,37177,6,0,L|160:88,1,142.5
156,60,37520,1,0,0:0:0:0:
44,40,37692,1,0,0:0:0:0:
76,124,37863,1,0,0:0:0:0:
256,20,38034,1,0,0:0:0:0:
244,108,38206,1,0,0:0:0:0:
44,40,38377,1,0,0:0:0:0:
244,108,38720,6,0,P|264:160|248:224,1,95
88,312,39234,1,0,0:0:0:0:
104,316,39320,1,0,0:0:0:0:
120,320,39406,2,0,L|236:284,1,95
464,320,39920,6,0,B|440:328|440:328|424:312|424:312|388:336|352:344|312:332,1,142.5
292,328,40263,1,0,0:0:0:0:
428,356,40434,1,0,0:0:0:0:
380,224,40606,1,0,0:0:0:0:
364,304,40777,1,0,0:0:0:0:
396,152,40949,2,0,L|380:228,1,47.5
364,304,41120,2,0,P|348:216|296:140,1,142.5
228,108,41463,6,0,L|91:126,1,95
52,272,41977,1,0,0:0:0:0:
60,280,42063,1,0,0:0:0:0:
68,288,42148,2,0,L|164:272,1,95
416,256,42663,6,0,L|272:284,1,142.5
228,296,43006,1,0,0:0:0:0:
360,312,43177,1,0,0:0:0:0:
308,192,43349,1,0,0:0:0:0:
264,196,43434,1,0,0:0:0:0:
220,200,43520,1,0,0:0:0:0:
352,216,43691,1,0,0:0:0:0:
300,96,43863,1,0,0:0:0:0:
104,128,44206,6,0,L|80:236,1,95
308,136,44720,1,0,0:0:0:0:
292,132,44806,1,0,0:0:0:0:
276,128,44891,2,0,L|248:32,1,95
252,232,45406,6,0,P|268:320|236:368,1,142.5
192,376,45749,1,0,0:0:0:0:
348,328,45920,1,0,0:0:0:0:
180,292,46092,1,0,0:0:0:0:
384,252,46263,1,0,0:0:0:0:
440,356,46434,1,0,0:0:0:0:
440,356,46520,1,0,0:0:0:0:
440,356,46606,1,0,0:0:0:0:
296,328,46777,1,0,0:0:0:0:
272,192,46949,6,0,L|264:300,2,95,0|0|0,0:0|0:0|0:0,0:0:0:0:
356,112,47463,1,0,0:0:0:0:
392,120,47549,1,0,0:0:0:0:
424,128,47634,2,0,L|444:228,2,95,0|0|0,0:0|0:0|0:0,0:0:0:0:
244,48,48149,1,0,0:0:0:0:
208,56,48235,1,0,0:0:0:0:
176,64,48320,6,0,L|156:164,1,95,0|0,0:0|0:0,0:0:0:0:
120,316,48663,2,0,L|92:188,1,95
64,232,48921,1,0,0:0:0:0:
32,240,49006,2,0,L|12:340,1,95,0|0,0:0|0:0,0:0:0:0:
200,332,49349,2,0,L|218:238,1,95,0|0,0:0|0:0,0:0:0:0:
256,224,49606,1,0,0:0:0:0:
300,232,49692,6,0,L|312:284,3,47.5,0|0|0|0,0:0|0:0|0:0|0:0,0:0:0:0:
252,136,50034,2,0,L|312:124,3,47.5,0|0|0|0,0:0|0:0|0:0|0:0,0:0:0:0:
161,80,50377,5,0,0:0:0:0:
137,86,50463,1,0,0:0:0:0:
113,92,50549,1,0,0:0:0:0:
90,98,50634,1,0,0:0:0:0:
66,114,50720,1,0,0:0:0:0:
86,134,50806,1,0,0:0:0:0:
108,151,50892,1,0,0:0:0:0:
131,166,50977,1,0,0:0:0:0:
153,184,51063,6,0,L|146:242,3,47.5,0|0|0|0,0:0|0:0|0:0|0:0,0:0:0:0:
344,256,51406,2,0,L|339:208,3,47.5,0|0|0|0,0:0|0:0|0:0|0:0,0:0:0:0:
232,276,51749,1,0,0:0:0:0:
192,256,51834,1,0,0:0:0:0:
168,216,51920,1,0,0:0:0:0:
172,176,52006,1,0,0:0:0:0:
193,143,52092,6,0,P|315:153|216:268,1,285
248,200,52434,6,0,B|297:152|362:276|465:182,1,209.000006378174
336,148,52949,1,0,0:0:0:0:
336,148,53034,1,0,0:0:0:0:
336,148,53120,2,0,B|320:176|320:176|328:272,1,104.500003189087
460,356,53463,2,0,B|476:328|476:328|468:232,1,104.500003189087
452,96,53806,5,0,0:0:0:0:
336,148,53977,1,0,0:0:0:0:
228,68,54149,5,0,0:0:0:0:
112,120,54320,1,0,0:0:0:0:
112,120,54406,1,0,0:0:0:0:
112,120,54492,2,0,L|252:116,1,104.500003189087
192,336,54834,2,0,P|172:284|188:204,1,104.500003189087
336,148,55177,6,0,P|352:204|344:268,2,104.500003189087,0|0|0,0:0|0:0|0:0,0:0:0:0:
228,68,55692,1,0,0:0:0:0:
228,68,55777,1,0,0:0:0:0:
228,68,55863,2,0,L|376:48,1,104.500003189087
412,140,56206,1,0,0:0:0:0:
464,52,56377,6,2,B|452:140|452:140|428:164|428:164|416:264,1,209.000006378174
492,316,56892,1,0,0:0:0:0:
320,256,57063,1,0,0:0:0:0:
496,200,57234,1,0,0:0:0:0:
392,340,57406,1,0,0:0:0:0:
388,164,57577,2,0,P|328:148|252:164,1,104.500003189087
56,336,57920,6,0,B|120:308|120:308|184:360|276:304,1,209.000006378174
128,276,58434,1,0,0:0:0:0:
128,276,58520,1,0,0:0:0:0:
128,276,58606,1,0,0:0:0:0:
320,256,58777,1,0,0:0:0:0:
196,360,58949,2,0,L|180:212,1,104.500003189087
32,132,59292,6,0,L|43:235,1,104.500003189087
128,68,59634,1,0,0:0:0:0:
232,136,59806,1,0,0:0:0:0:
232,136,59892,1,0,0:0:0:0:
232,136,59977,2,0,P|296:144|360:120,1,104.500003189087
408,284,60320,2,0,P|368:244|292:236,1,104.500003189087
432,64,60663,6,0,L|444:208,2,104.500003189087,0|0|0,0:0|0:0|0:0,0:0:0:0:
376,232,61177,1,0,0:0:0:0:
376,232,61263,1,0,0:0:0:0:
376,232,61349,2,0,B|352:264|352:264|268:260,1,104.500003189087
408,284,61692,1,0,0:0:0:0:
120,256,61863,6,0,B|212:260|212:260|236:280|236:280|340:284,1,209.000006378174
192,172,62378,2,0,L|188:232,1,52.2500015945435
268,356,62549,1,0,0:0:0:0:
268,356,62635,2,0,L|272:304,1,52.2500015945435
372,192,62806,1,0,0:0:0:0:
372,192,62892,2,0,L|368:252,1,52.2500015945435
460,156,63063,2,0,L|316:152,1,104.500003189087
32,64,63406,6,0,B|88:92|196:80|244:40,1,209.000006378174
296,216,63920,1,0,0:0:0:0:
296,216,64006,1,0,0:0:0:0:
296,216,64092,2,0,L|156:208,1,113.999996520996
316,312,64434,1,0,0:0:0:0:
240,176,64606,1,0,0:0:0:0:
160,304,64777,6,0,P|108:320|32:304,1,113.999996520996
296,216,65120,2,0,P|348:232|424:216,1,113.999996520996
436,208,65377,1,0,0:0:0:0:
464,180,65463,1,0,0:0:0:0:
360,116,65634,1,0,0:0:0:0:
264,280,65806,2,0,B|244:244|244:244|256:140,1,113.999996520996
72,220,66149,6,0,B|92:256|92:256|80:360,1,113.999996520996
28,116,66492,1,0,0:0:0:0:
168,100,66663,1,0,0:0:0:0:
168,100,66749,1,0,0:0:0:0:
168,100,66834,2,0,L|296:112,1,113.999996520996
400,56,67177,1,0,0:0:0:0:
264,20,67349,6,0,B|260:136|260:136|296:164|300:224|272:264,1,227.999993041992
192,208,67863,1,0,0:0:0:0:
348,164,68034,1,0,0:0:0:0:
308,316,68206,1,0,0:0:0:0:
256,136,68377,1,0,0:0:0:0:
216,292,68549,1,0,0:0:0:0:
372,248,68720,1,0,0:0:0:0:
372,248,68806,1,0,0:0:0:0:
372,248,68892,6,0,L|240:240,1,113.999996520996
48,344,69234,2,0,L|164:352,1,113.999996520996
161,351,69492,1,0,0:0:0:0:
161,351,69577,1,0,0:0:0:0:
92,252,69749,1,0,0:0:0:0:
168,160,69920,2,0,P|236:156|288:120,1,113.999996520996
184,36,70263,6,0,P|116:40|64:76,1,113.999996520996
364,200,70606,2,0,L|348:80,1,113.999996520996
348,87,70863,1,0,0:0:0:0:
348,87,70949,1,0,0:0:0:0:
448,280,71120,1,0,0:0:0:0:
304,260,71292,2,0,L|468:236,1,113.999996520996
200,200,71634,6,0,P|188:260|208:332,1,113.999996520996,0|0,0:0|0:0,0:0:0:0:
48,176,71977,2,0,L|116:172,1,56.9999982604981
200,200,72149,1,0,0:0:0:0:
328,52,72492,1,0,0:0:0:0:
444,92,72663,2,0,L|273:84,1,170.999994781494
200,200,73006,5,0,0:0:0:0:
200,320,73177,1,0,0:0:0:0:
312,360,73349,1,0,0:0:0:0:
392,268,73520,1,0,0:0:0:0:
320,168,73692,1,0,0:0:0:0:
280,264,74377,6,0,B|236:232|176:252|176:252|120:216|60:244,1,227.999993041992
108,336,74892,1,0,0:0:0:0:
108,336,74977,1,0,0:0:0:0:
108,336,75063,2,0,L|176:236,1,113.999996520996
280,264,75406,1,0,0:0:0:0:
96,228,75577,1,0,0:0:0:0:
308,140,75749,6,0,L|296:4,1,113.999996520996
448,112,76092,2,0,L|460:236,1,113.999996520996
440,260,76349,1,0,0:0:0:0:
420,284,76434,2,0,P|360:308|276:296,1,113.999996520996
96,228,76777,2,0,P|156:204|240:216,1,113.999996520996
308,140,77120,6,0,L|316:4,1,113.999996520996
144,76,77463,1,0,0:0:0:0:
192,208,77634,1,0,0:0:0:0:
192,208,77720,1,0,0:0:0:0:
192,208,77806,2,0,L|184:152,1,56.9999982604981
152,132,77977,2,0,L|144:60,1,56.9999982604981,0|0,0:0|0:0,0:0:0:0:
112,36,78149,1,0,0:0:0:0:
48,236,78320,6,0,B|116:224|116:224|156:248|156:248|228:232|228:232|232:176,1,227.999993041992
152,132,78834,1,0,0:0:0:0:
112,320,79006,1,0,0:0:0:0:
152,132,79177,1,0,0:0:0:0:
176,280,79349,2,0,L|108:280,1,56.9999982604981
220,344,79520,2,0,P|280:356|360:344,1,113.999996520996
312,136,79863,6,0,P|268:184|248:252,1,113.999996520996
416,316,80206,1,0,0:0:0:0:
424,180,80377,1,0,0:0:0:0:
424,180,80463,1,0,0:0:0:0:
424,180,80549,2,0,P|432:104|388:28,1,113.999996520996
312,136,80892,1,0,0:0:0:0:
204,40,81063,1,0,0:0:0:0:
80,96,81234,6,0,L|212:92,1,113.999996520996
0,156,81577,1,0,0:0:0:0:
44,304,81749,2,0,L|40:248,1,56.9999982604981
264,260,81920,2,0,L|150:263,1,113.999996520996
172,192,82263,2,0,L|176:332,1,113.999996520996
364,332,82606,6,0,B|376:272|376:272|356:188,1,113.999996520996
464,40,82949,2,0,B|452:100|452:100|472:184,1,113.999996520996,0|0,0:0|0:0,0:0:0:0:
472,176,83206,1,0,0:0:0:0:
480,200,83292,2,0,L|344:184,1,113.999996520996
288,100,83634,1,0,0:0:0:0:
240,252,83806,6,0,B|248:156|248:156|224:128|224:128|228:64|228:64|276:36,1,227.999993041992
168,128,84320,2,0,L|160:188,1,56.9999982604981
324,176,84492,1,0,0:0:0:0:
324,176,84577,2,0,L|332:240,1,56.9999982604981
188,256,84749,1,0,0:0:0:0:
188,256,84834,2,0,L|184:316,1,56.9999982604981
344,296,85006,2,0,B|388:312|388:312|488:300,1,113.999996520996
188,256,85349,6,0,B|144:240|144:240|44:252,1,113.999996520996
126,360,85692,1,0,0:0:0:0:
97,198,85863,1,0,0:0:0:0:
97,198,85949,1,0,0:0:0:0:
97,198,86034,2,0,B|86:149|86:149|92:151|92:151|81:82,1,113.999996520996
228,24,86377,2,0,B|217:73|217:73|223:71|223:71|212:140,1,113.999996520996,0|0,0:0|0:0,0:0:0:0:
188,256,86720,5,0,0:0:0:0:
308,292,86892,1,0,0:0:0:0:
364,164,87063,1,0,0:0:0:0:
484,208,87234,1,0,0:0:0:0:
484,208,87320,1,0,0:0:0:0:
484,208,87406,2,0,B|500:272|472:336,1,113.999996520996
251,171,87749,2,0,P|308:175|364:164,1,113.999996520996
284,40,88092,6,0,P|227:36|171:47,1,113.999996520996
64,144,88434,1,0,0:0:0:0:
156,172,88606,2,0,L|164:108,1,56.9999982604981
64,144,88777,1,0,0:0:0:0:
52,184,88863,1,0,0:0:0:0:
64,224,88949,1,0,0:0:0:0:
92,256,89034,1,0,0:0:0:0:
136,272,89120,1,0,0:0:0:0:
380,208,89292,6,0,P|384:292|300:344,1,170.999994781494
272,340,89634,1,0,0:0:0:0:
240,236,89806,1,0,0:0:0:0:
288,132,89977,1,0,0:0:0:0:
256,28,90149,1,0,0:0:0:0:
240,236,90320,2,0,L|244:160,1,56.9999982604981
256,28,90492,2,0,P|320:48|392:36,1,113.999996520996
484,204,90834,6,0,P|416:176|344:184,1,123.499994346619
240,236,91177,2,0,P|168:236|104:184,1,123.499994346619
108,196,91434,1,0,0:0:0:0:
96,172,91520,1,0,0:0:0:0:
204,120,91692,1,0,0:0:0:0:
296,296,91863,2,0,B|320:264|320:264|312:164,1,123.499994346619
72,228,92206,6,0,B|48:260|48:260|56:360,1,123.499994346619
188,348,92549,1,0,0:0:0:0:
28,304,92720,2,0,L|96:304,1,61.7499971733095
160,260,92892,2,0,L|292:260,1,123.499994346619
392,136,93234,2,0,L|268:136,1,123.499994346619
160,256,93577,6,0,L|160:128,1,123.499994346619
312,60,93920,2,0,L|312:204,1,123.499994346619
199,287,94263,5,0,0:0:0:0:
199,287,94349,1,0,0:0:0:0:
127,307,94434,1,0,0:0:0:0:
303,197,94777,5,0,0:0:0:0:
303,197,94863,1,0,0:0:0:0:
381,211,94948,1,0,0:0:0:0:
166,168,95292,5,0,0:0:0:0:
166,168,95378,1,0,0:0:0:0:
145,90,95464,1,0,0:0:0:0:
372,56,95806,5,0,0:0:0:0:
372,56,95892,1,0,0:0:0:0:
360,132,95977,1,0,0:0:0:0:
380,212,96149,1,0,0:0:0:0:
364,292,96320,6,0,B|334:319|334:319|244:312,1,123.499994346619
24,220,96663,2,0,B|54:247|54:247|144:240,1,123.499994346619,0|0,0:0|0:0,0:0:0:0:
150,212,96920,1,0,0:0:0:0:
160,182,97006,1,0,0:0:0:0:
170,152,97092,1,0,0:0:0:0:
180,123,97177,1,0,0:0:0:0:
192,92,97263,1,0,0:0:0:0:
204,64,97349,2,0,L|340:52,1,123.499994346619
160,272,97692,6,0,B|176:228|176:228|160:124,1,123.499994346619
388,204,98034,2,0,B|372:248|372:248|388:352,1,123.499994346619
363,347,98292,1,0,0:0:0:0:
335,361,98377,1,0,0:0:0:0:
304,363,98463,1,0,0:0:0:0:
273,358,98549,1,2,0:0:0:0:
243,348,98634,1,2,0:0:0:0:
219,327,98720,1,2,0:0:0:0:
308,260,98892,1,2,0:0:0:0:
444,132,99063,6,0,B|396:152|396:152|316:144,1,123.499994346619
175,61,99406,1,0,0:0:0:0:
202,159,99577,1,0,0:0:0:0:
241,141,99663,1,0,0:0:0:0:
267,106,99749,1,0,0:0:0:0:
277,64,99834,1,0,0:0:0:0:
267,21,99920,2,0,L|344:24,1,61.7499971733095
72,54,100092,2,0,B|55:79|55:79|71:178,1,123.499994346619
260,224,100434,6,0,B|277:249|277:249|261:348,1,123.499994346619,0|0,0:0|0:0,0:0:0:0:
124,320,100777,1,0,0:0:0:0:
220,244,100949,1,0,0:0:0:0:
260,224,101034,1,0,0:0:0:0:
303,223,101120,1,0,0:0:0:0:
343,239,101206,1,0,0:0:0:0:
371,271,101292,2,0,L|384:336,1,61.7499971733095
271,115,101463,2,0,P|211:119|147:83,1,123.499994346619
323,27,101806,6,0,P|383:23|447:59,1,123.499994346619
299,271,102149,2,0,L|303:131,1,123.499994346619
271,115,102406,1,0,0:0:0:0:
222,102,102492,1,0,0:0:0:0:
173,107,102577,1,0,0:0:0:0:
128,130,102663,1,0,0:0:0:0:
84,140,102749,1,0,0:0:0:0:
36,132,102834,1,0,0:0:0:0:
94,21,103006,1,0,0:0:0:0:
156,236,103177,6,0,B|144:268|144:268|50:298,1,123.499994346619
199,381,103520,2,0,B|211:349|211:349|305:319,1,123.499994346619,0|0,0:0|0:0,0:0:0:0:
325,313,103777,1,0,0:0:0:0:
354,304,103863,1,0,0:0:0:0:
383,296,103949,1,0,0:0:0:0:
412,288,104034,1,0,0:0:0:0:
440,280,104120,1,0,0:0:0:0:
468,272,104206,1,0,0:0:0:0:
416,376,104377,1,0,0:0:0:0:
321,259,104549,6,0,L|332:136,1,123.499994346619
96,48,104892,2,0,L|85:171,1,123.499994346619
104,195,105149,1,0,0:0:0:0:
129,211,105234,1,0,0:0:0:0:
157,222,105320,1,0,0:0:0:0:
187,222,105406,1,0,0:0:0:0:
217,220,105492,1,0,0:0:0:0:
244,207,105577,1,0,0:0:0:0:
181,121,105749,1,0,0:0:0:0:
124,312,105920,6,0,P|206:338|267:327,1,123.499994346619
393,219,106263,2,0,P|311:193|250:204,1,123.499994346619
136,171,106606,1,0,0:0:0:0:
136,171,106692,1,0,0:0:0:0:
136,171,106777,2,0,L|121:100,1,61.7499971733095
344,87,106949,2,0,L|326:216,1,123.499994346619
107,212,107292,6,0,L|72:79,1,123.499994346619
244,29,107634,1,0,0:0:0:0:
211,191,107806,1,0,0:0:0:0:
212,240,107892,1,0,0:0:0:0:
191,284,107977,1,0,0:0:0:0:
148,309,108063,1,0,0:0:0:0:
100,320,108149,2,0,L|244:322,1,123.499994346619
360,228,108492,1,0,0:0:0:0:
452,348,108663,6,0,L|308:346,1,123.499994346619
236,228,109006,2,0,L|380:230,1,123.499994346619
379,215,109263,1,0,0:0:0:0:
399,200,109349,1,0,0:0:0:0:
419,185,109434,1,0,0:0:0:0:
439,170,109520,2,0,B|462:111|462:111|436:27,1,123.499994346619
292,128,109863,1,0,0:0:0:0:
384,48,110034,6,0,P|324:72|228:72,1,123.499994346619
108,56,110377,1,0,0:0:0:0:
23,168,110549,1,0,0:0:0:0:
54,186,110634,1,0,0:0:0:0:
90,194,110720,1,0,0:0:0:0:
127,194,110806,1,0,0:0:0:0:
163,185,110892,1,0,0:0:0:0:
196,168,110977,1,0,0:0:0:0:
228,144,111063,2,0,L|236:72,1,61.7499971733095
328,96,111234,2,0,L|336:16,1,61.7499971733095
159,98,111406,6,0,B|137:133|137:133|160:243,1,123.499994346619
391,170,111749,2,0,B|413:205|413:205|390:315,1,123.499994346619
372,291,112006,1,0,0:0:0:0:
348,297,112092,1,0,0:0:0:0:
324,303,112177,1,0,0:0:0:0:
299,309,112263,1,0,0:0:0:0:
276,316,112349,1,0,0:0:0:0:
252,324,112434,2,0,L|236:388,1,61.7499971733095
152,272,112606,2,0,L|136:340,2,61.7499971733095,0|0|0,0:0|0:0|0:0,0:0:0:0:
224,128,115520,6,0,L|208:192,1,61.7499971733095
288,208,115692,2,0,L|272:272,1,61.7499971733095,0|0,0:0|0:0,0:0:0:0:
456,224,115863,6,0,L|470:164,1,61.7499971733095,0|0,0:0|0:0,0:0:0:0:
392,144,116035,2,0,L|406:84,1,61.7499971733095
352,284,116206,6,0,L|336:348,1,61.7499971733095
328,72,116377,2,0,L|342:12,1,61.7499971733095,0|0,0:0|0:0,0:0:0:0:
436,296,116549,2,0,L|504:280,1,61.7499971733095
252,40,116720,2,0,L|188:52,1,61.7499971733095
46,166,116892,5,0,0:0:0:0:
72,180,116977,1,0,0:0:0:0:
104,188,117063,1,0,0:0:0:0:
136,181,117149,1,0,0:0:0:0:
178,173,117234,1,0,0:0:0:0:
221,170,117320,1,0,0:0:0:0:
263,179,117406,1,0,0:0:0:0:
302,197,117492,1,0,0:0:0:0:
345,230,117577,5,0,0:0:0:0:
399,242,117663,1,0,0:0:0:0:
452,225,117749,1,0,0:0:0:0:
486,181,117834,1,0,0:0:0:0:
496,108,117920,6,0,B|496:76|496:76|464:145|494:229,1,185.249991519928
408,312,118263,6,0,P|325:334|255:315,1,142.500005435944
164,256,118606,1,0,0:0:0:0:
340,208,118777,1,0,0:0:0:0:
340,208,118863,1,0,0:0:0:0:
340,208,118949,2,0,L|336:356,1,142.500005435944
248,128,119292,1,0,0:0:0:0:
200,344,119463,6,0,B|204:248|204:248|236:200|236:200|208:156|208:156|212:72,1,285.000010871888
244,268,119977,1,0,0:0:0:0:
336,140,120149,1,0,0:0:0:0:
336,140,120234,1,0,0:0:0:0:
336,140,120320,2,0,B|300:120|300:120|164:136,1,142.500005435944
64,336,120663,2,0,B|100:356|100:356|236:340,1,142.500005435944
468,236,121006,6,0,B|432:216|432:216|296:232,1,142.500005435944
200,344,121349,1,0,0:0:0:0:
376,364,121520,1,0,0:0:0:0:
376,364,121606,1,0,0:0:0:0:
376,364,121692,2,0,B|392:324|392:324|384:208,1,142.500005435944
248,144,122034,1,0,0:0:0:0:
464,96,122206,6,0,B|408:140|408:140|356:108|356:108|188:116,1,285.000010871888
72,112,122720,2,0,L|128:108,1,35.625001358986
212,72,122892,2,0,L|260:68,1,35.625001358986
356,32,123063,2,0,L|408:28,1,35.625001358986
136,16,123234,1,0,0:0:0:0:
288,128,123406,2,0,P|320:196|308:288,1,142.500005435944
152,344,123749,6,0,P|120:276|132:184,1,142.500005435944
316,264,124092,1,0,0:0:0:0:
72,256,124263,1,0,0:0:0:0:
72,256,124349,1,0,0:0:0:0:
72,256,124434,2,0,L|248:248,1,142.500005435944
152,344,124777,1,0,0:0:0:0:
424,256,124949,6,0,B|316:264|316:264|292:224|292:224|132:232,1,285.000010871888
264,356,125463,1,0,0:0:0:0:
336,148,125634,1,0,0:0:0:0:
336,148,125720,1,0,0:0:0:0:
336,148,125806,2,0,B|356:204|356:204|344:296,1,142.500005435944
140,104,126149,2,0,B|120:160|120:160|132:252,1,142.500005435944
400,56,126492,6,0,L|256:48,1,142.500005435944
100,36,126834,1,0,0:0:0:0:
144,184,127006,1,0,0:0:0:0:
144,184,127092,1,0,0:0:0:0:
144,184,127177,2,0,P|171:253|140:352,1,142.500005435944
292,288,127520,1,0,0:0:0:0:
92,256,127692,6,0,B|220:256|220:256|292:220|292:220|380:268,1,285.000010871888
412,152,128206,2,0,L|352:152,1,35.625001358986
128,108,128377,2,0,L|180:108,1,35.625001358986
336,48,128549,2,0,L|268:48,1,35.625001358986
228,176,128720,2,0,L|224:236,1,35.625001358986,0|0,0:0|0:0,0:0:0:0:
260,136,128892,6,0,B|276:220|276:220|252:300,1,142.500005435944
64,184,129234,2,0,B|48:100|48:100|72:20,1,142.500005435944
200,12,129577,1,0,0:0:0:0:
336,48,129749,1,0,0:0:0:0:
336,48,129834,1,0,0:0:0:0:
336,48,129920,2,0,P|416:60|496:44,1,142.500005435944
260,208,130263,1,0,0:0:0:0:
460,276,130434,6,0,P|304:240|148:284,1,285.000010871888
376,352,130949,1,0,0:0:0:0:
260,208,131120,1,0,0:0:0:0:
260,208,131206,1,0,0:0:0:0:
260,208,131292,2,0,B|236:240|236:240|248:356,1,142.500005435944
460,276,131634,2,0,B|416:296|416:296|300:288,1,142.500005435944
68,360,131977,6,0,B|112:368|112:368|210:349,1,142.500005435944
260,208,132320,1,0,0:0:0:0:
344,120,132492,1,0,0:0:0:0:
344,120,132577,1,0,0:0:0:0:
344,120,132663,2,0,P|280:148|200:140,1,142.500005435944
124,28,133006,1,0,0:0:0:0:
208,336,133177,6,0,B|184:216|184:216|232:184|232:184|244:40,1,285.000010871888
128,152,133692,2,0,L|124:192,1,35.625001358986
260,208,133863,2,0,L|272:252,1,35.625001358986
400,260,134034,2,0,L|396:300,1,35.625001358986
216,296,134206,1,0,0:0:0:0:
32,324,134377,2,0,B|24:248|24:248|40:168,1,142.500005435944
332,184,134720,6,0,L|192:208,1,142.500005435944
58,65,135063,2,0,L|212:52,1,142.500005435944
228,48,135320,1,0,0:0:0:0:
256,46,135406,1,0,0:0:0:0:
392,56,135577,1,0,0:0:0:0:
332,184,135749,1,0,0:0:0:0:
424,264,135920,6,0,B|440:292|436:332|436:332|476:260|469:206|469:206|464:148|436:92,1,285.000010871888
192,40,136434,2,0,P|188:124|216:192,1,142.500005435944
60,324,136777,1,0,0:0:0:0:
76,296,136863,1,0,0:0:0:0:
64,264,136949,1,0,0:0:0:0:
64,232,137034,1,0,0:0:0:0:
80,200,137120,1,0,0:0:0:0:
296,104,137463,6,0,L|288:252,1,142.500005435944
396,340,137806,1,0,0:0:0:0:
420,148,137977,1,0,0:0:0:0:
404,176,138063,1,0,0:0:0:0:
416,208,138149,1,0,0:0:0:0:
416,240,138234,1,0,0:0:0:0:
400,272,138320,2,0,L|396:344,1,71.2500027179719
296,104,138492,6,0,L|208:92,1,71.2500027179719
72,164,138663,2,0,L|152:176,1,71.2500027179719
256,192,138834,12,0,140034,0:0:0:0:
