osu file format v14

[General]
AudioFilename: Stan SB - Anyone Out There.mp3
AudioLeadIn: 0
PreviewTime: 118263
Countdown: 0
SampleSet: Soft
StackLeniency: 0.7
Mode: 0
LetterboxInBreaks: 1
WidescreenStoryboard: 1

[Editor]
Bookmarks: 22243,52434,61863,85349,94949,107292,112777,117920,138834
DistanceSpacing: 1
BeatDivisor: 4
GridSize: 8
TimelineZoom: 2.800006

[Metadata]
Title:Anyone Out There
TitleUnicode:Anyone Out There
Artist:Stan SB
ArtistUnicode:Stan SB
Creator:lsahi
Version:Karneval
Source:
Tags:
BeatmapID:517329
BeatmapSetID:205387

[Difficulty]
HPDrainRate:7
CircleSize:4
OverallDifficulty:8
ApproachRate:9
SliderMultiplier:1.9
SliderTickRate:2

[Events]
//Background and Video events
0,0,"BG.jpg",0,0
//Break Periods
2,27300,29892
//Storyboard Layer 0 (Background)
//Storyboard Layer 1 (Fail)
//Storyboard Layer 2 (Pass)
//Storyboard Layer 3 (Foreground)
//Storyboard Sound Samples
Sample,62634,0,"soft-hitclap.wav",80
Sample,84577,0,"soft-hitclap.wav",80
Sample,128463,0,"soft-hitclap.wav",80
Sample,138492,0,"soft-hitclap.wav",80

[TimingPoints]
12643,342.857142857143,4,2,0,100,1,0
22472,342.857142857143,4,2,0,100,1,0
22557,-100,4,2,0,5,0,0
22643,-100,4,2,0,100,0,0
30492,342.857142857143,4,2,1,100,1,0
33234,-50,4,2,1,80,0,0
33749,-100,4,2,1,80,0,0
35634,-50,4,2,1,80,0,0
35977,-50,4,2,1,80,0,0
36320,-100,4,2,1,80,0,0
38377,-50,4,2,1,80,0,0
38720,-50,4,2,1,80,0,0
39063,-100,4,2,1,80,0,0
41463,-50,4,2,1,90,0,0
41977,-133.333333333333,4,2,1,90,0,0
42149,-100,4,2,1,90,0,0
44206,-200,4,2,1,90,0,0
44720,-100,4,2,1,90,0,0
45406,-200,4,2,1,90,0,0
47634,-100,4,2,1,90,0,0
48149,-200,4,2,1,90,0,0
51063,-100,4,2,1,100,0,0
53806,-200,4,2,1,100,0,0
54492,-100,4,2,1,100,0,0
56777,-100,4,2,1,30,0,0
56892,-100,4,2,1,100,0,0
56949,-100,4,2,1,30,0,0
57063,-100,4,2,1,100,0,0
57120,-100,4,2,1,30,0,0
57234,-100,4,2,1,100,0,0
57292,-100,4,2,1,30,0,0
57406,-100,4,2,1,100,0,0
62206,-100,4,2,1,100,0,0
62263,-100,4,2,1,30,0,0
62377,-100,4,2,1,100,0,0
62434,-100,4,2,1,30,0,0
62549,-100,4,2,1,100,0,0
62606,-100,4,2,1,30,0,0
62720,-100,4,2,1,100,0,0
62777,-100,4,2,1,30,0,0
62892,-100,4,2,1,100,0,0
66663,-100,4,2,1,100,0,0
67749,-100,4,2,1,30,0,0
67863,-100,4,2,1,100,0,0
67920,-100,4,2,1,30,0,0
68034,-100,4,2,1,100,0,0
68092,-100,4,2,1,30,0,0
68206,-100,4,2,1,100,0,0
68263,-100,4,2,1,30,0,0
68377,-100,4,2,1,100,0,0
74377,-100,4,2,1,100,0,1
74549,-100,4,2,1,100,0,1
88092,-200,4,2,1,100,0,1
88606,-100,4,2,1,100,0,1
89692,-100,4,2,1,30,0,1
89806,-100,4,2,1,100,0,1
89863,-100,4,2,1,30,0,1
89977,-100,4,2,1,100,0,1
90034,-100,4,2,1,30,0,1
90149,-100,4,2,1,100,0,1
90206,-100,4,2,1,30,0,1
90320,-100,4,2,1,100,0,1
92034,-200,4,2,1,100,0,1
94092,-50,4,2,1,100,0,0
96320,-133.333333333333,4,2,1,50,0,0
96663,-133.333333333333,4,1,2,30,0,0
96834,-133.333333333333,4,2,1,50,0,0
97349,-133.333333333333,4,1,2,30,0,0
97520,-133.333333333333,4,2,1,50,0,0
98034,-133.333333333333,4,1,2,30,0,0
98549,-133.333333333333,4,2,1,50,0,0
98720,-133.333333333333,4,1,2,30,0,0
99063,-133.333333333333,4,2,1,50,0,0
99406,-133.333333333333,4,1,2,30,0,0
99577,-133.333333333333,4,2,1,50,0,0
100092,-133.333333333333,4,1,2,30,0,0
100434,-133.333333333333,4,2,1,50,0,0
100777,-133.333333333333,4,1,2,30,0,0
101292,-133.333333333333,4,2,1,50,0,0
101463,-133.333333333333,4,1,2,30,0,0
101806,-133.333333333333,4,2,1,50,0,0
102149,-133.333333333333,4,1,2,30,0,0
102320,-133.333333333333,4,2,1,50,0,0
102834,-133.333333333333,4,1,2,30,0,0
103177,-133.333333333333,4,2,1,50,0,0
103520,-133.333333333333,4,1,2,30,0,0
104034,-133.333333333333,4,2,1,50,0,0
104206,-133.333333333333,4,1,2,30,0,0
104549,-133.333333333333,4,2,1,50,0,0
104892,-133.333333333333,4,1,2,30,0,0
105063,-133.333333333333,4,2,1,50,0,0
105577,-133.333333333333,4,1,2,30,0,0
105920,-133.333333333333,4,2,1,50,0,0
106263,-133.333333333333,4,1,2,30,0,0
106777,-133.333333333333,4,2,1,50,0,0
106949,-133.333333333333,4,1,2,30,0,0
107292,-133.333333333333,4,2,1,50,0,0
107634,-133.333333333333,4,1,2,30,0,0
107806,-133.333333333333,4,2,1,50,0,0
108320,-133.333333333333,4,1,2,30,0,0
108492,-133.333333333333,4,2,1,50,0,0
109006,-133.333333333333,4,1,2,30,0,0
109520,-133.333333333333,4,2,1,50,0,0
109692,-133.333333333333,4,1,2,30,0,0
110034,-133.333333333333,4,2,1,50,0,0
110377,-133.333333333333,4,1,2,30,0,0
110549,-133.333333333333,4,2,1,50,0,0
111063,-133.333333333333,4,1,2,30,0,0
111406,-133.333333333333,4,2,1,50,0,0
111749,-133.333333333333,4,1,2,30,0,0
112263,-133.333333333333,4,2,1,50,0,0
112434,-133.333333333333,4,1,2,30,0,0
112777,-133.333333333333,4,2,1,50,0,0
114149,-133.333333333333,4,2,1,60,0,0
115520,-133.333333333333,4,2,1,70,0,0
116206,-133.333333333333,4,2,1,80,0,0
116892,-133.333333333333,4,2,1,90,0,0
117920,-133.333333333333,4,2,1,100,0,0
118263,-100,4,2,1,100,0,1
134377,-50,4,2,1,100,0,1
134720,-100,4,2,1,100,0,1
138834,-100,4,2,1,100,0,0
141834,-100,4,2,1,40,0,0

[Colours]
Combo1 : 255,250,255
Combo2 : 151,255,248
Combo3 : 248,206,255
Combo4 : 250,255,255

[HitObjects]
352,112,22472,38,0,L|384:160,1,47.5
256,192,22643,12,0,27100,0:0:0:0:
160,88,30492,21,2,0:0:0:0:
388,156,31006,2,0,L|440:156,2,47.5,0|0|0,0:0|0:0|0:0,0:0:0:0:
268,156,31349,1,0,0:0:0:0:
160,88,31692,1,0,0:0:0:0:
56,176,32034,1,0,0:0:0:0:
160,88,32206,1,0,0:0:0:0:
208,264,32549,2,2,P|272:280|336:256,2,95,0|0|0,0:0|0:0|0:0,0:0:0:0:
408,296,33234,6,2,B|400:296|400:296|424:272|424:272|400:288|400:288|424:264|424:264|400:280|400:280|424:256|424:256|400:272|400:272|424:248|424:248|400:264|400:264|424:240|424:240|400:256|400:256|408:240|408:240|408:160,1,380,8|0,0:0|0:0,0:0:0:0:
192,144,33749,2,0,L|152:192,1,47.5
56,176,33920,2,0,B|104:176|104:176|128:224|176:232|176:232|200:288,1,190
80,288,34434,1,0,0:0:0:0:
392,232,34777,1,0,0:0:0:0:
480,96,34949,1,0,0:0:0:0:
336,40,35120,1,0,0:0:0:0:
248,176,35292,1,0,0:0:0:0:
360,136,35463,1,0,0:0:0:0:
240,312,35634,2,0,B|216:312|216:312|232:304|232:304|208:304|208:304|224:296|224:296|200:296|200:296|216:288|216:288|192:288|192:288|208:280|208:280|184:280|184:280|200:272|200:272|176:272|176:272|192:264|192:264|168:264|168:264|184:256|184:256|160:256|160:256|176:248|176:248|128:248|128:248,1,380,0|2,0:0|0:0,0:0:0:0:
432,224,36492,38,0,L|360:224,1,47.5
432,224,36663,2,0,L|432:96,1,95
288,128,37177,1,0,0:0:0:0:
220,195,37520,2,0,L|288:128,1,95
64,168,38034,1,0,0:0:0:0:
64,248,38206,1,0,0:0:0:0:
64,328,38377,2,0,B|88:320|88:320|72:328|72:328|96:320|96:320|80:328|80:328|104:320|104:320|88:328|88:328|112:320|112:320|96:328|96:328|120:320|120:320|104:328|104:328|128:320|128:320|112:328|112:328|136:320|136:320|120:328|120:328|144:320|144:320|128:328|128:328|168:328,1,380,0|8,0:0|0:0,0:0:0:0:
376,160,39234,5,0,0:0:0:0:
400,136,39320,1,0,0:0:0:0:
436,151,39406,2,0,P|446:195|408:216,1,95
256,336,39920,1,0,0:0:0:0:
256,48,40263,1,0,0:0:0:0:
256,64,40434,1,0,0:0:0:0:
256,80,40606,1,0,0:0:0:0:
256,96,40777,1,0,0:0:0:0:
256,216,40949,1,0,0:0:0:0:
256,328,41120,1,2,0:0:0:0:
256,328,41463,38,0,B|256:320|256:320|240:320|240:320|272:320|272:320|240:312|240:312|272:312|272:312|240:304|240:304|272:304|272:304|240:296|240:296|272:296|272:296|240:288|240:288|272:288|272:288|256:288|256:288|256:232,1,380,8|0,0:0|0:0,0:0:0:0:
256,48,41977,2,0,L|256:88,1,35.625001358986
256,48,42149,2,0,P|336:64|368:88,1,95
344,296,42663,1,0,0:0:0:0:
160,296,43006,1,0,0:0:0:0:
344,296,43177,1,0,0:0:0:0:
160,120,43520,2,0,B|96:96|96:96|48:112,2,95,0|0|2,0:0|0:0|0:0,0:0:0:0:
384,240,44206,6,0,L|480:256,1,95,8|0,0:0|0:0,0:0:0:0:
424,56,44720,2,0,L|352:56,1,47.5
320,96,44892,2,0,B|304:104|296:112|296:112|272:72|224:72,1,95
88,304,45406,2,0,L|200:304,1,95
232,304,45920,1,0,0:0:0:0:
304,272,46092,1,0,0:0:0:0:
336,192,46263,1,0,0:0:0:0:
296,96,46434,1,0,0:0:0:0:
176,64,46606,2,0,L|104:128,1,95,2|8,0:0|0:0,0:0:0:0:
448,312,47463,37,0,0:0:0:0:
448,280,47549,1,0,0:0:0:0:
448,240,47634,2,0,L|448:144,1,95
88,144,48149,2,0,L|88:240,1,95
448,240,48663,2,0,L|448:144,1,95
328,72,49177,1,0,0:0:0:0:
216,144,49349,1,0,0:0:0:0:
328,280,49692,22,0,L|304:304,1,23.75,2|0,0:0|0:0,0:0:0:0:
296,248,49863,2,0,L|256:256,1,23.75,2|0,0:0|0:0,0:0:0:0:
280,208,50034,2,0,L|240:208,1,23.75,2|0,0:0|0:0,0:0:0:0:
272,168,50206,2,0,L|240:160,1,23.75,2|0,0:0|0:0,0:0:0:0:
280,128,50377,2,0,L|304:120,1,23.75,2|0,0:0|0:0,0:0:0:0:
256,96,50549,2,0,L|264:56,1,23.75,2|0,0:0|0:0,0:0:0:0:
216,96,50720,2,0,L|208:64,1,23.75,2|0,0:0|0:0,0:0:0:0:
184,120,50892,2,0,L|160:112,1,23.75,2|0,0:0|0:0,0:0:0:0:
184,160,51063,6,0,L|152:160,2,23.75,0|0|0,0:0|0:0|0:0,0:0:0:0:
176,208,51234,2,0,L|144:200,2,23.75,0|0|0,0:0|0:0|0:0,0:0:0:0:
160,248,51406,2,0,L|136:232,2,23.75,0|0|0,0:0|0:0|0:0,0:0:0:0:
128,272,51577,2,0,L|120:240,2,23.75,0|0|0,0:0|0:0|0:0,0:0:0:0:
88,288,51749,2,0,L|88:256,2,23.75,0|0|0,0:0|0:0|0:0,0:0:0:0:
48,296,51920,2,0,L|48:272,2,23.75,0|0|0,0:0|0:0|0:0,0:0:0:0:
40,144,52092,21,8,0:0:0:0:
416,152,52434,37,2,0:0:0:0:
368,288,52606,1,2,0:0:0:0:
264,192,52777,1,8,0:0:0:0:
203,66,52949,1,0,0:0:0:0:
176,72,53034,1,0,0:0:0:0:
141,82,53120,2,0,P|89:109|55:142,1,95,2|2,0:0|0:0,0:0:0:0:
152,216,53463,1,8,0:0:0:0:
264,192,53634,1,2,0:0:0:0:
384,168,53806,2,0,B|384:216|384:216|344:256,1,95,2|8,0:0|0:0,0:0:0:0:
248,312,54320,1,2,0:0:0:0:
168,96,54492,2,0,B|208:56|208:56|256:64,2,95,2|2|8,0:0|0:0|0:0,0:0:0:0:
112,248,55006,5,0,0:0:0:0:
112,288,55092,1,0,0:0:0:0:
112,328,55177,2,0,B|208:328|208:328|208:280|208:280|256:280,1,190,2|8,0:0|0:0,0:0:0:0:
408,64,55692,2,0,L|352:40,1,47.5
279,164,55863,2,0,B|264:168|296:160|320:192|320:192|352:160,1,95,2|2,0:0|0:0,0:0:0:0:
160,104,56206,1,8,0:0:0:0:
112,328,56377,2,0,B|160:312|176:304|176:304|200:320|216:312,1,95,2|2,0:0|0:0,0:0:0:0:
392,236,56720,22,0,L|368:256,1,31.6666666666667
268,209,56892,2,0,L|240:224,1,31.6666666666667,8|0,0:0|0:0,0:0:0:0:
151,170,57063,2,0,L|120:176,1,31.6666666666667
63,108,57234,2,0,L|32:104,1,31.6666666666667
16,16,57406,22,0,P|88:16|128:48,2,95,2|8|2,0:0|0:0|0:0,0:0:0:0:
304,104,57920,37,2,0:0:0:0:
304,104,58263,1,8,0:0:0:0:
144,296,58434,2,0,L|176:256,1,47.5,2|0,0:0|0:0,0:0:0:0:
184,296,58606,2,0,B|232:296|232:296|248:264|248:264|296:264,1,95,2|2,0:0|0:0,0:0:0:0:
432,280,58949,1,8,0:0:0:0:
256,192,59120,1,2,0:0:0:0:
80,288,59292,2,0,P|32:336|0:320,2,95,2|0|8,0:0|0:0|0:0,0:0:0:0:
256,192,59806,1,0,0:0:0:0:
424,120,59977,1,0,0:0:0:0:
280,32,60149,1,2,0:0:0:0:
88,200,60320,2,0,P|48:248|40:304,1,95,8|0,0:0|0:0,0:0:0:0:
280,312,60663,5,2,0:0:0:0:
400,256,60834,2,0,L|496:216,1,95,0|8,0:0|0:0,0:0:0:0:
248,200,61177,1,0,0:0:0:0:
272,160,61263,1,0,0:0:0:0:
304,136,61349,2,0,P|328:112|407:103,1,95,0|2,0:0|0:0,0:0:0:0:
504,40,61692,1,8,0:0:0:0:
385,98,61863,2,0,P|350:128|304:136,1,95
160,88,62206,22,0,L|120:64,1,31.6666666666667,2|0,0:0|0:0,0:0:0:0:
128,168,62377,2,0,L|80:168,1,31.6666666666667,8|0,0:0|0:0,0:0:0:0:
144,248,62549,2,0,L|104:264,1,31.6666666666667,0|0,0:0|0:0,0:0:0:0:
208,304,62720,2,0,L|184:336,1,31.6666666666667,0|0,0:0|0:0,0:0:0:0:
296,328,62892,21,2,0:0:0:0:
384,344,63063,2,0,P|380:290|259:247,1,190,8|2,0:0|0:0,0:0:0:0:
160,240,63577,37,0,0:0:0:0:
56,200,63749,1,8,0:0:0:0:
224,104,63920,2,0,L|272:88,1,47.5
272,160,64092,2,0,B|224:184|224:184|224:240,1,95,2|2,0:0|0:0,0:0:0:0:
224,336,64434,1,8,0:0:0:0:
352,232,64606,2,0,P|408:248|432:288,1,95,0|2,0:0|0:0,0:0:0:0:
256,200,64949,1,0,0:0:0:0:
344,160,65120,2,0,P|400:144|448:168,1,95,8|0,0:0|0:0,0:0:0:0:
256,200,65463,1,0,0:0:0:0:
160,280,65634,2,0,P|178:322|223:335,2,95,2|8|2,0:0|0:0|0:0,0:0:0:0:
120,160,66149,1,2,0:0:0:0:
464,320,66492,5,8,0:0:0:0:
464,192,66663,2,0,L|464:136,1,47.5
400,144,66834,2,0,B|352:144|352:144|352:200,1,95,2|2,0:0|0:0,0:0:0:0:
224,296,67177,2,0,B|184:272|184:272|136:296,2,95,8|2|2,0:0|0:0|0:0,0:0:0:0:
320,256,67692,22,0,L|360:280,1,31.6666666666667,0|0,0:0|0:0,0:0:0:0:
320,216,67863,2,0,L|360:240,1,31.6666666666667,8|0,0:0|0:0,0:0:0:0:
320,176,68034,2,0,L|360:200,1,31.6666666666667,0|0,0:0|0:0,0:0:0:0:
320,136,68206,2,0,L|360:160,1,31.6666666666667,0|0,0:0|0:0,0:0:0:0:
320,96,68377,21,2,0:0:0:0:
176,88,68549,2,0,P|96:136|64:240,1,190,8|2,0:0|0:0,0:0:0:0:
400,304,69234,37,8,0:0:0:0:
400,72,69406,1,0,0:0:0:0:
352,88,69492,1,0,0:0:0:0:
328,128,69577,2,0,P|280:152|224:144,1,95,0|2,0:0|0:0,0:0:0:0:
312,248,69920,1,8,0:0:0:0:
240,152,70092,2,0,P|192:176|168:232,1,95,2|2,0:0|0:0,0:0:0:0:
112,104,70434,1,0,0:0:0:0:
171,210,70606,2,0,P|120:256|56:248,2,95,8|0|0,0:0|0:0|0:0,0:0:0:0:
208,80,71120,2,0,P|256:40|296:40,1,95,2|8,0:0|0:0,0:0:0:0:
384,240,71634,5,2,0:0:0:0:
384,240,71806,1,2,0:0:0:0:
368,128,71977,1,8,0:0:0:0:
240,232,72149,1,2,0:0:0:0:
288,64,72320,2,0,P|224:80|200:104,1,95
160,168,72663,2,0,P|104:200|88:232,2,95,8|0|2,0:0|0:0|0:0,0:0:0:0:
456,224,73349,1,0,0:0:0:0:
32,320,73692,1,4,0:0:0:0:
400,296,74377,37,2,0:0:0:0:
328,224,74549,2,0,P|352:176|392:152,1,95,0|8,0:0|0:0,0:0:0:0:
272,128,74892,1,2,0:0:0:0:
88,200,75063,2,0,P|80:264|112:296,1,95,0|2,0:0|0:0,0:0:0:0:
260,212,75406,2,0,P|283:172|272:128,2,95,8|2|2,0:0|0:0|0:0,0:0:0:0:
176,288,75920,1,0,0:0:0:0:
288,328,76092,2,0,P|360:320|376:304,2,95,8|2|0,0:0|0:0|0:0,0:0:0:0:
176,288,76606,2,0,P|120:232|120:184,1,95,2|8,0:0|0:0,0:0:0:0:
120,88,76949,1,2,0:0:0:0:
408,168,77120,6,0,P|352:160|304:192,1,95,2|0,0:0|0:0,0:0:0:0:
368,240,77463,1,8,0:0:0:0:
224,256,77634,1,2,0:0:0:0:
184,264,77720,1,0,0:0:0:0:
144,272,77806,2,0,L|48:296,1,95,0|2,0:0|0:0,0:0:0:0:
80,152,78149,1,8,0:0:0:0:
336,320,78320,2,0,P|392:312|424:272,1,95,0|2,0:0|0:0,0:0:0:0:
368,72,78663,1,0,0:0:0:0:
192,248,78834,1,8,0:0:0:0:
440,280,79006,1,0,0:0:0:0:
272,112,79177,1,0,0:0:0:0:
280,344,79349,1,2,0:0:0:0:
88,256,79520,2,0,P|40:224|128:216,1,190,8|2,0:0|0:0,0:0:0:0:
312,304,80034,37,0,0:0:0:0:
456,184,80206,1,8,0:0:0:0:
248,104,80377,2,0,P|224:88|176:80,1,47.5,2|0,0:0|0:0,0:0:0:0:
160,168,80549,2,0,P|184:216|248:240,1,95,0|2,0:0|0:0,0:0:0:0:
432,288,80892,1,8,0:0:0:0:
432,288,81063,2,0,P|400:200|400:176,1,95,0|2,0:0|0:0,0:0:0:0:
336,80,81406,1,0,0:0:0:0:
336,80,81577,2,0,P|280:89|229:116,1,95,8|0,0:0|0:0,0:0:0:0:
160,192,81920,2,0,P|152:264|112:280,2,95,0|2|8,0:0|0:0|0:0,0:0:0:0:
56,320,82606,5,2,0:0:0:0:
432,320,82949,1,8,0:0:0:0:
288,88,83120,2,0,L|232:96,1,47.5
160,144,83292,2,0,B|144:152|144:152|232:192,1,95,0|2,0:0|0:0,0:0:0:0:
392,216,83634,2,0,P|456:240|472:272,2,95,8|2|2,0:0|0:0|0:0,0:0:0:0:
184,280,84149,1,0,0:0:0:0:
208,72,84320,1,8,0:0:0:0:
384,200,84492,1,0,0:0:0:0:
240,368,84663,1,0,0:0:0:0:
112,192,84834,1,2,0:0:0:0:
344,176,85006,2,0,P|312:112|256:104,2,95,8|0|2,0:0|0:0|0:0,0:0:0:0:
176,304,85520,38,0,P|120:264|96:216,1,95,0|8,0:0|0:0,0:0:0:0:
256,176,85863,1,0,0:0:0:0:
312,56,86034,2,0,P|376:104|392:160,1,95,0|2,0:0|0:0,0:0:0:0:
384,280,86377,2,0,P|336:328|288:336,1,95,8|2,0:0|0:0,0:0:0:0:
80,328,86720,1,2,0:0:0:0:
304,328,86892,2,0,P|352:312|376:264,2,95,0|8|0,0:0|0:0|0:0,0:0:0:0:
80,328,87406,2,0,P|104:256|144:240,1,95,0|2,0:0|0:0,0:0:0:0:
272,136,87749,1,8,0:0:0:0:
112,56,87920,1,0,0:0:0:0:
112,248,88092,2,0,L|112:344,1,95,2|8,0:0|0:0,0:0:0:0:
384,312,88606,5,0,0:0:0:0:
336,312,88692,1,0,0:0:0:0:
296,312,88777,2,0,P|272:264|296:224,1,95,0|2,0:0|0:0,0:0:0:0:
384,232,89120,1,8,0:0:0:0:
176,232,89292,2,0,L|80:232,1,95,2|2,0:0|0:0,0:0:0:0:
112,112,89634,22,0,L|136:72,1,31.6666666666667
200,104,89806,2,0,L|216:72,1,31.6666666666667,8|0,0:0|0:0,0:0:0:0:
288,96,89977,2,0,L|304:64,1,31.6666666666667
376,88,90149,2,0,L|392:56,1,31.6666666666667
464,80,90320,21,2,0:0:0:0:
464,248,90492,1,8,0:0:0:0:
216,312,90663,37,2,0:0:0:0:
240,312,90749,1,0,0:0:0:0:
264,312,90834,2,0,P|328:280|336:256,2,95,2|0|8,0:0|0:0|0:0,0:0:0:0:
40,304,91349,2,0,L|96:288,1,47.5
72,216,91520,2,0,P|120:216|152:272,1,95,0|2,0:0|0:0,0:0:0:0:
176,368,91863,1,8,0:0:0:0:
288,360,92034,2,0,B|352:352|352:352|376:320,1,95,2|2,0:0|0:0,0:0:0:0:
240,112,92549,2,0,B|296:96|296:96|304:48,1,95,8|2,0:0|0:0,0:0:0:0:
416,240,93063,1,2,0:0:0:0:
192,216,93234,1,8,0:0:0:0:
216,336,93577,6,0,L|320:352,1,95,2|8,0:0|0:0,0:0:0:0:
320,104,94092,2,0,B|288:96|288:96|288:80|288:80|240:80,1,95
271,160,94263,6,0,B|272:160|256:176|256:176|328:192,1,95,2|0,0:0|0:0,0:0:0:0:
440,208,94434,1,8,0:0:0:0:
80,176,94777,6,0,B|112:120|112:120|160:120,1,95,2|0,0:0|0:0,0:0:0:0:
240,120,94949,1,8,0:0:0:0:
376,296,95292,38,0,B|336:320|336:320|344:296|344:296|320:304,1,95,2|0,0:0|0:0,0:0:0:0:
256,256,95463,1,8,0:0:0:0:
88,328,95806,6,0,B|64:280|64:280|88:280|88:280|72:272|72:272|96:256,1,95,2|0,0:0|0:0,0:0:0:0:
80,256,95977,1,8,0:0:0:0:
400,200,96320,1,0,0:0:0:0:
400,200,96492,2,0,P|400:144|384:128,1,71.2500027179719,0|8,0:0|0:0,0:0:0:0:
80,120,96834,1,0,0:0:0:0:
104,128,96920,1,0,0:0:0:0:
136,136,97006,1,0,0:0:0:0:
160,128,97092,1,0,0:0:0:0:
184,112,97177,1,0,0:0:0:0:
208,96,97263,1,0,0:0:0:0:
240,96,97349,1,8,0:0:0:0:
208,272,97520,1,0,0:0:0:0:
224,288,97606,1,0,0:0:0:0:
248,296,97692,1,0,0:0:0:0:
248,296,97863,2,0,P|288:288|312:256,1,71.2500027179719,0|8,0:0|0:0,0:0:0:0:
384,288,98549,37,0,0:0:0:0:
416,264,98634,1,0,0:0:0:0:
432,232,98720,1,8,0:0:0:0:
216,104,99063,5,0,0:0:0:0:
216,104,99234,2,0,P|280:88|304:96,1,71.2500027179719,0|8,0:0|0:0,0:0:0:0:
256,240,99577,1,0,0:0:0:0:
224,256,99662,1,0,0:0:0:0:
184,264,99748,2,0,L|184:216,1,35.625001358986
80,264,99919,2,0,L|80:224,1,35.625001358986
80,184,100092,1,8,0:0:0:0:
296,120,100434,1,0,0:0:0:0:
408,288,100606,2,0,L|344:256,1,71.2500027179719,0|8,0:0|0:0,0:0:0:0:
384,336,101292,37,0,0:0:0:0:
352,312,101377,1,0,0:0:0:0:
320,288,101463,1,8,0:0:0:0:
88,320,101806,5,0,0:0:0:0:
88,320,101977,1,0,0:0:0:0:
120,208,102149,1,8,0:0:0:0:
352,104,102320,1,0,0:0:0:0:
360,136,102406,1,0,0:0:0:0:
352,168,102492,2,0,L|312:184,1,35.625001358986
232,272,102663,2,0,L|184:296,1,35.625001358986
168,304,102834,1,8,0:0:0:0:
120,112,103177,2,0,P|168:80|200:80,2,71.2500027179719,0|0|8,0:0|0:0|0:0,0:0:0:0:
120,112,104034,38,0,P|168:80|208:80,1,71.2500027179719,0|8,0:0|0:0,0:0:0:0:
328,104,104549,5,0,0:0:0:0:
416,144,104720,1,0,0:0:0:0:
392,232,104892,1,8,0:0:0:0:
152,280,105063,1,0,0:0:0:0:
176,296,105149,1,0,0:0:0:0:
216,304,105234,2,0,L|232:264,1,35.625001358986
176,184,105406,2,0,L|160:128,1,35.625001358986
160,120,105577,1,8,0:0:0:0:
336,248,105920,1,0,0:0:0:0:
336,248,106092,1,0,0:0:0:0:
368,160,106263,1,8,0:0:0:0:
336,248,106777,37,0,0:0:0:0:
352,200,106863,1,0,0:0:0:0:
368,160,106949,1,8,0:0:0:0:
120,96,107292,6,0,L|112:176,1,71.2500027179719
104,248,107634,1,8,0:0:0:0:
248,304,107806,2,0,L|288:344,1,35.625001358986
288,240,107977,2,0,L|336:256,1,35.625001358986
304,168,108149,1,0,0:0:0:0:
328,160,108234,1,0,0:0:0:0:
352,144,108320,1,8,0:0:0:0:
256,72,108492,1,0,0:0:0:0:
232,88,108577,1,0,0:0:0:0:
216,112,108663,1,0,0:0:0:0:
200,208,108834,1,0,0:0:0:0:
104,224,109006,1,8,0:0:0:0:
200,208,109520,37,0,0:0:0:0:
152,216,109606,1,0,0:0:0:0:
104,224,109692,1,8,0:0:0:0:
320,336,110034,5,0,0:0:0:0:
320,336,110206,2,0,P|376:320|384:288,1,71.2500027179719,0|8,0:0|0:0,0:0:0:0:
352,200,110549,1,0,0:0:0:0:
360,184,110634,1,0,0:0:0:0:
376,168,110720,1,0,0:0:0:0:
400,144,110806,1,0,0:0:0:0:
400,112,110892,1,0,0:0:0:0:
368,96,110977,1,0,0:0:0:0:
320,96,111063,1,8,0:0:0:0:
136,312,111406,1,0,0:0:0:0:
232,208,111577,1,0,0:0:0:0:
320,96,111749,1,8,0:0:0:0:
136,120,112263,37,0,0:0:0:0:
120,136,112349,1,0,0:0:0:0:
104,152,112434,1,8,0:0:0:0:
128,344,112777,6,0,L|216:328,1,71.2500027179719
384,328,113120,2,0,L|296:320,1,71.2500027179719
88,272,113463,2,0,L|176:248,1,71.2500027179719
416,240,113806,2,0,L|320:224,1,71.2500027179719
56,192,114149,2,0,L|136:168,1,71.2500027179719
448,160,114492,2,0,L|352:144,1,71.2500027179719
16,120,114834,2,0,L|88:104,1,71.2500027179719
480,80,115177,2,0,L|384:72,1,71.2500027179719
144,128,115520,38,0,L|176:96,1,35.625001358986
232,176,115692,2,0,L|280:168,1,35.625001358986
312,240,115863,2,0,L|368:248,1,35.625001358986
368,152,116034,2,0,L|400:120,1,35.625001358986
280,104,116206,2,0,L|256:64,1,35.625001358986
192,152,116377,2,0,L|160:128,1,35.625001358986
136,232,116549,2,0,L|80:232,1,35.625001358986
184,312,116720,2,0,L|120:328,1,35.625001358986
280,344,116892,5,0,0:0:0:0:
312,328,116977,1,0,0:0:0:0:
336,304,117063,1,0,0:0:0:0:
360,272,117149,1,0,0:0:0:0:
376,240,117234,1,0,0:0:0:0:
384,208,117320,1,0,0:0:0:0:
384,176,117406,1,0,0:0:0:0:
376,144,117492,1,0,0:0:0:0:
360,112,117577,1,0,0:0:0:0:
336,88,117663,1,0,0:0:0:0:
304,64,117749,2,0,L|256:32,1,35.625001358986
48,192,117920,5,8,0:0:0:0:
472,192,118263,5,2,0:0:0:0:
304,136,118434,2,0,P|240:176|240:208,1,95,0|8,0:0|0:0,0:0:0:0:
160,328,118777,1,0,0:0:0:0:
80,192,118949,2,0,P|56:136|72:88,1,95,0|2,0:0|0:0,0:0:0:0:
232,176,119292,2,0,P|264:120|304:96,1,95,8|2,0:0|0:0,0:0:0:0:
312,312,119634,1,2,0:0:0:0:
440,296,119806,2,0,P|448:232|408:184,1,95,0|8,0:0|0:0,0:0:0:0:
312,312,120149,1,0,0:0:0:0:
384,152,120320,2,0,P|408:96|448:72,1,95,0|2,0:0|0:0,0:0:0:0:
160,264,120663,2,0,P|144:312|96:344,2,95,8|0|2,0:0|0:0|0:0,0:0:0:0:
176,184,121177,38,0,P|208:120|240:104,1,95,0|8,0:0|0:0,0:0:0:0:
392,256,121520,2,0,L|440:240,1,47.5
368,184,121692,2,0,B|304:200|304:200|288:176|288:176|288:176,1,95,0|2,0:0|0:0,0:0:0:0:
232,56,122034,1,8,0:0:0:0:
200,328,122206,2,0,P|240:304|288:312,1,95,2|2,0:0|0:0,0:0:0:0:
216,240,122549,2,0,L|216:192,1,47.5
128,192,122720,2,0,L|104:152,1,47.5,8|0,0:0|0:0,0:0:0:0:
224,136,122892,2,0,L|272:112,1,47.5
128,80,123063,2,0,L|80:72,1,47.5
224,40,123234,1,2,0:0:0:0:
281,144,123406,2,0,L|376:144,2,95,8|0|2,0:0|0:0|0:0,0:0:0:0:
376,288,123920,6,0,L|272:288,1,95,0|8,0:0|0:0,0:0:0:0:
112,288,124263,1,0,0:0:0:0:
112,240,124349,1,0,0:0:0:0:
112,200,124434,2,0,P|136:152|184:144,1,95,0|2,0:0|0:0,0:0:0:0:
208,240,124777,1,8,0:0:0:0:
304,160,124949,1,0,0:0:0:0:
392,248,125120,2,0,P|448:216|464:184,2,95,2|2|8,0:0|0:0|0:0,0:0:0:0:
272,288,125634,1,0,0:0:0:0:
48,184,125806,1,0,0:0:0:0:
248,40,125977,1,2,0:0:0:0:
392,248,126149,1,8,0:0:0:0:
392,248,126320,1,2,0:0:0:0:
392,216,126406,1,0,0:0:0:0:
392,184,126492,2,0,L|392:88,1,95,2|0,0:0|0:0,0:0:0:0:
160,136,126834,37,8,0:0:0:0:
248,304,127006,2,0,P|216:272|176:272,1,47.5
184,344,127177,2,0,B|120:344|120:344|80:320,1,95,0|2,0:0|0:0,0:0:0:0:
96,120,127520,1,8,0:0:0:0:
376,288,127692,2,0,P|344:216|320:192,1,95,0|2,0:0|0:0,0:0:0:0:
168,240,128034,1,0,0:0:0:0:
328,144,128206,1,8,0:0:0:0:
112,280,128377,1,0,0:0:0:0:
384,104,128549,1,0,0:0:0:0:
376,288,128720,2,0,L|296:224,1,95,2|8,0:0|0:0,0:0:0:0:
120,96,129063,1,0,0:0:0:0:
144,112,129149,1,0,0:0:0:0:
168,128,129234,2,0,P|224:152|272:128,1,95,2|0,0:0|0:0,0:0:0:0:
432,112,129577,5,8,0:0:0:0:
416,224,129749,1,0,0:0:0:0:
320,288,129920,2,0,P|248:288|208:272,1,95,0|2,0:0|0:0,0:0:0:0:
216,88,130263,2,0,P|272:152|280:184,1,95,8|0,0:0|0:0,0:0:0:0:
136,200,130606,2,0,P|104:248|104:304,2,95,2|0|8,0:0|0:0|0:0,0:0:0:0:
216,88,131120,1,0,0:0:0:0:
360,144,131292,2,0,P|390:108|436:102,2,95,0|2|8,0:0|0:0|0:0,0:0:0:0:
432,184,131806,1,0,0:0:0:0:
448,208,131892,1,0,0:0:0:0:
456,240,131977,2,0,P|448:288|408:328,1,95,2|0,0:0|0:0,0:0:0:0:
352,240,132320,37,8,0:0:0:0:
206,206,132492,2,0,L|240:240,1,47.5
240,240,132663,2,0,P|184:272|112:256,1,95,2|2,0:0|0:0,0:0:0:0:
96,256,133006,1,8,0:0:0:0:
232,336,133177,2,0,P|304:344|336:320,1,95,0|2,0:0|0:0,0:0:0:0:
272,256,133520,2,0,L|232:216,1,47.5
304,176,133692,2,0,L|344:136,1,47.5,8|0,0:0|0:0,0:0:0:0:
256,104,133863,2,0,L|208:64,1,47.5
288,32,134034,2,0,L|336:24,1,47.5,0|0,0:0|0:0,0:0:0:0:
416,40,134206,1,2,0:0:0:0:
416,40,134377,2,0,B|472:56|472:56|480:64|472:72|472:72|416:88|416:88|408:96|416:104|416:104|472:120|472:120|480:128|472:136|472:136|416:152|416:152|408:160|416:168|416:168|472:184|472:184|480:192|472:200|472:200,1,380,8|2,0:0|0:0,0:0:0:0:
112,288,135063,5,8,0:0:0:0:
240,288,135234,1,0,0:0:0:0:
325,183,135406,2,0,P|286:156|240:152,1,95,0|2,0:0|0:0,0:0:0:0:
120,152,135749,2,0,P|64:160|24:200,1,95,8|0,0:0|0:0,0:0:0:0:
112,288,136092,1,0,0:0:0:0:
240,288,136263,2,0,P|320:272|336:248,2,95,2|8|2,0:0|0:0|0:0,0:0:0:0:
112,288,136777,2,0,P|32:272|16:248,2,95,0|2|8,0:0|0:0|0:0,0:0:0:0:
440,288,137463,37,2,0:0:0:0:
352,96,137806,2,0,L|264:160,1,95,8|0,0:0|0:0,0:0:0:0:
192,224,138063,1,0,0:0:0:0:
176,240,138149,2,0,B|136:264|136:264|80:232,1,95,2|2,0:0|0:0,0:0:0:0:
120,72,138663,21,2,0:0:0:0:
