osu file format v14

[General]
AudioFilename: Stan SB - Anyone Out There.mp3
AudioLeadIn: 0
PreviewTime: 118263
Countdown: 0
SampleSet: Soft
StackLeniency: 0.7
Mode: 0
LetterboxInBreaks: 1
WidescreenStoryboard: 1

[Editor]
DistanceSpacing: 1.1
BeatDivisor: 4
GridSize: 16
TimelineZoom: 1.660002

[Metadata]
Title:Anyone Out There
TitleUnicode:Anyone Out There
Artist:Stan SB
ArtistUnicode:Stan SB
Creator:lsahi
Version:Hard
Source:
Tags:
BeatmapID:504622
BeatmapSetID:205387

[Difficulty]
HPDrainRate:6
CircleSize:4
OverallDifficulty:6
ApproachRate:8
SliderMultiplier:1.5
SliderTickRate:2

[Events]
//Background and Video events
0,0,"BG.jpg",0,0
//Break Periods
//Storyboard Layer 0 (Background)
//Storyboard Layer 1 (Fail)
//Storyboard Layer 2 (Pass)
//Storyboard Layer 3 (Foreground)
//Storyboard Sound Samples

[TimingPoints]
12643,342.857142857143,4,2,0,100,1,0
22472,342.857142857143,4,2,1,100,1,0
30492,342.857142857143,4,2,1,40,1,0
41463,-90.9090909090909,4,2,1,100,0,1
52092,-100,4,2,1,70,0,0
52434,-90.9090909090909,4,2,1,70,0,0
63407,-90.9090909090909,4,2,1,60,0,1
63492,-90.9090909090909,4,2,1,60,0,0
74377,-83.3333333333333,4,2,1,100,0,0
74477,-83.3333333333333,4,2,1,60,0,0
90834,-76.9230769230769,4,2,1,60,0,0
94092,-76.9230769230769,4,2,1,5,0,1
95977,-76.9230769230769,4,2,1,60,0,0
112777,-76.9230769230769,4,2,1,30,0,0
113463,-76.9230769230769,4,2,1,50,0,0
114149,-76.9230769230769,4,2,1,70,0,0
115863,-71.4285714285714,4,2,1,70,0,0
116206,-66.6666666666667,4,2,1,70,0,0
116549,-62.5,4,2,1,70,0,0
116892,-58.8235294117647,4,2,1,70,0,0
117234,-55.5555555555556,4,2,1,70,0,0
117577,-52.6315789473684,4,2,1,70,0,0
117920,-50,4,2,1,70,0,1
118020,-76.9230769230769,4,2,1,70,0,0
118263,-83.3333333333333,4,2,1,80,0,1
122549,-100,4,2,1,80,0,1
123749,-83.3333333333333,4,2,1,80,0,1
128034,-100,4,2,1,80,0,1
129234,-83.3333333333333,4,2,1,80,0,1
133520,-100,4,2,1,80,0,1
134720,-83.3333333333333,4,2,1,80,0,1
138834,-66.6666666666667,4,2,1,80,0,0

[Colours]
Combo1 : 255,255,255
Combo2 : 4,158,251
Combo3 : 216,12,129

[HitObjects]
63,196,30492,5,0,0:0:0:0:
229,134,31006,1,0,0:0:0:0:
229,134,31092,1,0,0:0:0:0:
229,134,31177,2,0,P|265:152|307:151,1,75
339,260,31692,6,0,P|407:206|408:120,1,150
374,84,32206,2,0,L|220:116,1,150
154,95,32720,2,0,P|121:126|61:130,1,75
79,47,33234,5,0,0:0:0:0:
240,165,33749,1,0,0:0:0:0:
240,165,33834,1,0,0:0:0:0:
240,165,33920,2,0,L|246:259,1,75
427,286,34434,6,0,L|429:117,1,150
387,72,34949,2,0,P|333:94|303:87,1,75
247,67,35292,1,0,0:0:0:0:
247,67,35463,2,0,P|179:54|158:59,1,75
36,114,35977,5,0,0:0:0:0:
209,190,36492,1,0,0:0:0:0:
209,190,36578,1,0,0:0:0:0:
209,190,36663,2,0,P|271:180|294:163,1,75
369,258,37177,6,0,L|377:93,1,150
315,63,37692,2,0,P|264:90|172:77,1,150
122,132,38206,2,0,P|102:89|105:54,1,75
25,191,38720,5,0,0:0:0:0:
151,232,39234,1,0,0:0:0:0:
151,232,39320,1,0,0:0:0:0:
151,232,39406,2,0,P|174:270|181:307,1,75
261,329,39920,6,0,L|110:344,1,150
45,308,40434,1,0,0:0:0:0:
45,308,40606,2,0,P|21:259|25:224,1,75
37,166,40949,1,0,0:0:0:0:
37,166,41121,2,0,L|164:182,1,112.5
165,197,41463,5,0,0:0:0:0:
408,305,41977,1,0,0:0:0:0:
408,305,42063,1,0,0:0:0:0:
408,305,42148,2,0,P|403:250|415:213,1,82.5000025177003
400,143,42663,6,0,P|418:251|402:321,1,165.000005035401
324,346,43177,1,0,0:0:0:0:
324,346,43349,1,0,0:0:0:0:
244,229,43520,1,0,0:0:0:0:
176,284,43692,2,0,P|121:286|88:267,2,82.5000025177003
244,229,44206,5,0,0:0:0:0:
65,88,44720,1,0,0:0:0:0:
65,88,44805,1,0,0:0:0:0:
65,88,44891,2,0,P|111:98|151:93,1,82.5000025177003
292,219,45406,6,0,P|328:186|403:268,1,165.000005035401
408,243,45920,2,0,P|410:187|432:165,1,82.5000025177003
494,121,46263,1,0,0:0:0:0:
494,121,46434,2,0,P|510:80|507:38,2,82.5000025177003
422,62,46949,5,0,0:0:0:0:
340,101,47120,1,0,0:0:0:0:
255,66,47292,1,0,0:0:0:0:
164,71,47463,1,0,0:0:0:0:
164,71,47549,1,0,0:0:0:0:
164,71,47634,1,0,0:0:0:0:
79,110,47806,2,0,P|77:147|47:190,1,82.5000025177003
88,265,48149,6,0,P|151:260|275:291,1,165.000005035401
331,323,48663,1,0,0:0:0:0:
331,323,48834,1,0,0:0:0:0:
321,232,49006,1,0,0:0:0:0:
403,269,49177,1,0,0:0:0:0:
403,269,49349,1,0,0:0:0:0:
481,235,49520,1,0,0:0:0:0:
487,144,49692,6,0,P|483:98|458:64,1,82.5000025177003
382,42,50034,2,0,L|289:58,1,82.5000025177003
221,95,50377,2,0,P|189:130|153:136,1,82.5000025177003
69,119,50720,2,0,L|67:36,1,82.5000025177003
165,34,51063,6,0,L|161:80,3,41.2500012588501
193,108,51406,2,0,L|197:154,3,41.2500012588501
152,186,51749,2,0,L|148:232,3,41.2500012588501
206,271,52092,1,0,0:0:0:0:
445,317,52434,6,0,L|424:138,1,165.000005035401
354,76,52949,1,0,0:0:0:0:
354,76,53034,1,0,0:0:0:0:
354,76,53120,2,0,P|295:104|263:102,1,82.5000025177003
191,86,53463,1,0,0:0:0:0:
88,255,53806,6,0,P|116:207|109:119,1,123.75000377655
102,105,54149,1,0,0:0:0:0:
191,86,54320,2,0,L|368:111,1,165.000005035401
433,159,54834,1,0,0:0:0:0:
420,286,55177,6,0,B|387:321|387:321|267:321,1,165.000005035401
173,290,55692,1,0,0:0:0:0:
173,290,55777,1,0,0:0:0:0:
173,290,55863,2,0,P|157:248|163:202,1,82.5000025177003
201,137,56206,1,0,0:0:0:0:
340,159,56549,6,0,L|432:174,1,82.5000025177003
511,188,56892,1,0,0:0:0:0:
422,212,57063,1,0,0:0:0:0:
512,231,57234,2,0,L|420:246,1,82.5000025177003
344,258,57577,1,0,0:0:0:0:
193,315,57920,6,0,B|184:274|184:274|153:243|153:243|135:152,1,165.000005035401
201,87,58434,1,0,0:0:0:0:
201,87,58520,1,0,0:0:0:0:
201,87,58606,2,0,P|245:108|286:106,1,82.5000025177003
365,76,58949,1,0,0:0:0:0:
446,181,59292,6,0,B|396:214|396:214|320:206,1,123.75000377655
301,203,59634,1,0,0:0:0:0:
179,182,59806,2,0,B|88:169|88:169|166:125,1,165.000005035401
189,59,60320,2,0,P|245:74|272:65,1,82.5000025177003
