osu file format v14

[General]
AudioFilename: Stan SB - Anyone Out There.mp3
AudioLeadIn: 0
PreviewTime: 118263
Countdown: 0
SampleSet: Soft
StackLeniency: 0.7
Mode: 0
LetterboxInBreaks: 1
StoryFireInFront: 0
EpilepsyWarning: 1
WidescreenStoryboard: 1

[Editor]
Bookmarks: 74377,96320
DistanceSpacing: 0.3
BeatDivisor: 4
GridSize: 16
TimelineZoom: 2.700006

[Metadata]
Title:Anyone Out There
TitleUnicode:Anyone Out There
Artist:Stan SB
ArtistUnicode:Stan SB
Creator:lsahi
Version:Extra
Source:
Tags:
BeatmapID:2021805
BeatmapSetID:205387

[Difficulty]
HPDrainRate:6.5
CircleSize:4
OverallDifficulty:8
ApproachRate:9.3
SliderMultiplier:2.3
SliderTickRate:2

[Events]
//Background and Video events
0,0,"BG.jpg",0,0
//Break Periods
//Storyboard Layer 0 (Background)
//Storyboard Layer 1 (Fail)
//Storyboard Layer 2 (Pass)
//Storyboard Layer 3 (Foreground)
//Storyboard Layer 4 (Overlay)
//Storyboard Sound Samples

[TimingPoints]
12643,342.857142857143,4,2,0,100,1,0
22472,342.857142857143,4,2,1,100,1,0
30492,342.857142857143,4,2,1,40,1,0
35634,-200,4,2,1,40,0,0
35977,-100,4,2,1,40,0,0
48149,-133.333333333333,4,2,1,40,0,0
48663,-100,4,2,1,40,0,0
74034,-200,4,2,1,40,0,0
74377,-100,4,2,1,40,0,0
93577,-200,4,2,1,40,0,0
93920,-100,4,2,1,40,0,0
112777,-133.333333333333,4,2,1,40,0,0
117920,-100,4,2,1,40,0,0
118263,-83.3333333333333,4,2,1,40,0,1
140206,-83.3333333333333,4,2,1,40,0,0

[Colours]
Combo1 : 255,255,255
Combo2 : 4,158,251
Combo3 : 216,12,129

[HitObjects]
256,192,22472,5,0,0:0:0:0:
256,192,22643,12,0,27100,0:0:0:0:
466,291,30492,6,0,B|458:237|458:237|477:184|477:184|460:131|460:131|483:87|468:34,1,230
207,324,31006,1,0,0:0:0:0:
240,302,31091,1,0,0:0:0:0:
261,267,31177,2,0,P|263:222|250:191,1,57.5
321,57,31349,2,0,P|319:102|360:166,1,115
93,92,31692,6,0,L|335:54,1,230
412,89,32206,1,0,0:0:0:0:
412,89,32377,1,0,0:0:0:0:
382,296,32549,1,0,0:0:0:0:
321,55,32720,1,0,0:0:0:0:
412,89,32892,2,0,L|396:226,1,115
50,266,33234,6,0,B|85:273|133:245|133:245|158:250|180:273|180:273|207:259|237:260|237:260|262:268|285:266,1,230
55,167,33749,1,0,0:0:0:0:
55,167,33834,1,0,0:0:0:0:
55,167,33920,2,0,P|34:129|30:108,1,57.5
131,347,34092,2,0,P|73:362|-1:350,1,115
229,92,34434,6,0,L|209:279,1,172.5
131,347,34777,1,0,0:0:0:0:
400,308,34949,1,0,0:0:0:0:
181,160,35120,1,0,0:0:0:0:
414,304,35292,5,0,0:0:0:0:
164,171,35463,1,0,0:0:0:0:
512,57,35634,2,0,L|503:156,1,86.25
425,339,35977,6,0,B|436:221|436:221|418:172|418:172|426:96,1,230
252,254,36492,1,0,0:0:0:0:
252,254,36577,1,0,0:0:0:0:
252,254,36663,2,0,P|305:245|320:235,1,57.5
247,24,36834,2,0,P|292:62|358:71,1,115
345,72,37177,6,0,B|259:56|193:116|193:116|156:93|117:101,1,230
53,136,37692,1,0,0:0:0:0:
53,136,37863,1,0,0:0:0:0:
301,201,38034,1,0,0:0:0:0:
130,99,38206,1,0,0:0:0:0:
53,136,38377,2,0,L|181:172,1,115
229,289,38720,6,0,P|307:225|452:237,1,230
163,223,39234,1,0,0:0:0:0:
163,223,39320,1,0,0:0:0:0:
163,223,39406,2,0,P|167:180|159:156,1,57.5
229,289,39577,2,0,P|291:233|349:215,1,115
492,325,39920,6,0,B|444:331|444:331|401:307|401:307|366:332|294:329,1,172.5
229,288,40263,1,0,0:0:0:0:
201,269,40434,1,0,0:0:0:0:
146,256,40606,1,0,0:0:0:0:
63,248,40777,1,0,0:0:0:0:
19,177,40948,1,0,0:0:0:0:
36,96,41120,2,0,P|86:74|169:146,1,172.5
168,141,41463,6,0,P|206:77|361:72,1,230
429,316,41977,1,0,0:0:0:0:
429,316,42063,1,0,0:0:0:0:
429,316,42149,2,0,P|388:311|346:294,1,57.5
286,283,42320,2,0,P|231:306|160:306,1,115
201,67,42663,6,0,P|179:146|68:184,1,172.5
7,175,43006,1,0,0:0:0:0:
171,265,43177,2,0,L|190:146,1,115
201,67,43520,1,0,0:0:0:0:
234,334,43692,1,0,0:0:0:0:
189,151,43863,2,0,L|171:265,1,115
251,82,44206,6,0,P|306:139|455:137,1,230
13,256,44720,1,0,0:0:0:0:
13,256,44806,1,0,0:0:0:0:
13,256,44892,2,0,P|63:244|85:245,1,57.5
60,144,45063,2,0,P|127:160|173:156,1,115
141,325,45406,6,0,L|174:144,1,172.5
236,91,45749,1,0,0:0:0:0:
273,74,45920,1,0,0:0:0:0:
333,79,46092,1,0,0:0:0:0:
401,121,46263,1,0,0:0:0:0:
424,197,46434,1,0,0:0:0:0:
404,275,46606,2,0,P|317:258|284:173,1,172.5
283,188,46949,6,0,P|259:248|90:278,1,230
164,60,47463,1,0,0:0:0:0:
168,73,47549,1,0,0:0:0:0:
173,89,47634,2,0,P|211:105|236:105,1,57.5
283,188,47806,2,0,P|245:204|220:204,1,57.5
111,289,47977,1,0,0:0:0:0:
193,320,48149,6,0,P|274:335|372:316,1,172.500006580353
361,319,48663,2,0,P|265:288|219:294,1,115
465,279,49006,1,0,0:0:0:0:
378,211,49177,2,0,P|354:262|361:319,2,115
482,172,49692,5,0,0:0:0:0:
252,223,49863,1,0,0:0:0:0:
396,52,50034,1,0,0:0:0:0:
174,98,50206,1,0,0:0:0:0:
174,98,50292,1,0,0:0:0:0:
174,98,50377,2,0,P|127:78|100:76,1,57.5
55,228,50549,2,0,P|102:208|129:206,1,57.5
188,318,50720,2,0,P|250:301|290:259,1,115
270,44,51063,5,0,0:0:0:0:
268,84,51149,1,0,0:0:0:0:
279,122,51234,1,0,0:0:0:0:
303,153,51320,1,0,0:0:0:0:
337,173,51406,1,0,0:0:0:0:
376,179,51492,1,0,0:0:0:0:
415,175,51577,1,0,0:0:0:0:
455,180,51663,1,0,0:0:0:0:
489,201,51749,5,0,0:0:0:0:
498,239,51834,1,0,0:0:0:0:
482,276,51920,1,0,0:0:0:0:
446,294,52006,1,0,0:0:0:0:
407,281,52092,1,0,0:0:0:0:
191,274,52434,6,0,P|198:177|228:142,1,115
292,112,52691,1,0,0:0:0:0:
331,117,52777,1,0,0:0:0:0:
427,303,52949,1,0,0:0:0:0:
425,301,53034,1,0,0:0:0:0:
425,301,53120,2,0,P|386:317|360:315,1,57.5
191,274,53292,2,0,P|230:258|256:260,1,57.5
47,200,53463,2,0,P|76:231|83:261,1,57.5
187,62,53634,1,0,0:0:0:0:
283,332,53806,6,0,B|281:293|303:262|303:262|343:239|344:202|344:202|323:167,1,172.5
241,142,54149,2,0,P|200:156|171:155,1,57.5
116,297,54320,2,0,P|198:302|285:333,1,172.5
387,306,54663,2,0,P|376:267|376:244,1,57.5
449,60,54834,2,0,P|426:122|384:157,1,115
74,281,55177,6,0,B|42:214|65:148|65:148|108:119,1,172.5
156,58,55520,2,0,P|192:74|214:73,1,57.5
166,328,55692,1,0,0:0:0:0:
166,328,55777,1,0,0:0:0:0:
166,328,55863,2,0,P|216:302|235:302,1,57.5
273,207,56034,2,0,P|337:241|404:250,1,115
479,205,56377,1,0,0:0:0:0:
341,356,56549,5,0,0:0:0:0:
160,207,56720,1,0,0:0:0:0:
386,60,56892,2,0,L|448:79,1,57.5
209,311,57063,2,0,L|134:289,1,57.5
356,138,57234,1,0,0:0:0:0:
126,132,57406,1,0,0:0:0:0:
377,231,57577,2,0,B|427:221|452:170|452:170|464:200|451:241,1,172.5
377,231,57920,6,0,P|331:184|260:176,1,115
81,229,58263,1,0,0:0:0:0:
382,288,58434,1,0,0:0:0:0:
385,260,58520,1,0,0:0:0:0:
378,231,58606,2,0,P|344:206|322:201,1,57.5
141,167,58777,2,0,P|183:167|209:152,1,57.5
245,88,58949,1,0,0:0:0:0:
273,329,59120,1,0,0:0:0:0:
150,273,59292,6,0,B|192:266|192:266|217:238|217:238|320:222,1,172.5
379,138,59634,2,0,P|351:101|348:80,1,57.5
471,33,59806,2,0,L|467:224,1,172.5
436,289,60149,1,0,0:0:0:0:
431,305,60234,1,0,0:0:0:0:
426,317,60320,2,0,P|362:290|296:310,1,115
254,56,60663,6,0,L|268:244,1,172.5
233,306,61006,1,0,0:0:0:0:
425,326,61177,1,0,0:0:0:0:
403,303,61262,1,0,0:0:0:0:
375,291,61348,2,0,P|346:289|318:297,1,57.5
266,228,61520,2,0,P|284:200|286:158,1,57.5
129,40,61692,2,0,P|174:55|194:52,1,57.5
39,97,61863,6,0,B|23:185|94:177|66:275,1,172.5
16,336,62206,1,0,0:0:0:0:
215,141,62377,1,0,0:0:0:0:
69,261,62549,2,0,L|-6:249,1,57.5
363,206,62720,2,0,L|438:218,1,57.5
107,344,62892,1,0,0:0:0:0:
356,33,63063,2,0,L|363:213,1,172.5
362,205,63406,6,0,B|301:191|301:191|250:202|250:202|176:189,1,172.5
52,81,63749,1,0,0:0:0:0:
231,46,63920,1,0,0:0:0:0:
231,46,64006,1,0,0:0:0:0:
231,46,64092,2,0,P|245:84|245:116,1,57.5
322,346,64263,2,0,P|308:308|308:276,1,57.5
362,205,64434,1,0,0:0:0:0:
304,288,64606,6,0,P|212:303|122:232,1,172.5
99,193,64949,1,0,0:0:0:0:
113,78,65120,2,0,L|97:200,1,115
87,335,65463,1,0,0:0:0:0:
184,58,65634,1,0,0:0:0:0:
149,68,65720,1,0,0:0:0:0:
113,78,65806,2,0,L|97:200,1,115
261,294,66149,6,0,L|245:94,1,172.5
318,58,66492,2,0,P|376:93|436:92,1,115
499,43,66749,1,0,0:0:0:0:
499,43,66834,1,0,0:0:0:0:
479,289,67006,1,0,0:0:0:0:
421,95,67177,1,0,0:0:0:0:
183,232,67349,6,0,B|268:284|269:171|379:229,1,172.5
218,141,67692,2,0,L|189:78,1,57.5
337,307,67863,2,0,L|365:367,1,57.5
226,112,68034,2,0,L|202:48,1,57.5
320,338,68206,1,0,0:0:0:0:
219,28,68377,2,0,L|246:94,1,57.5
161,156,68549,2,0,P|90:178|6:92,1,172.5
14,124,68892,6,0,L|31:325,1,172.5
103,350,69234,1,0,0:0:0:0:
151,104,69406,1,0,0:0:0:0:
148,63,69492,1,0,0:0:0:0:
146,23,69577,1,0,0:0:0:0:
52,207,69749,1,0,0:0:0:0:
279,131,69920,1,0,0:0:0:0:
52,207,70092,1,0,0:0:0:0:
233,54,70263,5,0,0:0:0:0:
211,326,70434,1,0,0:0:0:0:
169,113,70606,1,0,0:0:0:0:
251,137,70777,1,0,0:0:0:0:
10,199,70949,5,0,0:0:0:0:
169,113,71120,1,0,0:0:0:0:
251,137,71292,2,0,L|122:171,1,115
335,374,71634,6,0,P|317:275|324:191,1,172.5
344,107,71977,1,0,0:0:0:0:
233,278,72149,1,0,0:0:0:0:
233,278,72234,1,0,0:0:0:0:
233,278,72320,2,0,P|195:291|166:289,1,57.5
115,110,72492,2,0,P|166:142|241:145,1,115
28,159,72834,2,0,L|24:302,1,115
10,303,73177,5,0,0:0:0:0:
101,296,73349,1,0,0:0:0:0:
3,343,73520,1,0,0:0:0:0:
179,328,73692,1,0,0:0:0:0:
322,191,74034,6,0,L|316:92,1,86.25
289,60,74377,6,0,L|287:255,1,172.5
354,308,74720,2,0,P|396:323|414:321,1,57.5
189,254,74892,1,0,0:0:0:0:
189,254,74977,1,0,0:0:0:0:
112,196,75063,2,0,L|105:132,1,57.5
208,53,75234,2,0,L|198:188,1,115
306,307,75577,6,0,B|377:321|412:266|412:266|423:293|408:328,1,172.5
331,219,75920,2,0,P|332:184|323:153,1,57.5
262,102,76092,2,0,L|131:112,1,115
78,47,76349,1,0,0:0:0:0:
78,47,76434,2,0,P|55:71|16:79,1,57.5
0,196,76606,2,0,P|26:206|45:227,1,57.5
153,283,76777,2,0,L|146:86,1,172.5
245,135,77120,6,0,P|314:90|409:112,1,172.5
339,210,77463,1,0,0:0:0:0:
60,155,77634,1,0,0:0:0:0:
60,155,77720,1,0,0:0:0:0:
60,155,77806,2,0,P|42:120|39:87,1,57.5
146,205,77977,2,0,P|164:240|167:273,1,57.5
46,322,78149,2,0,P|52:294|67:269,1,57.5
144,204,78320,6,0,P|212:229|177:146,1,172.5
178,329,78663,2,0,P|222:344|248:343,1,57.5
287,277,78834,2,0,P|333:276|357:266,1,57.5
372,193,79006,2,0,P|415:176|434:158,1,57.5
433,259,79177,2,0,P|469:288|493:296,1,57.5
216,223,79349,2,0,P|170:232|148:245,1,57.5
353,20,79520,2,0,L|337:200,1,172.5
93,118,79863,6,0,B|142:122|142:122|175:103|175:103|275:114,1,172.5
432,210,80206,2,0,P|455:247|475:262,1,57.5
252,337,80377,1,0,0:0:0:0:
252,337,80463,1,0,0:0:0:0:
252,337,80549,2,0,P|254:286|266:260,1,57.5
160,202,80720,2,0,P|82:246|31:228,1,115
160,202,81063,6,0,P|161:108|243:70,1,172.5
443,296,81406,2,0,P|404:311|375:303,1,57.5
296,256,81577,2,0,L|306:112,1,115
103,131,81834,1,0,0:0:0:0:
103,131,81920,2,0,P|147:113|156:92,1,57.5
338,184,82092,2,0,P|305:146|303:130,1,57.5
501,118,82263,2,0,L|495:308,1,172.5
168,310,82606,6,0,P|108:291|78:177,1,172.5
221,54,82949,1,0,0:0:0:0:
166,308,83120,1,0,0:0:0:0:
166,308,83206,1,0,0:0:0:0:
160,304,83292,2,0,P|145:266|145:228,1,57.5
226,207,83463,2,0,P|229:163|239:138,1,57.5
330,104,83634,1,0,0:0:0:0:
65,54,83806,6,0,P|91:123|86:244,1,172.5
49,312,84149,1,0,0:0:0:0:
315,328,84320,2,0,L|198:337,1,115
131,268,84577,1,0,0:0:0:0:
151,227,84663,2,0,L|226:234,1,57.5
402,210,84834,2,0,L|341:220,1,57.5
140,104,85006,2,0,L|275:117,1,115
425,335,85349,6,0,P|368:288|372:158,1,172.5
255,114,85692,2,0,L|191:124,1,57.5
33,176,85863,1,0,0:0:0:0:
33,176,85948,1,0,0:0:0:0:
116,194,86034,2,0,L|180:204,1,57.5
254,283,86206,2,0,L|133:302,1,115
105,53,86549,6,0,L|97:239,1,172.5
141,303,86892,2,0,P|175:321|201:319,1,57.5
307,209,87063,2,0,L|183:229,1,115
49,305,87320,1,0,0:0:0:0:
49,305,87406,2,0,P|17:318|-10:317,1,57.5
150,152,87577,2,0,P|182:139|209:140,1,57.5
366,323,87749,2,0,L|357:191,1,115
453,55,88092,6,0,L|448:248,1,172.5
443,350,88434,1,0,0:0:0:0:
392,123,88606,1,0,0:0:0:0:
392,123,88692,1,0,0:0:0:0:
392,123,88777,2,0,P|433:147|468:144,1,57.5
347,257,88949,2,0,P|306:281|271:278,1,57.5
149,136,89120,2,0,P|151:189|159:202,1,57.5
94,331,89292,6,0,B|138:328|167:289|167:289|111:297|72:250,1,172.5
23,192,89634,2,0,L|7:122,1,57.5
114,126,89806,2,0,L|125:65,1,57.5
225,89,89977,2,0,L|266:43,1,57.5
346,189,90149,2,0,L|330:119,1,57.5
495,199,90320,2,0,L|454:153,1,57.5
372,259,90492,6,0,L|368:51,1,172.5
124,157,90834,6,0,P|70:187|139:216,1,172.5
303,185,91177,1,0,0:0:0:0:
77,71,91349,1,0,0:0:0:0:
77,71,91434,1,0,0:0:0:0:
77,71,91520,2,0,P|111:100|141:98,1,57.5
50,273,91692,2,0,P|102:232|161:224,1,115
244,342,92034,6,0,P|258:278|371:278,1,172.5
352,261,92377,2,0,B|335:216|335:192,1,57.5
403,160,92549,2,0,B|431:173|464:155,1,57.5
458,157,92720,2,0,L|446:234,1,57.5
97,47,92892,1,0,0:0:0:0:
121,131,92977,2,0,B|93:144|60:126,1,57.5
65,128,93149,2,0,L|88:301,1,172.5
256,320,93577,6,0,L|256:224,1,86.25
256,64,93920,2,0,L|256:128,1,57.5
354,69,94263,6,0,P|378:92|412:103,1,57.5
488,102,94434,1,0,0:0:0:0:
158,69,94777,6,0,P|134:92|100:103,1,57.5
24,102,94948,1,0,0:0:0:0:
369,188,95292,6,0,P|367:226|378:262,1,57.5
458,211,95463,1,0,0:0:0:0:
143,188,95806,6,0,P|145:226|134:262,1,57.5
54,211,95977,1,0,0:0:0:0:
371,316,96320,5,0,0:0:0:0:
54,211,96492,1,0,0:0:0:0:
339,124,96663,1,0,0:0:0:0:
209,332,96834,1,0,0:0:0:0:
232,299,96920,1,0,0:0:0:0:
268,282,97006,2,0,P|344:297|396:282,1,115
469,188,97263,1,0,0:0:0:0:
469,188,97349,2,0,L|463:323,1,115
475,59,97692,5,0,0:0:0:0:
465,303,97863,1,0,0:0:0:0:
385,41,98034,1,0,0:0:0:0:
258,172,98206,2,0,P|219:196|196:193,1,57.5
81,157,98377,1,0,0:0:0:0:
76,141,98463,1,0,0:0:0:0:
70,124,98549,2,0,P|98:117|134:137,1,57.5
198,338,98720,2,0,L|193:193,1,115
113,284,99063,5,0,0:0:0:0:
376,214,99234,1,0,0:0:0:0:
107,172,99406,1,0,0:0:0:0:
326,42,99577,1,0,0:0:0:0:
334,81,99663,1,0,0:0:0:0:
332,121,99749,2,0,P|325:199|335:249,1,115
246,293,100006,1,0,0:0:0:0:
246,293,100092,2,0,P|170:246|124:238,1,115
47,245,100434,5,0,0:0:0:0:
406,273,100606,1,0,0:0:0:0:
47,245,100777,1,0,0:0:0:0:
362,105,100949,1,0,0:0:0:0:
333,133,101034,1,0,0:0:0:0:
293,140,101120,1,0,0:0:0:0:
253,131,101206,1,0,0:0:0:0:
222,104,101292,2,0,P|212:73|222:44,1,57.5
301,231,101463,2,0,L|292:364,1,115
40,94,101806,5,0,0:0:0:0:
135,319,101977,1,0,0:0:0:0:
301,139,102149,1,0,0:0:0:0:
292,346,102320,1,0,0:0:0:0:
292,346,102406,1,0,0:0:0:0:
292,346,102492,2,0,L|281:206,1,115
301,139,102749,1,0,0:0:0:0:
301,139,102834,2,0,P|360:169|431:157,1,115
180,249,103177,5,0,0:0:0:0:
374,68,103349,1,0,0:0:0:0:
445,310,103520,1,0,0:0:0:0:
460,149,103692,2,0,P|419:166|395:165,1,57.5
105,157,103863,2,0,P|162:140|186:142,1,57.5
228,226,104034,2,0,P|186:268|181:281,1,57.5
348,236,104206,2,0,P|350:293|381:348,1,115
376,145,104549,5,0,0:0:0:0:
277,315,104720,1,0,0:0:0:0:
71,195,104892,2,0,L|209:195,1,115
254,99,105149,1,0,0:0:0:0:
284,125,105234,1,0,0:0:0:0:
321,139,105320,1,0,0:0:0:0:
361,142,105406,1,0,0:0:0:0:
400,131,105492,1,0,0:0:0:0:
487,187,105577,2,0,L|487:325,1,115
226,266,105920,5,0,0:0:0:0:
461,222,106092,1,0,0:0:0:0:
201,187,106263,1,0,0:0:0:0:
261,119,106434,2,0,L|264:59,1,57.5
176,31,106606,2,0,L|46:48,1,115
55,205,106863,1,0,0:0:0:0:
55,205,106949,2,0,P|91:168|54:166,1,115
126,328,107292,5,0,0:0:0:0:
249,154,107463,1,0,0:0:0:0:
55,205,107634,2,0,L|189:204,1,115
253,244,107891,1,0,0:0:0:0:
253,244,107977,2,0,P|273:275|304:288,1,57.5
461,236,108148,2,0,P|441:205|410:192,1,57.5
347,216,108320,2,0,L|346:347,1,115
206,336,108663,5,0,0:0:0:0:
136,295,108834,1,0,0:0:0:0:
102,221,109006,2,0,L|93:89,1,115
141,35,109263,1,0,0:0:0:0:
141,35,109349,1,0,0:0:0:0:
225,170,109520,1,0,0:0:0:0:
225,170,109606,1,0,0:0:0:0:
225,170,109692,2,0,P|284:137|345:138,1,115
307,240,110034,5,0,0:0:0:0:
301,45,110206,1,0,0:0:0:0:
307,240,110377,2,0,P|241:276|179:265,1,115
69,190,110634,1,0,0:0:0:0:
61,150,110720,1,0,0:0:0:0:
76,112,110806,1,0,0:0:0:0:
107,87,110892,1,0,0:0:0:0:
145,78,110977,1,0,0:0:0:0:
227,113,111063,2,0,P|295:141|334:120,1,115
355,38,111406,5,0,0:0:0:0:
283,328,111577,1,0,0:0:0:0:
213,30,111749,1,0,0:0:0:0:
134,255,111920,1,0,0:0:0:0:
461,154,112092,1,0,0:0:0:0:
134,255,112263,1,0,0:0:0:0:
94,246,112349,1,0,0:0:0:0:
69,214,112434,2,0,L|73:78,1,115
291,328,112777,6,0,L|284:177,1,129.375004935265
313,166,113120,1,0,0:0:0:0:
193,288,113292,1,0,0:0:0:0:
464,250,113463,1,0,0:0:0:0:
34,114,113634,1,0,0:0:0:0:
269,37,113806,1,0,0:0:0:0:
286,360,113977,1,0,0:0:0:0:
132,62,114149,6,0,P|158:73|178:74,1,43.1250016450883
366,110,114320,2,0,P|306:113|262:126,1,86.2500032901765
192,186,114663,2,0,L|187:300,1,86.2500032901765
426,348,115006,1,0,0:0:0:0:
113,317,115177,1,0,0:0:0:0:
426,348,115349,1,0,0:0:0:0:
235,129,115520,5,0,0:0:0:0:
280,343,115692,1,0,0:0:0:0:
361,96,115863,1,0,0:0:0:0:
280,343,116034,1,0,0:0:0:0:
124,111,116206,5,0,0:0:0:0:
468,192,116377,1,0,0:0:0:0:
65,278,116549,1,0,0:0:0:0:
327,42,116720,1,0,0:0:0:0:
322,292,116892,6,0,P|329:333|328:344,1,43.1250016450883
110,73,117063,2,0,L|159:64,1,43.1250016450883
176,300,117234,2,0,L|243:291,1,43.1250016450883
239,212,117406,2,0,L|306:203,1,43.1250016450883
317,119,117577,2,0,L|465:99,1,129.375004935265
420,177,117920,6,0,P|374:120|445:101,1,172.5
447,299,118263,6,0,B|459:226|459:226|432:177|432:177|446:94,1,206.999993682861
346,250,118606,2,0,P|319:255|256:253,1,68.9999978942872
53,50,118777,1,0,0:0:0:0:
71,94,118863,1,0,0:0:0:0:
109,123,118949,2,0,P|150:142|184:145,1,68.9999978942872
410,227,119120,2,0,P|376:233|345:249,1,68.9999978942872
304,323,119292,1,0,0:0:0:0:
23,288,119463,6,0,B|96:288|96:288|128:304|128:304|160:288|160:288|224:288,1,206.999993682861
249,294,119806,1,0,0:0:0:0:
152,118,119977,2,0,P|126:75|122:38,1,68.9999978942872
113,161,120149,2,0,P|108:124|113:85,1,68.9999978942872
156,345,120320,1,0,0:0:0:0:
460,310,120492,2,0,P|416:321|384:316,1,68.9999978942872
359,305,120663,2,0,L|365:154,1,137.999995788574
275,62,121006,6,0,P|226:154|208:73,1,206.999993682861
213,247,121349,2,0,P|256:253|291:249,1,68.9999978942872
396,329,121520,1,0,0:0:0:0:
396,329,121606,1,0,0:0:0:0:
396,329,121692,2,0,B|426:295|426:295|435:255,1,68.9999978942872
416,179,121863,2,0,B|412:101|412:101|377:42,1,137.999995788574
140,255,122206,6,0,B|177:260|207:247|207:247|268:254|268:254|297:241|349:245,1,206.999993682861
431,271,122549,1,0,0:0:0:0:
154,156,122720,1,0,0:0:0:0:
321,340,122892,1,0,0:0:0:0:
85,318,123063,5,0,0:0:0:0:
431,271,123234,1,0,0:0:0:0:
137,230,123406,2,0,B|31:215|31:215|55:260,1,137.999995788574
85,318,123749,6,0,L|73:83,1,206.999993682861
246,41,124092,2,0,P|300:67|318:69,1,68.9999978942872
179,193,124263,1,0,0:0:0:0:
179,193,124349,1,0,0:0:0:0:
179,193,124434,2,0,L|81:216,1,68.9999978942872
238,279,124606,2,0,L|89:314,1,137.999995788574
310,340,124949,6,0,B|444:310|444:310|391:259,1,206.999993682861
211,126,125292,1,0,0:0:0:0:
427,30,125463,1,0,0:0:0:0:
393,261,125634,1,0,0:0:0:0:
211,126,125806,1,0,0:0:0:0:
393,261,125977,1,0,0:0:0:0:
148,326,126149,2,0,B|131:254|131:254|144:184,1,137.999995788574
211,126,126492,6,0,P|276:162|247:67,1,206.999993682861
142,192,126834,1,0,0:0:0:0:
348,326,127006,1,0,0:0:0:0:
348,326,127092,1,0,0:0:0:0:
348,326,127177,2,0,P|334:282|336:241,1,68.9999978942872
337,175,127349,2,0,P|351:138|379:113,1,68.9999978942872
262,211,127520,2,0,P|226:212|184:196,1,68.9999978942872
40,269,127692,6,0,P|124:287|194:191,1,206.999993682861
182,90,128034,1,0,0:0:0:0:
302,281,128206,1,0,0:0:0:0:
95,187,128377,2,0,L|57:96,1,68.9999978942872
302,281,128549,1,0,0:0:0:0:
79,306,128720,1,0,0:0:0:0:
296,256,128892,2,0,B|427:280|427:280|440:241|407:185,1,206.999993682861
424,178,129234,6,0,B|464:250|456:326|456:326|484:289|476:261,1,206.999993682861
347,120,129577,1,0,0:0:0:0:
146,75,129749,1,0,0:0:0:0:
156,92,129834,1,0,0:0:0:0:
159,112,129920,2,0,P|112:137|89:129,1,68.9999978942872
143,265,130092,2,0,P|102:249|84:218,1,68.9999978942872
284,192,130263,1,0,0:0:0:0:
27,333,130434,6,0,L|49:100,1,206.999993682861
152,47,130777,2,0,P|181:69|221:72,1,68.9999978942872
337,160,130949,2,0,L|191:184,1,137.999995788574
138,256,131206,1,0,0:0:0:0:
138,256,131292,2,0,L|156:329,1,68.9999978942872
337,160,131463,2,0,L|353:93,1,68.9999978942872
178,36,131634,2,0,L|221:194,1,137.999995788574
445,332,131977,6,0,B|446:293|434:263|434:263|433:223|433:223|438:190|438:190|426:158|431:117,1,206.999993682861
469,49,132320,1,0,0:0:0:0:
273,320,132492,1,0,0:0:0:0:
273,320,132577,1,0,0:0:0:0:
273,320,132663,2,0,P|334:318|346:312,1,68.9999978942872
190,243,132834,2,0,P|100:222|43:238,1,137.999995788574
57,231,133177,6,0,P|97:147|210:127,1,206.999993682861
309,60,133520,2,0,P|350:100|381:116,1,68.9999978942872
410,244,133692,2,0,P|354:259|324:278,1,68.9999978942872
205,228,133863,2,0,P|218:172|217:136,1,68.9999978942872
202,126,134034,1,0,0:0:0:0:
423,343,134206,1,0,0:0:0:0:
196,332,134377,2,0,L|202:123,1,206.999993682861
399,115,134720,6,0,B|458:154|458:154|320:183,1,206.999993682861
160,215,135063,1,0,0:0:0:0:
276,339,135234,1,0,0:0:0:0:
281,318,135320,1,0,0:0:0:0:
286,297,135406,2,0,P|339:304|361:301,1,68.9999978942872
468,184,135577,2,0,P|489:151|496:116,1,68.9999978942872
304,143,135749,1,0,0:0:0:0:
508,47,135920,6,0,B|500:126|500:126|521:191|521:191|503:333,1,275.999991577149
193,220,136434,1,0,0:0:0:0:
193,220,136606,1,0,0:0:0:0:
504,318,136777,1,0,0:0:0:0:
193,220,136949,1,0,0:0:0:0:
358,117,137120,2,0,P|383:200|384:270,1,137.999995788574
99,284,137463,6,0,B|169:279|229:309|229:309|261:287|301:289,1,206.999993682861
378,338,137806,1,0,0:0:0:0:
307,203,137977,5,0,0:0:0:0:
307,203,138063,1,0,0:0:0:0:
307,203,138149,2,0,P|277:152|271:131,1,68.9999978942872
510,91,138320,2,0,L|500:246,1,137.999995788574
256,192,138663,12,0,140206,0:0:0:0:
