osu file format v14

[General]
AudioFilename: 01. .mp3
AudioLeadIn: 0
PreviewTime: 48033
Countdown: 0
SampleSet: Soft
StackLeniency: 0.7
Mode: 0
LetterboxInBreaks: 0
WidescreenStoryboard: 0

[Editor]
Bookmarks: 8964,14545,25708,36871,48033,59196,70359,81522,92685,115010,120592
DistanceSpacing: 1.3
BeatDivisor: 4
GridSize: 4
TimelineZoom: 2.5

[Metadata]
Title:Argent Symmetry
TitleUnicode:アージェントシンメトリー
Artist:Sta feat.b
ArtistUnicode:Sta feat.b
Creator:jcjc
Version:Advanced
Source:Maimai PiNK
Tags:asymmetry アシンメトリー sega bun rtyzen estellia-
BeatmapID:971337
BeatmapSetID:397235

[Difficulty]
HPDrainRate:5
CircleSize:3.5
OverallDifficulty:6.5
ApproachRate:7.5
SliderMultiplier:1.4
SliderTickRate:1

[Events]
//Background and Video events
0,0,"bg.jpg",0,0
Video,-880,"video.avi"
//Break Periods
//Storyboard Layer 0 (Background)
//Storyboard Layer 1 (Fail)
//Storyboard Layer 2 (Pass)
//Storyboard Layer 3 (Foreground)
//Storyboard Sound Samples

[TimingPoints]
592,348.837209302326,4,2,0,40,1,0
3033,-100,4,2,0,5,0,0
3382,-100,4,2,1,75,0,0
4080,-100,4,2,2,75,0,0
4778,-100,4,2,1,75,0,0
5475,-100,4,2,2,75,0,0
6173,-100,4,2,1,75,0,0
6871,-100,4,2,2,75,0,0
7568,-100,4,2,1,75,0,0
8266,-100,4,2,2,75,0,0
8964,-100,4,2,1,75,0,0
9661,-100,4,2,2,75,0,0
10359,-100,4,2,1,75,0,0
12452,-100,4,2,2,75,0,0
13150,-100,4,2,1,75,0,0
14196,-100,4,2,2,75,0,0
14545,-100,4,2,1,60,0,0
45243,-100,4,2,1,72,0,0
45940,-100,4,2,1,75,0,0
46638,-100,4,2,1,77,0,0
47336,-100,4,2,1,80,0,0
47685,-100,4,2,2,80,0,0
48033,-100,4,2,1,75,0,1
48121,-100,4,2,1,75,0,0
69661,-100,4,2,2,75,0,0
70010,-100,4,2,1,60,0,0
71057,-100,4,2,2,60,0,0
71754,-100,4,2,1,60,0,0
72452,-100,4,2,2,60,0,0
73150,-100,4,2,1,60,0,0
73847,-100,4,2,2,60,0,0
74196,-100,4,2,1,60,0,0
75243,-100,4,2,2,60,0,0
75940,-100,4,2,1,60,0,0
76638,-100,4,2,2,60,0,0
77336,-100,4,2,1,60,0,0
78033,-100,4,2,2,60,0,0
78731,-100,4,2,1,60,0,0
79429,-100,4,2,2,60,0,0
80126,-100,4,2,1,60,0,0
80998,-133.333333333333,4,2,1,60,0,0
81522,-200,4,2,1,30,0,0
82219,-200,4,2,2,30,0,0
82917,-200,4,2,1,30,0,0
83615,-200,4,2,2,30,0,0
84312,-200,4,2,1,30,0,0
85010,-200,4,2,2,30,0,0
85708,-200,4,2,1,30,0,0
86405,-200,4,2,2,30,0,0
86754,-200,4,2,1,30,0,0
87103,-133.333333333333,4,2,1,50,0,0
87801,-133.333333333333,4,2,2,50,0,0
88150,-133.333333333333,4,2,1,50,0,0
88498,-133.333333333333,4,2,1,60,0,0
89894,-100,4,2,1,72,0,0
90592,-100,4,2,1,75,0,0
91289,-100,4,2,1,77,0,0
91987,-100,4,2,1,80,0,0
92336,-100,4,2,2,80,0,0
92685,-100,4,2,1,75,0,1
92772,-100,4,2,1,75,0,0
115708,-100,4,2,2,75,0,0
116405,-100,4,2,1,75,0,0
117103,-100,4,2,2,75,0,0
117452,-100,4,2,1,75,0,0
118498,-100,4,2,2,75,0,0
119196,-100,4,2,1,75,0,0
121289,-100,4,2,2,75,0,0
121987,-100,4,2,1,75,0,0
122685,-100,4,2,2,75,0,0
123033,-100,4,2,1,75,0,0
124080,-100,4,2,2,75,0,0
124429,-100,4,2,1,75,0,0
130126,-100,4,2,1,5,0,0

[Colours]
Combo1 : 75,241,5
Combo2 : 249,5,48
Combo3 : 255,98,5
Combo4 : 4,221,167

[HitObjects]
256,192,1464,12,0,3033,0:0:0:0:
340,152,3382,6,0,L|356:48,2,105,10|10|10,0:1|0:1|0:1,0:0:0:0:
304,236,4080,2,0,B|356:256|396:224|396:224|424:264,1,140,10|0,0:1|0:0,0:0:0:0:
372,336,4603,1,0,0:0:0:0:
280,328,4778,6,2,B|217:283|150:328|150:328|82:372|20:328,1,280,8|8,0:1|0:1,0:1:0:0:
84,260,5650,1,2,0:3:0:0:
84,260,5737,1,2,0:3:0:0:
84,260,5824,2,0,L|115:189,1,70,8|4,0:3|0:3,0:0:0:0:
156,116,6173,6,0,L|86:36,2,105,10|10|10,0:1|0:1|0:1,0:0:0:0:
196,195,6871,2,0,B|244:168|245:116|245:116|294:121,1,140,10|0,0:1|0:0,0:0:0:0:
372,84,7394,1,0,0:0:0:0:
444,28,7568,6,2,B|483:83|444:143|444:143|404:204|444:260,1,245,8|0,0:1|0:0,0:1:0:0:
460,300,8266,2,0,L|424:328,3,35,8|2|2|2,0:1|0:0|0:0|0:0,0:0:0:0:
392,344,8615,2,0,L|346:350,3,35,2|2|2|2,0:0|0:0|0:0|0:0,0:0:0:0:
312,356,8964,6,0,P|260:352|216:309,2,105,10|10|10,0:1|0:1|0:1,0:0:0:0:
296,268,9661,2,0,B|287:212|239:194|239:194|260:150,1,140,10|0,0:1|0:0,0:0:0:0:
224,68,10185,1,0,0:0:0:0:
136,84,10359,6,2,P|47:112|43:251,1,245,8|0,0:1|0:0,0:1:0:0:
52,292,11057,2,2,L|88:304,3,35
120,332,11405,2,2,L|156:344,3,35
196,360,11754,6,0,P|246:347|282:297,2,105,10|10|10,0:1|0:1|0:1,0:0:0:0:
200,268,12452,1,8,0:1:0:0:
476,28,13150,5,8,0:1:0:0:
172,88,14196,2,2,P|176:144|208:188,1,105,0|0,0:0|0:0,0:1:0:0:
244,204,14545,6,0,L|316:196,1,70,10|0,0:0|0:0,0:0:0:0:
396,156,14894,2,0,L|404:228,1,70,10|0,0:0|0:0,0:0:0:0:
444,308,15243,2,0,L|372:316,1,70,10|0,0:0|0:0,0:0:0:0:
292,356,15592,1,10,0:0:0:0:
208,320,15766,6,0,L|136:328,2,70,2|8|0,0:0|0:0|0:0,0:0:0:0:
164,240,16289,2,0,L|92:248,2,70,8|0|8,0:0|0:0|0:0,0:0:0:0:
120,160,16812,1,0,0:0:0:0:
120,160,16987,2,0,L|48:168,1,70,10|2,0:0|0:0,0:0:0:0:
6,87,17336,6,0,L|160:72,2,140,10|8|8,0:0|0:0|0:0,0:0:0:0:
50,167,18208,1,0,0:0:0:0:
128,212,18382,2,0,P|168:211|200:204,1,70,10|2,0:0|0:0,0:0:0:0:
252,132,18731,5,10,0:0:0:0:
319,73,18905,2,0,P|353:66|388:67,1,70,2|8,0:0|0:0,0:0:0:0:
440,144,19254,2,0,P|405:150|370:149,1,70,2|8,0:0|0:0,0:0:0:0:
312,220,19603,1,2,0:0:0:0:
312,220,19778,1,10,0:0:0:0:
253,290,19952,1,2,0:0:0:0:
253,290,20126,6,0,P|218:296|183:295,1,70,10|0,0:0|0:0,0:0:0:0:
116,364,20475,2,0,P|99:332|89:298,1,70,8|0,0:0|0:0,0:0:0:0:
3,256,20824,2,0,P|27:230|56:210,1,70,8|0,0:0|0:0,0:0:0:0:
70,115,21173,2,0,P|101:130|129:152,1,70,8|0,0:0|0:0,0:0:0:0:
225,136,21522,2,0,P|220:170|208:203,1,70,8|0,0:0|0:0,0:0:0:0:
183,295,21871,6,0,L|259:291,1,70,10|0,0:0|0:0,0:0:0:0:
332,248,22219,1,10,0:0:0:0:
420,272,22394,1,0,0:0:0:0:
468,196,22568,2,2,P|488:144|456:68,1,140,8|8,0:0|0:0,0:1:0:0:
396,138,23092,5,2,0:0:0:0:
300,152,23266,1,10,0:0:0:0:
204,166,23440,2,0,L|120:180,1,70,2|8,0:0|0:0,0:0:0:0:
108,264,23789,5,2,0:0:0:0:
204,250,23963,1,10,0:0:0:0:
300,236,24137,2,0,L|384:222,1,70,2|8,0:0|0:0,0:0:0:0:
396,138,24487,5,2,0:0:0:0:
404,48,24661,1,10,0:0:0:0:
321,10,24836,1,2,0:0:0:0:
259,78,25010,2,2,L|184:88,1,70,8|0,0:1|0:0,0:1:0:0:
136,160,25359,2,2,L|211:170,1,70,8|0,0:1|0:0,0:1:0:0:
272,232,25708,6,0,L|344:240,1,70,10|0,0:0|0:0,0:0:0:0:
424,280,26057,2,0,L|432:208,1,70,10|0,0:0|0:0,0:0:0:0:
472,128,26406,2,0,L|400:120,1,70,10|0,0:0|0:0,0:0:0:0:
320,80,26755,1,10,0:0:0:0:
236,116,26929,6,0,L|164:108,2,70,2|8|0,0:0|0:0|0:0,0:0:0:0:
192,196,27452,2,0,L|120:188,2,70,8|0|8,0:0|0:0|0:0,0:0:0:0:
148,276,27975,1,0,0:0:0:0:
148,276,28150,2,0,L|76:268,1,70,10|0,0:0|0:0,0:0:0:0:
34,349,28498,6,0,L|188:364,2,140,10|8|8,0:0|0:0|0:0,0:0:0:0:
78,269,29371,1,0,0:0:0:0:
156,224,29545,2,0,P|196:225|228:232,1,70,10|2,0:0|0:0,0:0:0:0:
280,304,29894,5,10,0:0:0:0:
347,363,30068,2,0,P|381:370|416:369,1,70,2|8,0:0|0:0,0:0:0:0:
468,292,30417,2,0,P|433:286|398:287,1,70,2|8,0:0|0:0,0:0:0:0:
340,216,30766,1,0,0:0:0:0:
340,216,30941,1,10,0:0:0:0:
281,146,31115,1,0,0:0:0:0:
281,146,31289,6,0,B|246:140|246:140|211:141,1,70,10|0,0:0|0:0,0:0:0:0:
145,73,31638,2,0,B|128:104|128:104|118:138,1,70,8|0,0:0|0:0,0:0:0:0:
31,180,31987,2,0,B|55:205|55:205|84:225,1,70,8|0,0:0|0:0,0:0:0:0:
98,321,32336,2,0,B|129:305|129:305|157:283,1,70,8|0,0:0|0:0,0:0:0:0:
235,232,32685,2,0,L|252:288,2,35,8|0|0,0:0|0:0|0:0,0:0:0:0:
211,141,33034,6,0,L|287:145,1,70,10|0,0:0|0:0,0:0:0:0:
360,188,33382,1,10,0:0:0:0:
448,164,33557,1,0,0:0:0:0:
496,240,33731,2,2,P|516:292|484:368,1,140,8|8,0:0|0:0,0:1:0:0:
424,298,34255,5,2,0:0:0:0:
328,284,34429,1,10,0:0:0:0:
252,336,34603,2,0,L|176:344,1,70,2|8,0:0|0:0,0:0:0:0:
152,256,34952,5,2,0:0:0:0:
248,253,35126,1,10,0:0:0:0:
314,188,35300,2,0,L|387:166,1,70,2|8,0:0|0:0,0:0:0:0:
472,148,35650,5,2,0:0:0:0:
480,58,35824,1,10,0:0:0:0:
397,20,35999,1,2,0:0:0:0:
335,88,36173,2,0,P|304:100|260:98,1,70,8|0,0:0|0:0,0:0:0:0:
184,68,36522,2,0,P|154:50|119:44,1,70,10|0,0:0|0:0,0:0:0:0:
52,104,36871,6,0,L|64:176,1,70,10|0,0:0|0:0,0:0:0:0:
96,256,37219,1,10,0:0:0:0:
176,300,37394,1,2,0:0:0:0:
176,208,37568,2,0,P|208:188|248:184,1,70,10|0,0:0|0:0,0:0:0:0:
328,208,37917,1,10,0:0:0:0:
328,208,38092,6,0,P|403:205|329:164,1,210,2|8,0:0|0:0,0:0:0:0:
260,108,38789,2,0,P|220:103|187:89,2,70,0|8|0,0:0|0:0|0:0,0:0:0:0:
340,60,39312,2,0,P|379:57|414:65,1,70,10|0,0:0|0:0,0:0:0:0:
480,120,39661,6,0,L|492:192,1,70,10|0,0:0|0:0,0:0:0:0:
464,276,40010,2,0,L|419:330,1,70,8|0,0:0|0:0,0:0:0:0:
332,362,40359,2,0,L|262:362,1,70,8|0,0:0|0:0,0:0:0:0:
181,312,40708,2,0,L|136:257,1,70,10|2,0:0|0:0,0:0:0:0:
96,176,41057,5,10,0:0:0:0:
96,176,41231,1,2,0:0:0:0:
88,84,41405,1,8,0:0:0:0:
88,84,41580,2,0,P|152:60|224:76,1,140,2|0,0:0|0:0,0:0:0:0:
308,100,42103,1,10,0:0:0:0:
308,100,42278,1,2,0:0:0:0:
395,124,42452,5,2,0:3:0:0:
473,169,42626,1,2,0:3:0:0:
473,169,42714,1,0,0:0:0:0:
473,169,42801,2,0,L|509:185,2,35,2|2|2,0:3|0:3|0:3,0:0:0:0:
395,216,43150,5,2,0:3:0:0:
473,261,43323,1,2,0:3:0:0:
473,261,43411,1,0,0:0:0:0:
473,261,43498,2,0,L|509:277,2,35,2|2|2,0:3|0:3|0:3,0:0:0:0:
395,308,43847,5,2,0:3:0:0:
473,353,44022,1,2,0:3:0:0:
473,353,44109,1,0,0:0:0:0:
473,353,44196,2,0,L|509:369,2,35,2|2|2,0:3|0:3|0:3,0:0:0:0:
395,308,44545,6,0,L|360:308,1,35,2|2,0:3|0:3,0:0:0:0:
320,324,44719,2,0,L|285:324,1,35,2|2,0:3|0:3,0:0:0:0:
245,340,44894,2,2,B|196:324|196:324|144:340,1,105,0|0,0:0|0:0,0:1:0:0:
100,348,45243,5,4,0:3:0:0:
66,266,45417,1,2,0:1:0:0:
156,276,45592,5,4,0:3:0:0:
121,195,45766,1,2,0:1:0:0:
212,203,45940,5,4,0:3:0:0:
175,121,46114,1,2,0:1:0:0:
265,130,46290,5,4,0:3:0:0:
232,50,46464,1,2,0:1:0:0:
324,60,46638,6,0,L|364:60,3,35,8|8|8|8,0:0|0:0|0:0|0:0,0:0:0:0:
356,104,46987,2,0,L|396:104,3,35,8|8|8|8,0:0|0:0|0:0|0:0,0:0:0:0:
388,148,47336,2,0,L|428:148,3,35,8|8|8|8,0:0|0:0|0:0|0:0,0:0:0:0:
420,192,47685,2,0,P|440:244|432:292,1,105,8|0,0:1|0:0,0:0:0:0:
404,328,48033,6,0,B|336:304|336:304|272:328,1,140,10|8,0:1|0:0,0:0:0:0:
288,236,48557,2,0,B|224:260|224:260|156:236,1,140,2|0,0:1|0:0,0:0:0:0:
220,172,49080,2,0,B|152:148|152:148|88:172,2,140,10|10|10,0:1|0:1|0:1,0:0:0:0:
300,128,49952,1,2,0:1:0:0:
376,76,50126,2,0,P|404:48|440:36,1,70,8|0,0:0|0:0,0:0:0:0:
452,124,50475,2,0,P|424:152|388:164,1,70,8|0,0:0|0:0,0:0:0:0:
320,212,50824,6,0,L|292:232,3,35,10|2|2|2,0:0|0:0|0:0|0:0,0:0:0:0:
260,268,51173,2,0,L|225:271,3,35,10|0|2|0,0:0|0:0|0:0|0:0,0:0:0:0:
180,286,51522,2,0,L|148:271,3,35,10|2|2|2,0:0|0:0|0:0|0:0,0:0:0:0:
101,261,51871,2,0,L|81:233,3,35,10|0|2|0,0:0|0:0|0:0|0:0,0:0:0:0:
45,199,52219,5,10,0:0:0:0:
68,112,52394,1,2,0:0:0:0:
140,56,52568,1,10,0:0:0:0:
232,48,52743,1,2,0:0:0:0:
312,92,52917,2,0,L|312:136,1,35,10|0,0:1|0:0,0:0:0:0:
332,168,53092,2,0,L|332:212,1,35,2|0,0:1|0:0,0:0:0:0:
352,244,53266,2,2,P|360:296|352:348,1,105,8|0,0:0|0:0,0:1:0:0:
312,368,53615,6,0,B|266:312|266:312|266:243,1,140,10|8,0:0|0:0,0:0:0:0:
184,289,54139,2,0,B|184:220|184:220|138:164,1,140,2|0,0:0|0:0,0:0:0:0:
97,248,54662,2,0,B|51:192|51:192|51:123,2,140,10|10|8,0:0|0:0|0:0,0:0:0:0:
108,340,55533,1,2,0:0:0:0:
184,288,55708,2,0,L|184:216,1,70,8|0,0:0|0:0,0:0:0:0:
260,236,56057,2,0,L|260:164,1,70,8|0,0:0|0:0,0:0:0:0:
312,92,56405,6,0,L|344:68,3,35,10|2|2|2,0:0|0:0|0:0|0:0,0:0:0:0:
376,44,56754,2,0,L|415:49,3,35,10|0|2|0,0:0|0:0|0:0|0:0,0:0:0:0:
455,55,57103,2,0,L|478:86,3,35,10|2|2|0,0:0|0:0|0:0|0:0,0:0:0:0:
503,118,57452,2,0,L|497:157,3,35,10|2|0|0,0:0|0:0|0:0|0:0,0:0:0:0:
480,196,57801,5,10,0:0:0:0:
444,280,57975,1,2,0:0:0:0:
364,324,58150,1,10,0:0:0:0:
272,336,58324,1,2,0:0:0:0:
184,320,58498,2,0,L|164:288,1,35,10|0,0:0|0:0,0:0:0:0:
176,244,58673,2,0,L|156:212,1,35,2|0,0:0|0:0,0:0:0:0:
168,168,58847,2,0,B|140:124|140:124|172:76,1,105,10|0,0:0|0:0,0:0:0:0:
188,40,59196,6,0,B|256:64|256:64|320:40,1,140,10|8,0:1|0:0,0:0:0:0:
304,132,59720,2,0,B|368:108|368:108|436:132,1,140,2|0,0:1|0:0,0:0:0:0:
372,200,60243,2,0,B|440:224|440:224|504:200,2,140,10|10|10,0:1|0:1|0:1,0:0:0:0:
284,220,61115,1,2,0:1:0:0:
196,240,61289,2,0,P|161:259|123:262,1,70,8|0,0:0|0:0,0:0:0:0:
135,173,61638,2,0,P|169:153|207:150,1,70,8|0,0:0|0:0,0:0:0:0:
276,100,61987,6,0,L|307:85,3,35,10|2|2|2,0:0|0:0|0:0|0:0,0:0:0:0:
347,63,62336,2,0,L|375:82,3,35,10|0|2|0,0:0|0:0|0:0|0:0,0:0:0:0:
413,107,62685,2,0,L|410:141,3,35,10|2|2|2,0:0|0:0|0:0|0:0,0:0:0:0:
409,185,63033,2,0,L|377:199,3,35,10|2|0|0,0:0|0:0|0:0|0:0,0:0:0:0:
338,219,63382,5,10,0:0:0:0:
252,185,63557,1,2,0:0:0:0:
260,93,63731,1,10,0:0:0:0:
175,58,63905,1,2,0:0:0:0:
82,85,64080,2,0,L|82:129,1,35,10|0,0:1|0:0,0:0:0:0:
122,142,64254,2,0,L|121:185,1,35,2|0,0:1|0:0,0:0:0:0:
161,198,64429,2,2,L|160:301,1,105,8|0,0:0|0:0,0:1:0:0:
196,332,64778,6,0,B|241:276|241:276|241:207,1,140,10|8,0:0|0:0,0:0:0:0:
324,252,65302,2,0,B|323:183|323:183|369:127,1,140,2|0,0:0|0:0,0:0:0:0:
411,211,65825,2,0,B|456:155|456:155|456:86,2,140,10|10|8,0:0|0:0|0:0,0:0:0:0:
400,303,66696,1,2,0:0:0:0:
324,251,66871,2,0,L|324:179,1,70,8|0,0:0|0:0,0:0:0:0:
248,199,67220,2,0,L|248:127,1,70,8|0,0:0|0:0,0:0:0:0:
183,65,67568,6,0,L|151:41,3,35,10|2|2|2,0:0|0:0|0:0|0:0,0:0:0:0:
119,17,67917,2,0,L|80:22,3,35,10|0|2|0,0:0|0:0|0:0|0:0,0:0:0:0:
40,28,68266,2,0,L|17:59,3,35,10|2|2|2,0:0|0:0|0:0|0:0,0:0:0:0:
0,91,68615,2,0,L|6:130,3,35,10|2|0|0,0:0|0:0|0:0|0:0,0:0:0:0:
19,169,68964,5,10,0:0:0:0:
59,251,69138,1,2,0:0:0:0:
146,231,69312,1,10,0:0:0:0:
186,314,69486,1,2,0:0:0:0:
276,297,69661,2,0,L|296:265,1,35,8|0,0:1|0:0,0:0:0:0:
284,221,69836,2,0,L|304:189,1,35,2|0,0:0|0:0,0:0:0:0:
292,145,70010,2,0,B|320:101|320:101|288:53,1,105,8|0,0:0|0:0,0:0:0:0:
256,28,70359,6,0,L|152:28,2,105,10|10|10,0:1|0:1|0:1,0:0:0:0:
220,112,71057,2,0,L|76:112,1,140,10|0,0:1|0:0,0:0:0:0:
64,200,71580,1,0,0:0:0:0:
0,268,71754,6,2,B|62:312|130:268|130:268|197:223|260:268,1,280,8|8,0:1|0:1,0:1:0:0:
348,296,72626,1,2,0:3:0:0:
348,296,72713,1,2,0:3:0:0:
348,296,72800,2,0,P|348:260|329:221,1,70,8|4,0:3|0:3,0:0:0:0:
284,152,73150,6,0,L|388:152,2,105,10|10|10,0:1|0:1|0:1,0:0:0:0:
320,68,73848,2,0,L|464:68,1,140,10|8,0:1|0:1,0:0:0:0:
438,252,74545,5,8,0:0:0:0:
74,252,75243,1,8,0:1:0:0:
438,252,75940,6,0,L|456:360,2,105,10|10|10,0:1|0:1|0:1,0:0:0:0:
417,162,76638,2,0,P|344:120|256:192,1,210,10|0,0:1|0:0,0:0:0:0:
224,276,77336,6,2,P|128:300|70:220,1,210,8|0,0:1|0:0,0:1:0:0:
88,132,78033,1,8,0:1:0:0:
164,80,78208,2,0,L|200:80,5,35,2|2|8|8|4|4,0:3|0:3|0:3|0:3|0:3|0:3,0:0:0:0:
244,80,78731,6,0,L|340:32,2,105,10|10|10,0:1|0:1|0:1,0:0:0:0:
192,156,79429,1,10,0:1:0:0:
192,156,79516,1,0,0:0:0:0:
192,156,79603,2,0,P|188:192|192:232,1,70,2|0,0:3|0:0,0:0:0:0:
256,292,79952,1,4,0:3:0:0:
340,264,80126,6,0,P|467:261|461:131,1,280,10|8,0:1|0:3,0:0:0:0:
412,92,80998,6,0,L|306:93,1,105.000004005432
261,87,81522,6,0,P|191:95|119:87,1,140,2|8,0:0|0:1,0:0:0:0:
44,252,82917,2,0,P|85:308|114:371,1,140,8|8,0:0|0:1,0:0:0:0:
296,357,84312,2,0,P|323:292|364:236,1,140,2|8,0:0|0:1,0:0:0:0:
436,68,85708,6,0,L|488:68,2,52.5,8|8|8,0:1|0:1|0:1,0:0:0:0:
392,84,86405,6,0,L|312:84,1,70,8|8,0:1|0:1,0:0:0:0:
188,52,87103,6,0,P|184:104|204:156,1,105.000004005432,8|8,0:1|0:1,0:0:0:0:
116,260,87801,2,0,P|168:264|220:244,1,105.000004005432,8|8,0:1|0:1,0:0:0:0:
324,332,88498,2,0,P|328:280|308:228,1,105.000004005432,4|4,0:3|0:3,0:0:0:0:
396,124,89196,2,0,P|344:120|292:140,1,105.000004005432,4|4,0:3|0:3,0:0:0:0:
220,304,89894,5,4,0:3:0:0:
132,279,90068,1,2,0:1:0:0:
196,216,90243,5,4,0:3:0:0:
108,192,90417,1,2,0:1:0:0:
172,129,90592,5,4,0:3:0:0:
85,105,90766,1,2,0:1:0:0:
148,42,90941,5,4,0:3:0:0:
61,18,91115,1,2,0:1:0:0:
0,84,91289,6,0,L|0:119,3,35,8|8|8|8,0:1|0:1|0:1|0:1,0:0:0:0:
16,164,91638,2,0,L|16:199,3,35,8|8|8|8,0:1|0:1|0:1|0:1,0:0:0:0:
32,244,91987,2,0,L|32:279,3,35,8|8|8|8,0:1|0:1|0:1|0:1,0:0:0:0:
48,324,92336,2,0,P|96:336|152:324,1,105,8|0,0:1|0:0,0:0:0:0:
196,324,92685,6,0,P|256:352|320:324,1,140,10|8,0:1|0:0,0:0:0:0:
408,344,93208,2,0,P|401:276|346:236,1,140,2|0,0:1|0:0,0:0:0:0:
319,150,93731,2,0,P|263:189|256:257,2,140,10|10|10,0:1|0:1|0:1,0:0:0:0:
404,184,94603,6,0,P|412:152|404:112,1,70,2|8,0:1|0:0,0:0:0:0:
344,48,94952,1,2,0:1:0:0:
256,32,95126,1,10,0:1:0:0:
168,48,95301,1,2,0:1:0:0:
106,116,95475,6,0,P|99:150|108:184,1,70,10|2,0:1|0:1,0:0:0:0:
40,244,95824,2,0,P|66:266|99:276,1,70,10|2,0:1|0:1,0:0:0:0:
117,365,96173,2,0,P|149:353|175:329,1,70,10|2,0:1|0:1,0:0:0:0:
260,358,96522,2,0,P|266:323|258:290,1,70,10|2,0:1|0:1,0:0:0:0:
194,224,96871,6,0,L|206:156,1,70,10|0,0:1|0:0,0:0:0:0:
235,69,97219,1,10,0:1:0:0:
308,14,97394,1,2,0:1:0:0:
398,21,97568,2,0,B|432:36|432:36|455:62,1,70,8|0,0:0|0:0,0:0:0:0:
490,144,97917,2,0,B|479:181|479:181|459:208,1,70,8|0,0:0|0:0,0:0:0:0:
387,258,98266,6,0,P|327:286|263:258,1,140,10|10,0:1|0:1,0:0:0:0:
175,278,98789,2,0,P|182:210|237:170,1,140,2|2,0:1|0:1,0:0:0:0:
264,84,99312,2,0,P|320:123|327:191,2,140,10|10|10,0:1|0:1|0:1,0:0:0:0:
172,73,100185,6,0,P|140:81|104:105,1,70,2|8,0:1|0:0,0:0:0:0:
44,165,100533,1,2,0:1:0:0:
36,257,100708,1,10,0:1:0:0:
96,325,100882,1,2,0:1:0:0:
180,361,101057,6,0,L|251:371,1,70,10|0,0:1|0:0,0:0:0:0:
236,281,101405,2,0,L|308:273,1,70,10|0,0:1|0:0,0:0:0:0:
304,181,101754,2,0,L|232:189,1,70,10|2,0:1|0:1,0:0:0:0:
247,98,102103,2,0,L|177:90,1,70,10|2,0:1|0:1,0:0:0:0:
89,114,102452,6,0,P|59:139|39:171,1,70,10|0,0:1|0:0,0:0:0:0:
45,255,102801,1,10,0:1:0:0:
103,324,102975,1,2,0:1:0:0:
193,336,103150,2,0,B|228:327|228:327|258:304,1,70,8|0,0:0|0:0,0:0:0:0:
310,239,103498,2,0,B|319:204|319:204|314:166,1,70,8|0,0:0|0:0,0:0:0:0:
268,93,103847,6,0,P|203:80|149:125,1,140,10|8,0:1|0:1,0:0:0:0:
59,126,104370,2,0,P|84:189|147:214,1,140,2|2,0:1|0:1,0:0:0:0:
151,124,104894,1,8,0:1:0:0:
147,214,105068,1,2,0:1:0:0:
196,292,105243,6,0,P|240:240|229:171,2,140,10|10|8,0:1|0:1|0:0,0:0:0:0:
168,380,106115,1,2,0:1:0:0:
256,356,106289,1,10,0:1:0:0:
344,380,106464,1,2,0:1:0:0:
420,328,106638,6,0,P|420:292|408:256,1,70,10|2,0:1|0:1,0:0:0:0:
366,179,106987,2,0,P|334:161|297:153,1,70,10|2,0:1|0:1,0:0:0:0:
210,153,107336,2,0,P|176:161|146:179,1,70,10|2,0:1|0:1,0:0:0:0:
102,259,107685,2,0,P|91:293|92:328,1,70,10|2,0:1|0:1,0:0:0:0:
180,308,108033,6,0,L|256:308,1,70,10|0,0:1|0:0,0:0:0:0:
336,340,108382,1,10,0:1:0:0:
420,300,108557,1,2,0:1:0:0:
470,224,108731,2,0,B|478:188|478:188|466:156,1,70,8|0,0:0|0:0,0:0:0:0:
386,113,109080,2,2,L|350:113,3,35,8|0|0|0,0:1|0:0|0:0|0:0,0:1:0:0:
316,84,109429,6,0,P|256:56|192:84,1,140,10|8,0:1|0:1,0:0:0:0:
104,64,109952,2,0,P|111:132|166:172,1,140,2|2,0:1|0:1,0:0:0:0:
192,83,110475,1,10,0:1:0:0:
165,171,110650,1,2,0:1:0:0:
193,258,110824,6,0,P|249:219|256:151,2,140,10|10|8,0:1|0:1|0:0,0:0:0:0:
112,304,111696,1,2,0:1:0:0:
184,357,111871,1,10,0:1:0:0:
265,318,112045,1,2,0:1:0:0:
345,359,112219,6,0,B|362:325|362:325|366:280,1,70,10|2,0:1|0:1,0:0:0:0:
444,248,112568,2,0,B|427:214|427:214|394:183,1,70,10|2,0:1|0:1,0:0:0:0:
321,151,112917,1,10,0:1:0:0:
321,151,113092,1,2,0:1:0:0:
230,154,113266,1,10,0:1:0:0:
230,154,113440,1,2,0:1:0:0:
246,245,113615,6,0,P|152:208|168:84,1,245,10|0,0:1|0:0,0:0:0:0:
210,65,114312,2,0,P|304:102|288:226,1,245,10|0,0:1|0:0,0:0:0:0:
279,271,115010,6,0,L|183:331,2,105,10|10|10,0:1|0:1|0:1,0:0:0:0:
331,345,115708,2,0,B|374:309|366:259|366:259|415:255,1,140,10|4,0:1|0:3,0:0:0:0:
452,176,116231,1,0,0:0:0:0:
384,116,116405,6,0,P|428:88|484:92,2,105,10|10|10,0:1|0:1|0:1,0:0:0:0:
296,92,117103,1,10,0:1:0:0:
208,120,117278,1,0,0:0:0:0:
208,120,117365,1,2,0:3:0:0:
208,120,117452,2,0,P|188:152|176:190,1,70,2|0,0:3|0:0,0:0:0:0:
148,268,117800,6,0,L|248:302,2,105,10|10|10,0:1|0:1|0:1,0:0:0:0:
72,316,118498,2,0,B|43:269|69:224|69:224|24:203,1,140,10|2,0:1|0:0,0:0:0:0:
7,116,119022,1,2,0:0:0:0:
69,49,119196,6,0,B|131:88|192:42|192:42|245:108|245:108|306:62|368:101,1,350,8|0,0:1|0:0,0:0:0:0:
312,176,120243,6,0,L|316:208,5,23.3333333333333,0|0|0|0|0|0,0:0|0:0|0:0|0:0|0:0|0:0,0:0:0:0:
316,228,120592,6,0,P|324:280|356:332,2,105,10|10|10,0:1|0:1|0:1,0:0:0:0:
228,240,121289,2,0,P|164:268|96:256,1,140,10|0,0:1|0:0,0:0:0:0:
44,180,121812,1,2,0:0:0:0:
94,104,121987,6,0,B|86:52|86:52|30:32,2,105,10|10|10,0:1|0:1|0:1,0:0:0:0:
164,164,122685,1,10,0:1:0:0:
220,92,122859,1,2,0:1:0:0:
312,80,123033,2,0,B|336:104|336:104|352:144|352:144|380:168,1,105
405,194,123382,6,0,L|430:230,3,35,10|2|2|10,0:1|0:0|0:0|0:1,0:0:0:0:
417,265,123731,2,0,L|407:308,3,35,2|2|10|2,0:0|0:0|0:1|0:0,0:0:0:0:
374,331,124080,2,0,L|336:356,3,35,10|0|2|0,0:1|0:0|0:0|0:0,0:0:0:0:
296,347,124429,2,0,L|251:337,3,35,10|0|10|0,0:1|0:0|0:1|0:0,0:0:0:0:
220,324,124778,6,0,L|148:317,1,70,10|2,0:1|0:0,0:0:0:0:
113,233,125126,2,0,L|182:238,1,70,10|2,0:1|0:0,0:0:0:0:
144,152,125475,2,0,L|75:147,1,70,10|2,0:1|0:0,0:0:0:0:
36,60,125824,2,0,L|105:65,1,70,10|2,0:1|0:0,0:0:0:0:
197,64,126173,6,0,L|233:64,4,35,10|10|10|10|10,0:1|0:1|0:1|0:1|0:1,0:0:0:0:
237,148,126696,2,0,L|273:148,4,35,10|10|10|10|10,0:1|0:1|0:1|0:1|0:1,0:0:0:0:
277,232,127219,2,0,L|313:232,1,35,10|10,0:1|0:1,0:0:0:0:
357,232,127394,2,0,L|393:232,1,35,10|10,0:1|0:1,0:0:0:0:
437,232,127568,6,0,L|461:232,12,23.3333333333333,10|0|0|0|0|0|10|0|0|0|0|0|10,0:1|0:0|0:0|0:0|0:0|0:0|0:1|0:0|0:0|0:0|0:0|0:0|0:1,0:0:0:0:
256,192,128440,12,0,130126,0:0:0:0:
