osu file format v14

[General]
AudioFilename: unified_chaos.mp3
AudioLeadIn: 0
PreviewTime: 38622
Countdown: 0
SampleSet: Normal
StackLeniency: 0.7
Mode: 0
LetterboxInBreaks: 1
WidescreenStoryboard: 1

[Editor]
Bookmarks: 79499
DistanceSpacing: 1
BeatDivisor: 2
GridSize: 4
TimelineZoom: 0.8

[Metadata]
Title:Unified Chaos
TitleUnicode:Unified Chaos
Artist:Sta
ArtistUnicode:Sta
Creator:thasyka
Version:Normal
Source:Tone Sphere
Tags:Tone Sphere Sta sta Unified Chaos unified chaos tone sphere Kousin kousin
BeatmapID:1000971
BeatmapSetID:467917

[Difficulty]
HPDrainRate:4
CircleSize:3
OverallDifficulty:3
ApproachRate:4
SliderMultiplier:0.80000000596046
SliderTickRate:1

[Events]
//Background and Video events
0,0,"Unified_Chaos.png",0,0
//Break Periods
2,81460,99929
//Storyboard Layer 0 (Background)
//Storyboard Layer 1 (Fail)
//Storyboard Layer 2 (Pass)
//Storyboard Layer 3 (Foreground)
//Storyboard Sound Samples

[TimingPoints]
-28,333.148250971682,4,1,0,80,1,0
38617,-100,4,1,0,80,0,1
81260,-100,4,1,0,80,0,0
143892,-100,4,1,0,80,0,1
207689,-100,4,1,0,80,0,0

[Colours]
Combo1 : 64,0,128
Combo2 : 0,202,0
Combo3 : 18,124,255
Combo4 : 242,24,57
Combo5 : 255,192,0

[HitObjects]
146,164,6690,5,0,0:0:0:0:
283,82,7967,5,0,0:0:0:0:
365,219,9300,5,0,0:0:0:0:
228,301,10632,5,0,0:0:0:0:
200,192,11965,5,0,0:0:0:0:
328,120,12631,1,0,0:0:0:0:
264,248,13297,2,0,B|183:309|90:247|118:149,1,240.000001788138
168,104,14630,2,0,B|239:112|255:189|333:201,1,160.000001192092
256,192,15963,12,0,17295,0:0:0:0:
128,144,17962,5,0,0:0:0:0:
240,80,18628,2,0,P|328:72|384:120,1,160.000001192092
304,216,19960,5,0,0:0:0:0:
184,176,20627,1,0,0:0:0:0:
64,100,21293,2,0,P|26:179|52:248,1,160.000001192092
192,252,22626,6,0,P|229:172|203:103,1,160.000001192092
440,48,24624,1,0,0:0:0:0:
448,176,25291,6,0,B|448:256|448:256|416:344,1,160.000001192092
304,272,26623,2,0,B|304:192|304:192|336:104,1,160.000001192092
208,72,27956,5,0,0:0:0:0:
96,136,28622,1,0,0:0:0:0:
20,260,29289,2,0,P|91:312|164:299,1,160.000001192092
288,216,30621,5,0,0:0:0:0:
280,88,31287,1,0,0:0:0:0:
160,40,31954,2,0,P|79:77|55:146,1,160.000001192092
256,192,33286,12,0,34619,0:0:0:0:
104,168,35952,6,0,P|176:280|305:325,1,240.000001788138
328,288,37284,2,0,P|360:208|296:128,1,160.000001192092
264,144,38284,1,0,0:0:0:0:
144,184,38617,5,0,0:0:0:0:
176,256,38950,1,0,0:0:0:0:
248,288,39283,1,0,0:0:0:0:
328,288,39616,1,0,0:0:0:0:
392,248,39949,2,0,P|459:191|475:136,2,120.000000894069
320,224,41282,5,0,0:0:0:0:
264,168,41615,1,0,0:0:0:0:
192,128,41948,1,0,0:0:0:0:
112,112,42281,5,0,0:0:0:0:
96,152,42448,1,0,0:0:0:0:
96,192,42614,2,0,B|112:256|112:256|144:304,2,120.000000894069
136,120,43947,6,0,P|201:61|258:53,1,120.000000894069
352,64,44947,1,0,0:0:0:0:
384,88,45113,2,0,P|395:175|370:226,1,120.000000894069
288,328,46279,5,0,0:0:0:0:
248,256,46612,2,0,P|208:200|152:184,1,120.000000894069
40,168,47612,5,0,0:0:0:0:
104,120,47945,2,0,B|160:24|224:224|288:24|320:128,1,240.000001788138
248,200,49277,5,0,0:0:0:0:
221,275,49611,1,0,0:0:0:0:
265,341,49944,1,0,0:0:0:0:
340,367,50277,1,0,0:0:0:0:
408,336,50610,6,0,P|464:256|456:208,2,120.000000894069
344,288,51943,5,0,0:0:0:0:
320,208,52276,1,0,0:0:0:0:
276,140,52609,1,0,0:0:0:0:
204,108,52942,1,0,0:0:0:0:
128,128,53275,6,0,P|104:222|129:264,1,120.000000894069
200,312,54275,1,0,0:0:0:0:
232,240,54608,6,0,P|240:157|198:116,1,120.000000894069
100,148,55607,1,0,0:0:0:0:
104,228,55940,2,0,P|144:328|192:340,1,160.000001192092
264,316,56940,1,0,0:0:0:0:
336,276,57273,6,0,P|372:208|352:164,1,120.000000894069
248,128,58272,1,0,0:0:0:0:
168,132,58606,5,0,0:0:0:0:
140,160,58772,1,0,0:0:0:0:
116,192,58939,1,0,0:0:0:0:
92,268,59272,2,0,P|124:300|184:304,1,80.000000596046
280,340,59938,6,0,B|328:328|328:328|364:296,1,80.000000596046
388,236,60604,1,0,0:0:0:0:
416,208,60771,1,0,0:0:0:0:
428,168,60938,1,0,0:0:0:0:
408,92,61271,6,0,B|360:107|360:107|327:141,1,80.000000596046
288,196,61937,1,0,0:0:0:0:
244,204,62104,1,0,0:0:0:0:
204,180,62270,1,0,0:0:0:0:
155,116,62603,6,0,B|114:89|114:89|66:84,2,80.000000596046
148,196,63603,1,0,0:0:0:0:
120,272,63936,5,0,0:0:0:0:
184,320,64269,1,0,0:0:0:0:
264,320,64602,1,0,0:0:0:0:
304,312,64769,1,0,0:0:0:0:
336,292,64935,1,0,0:0:0:0:
380,224,65269,6,0,P|388:144|364:116,1,120.000000894069
252,80,66268,1,0,0:0:0:0:
184,124,66601,6,0,P|207:251|257:284,1,160.000001192092
304,284,67601,1,0,0:0:0:0:
376,252,67934,6,0,B|424:208|424:208|424:136,1,120.000000894069
332,76,68933,1,0,0:0:0:0:
252,76,69266,6,0,B|208:76|208:76|160:96,1,80.000000596046
132,156,69933,1,0,0:0:0:0:
124,196,70099,1,0,0:0:0:0:
148,228,70266,1,0,0:0:0:0:
246,301,70599,6,0,B|297:297|297:297|333:269,1,80.000000596046
372,221,71265,1,0,0:0:0:0:
392,186,71432,1,0,0:0:0:0:
392,146,71598,1,0,0:0:0:0:
350,77,71932,6,0,B|305:51|305:51|259:54,1,80.000000596046
259,127,72598,1,0,0:0:0:0:
253,166,72765,1,0,0:0:0:0:
228,198,72931,1,0,0:0:0:0:
148,190,73264,6,0,P|99:194|49:208,1,80.000000596046
58,280,73930,1,0,0:0:0:0:
127,320,74264,1,0,0:0:0:0:
163,303,74430,1,0,0:0:0:0:
185,270,74597,6,0,P|221:210|229:148,1,120.000000894069
279,52,75596,1,0,0:0:0:0:
358,51,75929,6,0,P|431:50|484:83,1,120.000000894069
441,187,76929,1,0,0:0:0:0:
441,266,77262,6,0,P|337:247|271:186,1,160.000001192092
232,165,78261,1,0,0:0:0:0:
159,131,78594,5,0,0:0:0:0:
100,185,78928,1,0,0:0:0:0:
62,172,79094,2,0,B|64:215|64:215|86:262,1,80.000000596046
52,278,79594,1,0,0:0:0:0:
256,192,79927,12,0,81260,0:0:0:0:
256,192,101249,12,0,102248,0:0:0:0:
396,344,102581,6,0,P|424:304|420:244,1,80.000000596046
420,236,103081,1,0,0:0:0:0:
396,204,103247,2,0,P|368:164|372:104,1,80.000000596046
300,84,103914,5,0,0:0:0:0:
220,76,104247,1,0,0:0:0:0:
140,84,104580,1,0,0:0:0:0:
112,112,104747,1,0,0:0:0:0:
100,148,104913,1,0,0:0:0:0:
104,228,105246,6,0,P|124:284|152:296,1,80.000000596046
180,288,105746,1,0,0:0:0:0:
220,284,105913,2,0,P|277:298|292:324,1,80.000000596046
365,296,106579,5,0,0:0:0:0:
392,268,106746,2,0,P|406:210|390:184,2,80.000000596046
352,260,107578,1,0,0:0:0:0:
317,239,107745,1,0,0:0:0:0:
288,212,107912,6,0,P|256:152|196:128,1,120.000000894069
133,111,108744,1,0,0:0:0:0:
94,122,108911,1,0,0:0:0:0:
68,197,109244,5,0,0:0:0:0:
137,236,109577,1,0,0:0:0:0:
192,176,109910,2,0,P|208:120|236:92,1,80.000000596046
296,72,110577,6,0,P|340:84|356:112,1,80.000000596046
372,148,111076,1,0,0:0:0:0:
316,252,111576,1,0,0:0:0:0:
236,252,111909,5,0,0:0:0:0:
204,228,112076,2,0,P|203:182|179:160,1,80.000000596046
108,124,112742,1,0,0:0:0:0:
68,136,112909,1,0,0:0:0:0:
80,216,113242,6,0,P|81:261|105:283,1,80.000000596046
185,267,113908,1,0,0:0:0:0:
216,242,114075,1,0,0:0:0:0:
249,220,114241,1,0,0:0:0:0:
299,157,114574,6,0,P|331:124|391:98,1,80.000000596046
437,128,115241,1,0,0:0:0:0:
472,145,115407,1,0,0:0:0:0:
498,175,115574,1,0,0:0:0:0:
499,215,115741,1,0,0:0:0:0:
478,249,115907,6,0,P|450:284|418:288,1,80.000000596046
335,271,116573,1,0,0:0:0:0:
298,254,116740,1,0,0:0:0:0:
263,234,116907,1,0,0:0:0:0:
194,192,117240,6,0,P|158:162|128:104,1,80.000000596046
185,70,117906,1,0,0:0:0:0:
224,78,118073,1,0,0:0:0:0:
257,99,118239,2,0,P|278:119|293:143,1,40.000000298023
316,151,118572,6,0,P|354:175|418:187,1,80.000000596046
424,176,119072,1,0,0:0:0:0:
256,256,120238,5,0,0:0:0:0:
192,192,120571,1,0,0:0:0:0:
256,128,120904,1,0,0:0:0:0:
320,192,121237,6,0,B|404:192|404:284,1,120.000000894069
285,291,122237,1,0,0:0:0:0:
204,292,122570,6,0,B|120:292|120:200,1,120.000000894069
256,192,123903,12,0,125235,0:0:0:0:
132,120,126235,5,0,0:0:0:0:
204,80,126568,2,0,P|260:68|296:80,1,80.000000596046
319,84,127068,2,0,P|362:121|374:157,1,80.000000596046
363,180,127567,1,0,0:0:0:0:
141,236,128567,6,0,P|179:278|215:290,1,80.000000596046
282,281,129233,2,0,P|344:256|372:208,2,120.000000894069
202,294,130566,1,0,0:0:0:0:
300,70,131565,5,0,0:0:0:0:
364,117,131898,1,0,0:0:0:0:
392,145,132065,1,0,0:0:0:0:
256,192,132231,12,0,133897,0:0:0:0:
77,195,134563,6,0,P|80:121|123:84,1,120.000000894069
225,58,135563,1,0,0:0:0:0:
160,204,136229,5,0,0:0:0:0:
208,267,136562,2,0,P|246:289|298:298,1,80.000000596046
348,252,137229,6,0,P|312:186|257:172,1,120.000000894069
162,158,138228,1,0,0:0:0:0:
218,101,138561,1,0,0:0:0:0:
293,74,138894,2,0,B|372:92|372:92|406:117,1,120.000000894069
365,229,139894,6,0,P|329:278|297:289,1,80.000000596046
274,297,140393,1,0,0:0:0:0:
197,271,140727,5,0,0:0:0:0:
165,247,140893,1,0,0:0:0:0:
145,211,141060,2,0,P|101:169|67:165,2,80.000000596046
184,224,141893,6,0,P|211:235|230:235,1,40.000000298023
253,222,142226,1,0,0:0:0:0:
290,209,142392,1,0,0:0:0:0:
256,192,142559,12,0,143558,0:0:0:0:
100,141,143892,5,0,0:0:0:0:
168,100,144225,1,0,0:0:0:0:
244,75,144558,1,0,0:0:0:0:
323,84,144891,1,0,0:0:0:0:
385,134,145224,6,0,P|404:205|386:254,1,120.000000894069
273,216,146224,1,0,0:0:0:0:
199,185,146557,5,0,0:0:0:0:
129,144,146890,1,0,0:0:0:0:
49,155,147223,1,0,0:0:0:0:
26,231,147556,1,0,0:0:0:0:
38,269,147723,1,0,0:0:0:0:
68,295,147889,6,0,P|137:318|187:304,1,120.000000894069
302,289,148889,1,0,0:0:0:0:
359,233,149222,6,0,P|392:169|385:116,1,120.000000894069
285,59,150221,1,0,0:0:0:0:
270,96,150388,2,0,P|225:152|174:169,1,120.000000894069
176,300,151554,5,0,0:0:0:0:
254,287,151887,2,0,P|316:263|351:215,2,120.000000894069
175,268,153220,5,0,0:0:0:0:
104,230,153553,1,0,0:0:0:0:
71,156,153886,1,0,0:0:0:0:
106,84,154219,1,0,0:0:0:0:
176,46,154552,6,0,P|225:40|275:53,1,80.000000596046
255,121,155219,1,0,0:0:0:0:
305,176,155552,1,0,0:0:0:0:
384,188,155885,2,0,P|448:222|459:273,1,120.000000894069
351,264,156884,1,0,0:0:0:0:
272,253,157217,5,0,0:0:0:0:
203,207,157551,1,0,0:0:0:0:
164,131,157884,1,0,0:0:0:0:
105,77,158217,1,0,0:0:0:0:
27,101,158550,6,0,P|-6:164|13:213,1,120.000000894069
97,294,159550,1,0,0:0:0:0:
174,311,159883,6,0,P|261:309|294:281,1,120.000000894069
190,216,160882,1,0,0:0:0:0:
120,176,161215,6,0,P|212:118|266:125,1,160.000001192092
331,157,162215,1,0,0:0:0:0:
393,207,162548,6,0,P|439:267|437:315,2,120.000000894069
319,207,163880,1,0,0:0:0:0:
286,214,164047,1,0,0:0:0:0:
252,224,164214,1,0,0:0:0:0:
172,230,164547,2,0,P|126:232|84:199,1,80.000000596046
60,144,165213,6,0,B|88:112|88:112|128:88,1,80.000000596046
192,128,165879,1,0,0:0:0:0:
268,108,166212,1,0,0:0:0:0:
344,136,166546,6,0,B|384:192|384:192|400:256,1,120.000000894069
296,304,167545,1,0,0:0:0:0:
224,268,167878,6,0,B|207:228|207:228|176:193,1,80.000000596046
104,212,168545,1,0,0:0:0:0:
140,284,168878,1,0,0:0:0:0:
180,296,169044,1,0,0:0:0:0:
220,288,169211,6,0,B|281:256|281:256|324:206,1,120.000000894069
396,128,170210,1,0,0:0:0:0:
