osu file format v14

[General]
AudioFilename: unified_chaos.mp3
AudioLeadIn: 0
PreviewTime: 38622
Countdown: 0
SampleSet: None
StackLeniency: 0.6
Mode: 0
LetterboxInBreaks: 1
WidescreenStoryboard: 1

[Editor]
DistanceSpacing: 1
BeatDivisor: 4
GridSize: 8
TimelineZoom: 2.5

[Metadata]
Title:Unified Chaos
TitleUnicode:Unified Chaos
Artist:Sta
ArtistUnicode:Sta
Creator:thasyka
Version:Light Insane
Source:Tone Sphere
Tags:Tone Sphere Sta sta Unified Chaos unified chaos tone sphere Kousin kousin
BeatmapID:1000970
BeatmapSetID:467917

[Difficulty]
HPDrainRate:7
CircleSize:4
OverallDifficulty:7
ApproachRate:7
SliderMultiplier:1.20000000596046
SliderTickRate:2

[Events]
//Background and Video events
0,0,"strl0024_jacket_original.jpg",0,0
//Break Periods
//Storyboard Layer 0 (Background)
//Storyboard Layer 1 (Fail)
//Storyboard Layer 2 (Pass)
//Storyboard Layer 3 (Foreground)
//Storyboard Sound Samples

[TimingPoints]
-23,333.148250971682,4,1,0,100,1,0
35957,-200,4,1,0,100,0,0
37289,-100,4,1,0,100,0,0
38622,-100,4,1,0,100,0,1
81265,-100,4,1,0,100,0,0

[Colours]
Combo1 : 64,0,128
Combo2 : 0,202,0
Combo3 : 18,124,255
Combo4 : 242,24,57
Combo5 : 255,192,0

[HitObjects]
256,192,6639,5,0,0:0:0:0:
256,32,7972,5,0,0:0:0:0:
256,352,9305,5,0,0:0:0:0:
32,192,10637,5,0,0:0:0:0:
480,192,11970,5,0,0:0:0:0:
256,192,12636,2,0,B|192:192|160:160|160:128,2,120.000000596046
256,32,14302,1,0,0:0:0:0:
192,32,14468,2,0,L|192:64,2,30.0000001490115
32,192,15301,1,0,0:0:0:0:
256,192,15968,1,0,0:0:0:0:
480,192,16634,1,0,0:0:0:0:
480,128,16800,2,0,L|480:96,2,30.0000001490115
352,128,17300,5,0,0:0:0:0:
256,32,17800,1,0,0:0:0:0:
160,128,18300,1,0,0:0:0:0:
256,192,18633,1,0,0:0:0:0:
256,256,18799,1,0,0:0:0:0:
384,256,19133,2,0,P|384:224|416:192,2,60.000000298023
384,384,19799,1,0,0:0:0:0:
320,384,19965,5,0,0:0:0:0:
256,192,20465,1,0,0:0:0:0:
192,384,20965,1,0,0:0:0:0:
96,288,21298,1,0,0:0:0:0:
96,224,21465,1,0,0:0:0:0:
96,96,21798,1,0,0:0:0:0:
224,96,22131,1,0,0:0:0:0:
352,96,22464,1,0,0:0:0:0:
416,96,22631,1,0,0:0:0:0:
416,224,22964,1,0,0:0:0:0:
416,288,23130,1,0,0:0:0:0:
256,224,24296,6,0,L|256:352,2,120.000000596046
256,128,25296,1,0,0:0:0:0:
64,128,25795,1,0,0:0:0:0:
160,288,26295,1,0,0:0:0:0:
256,224,26628,1,0,0:0:0:0:
320,224,26795,1,0,0:0:0:0:
448,224,27128,1,0,0:0:0:0:
448,96,27461,1,0,0:0:0:0:
320,96,27794,2,0,L|256:96,1,60.000000298023
128,96,28294,6,0,L|128:160,1,60.000000298023
128,320,28960,2,0,L|192:320,1,60.000000298023
256,320,29294,2,0,L|256:256,1,60.000000298023
384,256,29793,1,0,0:0:0:0:
384,128,30126,1,0,0:0:0:0:
256,128,30460,1,0,0:0:0:0:
256,64,30626,1,0,0:0:0:0:
64,64,31126,1,0,0:0:0:0:
64,256,31626,1,0,0:0:0:0:
192,256,31959,2,0,B|224:256|240:208,1,60.000000298023
352,224,32458,1,0,0:0:0:0:
352,96,32792,1,0,0:0:0:0:
256,192,33125,1,0,0:0:0:0:
256,192,33291,12,0,34624,0:0:0:0:
256,96,34957,5,0,0:0:0:0:
160,192,35290,1,0,0:0:0:0:
256,288,35624,1,0,0:0:0:0:
352,192,35957,2,0,B|288:128|224:128|160:128,1,180.000000894069
128,224,37289,2,0,B|192:288|256:288|320:288|352:288,1,240.000001192092
480,288,38289,2,0,L|480:256,3,30.0000001490115
480,224,38622,5,0,0:0:0:0:
416,224,38788,1,0,0:0:0:0:
416,160,38955,1,0,0:0:0:0:
416,96,39121,2,0,L|416:64,2,30.0000001490115
352,96,39455,1,0,0:0:0:0:
288,96,39621,1,0,0:0:0:0:
224,96,39788,1,0,0:0:0:0:
160,96,39954,2,0,L|160:64,4,30.0000001490115
160,160,40454,2,0,L|128:160,4,30.0000001490115
160,224,40954,2,0,L|192:256,1,30.0000001490115
208,272,41120,2,0,L|240:304,1,30.0000001490115
256,304,41287,5,0,0:0:0:0:
320,304,41453,1,0,0:0:0:0:
320,240,41620,1,0,0:0:0:0:
384,240,41787,2,0,L|416:240,2,30.0000001490115
384,192,42120,1,0,0:0:0:0:
416,128,42286,1,0,0:0:0:0:
352,128,42453,1,0,0:0:0:0:
320,64,42619,2,0,P|288:32|256:32,1,60.000000298023
256,96,42953,1,0,0:0:0:0:
236,164,43119,2,0,P|208:160|192:128,1,60.000000298023
144,96,43452,1,0,0:0:0:0:
96,64,43619,2,0,L|80:32,3,30.0000001490115
48,48,43952,5,0,0:0:0:0:
32,112,44119,1,0,0:0:0:0:
96,128,44285,1,0,0:0:0:0:
96,192,44452,2,0,L|48:192,2,30.0000001490115
144,240,44785,1,0,0:0:0:0:
208,240,44952,2,0,L|240:240,1,30.0000001490115
272,240,45118,2,0,L|304:240,1,30.0000001490115
336,240,45285,2,0,L|368:240,4,30.0000001490115
336,176,45784,2,0,L|368:144,2,30.0000001490115
288,128,46118,1,0,0:0:0:0:
256,80,46284,1,0,0:0:0:0:
224,128,46451,1,0,0:0:0:0:
160,128,46617,5,0,0:0:0:0:
128,80,46784,1,0,0:0:0:0:
96,128,46950,1,0,0:0:0:0:
96,192,47117,2,0,L|64:192,2,30.0000001490115
144,240,47450,1,0,0:0:0:0:
192,288,47617,1,0,0:0:0:0:
256,288,47783,1,0,0:0:0:0:
320,288,47950,2,0,L|320:320,2,30.0000001490115
384,288,48283,2,0,L|416:288,3,30.0000001490115
384,224,48616,2,0,L|416:224,1,30.0000001490115
384,160,48783,2,0,L|416:144,1,30.0000001490115
352,112,48949,2,0,L|384:80,1,30.0000001490115
288,96,49116,2,0,L|304:64,1,30.0000001490115
224,96,49282,5,0,0:0:0:0:
160,96,49449,1,0,0:0:0:0:
112,144,49616,1,0,0:0:0:0:
112,208,49782,2,0,L|80:208,2,30.0000001490115
112,272,50115,1,0,0:0:0:0:
160,224,50282,1,0,0:0:0:0:
208,272,50448,1,0,0:0:0:0:
160,320,50615,2,0,L|128:320,4,30.0000001490115
224,320,51115,2,0,L|224:352,4,30.0000001490115
272,320,51614,2,0,L|272:352,1,30.0000001490115
320,320,51781,2,0,L|320:288,1,30.0000001490115
368,320,51948,5,0,0:0:0:0:
416,272,52114,1,0,0:0:0:0:
416,208,52281,1,0,0:0:0:0:
416,144,52447,2,0,L|448:144,2,30.0000001490115
384,96,52780,1,0,0:0:0:0:
336,48,52947,1,0,0:0:0:0:
288,96,53114,1,0,0:0:0:0:
336,144,53280,1,0,0:0:0:0:
336,208,53447,2,0,L|336:240,2,30.0000001490115
272,208,53780,2,0,L|256:240,2,30.0000001490115
232,160,54113,1,0,0:0:0:0:
216,104,54280,2,0,L|184:104,1,30.0000001490115
208,40,54446,2,0,L|240:40,1,30.0000001490115
176,32,54613,5,0,0:0:0:0:
112,32,54779,1,0,0:0:0:0:
64,64,54946,1,0,0:0:0:0:
64,128,55113,2,0,L|32:128,2,30.0000001490115
64,192,55446,1,0,0:0:0:0:
64,256,55612,2,0,B|80:288|96:304|128:320|160:320,1,120.000000596046
224,320,56112,2,0,L|224:352,2,30.0000001490115
288,320,56445,2,0,L|320:320,4,30.0000001490115
288,256,56945,1,0,0:0:0:0:
288,192,57111,1,0,0:0:0:0:
256,144,57278,5,0,0:0:0:0:
160,288,57778,1,0,0:0:0:0:
336,288,58277,1,0,0:0:0:0:
416,192,58611,2,0,L|416:160,3,30.0000001490115
368,192,58944,2,0,L|368:224,3,30.0000001490115
320,192,59277,2,0,L|320:160,1,30.0000001490115
272,192,59443,2,0,L|272:224,1,30.0000001490115
224,192,59610,2,0,L|224:160,1,30.0000001490115
176,192,59777,2,0,L|176:224,1,30.0000001490115
128,192,59943,5,0,0:0:0:0:
128,128,60110,1,0,0:0:0:0:
128,64,60276,1,0,0:0:0:0:
192,64,60443,2,0,L|192:96,2,30.0000001490115
256,64,60776,1,0,0:0:0:0:
320,64,60943,1,0,0:0:0:0:
384,64,61109,1,0,0:0:0:0:
384,128,61276,2,0,L|416:128,4,30.0000001490115
384,192,61776,2,0,L|352:192,4,30.0000001490115
384,256,62275,2,0,L|384:288,1,30.0000001490115
384,320,62442,2,0,L|352:320,1,30.0000001490115
304,320,62608,6,0,L|304:288,3,30.0000001490115
256,320,62942,2,0,L|256:352,3,30.0000001490115
208,320,63275,2,0,L|176:320,1,30.0000001490115
144,320,63441,2,0,L|112:304,1,30.0000001490115
80,272,63608,2,0,L|64:240,1,30.0000001490115
64,208,63774,2,0,L|32:208,2,30.0000001490115
64,144,64108,2,0,L|64:112,2,30.0000001490115
128,144,64441,2,0,L|160:144,2,30.0000001490115
192,144,64774,1,0,0:0:0:0:
144,192,64940,2,0,L|160:224,1,30.0000001490115
192,240,65107,2,0,L|224:224,1,30.0000001490115
256,208,65274,6,0,B|256:144|288:112|336:112,1,120.000000596046
376,116,65773,2,0,B|412:116|432:152|428:228,1,120.000000596046
344,208,66273,1,0,0:0:0:0:
344,328,66606,1,0,0:0:0:0:
280,328,66773,2,0,L|280:296,2,30.0000001490115
216,328,67106,2,0,L|208:360,1,30.0000001490115
168,288,67272,2,0,L|144:312,1,30.0000001490115
160,224,67439,1,0,0:0:0:0:
160,160,67606,1,0,0:0:0:0:
256,88,67939,5,0,0:0:0:0:
256,264,68438,1,0,0:0:0:0:
352,160,68938,1,0,0:0:0:0:
408,264,69271,2,0,L|408:232,3,30.0000001490115
448,304,69604,2,0,L|480:304,3,30.0000001490115
408,336,69938,2,0,L|408:368,3,30.0000001490115
368,304,70271,2,0,L|336:304,1,30.0000001490115
296,304,70437,2,0,L|272:280,1,30.0000001490115
248,256,70604,5,0,0:0:0:0:
208,208,70771,1,0,0:0:0:0:
256,160,70937,1,0,0:0:0:0:
304,208,71104,2,0,L|304:240,2,30.0000001490115
336,160,71437,1,0,0:0:0:0:
368,112,71603,1,0,0:0:0:0:
368,48,71770,1,0,0:0:0:0:
304,48,71937,2,0,P|272:64|272:96,2,60.000000298023
256,80,72436,1,0,0:0:0:0:
208,32,72603,1,0,0:0:0:0:
160,80,72769,1,0,0:0:0:0:
208,128,72936,2,0,L|240:160,4,30.0000001490115
160,176,73436,6,0,L|128:208,2,30.0000001490115
208,224,73769,2,0,L|240:256,2,30.0000001490115
160,272,74102,1,0,0:0:0:0:
192,320,74269,1,0,0:0:0:0:
240,336,74435,1,0,0:0:0:0:
304,336,74602,2,0,L|304:304,2,30.0000001490115
368,336,74935,2,0,L|368:304,2,30.0000001490115
432,336,75268,2,0,L|432:304,1,30.0000001490115
432,272,75435,2,0,L|432:240,1,30.0000001490115
432,208,75601,2,0,L|464:208,4,30.0000001490115
432,144,76101,6,0,L|464:144,2,30.0000001490115
400,96,76434,1,0,0:0:0:0:
336,96,76601,1,0,0:0:0:0:
304,144,76767,2,0,L|272:144,2,30.0000001490115
304,208,77100,1,0,0:0:0:0:
368,208,77267,5,0,0:0:0:0:
368,272,77433,1,0,0:0:0:0:
416,320,77600,1,0,0:0:0:0:
368,368,77767,1,0,0:0:0:0:
320,320,77933,1,0,0:0:0:0:
256,320,78100,2,0,L|224:352,2,30.0000001490115
192,320,78433,1,0,0:0:0:0:
192,256,78599,6,0,B|160:256|144:240|144:208,1,60.000000298023
144,160,78933,1,0,0:0:0:0:
144,96,79099,2,0,B|144:64|128:48|96:48,1,60.000000298023
48,48,79432,2,0,L|16:48,2,30.0000001490115
48,112,79766,1,0,0:0:0:0:
48,176,79932,1,0,0:0:0:0:
256,192,80099,12,0,81265,0:0:0:0:
48,192,82264,5,0,0:0:0:0:
48,160,82347,1,0,0:0:0:0:
48,128,82430,1,0,0:0:0:0:
96,80,82597,1,0,0:0:0:0:
256,80,83097,1,0,0:0:0:0:
192,192,83430,1,0,0:0:0:0:
256,304,83763,1,0,0:0:0:0:
304,256,83930,5,0,0:0:0:0:
368,256,84096,1,0,0:0:0:0:
432,256,84263,1,0,0:0:0:0:
432,192,84430,1,0,0:0:0:0:
432,128,84596,1,0,0:0:0:0:
416,104,84679,1,0,0:0:0:0:
392,88,84763,1,0,0:0:0:0:
320,192,85096,5,0,0:0:0:0:
320,256,85262,1,0,0:0:0:0:
256,256,85429,1,0,0:0:0:0:
192,256,85596,1,0,0:0:0:0:
128,256,85762,1,0,0:0:0:0:
88,208,85929,1,0,0:0:0:0:
72,184,86012,1,0,0:0:0:0:
56,160,86095,2,0,L|32:136,2,30.0000001490115
104,120,86428,1,0,0:0:0:0:
256,192,90759,12,0,91925,0:0:0:0:
