osu file format v14

[General]
AudioFilename: audio.mp3
AudioLeadIn: 0
PreviewTime: 19633
Countdown: 0
SampleSet: Normal
StackLeniency: 0.7
Mode: 3
LetterboxInBreaks: 0
SpecialStyle: 0
WidescreenStoryboard: 1

[Editor]
Bookmarks: 123093
DistanceSpacing: 1.3
BeatDivisor: 12
GridSize: 32
TimelineZoom: 2.4

[Metadata]
Title:The Ricochet
TitleUnicode:The Ricochet
Artist:Sta
ArtistUnicode:Sta
Creator:gogozzzx
Version:Hard
Source:Cytus
Tags:雷亞 雷亞遊戲 Rayark Inc. Chapter M. Million Players to One Destination Ω Omega Bit192 ARCADE Mobile Rhythm Video game Electronic Instrumental self progressive remix Vanessa Ryori Ryo ri
BeatmapID:3772452
BeatmapSetID:1815207

[Difficulty]
HPDrainRate:7.5
CircleSize:4
OverallDifficulty:7
ApproachRate:5
SliderMultiplier:1.4
SliderTickRate:1

[Events]
//Background and Video events
0,0,"RICOCHET.png",0,0
//Break Periods
//Storyboard Layer 0 (Background)
//Storyboard Layer 1 (Fail)
//Storyboard Layer 2 (Pass)
//Storyboard Layer 3 (Foreground)
//Storyboard Layer 4 (Overlay)
//Storyboard Sound Samples

[TimingPoints]
2316,333.333333333333,4,1,1,30,1,0

[HitObjects]
64,192,2315,128,0,4732:0:0:0:0:
192,192,4732,128,0,7649:0:0:0:0:
320,192,6815,128,0,8232:0:0:0:0:
448,192,7649,128,0,8232:0:0:0:0:
448,192,8315,1,0,0:0:0:0:
320,192,8315,128,0,8815:0:0:0:0:
192,192,8649,128,0,8982:0:0:0:0:
64,192,8982,1,0,0:0:0:0:
320,192,8982,128,0,9149:0:0:0:0:
448,192,9149,128,0,9315:0:0:0:0:
64,192,9315,128,0,9482:0:0:0:0:
192,192,9482,128,0,9649:0:0:0:0:
320,192,9649,128,0,9815:0:0:0:0:
192,192,9815,128,0,9899:0:0:0:0:
64,192,9899,128,0,9982:0:0:0:0:
448,192,9982,128,0,10149:0:0:0:0:
64,192,10149,128,0,10315:0:0:0:0:
192,192,10315,128,0,10815:0:0:0:0:
320,192,10649,128,0,10982:0:0:0:0:
448,192,10982,128,0,11149:0:0:0:0:
320,192,11149,128,0,11315:0:0:0:0:
192,192,11315,1,0,0:0:0:0:
64,192,11315,128,0,11649:0:0:0:0:
448,192,11649,128,0,12315:0:0:0:0:
192,192,11815,1,0,0:0:0:0:
192,192,11982,1,0,0:0:0:0:
192,192,12149,1,0,0:0:0:0:
320,192,12315,128,0,12982:0:0:0:0:
64,192,12482,1,0,0:0:0:0:
64,192,12649,1,0,0:0:0:0:
64,192,12815,1,0,0:0:0:0:
192,192,12982,128,0,13649:0:0:0:0:
448,192,13149,1,0,0:0:0:0:
320,192,13315,1,0,0:0:0:0:
448,192,13482,1,0,0:0:0:0:
64,192,13649,128,0,13815:0:0:0:0:
192,192,13815,128,0,13982:0:0:0:0:
320,192,13982,128,0,14093:0:0:0:0:
448,192,14093,128,0,14315:0:0:0:0:
192,192,14315,128,0,14982:0:0:0:0:
320,192,14482,1,0,0:0:0:0:
320,192,14649,1,0,0:0:0:0:
320,192,14815,1,0,0:0:0:0:
448,192,14982,128,0,15649:0:0:0:0:
64,192,15149,1,0,0:0:0:0:
64,192,15315,1,0,0:0:0:0:
64,192,15482,1,0,0:0:0:0:
320,192,15649,128,0,16315:0:0:0:0:
192,192,15649,128,0,16315:0:0:0:0:
64,192,16315,128,0,16649:0:0:0:0:
320,192,16649,1,0,0:0:0:0:
448,192,16732,128,0,16982:0:0:0:0:
64,192,16982,128,0,17538:0:0:0:0:
320,192,17315,128,0,17593:0:0:0:0:
192,192,17593,1,0,0:0:0:0:
64,192,17649,128,0,17899:0:0:0:0:
448,192,17899,128,0,18315:0:0:0:0:
320,192,18315,128,0,18649:0:0:0:0:
192,192,18482,128,0,18649:0:0:0:0:
448,192,18649,128,0,18815:0:0:0:0:
64,192,18815,1,0,0:0:0:0:
192,192,18899,1,0,0:0:0:0:
448,192,18982,1,0,0:0:0:0:
320,192,18982,1,0,0:0:0:0:
192,192,19065,1,0,0:0:0:0:
448,192,19149,1,0,0:0:0:0:
64,192,19232,1,0,0:0:0:0:
192,192,19315,128,0,19482:0:0:0:0:
320,192,19315,128,0,19482:0:0:0:0:
320,192,19649,1,0,0:0:0:0:
192,192,19649,1,0,0:0:0:0:
448,192,19815,1,0,0:0:0:0:
64,192,19815,128,0,19982:0:0:0:0:
192,192,19982,128,0,20149:0:0:0:0:
320,192,19982,1,0,0:0:0:0:
64,192,20149,128,0,20315:0:0:0:0:
448,192,20149,1,0,0:0:0:0:
192,192,20315,1,0,0:0:0:0:
448,192,20315,1,0,0:0:0:0:
320,192,20482,128,0,20649:0:0:0:0:
192,192,20649,1,0,0:0:0:0:
448,192,20732,1,0,0:0:0:0:
64,192,20815,128,0,20982:0:0:0:0:
192,192,20815,1,0,0:0:0:0:
320,192,20982,1,0,0:0:0:0:
448,192,20982,1,0,0:0:0:0:
448,192,21149,128,0,21315:0:0:0:0:
64,192,21315,128,0,21482:0:0:0:0:
320,192,21315,1,0,0:0:0:0:
320,192,21482,128,0,21649:0:0:0:0:
448,192,21649,1,0,0:0:0:0:
64,192,21649,1,0,0:0:0:0:
192,192,21815,128,0,21982:0:0:0:0:
320,192,21982,1,0,0:0:0:0:
448,192,22065,1,0,0:0:0:0:
64,192,22149,128,0,22315:0:0:0:0:
320,192,22315,1,0,0:0:0:0:
448,192,22315,1,0,0:0:0:0:
192,192,22482,128,0,22649:0:0:0:0:
448,192,22482,1,0,0:0:0:0:
64,192,22649,1,0,0:0:0:0:
320,192,22732,128,0,22815:0:0:0:0:
192,192,22815,128,0,22982:0:0:0:0:
448,192,22982,1,0,0:0:0:0:
64,192,22982,1,0,0:0:0:0:
320,192,23149,128,0,23315:0:0:0:0:
448,192,23315,1,0,0:0:0:0:
64,192,23399,1,0,0:0:0:0:
448,192,23482,128,0,23649:0:0:0:0:
192,192,23482,1,0,0:0:0:0:
192,192,23649,1,0,0:0:0:0:
320,192,23649,1,0,0:0:0:0:
320,192,23815,128,0,23982:0:0:0:0:
64,192,23982,128,0,24065:0:0:0:0:
192,192,24065,128,0,24149:0:0:0:0:
448,192,24149,1,0,0:0:0:0:
320,192,24149,1,0,0:0:0:0:
64,192,24232,1,0,0:0:0:0:
448,192,24315,1,0,0:0:0:0:
192,192,24315,128,0,24482:0:0:0:0:
320,192,24482,128,0,24565:0:0:0:0:
448,192,24565,128,0,24649:0:0:0:0:
64,192,24649,1,0,0:0:0:0:
192,192,24732,1,0,0:0:0:0:
448,192,24815,128,0,24982:0:0:0:0:
192,192,24982,1,0,0:0:0:0:
320,192,24982,1,0,0:0:0:0:
64,192,25149,1,0,0:0:0:0:
448,192,25149,128,0,25315:0:0:0:0:
320,192,25315,128,0,25482:0:0:0:0:
192,192,25315,1,0,0:0:0:0:
448,192,25482,128,0,25649:0:0:0:0:
64,192,25482,1,0,0:0:0:0:
320,192,25649,1,0,0:0:0:0:
64,192,25649,1,0,0:0:0:0:
192,192,25815,128,0,25982:0:0:0:0:
448,192,25982,1,0,0:0:0:0:
192,192,26065,1,0,0:0:0:0:
448,192,26149,128,0,26315:0:0:0:0:
320,192,26149,1,0,0:0:0:0:
192,192,26315,1,0,0:0:0:0:
64,192,26315,1,0,0:0:0:0:
64,192,26482,128,0,26649:0:0:0:0:
448,192,26649,128,0,26815:0:0:0:0:
192,192,26649,1,0,0:0:0:0:
192,192,26815,128,0,26982:0:0:0:0:
64,192,26982,1,0,0:0:0:0:
448,192,26982,1,0,0:0:0:0:
320,192,27149,128,0,27315:0:0:0:0:
192,192,27315,1,0,0:0:0:0:
64,192,27399,1,0,0:0:0:0:
448,192,27482,128,0,27649:0:0:0:0:
192,192,27649,1,0,0:0:0:0:
64,192,27649,1,0,0:0:0:0:
320,192,27815,128,0,27982:0:0:0:0:
64,192,27815,1,0,0:0:0:0:
448,192,27982,1,0,0:0:0:0:
192,192,28065,128,0,28149:0:0:0:0:
320,192,28149,128,0,28315:0:0:0:0:
64,192,28315,1,0,0:0:0:0:
448,192,28315,1,0,0:0:0:0:
192,192,28482,128,0,28649:0:0:0:0:
320,192,28649,1,0,0:0:0:0:
64,192,28732,1,0,0:0:0:0:
320,192,28815,128,0,28982:0:0:0:0:
192,192,28982,1,0,0:0:0:0:
64,192,28982,1,0,0:0:0:0:
192,192,29149,128,0,29315:0:0:0:0:
448,192,29315,128,0,29399:0:0:0:0:
320,192,29399,128,0,29482:0:0:0:0:
64,192,29482,1,0,0:0:0:0:
192,192,29565,1,0,0:0:0:0:
448,192,29649,1,0,0:0:0:0:
320,192,29649,128,0,29815:0:0:0:0:
192,192,29815,128,0,29899:0:0:0:0:
64,192,29899,128,0,29982:0:0:0:0:
448,192,29982,1,0,0:0:0:0:
320,192,30065,128,0,30149:0:0:0:0:
192,192,30149,128,0,30232:0:0:0:0:
448,192,30232,128,0,30315:0:0:0:0:
192,192,30315,1,0,0:0:0:0:
64,192,30315,1,0,0:0:0:0:
320,192,30399,1,0,0:0:0:0:
448,192,30482,128,0,30565:0:0:0:0:
64,192,30565,128,0,30649:0:0:0:0:
192,192,30649,128,0,30732:0:0:0:0:
448,192,30732,128,0,30815:0:0:0:0:
320,192,30815,128,0,30899:0:0:0:0:
192,192,30899,128,0,30982:0:0:0:0:
64,192,30982,1,0,0:0:0:0:
448,192,30982,1,0,0:0:0:0:
320,192,31065,128,0,31149:0:0:0:0:
192,192,31149,128,0,31232:0:0:0:0:
64,192,31232,128,0,31315:0:0:0:0:
448,192,31315,1,0,0:0:0:0:
320,192,31399,128,0,31482:0:0:0:0:
192,192,31482,128,0,31565:0:0:0:0:
448,192,31565,128,0,31649:0:0:0:0:
64,192,31649,1,0,0:0:0:0:
192,192,31649,1,0,0:0:0:0:
320,192,31732,128,0,31815:0:0:0:0:
64,192,31815,128,0,31899:0:0:0:0:
192,192,31899,128,0,31982:0:0:0:0:
448,192,31982,128,0,32065:0:0:0:0:
320,192,32065,128,0,32149:0:0:0:0:
64,192,32149,128,0,32232:0:0:0:0:
192,192,32232,128,0,32315:0:0:0:0:
320,192,32315,1,0,0:0:0:0:
448,192,32315,1,0,0:0:0:0:
64,192,32399,128,0,32482:0:0:0:0:
448,192,32482,128,0,32565:0:0:0:0:
320,192,32565,128,0,32649:0:0:0:0:
192,192,32649,1,0,0:0:0:0:
320,192,32732,1,0,0:0:0:0:
64,192,32815,128,0,32982:0:0:0:0:
448,192,32982,1,0,0:0:0:0:
320,192,32982,1,0,0:0:0:0:
192,192,33065,128,0,33190:0:0:0:0:
320,192,33190,1,0,0:0:0:0:
448,192,33232,1,0,0:0:0:0:
64,192,33315,128,0,33399:0:0:0:0:
192,192,33399,128,0,33524:0:0:0:0:
320,192,33524,1,0,0:0:0:0:
448,192,33565,1,0,0:0:0:0:
64,192,33649,1,0,0:0:0:0:
192,192,33649,1,0,0:0:0:0:
320,192,33704,128,0,33815:0:0:0:0:
64,192,33815,1,0,0:0:0:0:
192,192,33899,1,0,0:0:0:0:
448,192,33982,128,0,34149:0:0:0:0:
64,192,34149,128,0,34232:0:0:0:0:
192,192,34232,128,0,34315:0:0:0:0:
320,192,34315,1,0,0:0:0:0:
448,192,34315,1,0,0:0:0:0:
64,192,34399,128,0,34482:0:0:0:0:
448,192,34482,128,0,34565:0:0:0:0:
320,192,34565,128,0,34649:0:0:0:0:
64,192,34649,1,0,0:0:0:0:
192,192,34732,1,0,0:0:0:0:
448,192,34815,1,0,0:0:0:0:
320,192,34815,1,0,0:0:0:0:
64,192,34899,1,0,0:0:0:0:
448,192,34982,1,0,0:0:0:0:
320,192,34982,1,0,0:0:0:0:
192,192,35065,128,0,35149:0:0:0:0:
64,192,35149,128,0,35232:0:0:0:0:
320,192,35232,128,0,35315:0:0:0:0:
64,192,35315,1,0,0:0:0:0:
192,192,35315,1,0,0:0:0:0:
448,192,35399,128,0,35482:0:0:0:0:
320,192,35482,128,0,35565:0:0:0:0:
192,192,35565,128,0,35649:0:0:0:0:
64,192,35649,128,0,35815:0:0:0:0:
448,192,35649,1,0,0:0:0:0:
192,192,35815,128,0,35899:0:0:0:0:
320,192,35899,1,0,0:0:0:0:
64,192,35982,1,0,0:0:0:0:
448,192,35982,128,0,36149:0:0:0:0:
320,192,36149,128,0,36232:0:0:0:0:
448,192,36232,1,0,0:0:0:0:
64,192,36315,1,0,0:0:0:0:
192,192,36315,128,0,36482:0:0:0:0:
320,192,36482,128,0,36565:0:0:0:0:
192,192,36565,1,0,0:0:0:0:
64,192,36649,128,0,36815:0:0:0:0:
448,192,36649,1,0,0:0:0:0:
320,192,36815,128,0,36982:0:0:0:0:
64,192,36982,1,0,0:0:0:0:
192,192,36982,128,0,37149:0:0:0:0:
448,192,37149,128,0,37232:0:0:0:0:
64,192,37315,1,0,0:0:0:0:
448,192,37315,128,0,37482:0:0:0:0:
192,192,37482,128,0,37649:0:0:0:0:
448,192,37649,1,0,0:0:0:0:
320,192,37649,128,0,37815:0:0:0:0:
64,192,37815,128,0,37899:0:0:0:0:
448,192,37899,1,0,0:0:0:0:
64,192,37982,1,0,0:0:0:0:
192,192,37982,128,0,38149:0:0:0:0:
320,192,38149,1,0,0:0:0:0:
448,192,38149,128,0,38315:0:0:0:0:
192,192,38315,1,0,0:0:0:0:
64,192,38315,128,0,38482:0:0:0:0:
448,192,38482,128,0,38565:0:0:0:0:
320,192,38565,1,0,0:0:0:0:
64,192,38649,1,0,0:0:0:0:
192,192,38649,128,0,38815:0:0:0:0:
448,192,38815,128,0,38982:0:0:0:0:
192,192,38982,1,0,0:0:0:0:
64,192,38982,1,0,0:0:0:0:
320,192,39065,128,0,39149:0:0:0:0:
448,192,39149,128,0,39315:0:0:0:0:
64,192,39315,1,0,0:0:0:0:
320,192,39399,1,0,0:0:0:0:
64,192,39482,1,0,0:0:0:0:
192,192,39565,1,0,0:0:0:0:
320,192,39649,1,0,0:0:0:0:
448,192,39649,1,0,0:0:0:0:
192,192,39815,128,0,39982:0:0:0:0:
320,192,39982,1,0,0:0:0:0:
448,192,40065,1,0,0:0:0:0:
64,192,40149,1,0,0:0:0:0:
192,192,40232,1,0,0:0:0:0:
448,192,40315,1,0,0:0:0:0:
320,192,40399,1,0,0:0:0:0:
192,192,40482,1,0,0:0:0:0:
448,192,40565,1,0,0:0:0:0:
64,192,40649,128,0,40815:0:0:0:0:
320,192,40815,128,0,40982:0:0:0:0:
448,192,40982,128,0,41315:0:0:0:0:
192,192,40982,128,0,41649:0:0:0:0:
64,192,41315,128,0,41607:0:0:0:0:
320,192,41649,1,0,0:0:0:0:
448,192,41649,1,0,0:0:0:0:
64,192,41732,1,0,0:0:0:0:
448,192,41815,1,0,0:0:0:0:
320,192,41857,1,0,0:0:0:0:
192,192,41899,1,0,0:0:0:0:
64,192,41940,1,0,0:0:0:0:
448,192,41982,1,0,0:0:0:0:
320,192,42065,1,0,0:0:0:0:
64,192,42149,1,0,0:0:0:0:
192,192,42149,1,0,0:0:0:0:
320,192,42232,1,0,0:0:0:0:
64,192,42315,1,0,0:0:0:0:
448,192,42399,1,0,0:0:0:0:
192,192,42482,1,0,0:0:0:0:
320,192,42565,1,0,0:0:0:0:
64,192,42649,128,0,42732:0:0:0:0:
64,192,42857,128,0,42940:0:0:0:0:
448,192,42982,128,0,43149:0:0:0:0:
192,192,43149,128,0,43315:0:0:0:0:
64,192,43315,1,0,0:0:0:0:
448,192,43399,128,0,43649:0:0:0:0:
64,192,43649,128,0,43982:0:0:0:0:
448,192,43815,1,0,0:0:0:0:
192,192,43982,128,0,44065:0:0:0:0:
448,192,44065,128,0,44149:0:0:0:0:
192,192,44149,128,0,44315:0:0:0:0:
64,192,44315,1,0,0:0:0:0:
320,192,44315,128,0,44482:0:0:0:0:
64,192,44482,128,0,44649:0:0:0:0:
448,192,44649,1,0,0:0:0:0:
320,192,44690,1,0,0:0:0:0:
192,192,44732,1,0,0:0:0:0:
64,192,44774,1,0,0:0:0:0:
448,192,44815,128,0,44982:0:0:0:0:
192,192,44982,128,0,45065:0:0:0:0:
320,192,45065,128,0,45149:0:0:0:0:
64,192,45149,128,0,45315:0:0:0:0:
192,192,45315,128,0,45482:0:0:0:0:
448,192,45482,1,0,0:0:0:0:
320,192,45482,1,0,0:0:0:0:
64,192,45565,1,0,0:0:0:0:
448,192,45649,1,0,0:0:0:0:
320,192,45649,1,0,0:0:0:0:
192,192,45815,1,0,0:0:0:0:
64,192,45815,1,0,0:0:0:0:
448,192,45899,1,0,0:0:0:0:
64,192,45982,128,0,46149:0:0:0:0:
320,192,45982,1,0,0:0:0:0:
192,192,46149,128,0,46315:0:0:0:0:
448,192,46315,128,0,46565:0:0:0:0:
320,192,46315,1,0,0:0:0:0:
320,192,46565,1,0,0:0:0:0:
192,192,46649,128,0,46760:0:0:0:0:
320,192,46760,1,0,0:0:0:0:
448,192,46815,128,0,46982:0:0:0:0:
64,192,46982,128,0,47315:0:0:0:0:
192,192,46982,128,0,47315:0:0:0:0:
448,192,47315,1,0,0:0:0:0:
320,192,47399,1,0,0:0:0:0:
192,192,47482,1,0,0:0:0:0:
64,192,47482,1,0,0:0:0:0:
448,192,47565,1,0,0:0:0:0:
64,192,47649,1,0,0:0:0:0:
192,192,47649,1,0,0:0:0:0:
320,192,47732,1,0,0:0:0:0:
64,192,47815,128,0,47982:0:0:0:0:
448,192,47982,128,0,48149:0:0:0:0:
192,192,48149,128,0,48315:0:0:0:0:
320,192,48315,1,0,0:0:0:0:
448,192,48399,1,0,0:0:0:0:
64,192,48482,1,0,0:0:0:0:
192,192,48524,1,0,0:0:0:0:
320,192,48565,1,0,0:0:0:0:
448,192,48649,128,0,48815:0:0:0:0:
64,192,48815,128,0,48982:0:0:0:0:
320,192,48982,128,0,49149:0:0:0:0:
192,192,49149,1,0,0:0:0:0:
448,192,49232,128,0,49315:0:0:0:0:
64,192,49315,128,0,49482:0:0:0:0:
448,192,49482,128,0,49649:0:0:0:0:
192,192,49649,1,0,0:0:0:0:
64,192,49649,1,0,0:0:0:0:
320,192,49732,1,0,0:0:0:0:
448,192,49815,1,0,0:0:0:0:
192,192,49899,1,0,0:0:0:0:
320,192,49982,1,0,0:0:0:0:
448,192,50065,128,0,50315:0:0:0:0:
192,192,50149,1,0,0:0:0:0:
192,192,50315,128,0,50482:0:0:0:0:
64,192,50315,128,0,50482:0:0:0:0:
448,192,50482,1,0,0:0:0:0:
192,192,50565,1,0,0:0:0:0:
64,192,50565,1,0,0:0:0:0:
64,192,50732,1,0,0:0:0:0:
448,192,50815,1,0,0:0:0:0:
320,192,50815,128,0,50982:0:0:0:0:
192,192,50982,1,0,0:0:0:0:
64,192,51065,128,0,51232:0:0:0:0:
192,192,51232,1,0,0:0:0:0:
320,192,51315,1,0,0:0:0:0:
448,192,51399,1,0,0:0:0:0:
192,192,51482,128,0,51649:0:0:0:0:
64,192,51482,128,0,51649:0:0:0:0:
320,192,51649,1,0,0:0:0:0:
448,192,51704,128,0,51927:0:0:0:0:
192,192,51927,1,0,0:0:0:0:
64,192,51982,1,0,0:0:0:0:
320,192,52038,1,0,0:0:0:0:
448,192,52149,128,0,52315:0:0:0:0:
192,192,52315,1,0,0:0:0:0:
64,192,52315,1,0,0:0:0:0:
448,192,52399,1,0,0:0:0:0:
64,192,52482,1,0,0:0:0:0:
192,192,52524,1,0,0:0:0:0:
320,192,52565,1,0,0:0:0:0:
448,192,52607,1,0,0:0:0:0:
64,192,52649,1,0,0:0:0:0:
192,192,52732,1,0,0:0:0:0:
448,192,52815,1,0,0:0:0:0:
320,192,52815,1,0,0:0:0:0:
192,192,52899,1,0,0:0:0:0:
448,192,52982,1,0,0:0:0:0:
64,192,53065,1,0,0:0:0:0:
320,192,53149,1,0,0:0:0:0:
192,192,53232,1,0,0:0:0:0:
448,192,53315,128,0,53399:0:0:0:0:
448,192,53524,128,0,53607:0:0:0:0:
64,192,53649,128,0,53815:0:0:0:0:
320,192,53815,128,0,53982:0:0:0:0:
448,192,53982,1,0,0:0:0:0:
64,192,54065,128,0,54315:0:0:0:0:
448,192,54315,1,0,0:0:0:0:
64,192,54482,1,0,0:0:0:0:
448,192,54649,1,0,0:0:0:0:
320,192,54732,1,0,0:0:0:0:
192,192,54815,128,0,54982:0:0:0:0:
448,192,54982,1,0,0:0:0:0:
64,192,54982,1,0,0:0:0:0:
320,192,55149,128,0,55315:0:0:0:0:
192,192,55315,1,0,0:0:0:0:
64,192,55399,1,0,0:0:0:0:
448,192,55482,128,0,55649:0:0:0:0:
192,192,55649,128,0,55815:0:0:0:0:
320,192,55649,1,0,0:0:0:0:
64,192,55815,128,0,55982:0:0:0:0:
448,192,55982,128,0,56149:0:0:0:0:
64,192,56149,1,0,0:0:0:0:
192,192,56149,1,0,0:0:0:0:
448,192,56232,1,0,0:0:0:0:
64,192,56315,1,0,0:0:0:0:
192,192,56315,1,0,0:0:0:0:
320,192,56482,1,0,0:0:0:0:
448,192,56482,1,0,0:0:0:0:
64,192,56565,1,0,0:0:0:0:
448,192,56649,128,0,56815:0:0:0:0:
192,192,56649,1,0,0:0:0:0:
320,192,56815,128,0,56982:0:0:0:0:
448,192,56982,1,0,0:0:0:0:
64,192,56982,1,0,0:0:0:0:
192,192,57149,1,0,0:0:0:0:
192,192,57315,1,0,0:0:0:0:
448,192,57482,128,0,57649:0:0:0:0:
192,192,57649,1,0,0:0:0:0:
64,192,57649,128,0,57982:0:0:0:0:
448,192,57982,1,0,0:0:0:0:
320,192,58065,1,0,0:0:0:0:
192,192,58149,1,0,0:0:0:0:
64,192,58149,1,0,0:0:0:0:
448,192,58232,1,0,0:0:0:0:
64,192,58315,1,0,0:0:0:0:
192,192,58315,1,0,0:0:0:0:
320,192,58399,1,0,0:0:0:0:
448,192,58482,128,0,58649:0:0:0:0:
64,192,58649,128,0,58815:0:0:0:0:
320,192,58815,128,0,58982:0:0:0:0:
448,192,58982,1,0,0:0:0:0:
64,192,58982,1,0,0:0:0:0:
192,192,59149,128,0,59315:0:0:0:0:
448,192,59315,128,0,59649:0:0:0:0:
192,192,59649,128,0,59815:0:0:0:0:
320,192,59815,1,0,0:0:0:0:
64,192,59899,128,0,59982:0:0:0:0:
448,192,59982,128,0,60149:0:0:0:0:
64,192,60149,1,0,0:0:0:0:
192,192,60232,1,0,0:0:0:0:
448,192,60315,1,0,0:0:0:0:
192,192,60399,1,0,0:0:0:0:
448,192,60482,1,0,0:0:0:0:
320,192,60565,1,0,0:0:0:0:
192,192,60649,1,0,0:0:0:0:
64,192,60732,1,0,0:0:0:0:
320,192,60815,1,0,0:0:0:0:
448,192,60815,1,0,0:0:0:0:
192,192,60899,1,0,0:0:0:0:
320,192,60982,128,0,61149:0:0:0:0:
448,192,60982,128,0,61149:0:0:0:0:
64,192,61149,1,0,0:0:0:0:
320,192,61232,1,0,0:0:0:0:
448,192,61232,1,0,0:0:0:0:
448,192,61399,1,0,0:0:0:0:
64,192,61482,1,0,0:0:0:0:
192,192,61482,128,0,61649:0:0:0:0:
320,192,61649,1,0,0:0:0:0:
448,192,61732,128,0,61982:0:0:0:0:
64,192,61982,128,0,62149:0:0:0:0:
320,192,62149,1,0,0:0:0:0:
192,192,62315,128,0,62482:0:0:0:0:
320,192,62649,128,0,62815:0:0:0:0:
448,192,62982,128,0,63065:0:0:0:0:
64,192,63149,128,0,63315:0:0:0:0:
192,192,63482,128,0,63649:0:0:0:0:
320,192,63649,128,0,63815:0:0:0:0:
192,192,63982,128,0,64149:0:0:0:0:
64,192,64315,128,0,64399:0:0:0:0:
448,192,64482,128,0,64649:0:0:0:0:
192,192,64815,128,0,64982:0:0:0:0:
320,192,64982,128,0,65149:0:0:0:0:
192,192,65315,128,0,65482:0:0:0:0:
448,192,65649,128,0,65732:0:0:0:0:
64,192,65815,128,0,65982:0:0:0:0:
320,192,66149,128,0,66315:0:0:0:0:
192,192,66315,128,0,66482:0:0:0:0:
320,192,66649,128,0,66815:0:0:0:0:
64,192,66982,128,0,67065:0:0:0:0:
448,192,67149,128,0,67315:0:0:0:0:
192,192,67315,128,0,67482:0:0:0:0:
448,192,67649,1,0,0:0:0:0:
320,192,67732,1,0,0:0:0:0:
192,192,67815,1,0,0:0:0:0:
64,192,67899,1,0,0:0:0:0:
448,192,67982,1,0,0:0:0:0:
192,192,67982,1,0,0:0:0:0:
320,192,68065,128,0,68149:0:0:0:0:
64,192,68149,1,0,0:0:0:0:
192,192,68232,128,0,68315:0:0:0:0:
320,192,68315,1,0,0:0:0:0:
64,192,68482,128,0,68649:0:0:0:0:
448,192,68649,128,0,68815:0:0:0:0:
192,192,68815,128,0,68982:0:0:0:0:
448,192,68982,1,0,0:0:0:0:
320,192,69065,1,0,0:0:0:0:
192,192,69149,1,0,0:0:0:0:
64,192,69232,1,0,0:0:0:0:
192,192,69315,1,0,0:0:0:0:
448,192,69315,1,0,0:0:0:0:
320,192,69399,128,0,69482:0:0:0:0:
64,192,69482,1,0,0:0:0:0:
448,192,69565,128,0,69649:0:0:0:0:
192,192,69649,1,0,0:0:0:0:
320,192,69815,128,0,69982:0:0:0:0:
448,192,69982,128,0,70149:0:0:0:0:
64,192,70149,128,0,70315:0:0:0:0:
448,192,70315,1,0,0:0:0:0:
320,192,70399,1,0,0:0:0:0:
192,192,70482,128,0,70565:0:0:0:0:
320,192,70565,128,0,70649:0:0:0:0:
64,192,70649,1,0,0:0:0:0:
192,192,70732,1,0,0:0:0:0:
448,192,70815,128,0,70982:0:0:0:0:
64,192,70982,1,0,0:0:0:0:
320,192,71149,128,0,71315:0:0:0:0:
192,192,71315,128,0,71482:0:0:0:0:
448,192,71482,128,0,71649:0:0:0:0:
448,192,71815,1,0,0:0:0:0:
192,192,71815,1,0,0:0:0:0:
64,192,71982,1,0,0:0:0:0:
448,192,71982,1,0,0:0:0:0:
192,192,72065,128,0,72149:0:0:0:0:
320,192,72149,1,0,0:0:0:0:
448,192,72190,1,0,0:0:0:0:
64,192,72232,128,0,72315:0:0:0:0:
448,192,72315,128,0,72399:0:0:0:0:
320,192,72399,128,0,72482:0:0:0:0:
64,192,72482,128,0,72565:0:0:0:0:
192,192,72565,128,0,72649:0:0:0:0:
320,192,72649,128,0,72732:0:0:0:0:
448,192,72732,128,0,72815:0:0:0:0:
192,192,72815,128,0,72899:0:0:0:0:
64,192,72899,128,0,72982:0:0:0:0:
448,192,72982,128,0,73232:0:0:0:0:
320,192,73232,1,0,0:0:0:0:
320,192,73649,1,0,0:0:0:0:
448,192,73732,128,0,73927:0:0:0:0:
192,192,73927,128,0,74149:0:0:0:0:
320,192,74149,128,0,74315:0:0:0:0:
192,192,74315,1,0,0:0:0:0:
64,192,74371,128,0,74593:0:0:0:0:
192,192,74593,1,0,0:0:0:0:
320,192,74649,128,0,74899:0:0:0:0:
192,192,74982,128,0,75038:0:0:0:0:
320,192,75093,128,0,75149:0:0:0:0:
64,192,75204,1,0,0:0:0:0:
320,192,75315,128,0,75482:0:0:0:0:
448,192,75371,128,0,75538:0:0:0:0:
192,192,75482,128,0,75649:0:0:0:0:
320,192,75649,1,0,0:0:0:0:
448,192,75649,1,0,0:0:0:0:
64,192,75815,128,0,75982:0:0:0:0:
448,192,75982,128,0,76065:0:0:0:0:
192,192,76065,128,0,76149:0:0:0:0:
320,192,76149,128,0,76315:0:0:0:0:
64,192,76315,1,0,0:0:0:0:
448,192,76315,1,0,0:0:0:0:
192,192,76482,128,0,76649:0:0:0:0:
448,192,76649,128,0,76732:0:0:0:0:
320,192,76732,1,0,0:0:0:0:
64,192,76815,1,0,0:0:0:0:
192,192,76815,128,0,76982:0:0:0:0:
320,192,76982,1,0,0:0:0:0:
448,192,76982,1,0,0:0:0:0:
192,192,77149,128,0,77315:0:0:0:0:
64,192,77315,128,0,77482:0:0:0:0:
320,192,77482,128,0,77649:0:0:0:0:
64,192,77649,1,0,0:0:0:0:
448,192,77649,1,0,0:0:0:0:
320,192,77815,128,0,77899:0:0:0:0:
64,192,77899,128,0,77982:0:0:0:0:
448,192,77982,128,0,78065:0:0:0:0:
192,192,78065,1,0,0:0:0:0:
320,192,78149,128,0,78315:0:0:0:0:
192,192,78315,1,0,0:0:0:0:
64,192,78315,1,0,0:0:0:0:
192,192,78482,128,0,78565:0:0:0:0:
448,192,78565,128,0,78649:0:0:0:0:
64,192,78649,128,0,78815:0:0:0:0:
320,192,78815,128,0,78982:0:0:0:0:
64,192,78982,1,0,0:0:0:0:
448,192,78982,1,0,0:0:0:0:
320,192,79149,128,0,79315:0:0:0:0:
64,192,79315,128,0,79399:0:0:0:0:
192,192,79399,1,0,0:0:0:0:
320,192,79482,1,0,0:0:0:0:
448,192,79482,1,0,0:0:0:0:
64,192,79565,128,0,79649:0:0:0:0:
320,192,79649,1,0,0:0:0:0:
448,192,79649,1,0,0:0:0:0:
192,192,79815,128,0,79899:0:0:0:0:
320,192,79899,128,0,79982:0:0:0:0:
64,192,79982,128,0,80149:0:0:0:0:
448,192,80149,1,0,0:0:0:0:
320,192,80232,1,0,0:0:0:0:
192,192,80315,1,0,0:0:0:0:
64,192,80315,1,0,0:0:0:0:
320,192,80482,128,0,80649:0:0:0:0:
64,192,80649,128,0,80732:0:0:0:0:
448,192,80732,1,0,0:0:0:0:
192,192,80815,128,0,80982:0:0:0:0:
320,192,80982,1,0,0:0:0:0:
448,192,80982,1,0,0:0:0:0:
192,192,81149,128,0,81315:0:0:0:0:
448,192,81315,128,0,81399:0:0:0:0:
64,192,81399,128,0,81482:0:0:0:0:
320,192,81482,128,0,81649:0:0:0:0:
448,192,81649,1,0,0:0:0:0:
64,192,81649,1,0,0:0:0:0:
192,192,81815,128,0,81982:0:0:0:0:
64,192,81982,128,0,82065:0:0:0:0:
192,192,82065,1,0,0:0:0:0:
448,192,82149,128,0,82232:0:0:0:0:
320,192,82232,128,0,82315:0:0:0:0:
192,192,82315,1,0,0:0:0:0:
64,192,82315,1,0,0:0:0:0:
320,192,82482,128,0,82565:0:0:0:0:
192,192,82565,128,0,82649:0:0:0:0:
448,192,82649,128,0,82815:0:0:0:0:
192,192,82815,128,0,82982:0:0:0:0:
64,192,82982,1,0,0:0:0:0:
448,192,82982,1,0,0:0:0:0:
320,192,83149,128,0,83315:0:0:0:0:
64,192,83315,128,0,83399:0:0:0:0:
192,192,83399,1,0,0:0:0:0:
448,192,83482,128,0,83649:0:0:0:0:
192,192,83649,1,0,0:0:0:0:
64,192,83649,1,0,0:0:0:0:
320,192,83815,128,0,83982:0:0:0:0:
192,192,83982,128,0,84149:0:0:0:0:
448,192,84149,128,0,84315:0:0:0:0:
320,192,84315,1,0,0:0:0:0:
64,192,84315,1,0,0:0:0:0:
64,192,84482,128,0,84649:0:0:0:0:
448,192,84649,1,0,0:0:0:0:
192,192,84732,1,0,0:0:0:0:
320,192,84815,128,0,84982:0:0:0:0:
192,192,84982,1,0,0:0:0:0:
64,192,84982,1,0,0:0:0:0:
192,192,85149,1,0,0:0:0:0:
320,192,85232,1,0,0:0:0:0:
64,192,85315,1,0,0:0:0:0:
448,192,85315,1,0,0:0:0:0:
192,192,85399,1,0,0:0:0:0:
320,192,85482,1,0,0:0:0:0:
192,192,85565,1,0,0:0:0:0:
64,192,85649,1,0,0:0:0:0:
448,192,85649,1,0,0:0:0:0:
320,192,85732,1,0,0:0:0:0:
192,192,85815,1,0,0:0:0:0:
320,192,85899,1,0,0:0:0:0:
448,192,85899,1,0,0:0:0:0:
64,192,85982,1,0,0:0:0:0:
448,192,86065,1,0,0:0:0:0:
192,192,86149,1,0,0:0:0:0:
320,192,86232,1,0,0:0:0:0:
192,192,86315,1,0,0:0:0:0:
64,192,86315,1,0,0:0:0:0:
448,192,86482,128,0,86649:0:0:0:0:
64,192,86649,128,0,86732:0:0:0:0:
320,192,86732,128,0,86815:0:0:0:0:
192,192,86815,128,0,86982:0:0:0:0:
448,192,86982,1,0,0:0:0:0:
64,192,86982,1,0,0:0:0:0:
320,192,87149,128,0,87315:0:0:0:0:
64,192,87315,128,0,87399:0:0:0:0:
192,192,87399,1,0,0:0:0:0:
448,192,87482,1,0,0:0:0:0:
320,192,87482,128,0,87649:0:0:0:0:
192,192,87649,1,0,0:0:0:0:
64,192,87649,1,0,0:0:0:0:
192,192,87815,128,0,87899:0:0:0:0:
448,192,87899,128,0,87982:0:0:0:0:
64,192,87982,128,0,88065:0:0:0:0:
320,192,88065,1,0,0:0:0:0:
192,192,88149,128,0,88315:0:0:0:0:
448,192,88315,1,0,0:0:0:0:
64,192,88315,1,0,0:0:0:0:
320,192,88482,128,0,88565:0:0:0:0:
192,192,88565,128,0,88649:0:0:0:0:
448,192,88649,128,0,88815:0:0:0:0:
192,192,88815,128,0,88982:0:0:0:0:
320,192,88982,1,0,0:0:0:0:
448,192,88982,1,0,0:0:0:0:
320,192,89149,128,0,89232:0:0:0:0:
64,192,89232,128,0,89315:0:0:0:0:
448,192,89315,128,0,89482:0:0:0:0:
192,192,89482,128,0,89649:0:0:0:0:
448,192,89649,1,0,0:0:0:0:
64,192,89649,1,0,0:0:0:0:
192,192,89815,128,0,89982:0:0:0:0:
448,192,89982,128,0,90065:0:0:0:0:
320,192,90065,1,0,0:0:0:0:
192,192,90149,1,0,0:0:0:0:
64,192,90149,1,0,0:0:0:0:
448,192,90232,128,0,90315:0:0:0:0:
192,192,90315,1,0,0:0:0:0:
64,192,90315,1,0,0:0:0:0:
320,192,90482,128,0,90565:0:0:0:0:
192,192,90565,128,0,90649:0:0:0:0:
448,192,90649,128,0,90815:0:0:0:0:
64,192,90815,1,0,0:0:0:0:
192,192,90899,1,0,0:0:0:0:
320,192,90982,1,0,0:0:0:0:
448,192,90982,1,0,0:0:0:0:
192,192,91149,128,0,91315:0:0:0:0:
448,192,91315,128,0,91399:0:0:0:0:
64,192,91399,128,0,91482:0:0:0:0:
448,192,91482,128,0,91565:0:0:0:0:
64,192,91565,128,0,91649:0:0:0:0:
320,192,91649,1,0,0:0:0:0:
448,192,91649,1,0,0:0:0:0:
320,192,91815,128,0,91982:0:0:0:0:
64,192,91982,128,0,92065:0:0:0:0:
448,192,92065,128,0,92149:0:0:0:0:
192,192,92149,128,0,92315:0:0:0:0:
64,192,92315,1,0,0:0:0:0:
448,192,92315,1,0,0:0:0:0:
320,192,92482,128,0,92649:0:0:0:0:
448,192,92649,128,0,92732:0:0:0:0:
320,192,92732,1,0,0:0:0:0:
64,192,92815,128,0,92899:0:0:0:0:
192,192,92899,128,0,92982:0:0:0:0:
320,192,92982,1,0,0:0:0:0:
448,192,92982,1,0,0:0:0:0:
192,192,93149,128,0,93232:0:0:0:0:
320,192,93232,128,0,93315:0:0:0:0:
64,192,93315,128,0,93482:0:0:0:0:
320,192,93482,128,0,93649:0:0:0:0:
448,192,93649,1,0,0:0:0:0:
64,192,93649,1,0,0:0:0:0:
192,192,93815,128,0,93982:0:0:0:0:
448,192,93982,128,0,94065:0:0:0:0:
320,192,94065,1,0,0:0:0:0:
64,192,94149,128,0,94315:0:0:0:0:
320,192,94315,1,0,0:0:0:0:
448,192,94315,1,0,0:0:0:0:
192,192,94482,128,0,94649:0:0:0:0:
320,192,94649,128,0,94815:0:0:0:0:
64,192,94815,128,0,94982:0:0:0:0:
192,192,94982,1,0,0:0:0:0:
448,192,94982,1,0,0:0:0:0:
448,192,95149,128,0,95315:0:0:0:0:
64,192,95315,1,0,0:0:0:0:
320,192,95399,1,0,0:0:0:0:
192,192,95482,128,0,95649:0:0:0:0:
448,192,95649,1,0,0:0:0:0:
320,192,95649,1,0,0:0:0:0:
320,192,95815,1,0,0:0:0:0:
192,192,95899,1,0,0:0:0:0:
64,192,95982,1,0,0:0:0:0:
448,192,95982,1,0,0:0:0:0:
320,192,96065,1,0,0:0:0:0:
192,192,96149,1,0,0:0:0:0:
320,192,96232,1,0,0:0:0:0:
64,192,96315,1,0,0:0:0:0:
448,192,96315,1,0,0:0:0:0:
192,192,96399,1,0,0:0:0:0:
320,192,96482,1,0,0:0:0:0:
64,192,96565,1,0,0:0:0:0:
192,192,96565,1,0,0:0:0:0:
448,192,96649,1,0,0:0:0:0:
64,192,96732,1,0,0:0:0:0:
448,192,96815,1,0,0:0:0:0:
320,192,96899,1,0,0:0:0:0:
192,192,96982,1,0,0:0:0:0:
64,192,96982,1,0,0:0:0:0:
192,192,97149,1,0,0:0:0:0:
320,192,97232,1,0,0:0:0:0:
64,192,97315,1,0,0:0:0:0:
448,192,97315,1,0,0:0:0:0:
192,192,97399,1,0,0:0:0:0:
320,192,97482,1,0,0:0:0:0:
192,192,97565,1,0,0:0:0:0:
64,192,97649,1,0,0:0:0:0:
448,192,97649,1,0,0:0:0:0:
320,192,97732,1,0,0:0:0:0:
192,192,97815,1,0,0:0:0:0:
320,192,97899,1,0,0:0:0:0:
448,192,97899,1,0,0:0:0:0:
192,192,97982,1,0,0:0:0:0:
448,192,98065,1,0,0:0:0:0:
64,192,98149,1,0,0:0:0:0:
192,192,98232,1,0,0:0:0:0:
448,192,98315,1,0,0:0:0:0:
320,192,98315,1,0,0:0:0:0:
320,192,98482,1,0,0:0:0:0:
192,192,98565,1,0,0:0:0:0:
64,192,98649,1,0,0:0:0:0:
448,192,98649,1,0,0:0:0:0:
320,192,98732,1,0,0:0:0:0:
192,192,98815,1,0,0:0:0:0:
320,192,98899,1,0,0:0:0:0:
64,192,98982,1,0,0:0:0:0:
448,192,98982,1,0,0:0:0:0:
192,192,99065,1,0,0:0:0:0:
320,192,99149,1,0,0:0:0:0:
64,192,99232,1,0,0:0:0:0:
192,192,99232,1,0,0:0:0:0:
320,192,99315,1,0,0:0:0:0:
192,192,99399,1,0,0:0:0:0:
448,192,99482,1,0,0:0:0:0:
320,192,99565,1,0,0:0:0:0:
192,192,99649,1,0,0:0:0:0:
64,192,99649,1,0,0:0:0:0:
192,192,99815,1,0,0:0:0:0:
320,192,99899,1,0,0:0:0:0:
64,192,99982,1,0,0:0:0:0:
448,192,99982,1,0,0:0:0:0:
192,192,100065,1,0,0:0:0:0:
448,192,100149,1,0,0:0:0:0:
192,192,100232,1,0,0:0:0:0:
64,192,100315,1,0,0:0:0:0:
448,192,100315,1,0,0:0:0:0:
320,192,100399,1,0,0:0:0:0:
192,192,100482,1,0,0:0:0:0:
320,192,100565,1,0,0:0:0:0:
448,192,100565,1,0,0:0:0:0:
64,192,100649,1,0,0:0:0:0:
192,192,100732,1,0,0:0:0:0:
448,192,100815,1,0,0:0:0:0:
320,192,100899,1,0,0:0:0:0:
192,192,100982,128,0,101732:0:0:0:0:
64,192,100982,128,0,101649:0:0:0:0:
320,192,101732,128,0,101871:0:0:0:0:
448,192,101815,128,0,101982:0:0:0:0:
64,192,101982,1,0,0:0:0:0:
192,192,101982,128,0,102149:0:0:0:0:
320,192,102315,1,0,0:0:0:0:
192,192,102315,1,0,0:0:0:0:
448,192,102482,1,0,0:0:0:0:
64,192,102482,128,0,102649:0:0:0:0:
192,192,102649,128,0,102815:0:0:0:0:
320,192,102649,1,0,0:0:0:0:
64,192,102815,128,0,102982:0:0:0:0:
448,192,102815,1,0,0:0:0:0:
192,192,102982,1,0,0:0:0:0:
448,192,102982,1,0,0:0:0:0:
320,192,103149,128,0,103315:0:0:0:0:
192,192,103315,1,0,0:0:0:0:
448,192,103399,1,0,0:0:0:0:
64,192,103482,128,0,103649:0:0:0:0:
192,192,103482,1,0,0:0:0:0:
320,192,103649,1,0,0:0:0:0:
448,192,103649,1,0,0:0:0:0:
448,192,103815,128,0,103982:0:0:0:0:
64,192,103982,128,0,104149:0:0:0:0:
320,192,103982,1,0,0:0:0:0:
320,192,104149,128,0,104315:0:0:0:0:
448,192,104315,1,0,0:0:0:0:
64,192,104315,1,0,0:0:0:0:
192,192,104482,128,0,104649:0:0:0:0:
320,192,104649,1,0,0:0:0:0:
448,192,104732,1,0,0:0:0:0:
64,192,104815,128,0,104982:0:0:0:0:
320,192,104982,1,0,0:0:0:0:
448,192,104982,1,0,0:0:0:0:
192,192,105149,128,0,105315:0:0:0:0:
448,192,105149,1,0,0:0:0:0:
64,192,105315,1,0,0:0:0:0:
320,192,105399,128,0,105482:0:0:0:0:
192,192,105482,128,0,105649:0:0:0:0:
448,192,105649,1,0,0:0:0:0:
64,192,105649,1,0,0:0:0:0:
320,192,105815,128,0,105982:0:0:0:0:
448,192,105982,1,0,0:0:0:0:
192,192,106065,1,0,0:0:0:0:
448,192,106149,128,0,106315:0:0:0:0:
320,192,106149,1,0,0:0:0:0:
192,192,106315,1,0,0:0:0:0:
64,192,106315,1,0,0:0:0:0:
320,192,106482,128,0,106649:0:0:0:0:
64,192,106649,128,0,106732:0:0:0:0:
192,192,106732,128,0,106815:0:0:0:0:
448,192,106815,1,0,0:0:0:0:
320,192,106815,1,0,0:0:0:0:
64,192,106899,1,0,0:0:0:0:
448,192,106982,128,0,107149:0:0:0:0:
320,192,106982,1,0,0:0:0:0:
192,192,107149,1,0,0:0:0:0:
64,192,107149,1,0,0:0:0:0:
320,192,107232,1,0,0:0:0:0:
64,192,107315,1,0,0:0:0:0:
192,192,107399,1,0,0:0:0:0:
448,192,107482,128,0,107649:0:0:0:0:
192,192,107649,1,0,0:0:0:0:
320,192,107649,1,0,0:0:0:0:
64,192,107815,1,0,0:0:0:0:
448,192,107815,128,0,107982:0:0:0:0:
320,192,107982,128,0,108149:0:0:0:0:
192,192,107982,1,0,0:0:0:0:
448,192,108149,128,0,108315:0:0:0:0:
64,192,108149,1,0,0:0:0:0:
320,192,108315,1,0,0:0:0:0:
64,192,108315,1,0,0:0:0:0:
192,192,108482,128,0,108649:0:0:0:0:
320,192,108649,1,0,0:0:0:0:
192,192,108732,1,0,0:0:0:0:
448,192,108815,128,0,108982:0:0:0:0:
192,192,108982,1,0,0:0:0:0:
320,192,108982,1,0,0:0:0:0:
64,192,109149,128,0,109315:0:0:0:0:
448,192,109315,128,0,109482:0:0:0:0:
192,192,109315,1,0,0:0:0:0:
192,192,109482,128,0,109649:0:0:0:0:
64,192,109649,1,0,0:0:0:0:
448,192,109649,1,0,0:0:0:0:
320,192,109815,128,0,109982:0:0:0:0:
192,192,109982,1,0,0:0:0:0:
64,192,110065,1,0,0:0:0:0:
448,192,110149,128,0,110315:0:0:0:0:
64,192,110315,1,0,0:0:0:0:
192,192,110315,128,0,110482:0:0:0:0:
320,192,110482,128,0,110649:0:0:0:0:
448,192,110649,128,0,110732:0:0:0:0:
192,192,110732,128,0,110815:0:0:0:0:
320,192,110815,128,0,110982:0:0:0:0:
448,192,110982,1,0,0:0:0:0:
64,192,110982,128,0,111149:0:0:0:0:
192,192,111149,128,0,111315:0:0:0:0:
320,192,111315,1,0,0:0:0:0:
448,192,111399,1,0,0:0:0:0:
64,192,111482,128,0,111649:0:0:0:0:
192,192,111482,1,0,0:0:0:0:
320,192,111649,1,0,0:0:0:0:
448,192,111649,1,0,0:0:0:0:
192,192,111815,128,0,111899:0:0:0:0:
64,192,111899,1,0,0:0:0:0:
448,192,111982,128,0,112065:0:0:0:0:
320,192,112065,128,0,112149:0:0:0:0:
64,192,112149,1,0,0:0:0:0:
192,192,112232,1,0,0:0:0:0:
448,192,112315,1,0,0:0:0:0:
320,192,112315,128,0,112482:0:0:0:0:
192,192,112482,128,0,112565:0:0:0:0:
64,192,112565,128,0,112649:0:0:0:0:
448,192,112649,1,0,0:0:0:0:
320,192,112732,128,0,112815:0:0:0:0:
192,192,112815,128,0,112899:0:0:0:0:
448,192,112899,128,0,112982:0:0:0:0:
192,192,112982,1,0,0:0:0:0:
64,192,112982,1,0,0:0:0:0:
320,192,113065,128,0,113149:0:0:0:0:
448,192,113149,128,0,113232:0:0:0:0:
64,192,113232,128,0,113315:0:0:0:0:
192,192,113315,128,0,113399:0:0:0:0:
448,192,113399,128,0,113482:0:0:0:0:
320,192,113482,128,0,113565:0:0:0:0:
192,192,113565,128,0,113649:0:0:0:0:
64,192,113649,1,0,0:0:0:0:
448,192,113649,1,0,0:0:0:0:
320,192,113732,128,0,113815:0:0:0:0:
192,192,113815,128,0,113899:0:0:0:0:
64,192,113899,128,0,113982:0:0:0:0:
448,192,113982,1,0,0:0:0:0:
320,192,114065,128,0,114149:0:0:0:0:
192,192,114149,128,0,114232:0:0:0:0:
448,192,114232,128,0,114315:0:0:0:0:
64,192,114315,1,0,0:0:0:0:
192,192,114315,1,0,0:0:0:0:
320,192,114399,128,0,114482:0:0:0:0:
64,192,114482,128,0,114565:0:0:0:0:
192,192,114565,128,0,114649:0:0:0:0:
448,192,114649,128,0,114732:0:0:0:0:
320,192,114732,128,0,114815:0:0:0:0:
64,192,114815,128,0,114899:0:0:0:0:
192,192,114899,128,0,114982:0:0:0:0:
320,192,114982,1,0,0:0:0:0:
448,192,114982,1,0,0:0:0:0:
64,192,115065,128,0,115149:0:0:0:0:
448,192,115149,128,0,115232:0:0:0:0:
320,192,115232,128,0,115315:0:0:0:0:
192,192,115315,1,0,0:0:0:0:
320,192,115399,1,0,0:0:0:0:
64,192,115482,128,0,115649:0:0:0:0:
448,192,115649,1,0,0:0:0:0:
320,192,115649,1,0,0:0:0:0:
192,192,115732,128,0,115857:0:0:0:0:
320,192,115857,1,0,0:0:0:0:
448,192,115899,1,0,0:0:0:0:
64,192,115982,128,0,116065:0:0:0:0:
192,192,116065,128,0,116190:0:0:0:0:
320,192,116190,1,0,0:0:0:0:
448,192,116232,1,0,0:0:0:0:
64,192,116315,1,0,0:0:0:0:
192,192,116315,1,0,0:0:0:0:
320,192,116371,128,0,116482:0:0:0:0:
64,192,116482,1,0,0:0:0:0:
192,192,116565,1,0,0:0:0:0:
448,192,116649,128,0,116815:0:0:0:0:
64,192,116815,128,0,116899:0:0:0:0:
192,192,116899,128,0,116982:0:0:0:0:
320,192,116982,1,0,0:0:0:0:
448,192,116982,1,0,0:0:0:0:
64,192,117065,128,0,117149:0:0:0:0:
448,192,117149,128,0,117232:0:0:0:0:
320,192,117232,128,0,117315:0:0:0:0:
64,192,117315,1,0,0:0:0:0:
192,192,117399,1,0,0:0:0:0:
448,192,117482,1,0,0:0:0:0:
320,192,117482,1,0,0:0:0:0:
64,192,117565,1,0,0:0:0:0:
448,192,117649,1,0,0:0:0:0:
320,192,117649,1,0,0:0:0:0:
192,192,117732,128,0,117815:0:0:0:0:
64,192,117815,128,0,117899:0:0:0:0:
320,192,117899,128,0,117982:0:0:0:0:
192,192,117982,1,0,0:0:0:0:
64,192,117982,1,0,0:0:0:0:
448,192,118065,128,0,118149:0:0:0:0:
320,192,118149,128,0,118232:0:0:0:0:
192,192,118232,128,0,118315:0:0:0:0:
64,192,118315,128,0,118482:0:0:0:0:
448,192,118315,1,0,0:0:0:0:
192,192,118482,128,0,118565:0:0:0:0:
320,192,118565,1,0,0:0:0:0:
448,192,118649,128,0,118815:0:0:0:0:
64,192,118649,1,0,0:0:0:0:
320,192,118815,128,0,118899:0:0:0:0:
448,192,118899,1,0,0:0:0:0:
64,192,118982,1,0,0:0:0:0:
192,192,118982,128,0,119149:0:0:0:0:
320,192,119149,128,0,119232:0:0:0:0:
192,192,119232,1,0,0:0:0:0:
448,192,119315,1,0,0:0:0:0:
64,192,119315,128,0,119482:0:0:0:0:
320,192,119482,128,0,119649:0:0:0:0:
192,192,119649,128,0,119815:0:0:0:0:
64,192,119649,1,0,0:0:0:0:
448,192,119815,128,0,119899:0:0:0:0:
448,192,119982,128,0,120149:0:0:0:0:
64,192,119982,1,0,0:0:0:0:
192,192,120149,128,0,120315:0:0:0:0:
320,192,120315,128,0,120482:0:0:0:0:
448,192,120315,1,0,0:0:0:0:
64,192,120482,128,0,120649:0:0:0:0:
448,192,120649,1,0,0:0:0:0:
192,192,120732,1,0,0:0:0:0:
320,192,120815,1,0,0:0:0:0:
192,192,120899,128,0,120982:0:0:0:0:
320,192,120982,1,0,0:0:0:0:
448,192,120982,128,0,121149:0:0:0:0:
64,192,121149,128,0,121315:0:0:0:0:
192,192,121315,1,0,0:0:0:0:
320,192,121315,128,0,121482:0:0:0:0:
192,192,121482,1,0,0:0:0:0:
64,192,121482,128,0,121649:0:0:0:0:
448,192,121649,128,0,121815:0:0:0:0:
320,192,121815,1,0,0:0:0:0:
192,192,121815,128,0,121982:0:0:0:0:
320,192,121982,1,0,0:0:0:0:
448,192,121982,128,0,122065:0:0:0:0:
448,192,122149,128,0,122315:0:0:0:0:
192,192,122315,1,0,0:0:0:0:
320,192,122315,128,0,122482:0:0:0:0:
192,192,122482,1,0,0:0:0:0:
64,192,122482,128,0,122565:0:0:0:0:
64,192,122649,128,0,122815:0:0:0:0:
448,192,122732,1,0,0:0:0:0:
320,192,122815,128,0,122982:0:0:0:0:
192,192,122982,128,0,123065:0:0:0:0:
192,192,123149,128,0,123315:0:0:0:0:
448,192,123315,128,0,123649:0:0:0:0:
64,192,123649,1,0,0:0:0:0:
192,192,123704,1,0,0:0:0:0:
448,192,123760,1,0,0:0:0:0:
320,192,123815,1,0,0:0:0:0:
64,192,123871,1,0,0:0:0:0:
192,192,123927,1,0,0:0:0:0:
320,192,123982,1,0,0:0:0:0:
448,192,123982,1,0,0:0:0:0:
192,192,124204,1,0,0:0:0:0:
192,192,124427,1,0,0:0:0:0:
64,192,124538,1,0,0:0:0:0:
320,192,124649,1,0,0:0:0:0:
192,192,124732,128,0,124982:0:0:0:0:
320,192,124982,128,0,125093:0:0:0:0:
448,192,125093,128,0,125204:0:0:0:0:
64,192,125204,128,0,125315:0:0:0:0:
192,192,125315,128,0,125538:0:0:0:0:
320,192,125538,128,0,125760:0:0:0:0:
192,192,125760,128,0,125871:0:0:0:0:
64,192,125871,128,0,125982:0:0:0:0:
448,192,125982,128,0,126093:0:0:0:0:
320,192,126093,128,0,126232:0:0:0:0:
192,192,126232,1,0,0:0:0:0:
64,192,126315,128,0,126649:0:0:0:0:
320,192,126649,128,0,126732:0:0:0:0:
448,192,126732,128,0,126815:0:0:0:0:
192,192,126815,128,0,126899:0:0:0:0:
320,192,126899,128,0,126982:0:0:0:0:
64,192,126982,128,0,127093:0:0:0:0:
192,192,127093,128,0,127204:0:0:0:0:
320,192,127204,128,0,127315:0:0:0:0:
448,192,127315,128,0,127649:0:0:0:0:
64,192,127649,128,0,127982:0:0:0:0:
320,192,127982,128,0,128399:0:0:0:0:
192,192,128399,128,0,129315:0:0:0:0:
320,192,129315,128,0,129704:0:0:0:0:
448,192,129649,128,0,129732:0:0:0:0:
