osu file format v14

[General]
AudioFilename: audio.mp3
AudioLeadIn: 0
PreviewTime: 19633
Countdown: 0
SampleSet: Normal
StackLeniency: 0.7
Mode: 3
LetterboxInBreaks: 0
SpecialStyle: 0
WidescreenStoryboard: 0

[Editor]
Bookmarks: 123093
DistanceSpacing: 1.3
BeatDivisor: 12
GridSize: 32
TimelineZoom: 2.7

[Metadata]
Title:The Ricochet
TitleUnicode:The Ricochet
Artist:Sta
ArtistUnicode:Sta
Creator:gogozzzx
Version:Extreme
Source:Cytus
Tags:雷亞 雷亞遊戲 Rayark Inc. Chapter M. Million Players to One Destination Ω Omega Bit192 ARCADE Mobile Rhythm Video game Electronic Instrumental self progressive remix Vanessa Ryori Ryo ri
BeatmapID:3788145
BeatmapSetID:1815207

[Difficulty]
HPDrainRate:9
CircleSize:4
OverallDifficulty:5.7
ApproachRate:5
SliderMultiplier:1.4
SliderTickRate:1

[Events]
//Background and Video events
0,0,"RICOCHET.png",0,0
//Break Periods
//Storyboard Layer 0 (Background)
//Storyboard Layer 1 (Fail)
//Storyboard Layer 2 (Pass)
//Storyboard Layer 3 (Foreground)
//Storyboard Layer 4 (Overlay)
//Storyboard Sound Samples

[TimingPoints]
2316,333.333333333333,4,1,1,30,1,0

[HitObjects]
64,192,2315,128,0,4593:0:0:0:0:
192,192,3315,128,0,6260:0:0:0:0:
64,192,4649,128,0,6593:0:0:0:0:
448,192,4732,128,0,6427:0:0:0:0:
192,192,6315,128,0,6927:0:0:0:0:
448,192,6482,128,0,7038:0:0:0:0:
64,192,6649,128,0,7038:0:0:0:0:
320,192,6815,128,0,6982:0:0:0:0:
192,192,6982,128,0,7121:0:0:0:0:
320,192,7038,128,0,7232:0:0:0:0:
64,192,7093,128,0,7538:0:0:0:0:
448,192,7093,128,0,7343:0:0:0:0:
192,192,7204,128,0,7399:0:0:0:0:
320,192,7315,128,0,7454:0:0:0:0:
448,192,7399,128,0,7510:0:0:0:0:
192,192,7482,128,0,8260:0:0:0:0:
320,192,7538,128,0,8260:0:0:0:0:
64,192,7593,128,0,8260:0:0:0:0:
448,192,7593,128,0,8260:0:0:0:0:
64,192,8315,128,0,8399:0:0:0:0:
448,192,8315,128,0,8357:0:0:0:0:
320,192,8315,128,0,8371:0:0:0:0:
192,192,8315,128,0,8427:0:0:0:0:
64,192,8454,128,0,8704:0:0:0:0:
192,192,8482,128,0,8677:0:0:0:0:
320,192,8538,128,0,8593:0:0:0:0:
448,192,8565,128,0,8760:0:0:0:0:
320,192,8649,128,0,8788:0:0:0:0:
192,192,8760,128,0,8815:0:0:0:0:
64,192,8788,128,0,8927:0:0:0:0:
192,192,8871,128,0,9093:0:0:0:0:
320,192,8927,128,0,9121:0:0:0:0:
448,192,8927,128,0,9093:0:0:0:0:
64,192,8982,128,0,9232:0:0:0:0:
192,192,9149,128,0,9204:0:0:0:0:
320,192,9177,128,0,9232:0:0:0:0:
64,192,9274,128,0,9440:0:0:0:0:
192,192,9357,128,0,9524:0:0:0:0:
320,192,9399,128,0,9461:0:0:0:0:
448,192,9440,128,0,9607:0:0:0:0:
192,192,9565,128,0,9670:0:0:0:0:
448,192,9649,128,0,9711:0:0:0:0:
320,192,9690,128,0,9940:0:0:0:0:
192,192,9732,128,0,9795:0:0:0:0:
64,192,9760,128,0,9815:0:0:0:0:
64,192,9871,128,0,9954:0:0:0:0:
192,192,9927,128,0,9982:0:0:0:0:
320,192,9982,128,0,10038:0:0:0:0:
448,192,10038,128,0,10121:0:0:0:0:
320,192,10121,128,0,10177:0:0:0:0:
64,192,10149,128,0,10260:0:0:0:0:
192,192,10274,128,0,10315:0:0:0:0:
320,192,10295,128,0,10336:0:0:0:0:
448,192,10315,128,0,10427:0:0:0:0:
64,192,10399,128,0,10454:0:0:0:0:
192,192,10454,128,0,10510:0:0:0:0:
448,192,10510,128,0,10621:0:0:0:0:
320,192,10586,128,0,10649:0:0:0:0:
192,192,10621,1,0,0:0:0:0:
64,192,10649,128,0,10690:0:0:0:0:
320,192,10704,128,0,10760:0:0:0:0:
448,192,10732,128,0,10774:0:0:0:0:
64,192,10753,128,0,10795:0:0:0:0:
192,192,10774,128,0,10815:0:0:0:0:
448,192,10815,128,0,10871:0:0:0:0:
320,192,10843,128,0,10899:0:0:0:0:
192,192,10899,128,0,10982:0:0:0:0:
64,192,10982,128,0,11065:0:0:0:0:
320,192,11065,128,0,11121:0:0:0:0:
192,192,11093,128,0,11149:0:0:0:0:
448,192,11149,128,0,11232:0:0:0:0:
320,192,11232,128,0,11315:0:0:0:0:
192,192,11315,128,0,11357:0:0:0:0:
192,192,11399,128,0,11538:0:0:0:0:
64,192,11427,128,0,11482:0:0:0:0:
320,192,11538,128,0,11621:0:0:0:0:
448,192,11593,128,0,11649:0:0:0:0:
192,192,11621,128,0,11704:0:0:0:0:
64,192,11649,128,0,13565:0:0:0:0:
448,192,11815,1,0,0:0:0:0:
448,192,11982,1,0,0:0:0:0:
448,192,12149,1,0,0:0:0:0:
320,192,12177,128,0,12232:0:0:0:0:
192,192,12204,128,0,13593:0:0:0:0:
448,192,12315,1,0,0:0:0:0:
448,192,12482,1,0,0:0:0:0:
448,192,12649,1,0,0:0:0:0:
448,192,12815,1,0,0:0:0:0:
448,192,12982,1,0,0:0:0:0:
448,192,13149,1,0,0:0:0:0:
320,192,13315,128,0,13357:0:0:0:0:
320,192,13399,1,0,0:0:0:0:
448,192,13420,1,0,0:0:0:0:
192,192,13649,128,0,13760:0:0:0:0:
64,192,13649,128,0,13732:0:0:0:0:
320,192,13732,128,0,13788:0:0:0:0:
448,192,13774,128,0,13815:0:0:0:0:
64,192,13815,128,0,13899:0:0:0:0:
192,192,13871,128,0,14010:0:0:0:0:
320,192,13927,128,0,13982:0:0:0:0:
448,192,13954,128,0,14038:0:0:0:0:
192,192,14065,128,0,14121:0:0:0:0:
64,192,14149,128,0,14315:0:0:0:0:
448,192,14149,128,0,14315:0:0:0:0:
320,192,14315,128,0,14982:0:0:0:0:
192,192,14343,128,0,14399:0:0:0:0:
64,192,14399,1,0,0:0:0:0:
448,192,14482,1,0,0:0:0:0:
448,192,14649,1,0,0:0:0:0:
192,192,14732,128,0,14954:0:0:0:0:
448,192,14815,1,0,0:0:0:0:
448,192,14982,1,0,0:0:0:0:
64,192,14982,128,0,15260:0:0:0:0:
192,192,15010,128,0,15593:0:0:0:0:
448,192,15149,1,0,0:0:0:0:
64,192,15315,128,0,15593:0:0:0:0:
448,192,15315,1,0,0:0:0:0:
448,192,15482,128,0,15621:0:0:0:0:
64,192,15649,128,0,15704:0:0:0:0:
192,192,15649,128,0,16260:0:0:0:0:
448,192,15677,128,0,16260:0:0:0:0:
192,192,16315,128,0,16371:0:0:0:0:
448,192,16315,128,0,16399:0:0:0:0:
64,192,16343,128,0,16510:0:0:0:0:
320,192,16399,128,0,16593:0:0:0:0:
64,192,16565,128,0,16649:0:0:0:0:
320,192,16649,128,0,16690:0:0:0:0:
64,192,16704,128,0,16760:0:0:0:0:
192,192,16711,128,0,16774:0:0:0:0:
320,192,16732,128,0,16788:0:0:0:0:
448,192,16760,128,0,16927:0:0:0:0:
320,192,16899,128,0,16954:0:0:0:0:
192,192,16982,128,0,17177:0:0:0:0:
448,192,16982,128,0,17260:0:0:0:0:
192,192,17232,128,0,17288:0:0:0:0:
64,192,17260,128,0,17538:0:0:0:0:
320,192,17288,128,0,17510:0:0:0:0:
192,192,17538,128,0,17593:0:0:0:0:
320,192,17575,128,0,17649:0:0:0:0:
448,192,17621,128,0,17899:0:0:0:0:
320,192,17871,128,0,17927:0:0:0:0:
64,192,17899,128,0,18315:0:0:0:0:
192,192,18315,128,0,18593:0:0:0:0:
448,192,18315,128,0,18510:0:0:0:0:
64,192,18482,1,0,0:0:0:0:
320,192,18538,128,0,18788:0:0:0:0:
448,192,18565,128,0,18649:0:0:0:0:
192,192,18649,128,0,18760:0:0:0:0:
64,192,18677,128,0,18760:0:0:0:0:
192,192,18815,1,0,0:0:0:0:
64,192,18815,1,0,0:0:0:0:
448,192,18857,1,0,0:0:0:0:
192,192,18899,1,0,0:0:0:0:
64,192,18899,1,0,0:0:0:0:
448,192,18940,1,0,0:0:0:0:
320,192,18982,128,0,19024:0:0:0:0:
64,192,18982,128,0,19065:0:0:0:0:
192,192,19065,1,0,0:0:0:0:
320,192,19107,1,0,0:0:0:0:
448,192,19128,1,0,0:0:0:0:
64,192,19149,1,0,0:0:0:0:
320,192,19232,1,0,0:0:0:0:
448,192,19232,1,0,0:0:0:0:
192,192,19295,128,0,19461:0:0:0:0:
64,192,19315,1,0,0:0:0:0:
448,192,19315,1,0,0:0:0:0:
320,192,19336,128,0,19440:0:0:0:0:
320,192,19649,128,0,19704:0:0:0:0:
192,192,19649,128,0,19704:0:0:0:0:
64,192,19649,128,0,19704:0:0:0:0:
448,192,19815,1,0,0:0:0:0:
192,192,19815,128,0,19954:0:0:0:0:
64,192,19843,128,0,19982:0:0:0:0:
320,192,19927,128,0,19982:0:0:0:0:
448,192,19982,1,0,0:0:0:0:
192,192,20010,128,0,20149:0:0:0:0:
64,192,20038,128,0,20121:0:0:0:0:
320,192,20121,128,0,20177:0:0:0:0:
448,192,20149,1,0,0:0:0:0:
64,192,20177,128,0,20260:0:0:0:0:
192,192,20204,128,0,20260:0:0:0:0:
320,192,20260,128,0,20315:0:0:0:0:
192,192,20315,1,0,0:0:0:0:
64,192,20315,1,0,0:0:0:0:
448,192,20343,1,0,0:0:0:0:
192,192,20454,128,0,20510:0:0:0:0:
64,192,20538,128,0,20677:0:0:0:0:
192,192,20565,128,0,20677:0:0:0:0:
448,192,20649,1,0,0:0:0:0:
448,192,20704,1,0,0:0:0:0:
320,192,20732,1,0,0:0:0:0:
64,192,20760,128,0,20815:0:0:0:0:
320,192,20815,1,0,0:0:0:0:
192,192,20843,128,0,20927:0:0:0:0:
64,192,20871,128,0,20927:0:0:0:0:
448,192,20954,128,0,21010:0:0:0:0:
64,192,20982,128,0,21038:0:0:0:0:
192,192,20982,128,0,21038:0:0:0:0:
320,192,20982,128,0,21038:0:0:0:0:
320,192,21149,128,0,21260:0:0:0:0:
192,192,21177,128,0,21288:0:0:0:0:
64,192,21315,1,0,0:0:0:0:
320,192,21315,128,0,21399:0:0:0:0:
448,192,21343,128,0,21427:0:0:0:0:
64,192,21482,1,0,0:0:0:0:
448,192,21482,128,0,21565:0:0:0:0:
320,192,21510,128,0,21593:0:0:0:0:
192,192,21593,1,0,0:0:0:0:
448,192,21649,1,0,0:0:0:0:
320,192,21649,1,0,0:0:0:0:
64,192,21649,1,0,0:0:0:0:
448,192,21760,1,0,0:0:0:0:
320,192,21788,1,0,0:0:0:0:
64,192,21815,128,0,21927:0:0:0:0:
192,192,21843,128,0,22010:0:0:0:0:
64,192,21982,128,0,22065:0:0:0:0:
320,192,22010,128,0,22093:0:0:0:0:
192,192,22065,1,0,0:0:0:0:
448,192,22093,128,0,22260:0:0:0:0:
64,192,22149,128,0,22315:0:0:0:0:
320,192,22315,128,0,22371:0:0:0:0:
448,192,22315,128,0,22371:0:0:0:0:
192,192,22315,128,0,22371:0:0:0:0:
64,192,22482,1,0,0:0:0:0:
320,192,22482,128,0,22593:0:0:0:0:
448,192,22510,128,0,22621:0:0:0:0:
192,192,22593,128,0,22649:0:0:0:0:
320,192,22649,128,0,22760:0:0:0:0:
64,192,22649,128,0,22690:0:0:0:0:
64,192,22732,128,0,22815:0:0:0:0:
192,192,22732,128,0,22815:0:0:0:0:
320,192,22815,128,0,22927:0:0:0:0:
448,192,22843,128,0,22927:0:0:0:0:
192,192,22927,1,0,0:0:0:0:
64,192,22982,1,0,0:0:0:0:
448,192,22982,1,0,0:0:0:0:
320,192,22982,1,0,0:0:0:0:
320,192,23121,128,0,23232:0:0:0:0:
448,192,23149,128,0,23232:0:0:0:0:
64,192,23204,128,0,23315:0:0:0:0:
192,192,23232,128,0,23315:0:0:0:0:
320,192,23315,128,0,23371:0:0:0:0:
448,192,23336,128,0,23378:0:0:0:0:
64,192,23399,1,0,0:0:0:0:
192,192,23420,1,0,0:0:0:0:
448,192,23427,128,0,23482:0:0:0:0:
320,192,23427,128,0,23482:0:0:0:0:
192,192,23482,128,0,23593:0:0:0:0:
64,192,23482,128,0,23593:0:0:0:0:
448,192,23565,128,0,23649:0:0:0:0:
192,192,23649,128,0,23704:0:0:0:0:
320,192,23649,128,0,23704:0:0:0:0:
64,192,23649,128,0,23704:0:0:0:0:
320,192,23815,128,0,23927:0:0:0:0:
448,192,23843,128,0,23954:0:0:0:0:
192,192,23927,128,0,23982:0:0:0:0:
64,192,23982,1,0,0:0:0:0:
320,192,23982,128,0,24093:0:0:0:0:
448,192,24038,128,0,24093:0:0:0:0:
64,192,24093,128,0,24149:0:0:0:0:
192,192,24121,1,0,0:0:0:0:
320,192,24149,1,0,0:0:0:0:
448,192,24149,1,0,0:0:0:0:
320,192,24232,1,0,0:0:0:0:
448,192,24232,1,0,0:0:0:0:
64,192,24315,128,0,24371:0:0:0:0:
448,192,24315,128,0,24399:0:0:0:0:
192,192,24315,128,0,24399:0:0:0:0:
320,192,24454,128,0,24510:0:0:0:0:
192,192,24482,128,0,24538:0:0:0:0:
64,192,24524,128,0,24607:0:0:0:0:
448,192,24565,128,0,24649:0:0:0:0:
320,192,24607,128,0,24649:0:0:0:0:
192,192,24649,128,0,24760:0:0:0:0:
64,192,24677,128,0,24815:0:0:0:0:
448,192,24732,1,0,0:0:0:0:
320,192,24760,128,0,24815:0:0:0:0:
192,192,24815,128,0,24927:0:0:0:0:
448,192,24843,128,0,24982:0:0:0:0:
320,192,24982,128,0,25038:0:0:0:0:
192,192,24982,128,0,25038:0:0:0:0:
64,192,24982,128,0,25038:0:0:0:0:
448,192,25149,1,0,0:0:0:0:
192,192,25149,128,0,25288:0:0:0:0:
64,192,25177,128,0,25315:0:0:0:0:
320,192,25260,128,0,25315:0:0:0:0:
448,192,25315,1,0,0:0:0:0:
192,192,25343,128,0,25482:0:0:0:0:
64,192,25371,128,0,25454:0:0:0:0:
320,192,25454,128,0,25510:0:0:0:0:
448,192,25482,1,0,0:0:0:0:
64,192,25510,128,0,25593:0:0:0:0:
192,192,25538,128,0,25593:0:0:0:0:
320,192,25593,128,0,25649:0:0:0:0:
192,192,25649,1,0,0:0:0:0:
64,192,25649,1,0,0:0:0:0:
448,192,25677,1,0,0:0:0:0:
192,192,25788,128,0,25843:0:0:0:0:
64,192,25871,128,0,26010:0:0:0:0:
192,192,25899,128,0,26010:0:0:0:0:
448,192,25982,1,0,0:0:0:0:
448,192,26038,1,0,0:0:0:0:
320,192,26065,1,0,0:0:0:0:
64,192,26093,128,0,26149:0:0:0:0:
320,192,26149,1,0,0:0:0:0:
192,192,26177,128,0,26260:0:0:0:0:
64,192,26204,128,0,26260:0:0:0:0:
448,192,26288,128,0,26343:0:0:0:0:
64,192,26315,128,0,26371:0:0:0:0:
192,192,26315,128,0,26371:0:0:0:0:
320,192,26315,128,0,26371:0:0:0:0:
320,192,26482,128,0,26593:0:0:0:0:
192,192,26510,128,0,26621:0:0:0:0:
64,192,26649,1,0,0:0:0:0:
320,192,26649,128,0,26732:0:0:0:0:
448,192,26677,128,0,26760:0:0:0:0:
64,192,26815,1,0,0:0:0:0:
448,192,26815,128,0,26899:0:0:0:0:
320,192,26843,128,0,26927:0:0:0:0:
192,192,26927,1,0,0:0:0:0:
448,192,26982,1,0,0:0:0:0:
320,192,26982,1,0,0:0:0:0:
64,192,26982,1,0,0:0:0:0:
448,192,27093,1,0,0:0:0:0:
320,192,27121,1,0,0:0:0:0:
64,192,27149,128,0,27260:0:0:0:0:
192,192,27177,128,0,27343:0:0:0:0:
64,192,27315,128,0,27399:0:0:0:0:
320,192,27343,128,0,27427:0:0:0:0:
192,192,27399,1,0,0:0:0:0:
448,192,27427,128,0,27593:0:0:0:0:
64,192,27482,128,0,27649:0:0:0:0:
192,192,27649,128,0,27704:0:0:0:0:
320,192,27649,128,0,27704:0:0:0:0:
448,192,27649,128,0,27704:0:0:0:0:
64,192,27815,1,0,0:0:0:0:
320,192,27815,128,0,27927:0:0:0:0:
448,192,27843,128,0,27954:0:0:0:0:
192,192,27927,128,0,27982:0:0:0:0:
320,192,27982,128,0,28093:0:0:0:0:
64,192,27982,128,0,28024:0:0:0:0:
64,192,28065,128,0,28149:0:0:0:0:
192,192,28065,128,0,28149:0:0:0:0:
320,192,28149,128,0,28260:0:0:0:0:
448,192,28177,128,0,28260:0:0:0:0:
192,192,28260,1,0,0:0:0:0:
64,192,28315,1,0,0:0:0:0:
448,192,28315,1,0,0:0:0:0:
320,192,28315,1,0,0:0:0:0:
320,192,28454,128,0,28565:0:0:0:0:
448,192,28482,128,0,28565:0:0:0:0:
64,192,28538,128,0,28649:0:0:0:0:
192,192,28565,128,0,28649:0:0:0:0:
320,192,28649,128,0,28704:0:0:0:0:
448,192,28670,128,0,28711:0:0:0:0:
64,192,28732,1,0,0:0:0:0:
192,192,28753,1,0,0:0:0:0:
320,192,28760,128,0,28815:0:0:0:0:
192,192,28815,128,0,28899:0:0:0:0:
448,192,28899,128,0,28982:0:0:0:0:
320,192,28982,128,0,29038:0:0:0:0:
192,192,28982,128,0,29038:0:0:0:0:
64,192,28982,128,0,29038:0:0:0:0:
320,192,29149,128,0,29260:0:0:0:0:
448,192,29177,128,0,29288:0:0:0:0:
192,192,29260,128,0,29315:0:0:0:0:
64,192,29315,1,0,0:0:0:0:
320,192,29315,128,0,29399:0:0:0:0:
448,192,29399,128,0,29482:0:0:0:0:
192,192,29482,1,0,0:0:0:0:
64,192,29482,1,0,0:0:0:0:
64,192,29565,1,0,0:0:0:0:
64,192,29649,1,0,0:0:0:0:
448,192,29649,1,0,0:0:0:0:
320,192,29649,1,0,0:0:0:0:
192,192,29774,1,0,0:0:0:0:
320,192,29815,1,0,0:0:0:0:
448,192,29815,1,0,0:0:0:0:
320,192,29899,1,0,0:0:0:0:
192,192,29982,128,0,30065:0:0:0:0:
64,192,30038,128,0,30093:0:0:0:0:
320,192,30093,128,0,30149:0:0:0:0:
192,192,30149,128,0,30204:0:0:0:0:
320,192,30204,128,0,30315:0:0:0:0:
448,192,30260,128,0,30315:0:0:0:0:
192,192,30315,128,0,30371:0:0:0:0:
64,192,30315,128,0,30371:0:0:0:0:
320,192,30399,128,0,30454:0:0:0:0:
192,192,30482,128,0,30621:0:0:0:0:
448,192,30482,128,0,30538:0:0:0:0:
64,192,30510,128,0,30649:0:0:0:0:
320,192,30565,128,0,30649:0:0:0:0:
448,192,30649,128,0,30732:0:0:0:0:
192,192,30677,128,0,30760:0:0:0:0:
64,192,30732,128,0,30788:0:0:0:0:
320,192,30788,128,0,30843:0:0:0:0:
448,192,30815,128,0,30871:0:0:0:0:
64,192,30843,128,0,30927:0:0:0:0:
192,192,30871,128,0,30927:0:0:0:0:
320,192,30927,128,0,30982:0:0:0:0:
192,192,30982,1,0,0:0:0:0:
64,192,30982,1,0,0:0:0:0:
448,192,31010,1,0,0:0:0:0:
320,192,31065,128,0,31121:0:0:0:0:
192,192,31121,128,0,31177:0:0:0:0:
64,192,31204,128,0,31343:0:0:0:0:
192,192,31232,128,0,31343:0:0:0:0:
448,192,31315,128,0,31371:0:0:0:0:
320,192,31399,128,0,31454:0:0:0:0:
64,192,31427,128,0,31482:0:0:0:0:
192,192,31482,128,0,31593:0:0:0:0:
64,192,31538,128,0,31593:0:0:0:0:
448,192,31565,128,0,31649:0:0:0:0:
64,192,31649,128,0,31704:0:0:0:0:
192,192,31649,128,0,31704:0:0:0:0:
320,192,31649,128,0,31704:0:0:0:0:
448,192,31732,128,0,31788:0:0:0:0:
192,192,31815,128,0,31927:0:0:0:0:
320,192,31843,128,0,31954:0:0:0:0:
64,192,31899,128,0,31954:0:0:0:0:
192,192,31982,128,0,32093:0:0:0:0:
448,192,31982,1,0,0:0:0:0:
64,192,32010,128,0,32121:0:0:0:0:
320,192,32065,128,0,32149:0:0:0:0:
448,192,32149,1,0,0:0:0:0:
192,192,32149,128,0,32260:0:0:0:0:
320,192,32232,128,0,32315:0:0:0:0:
64,192,32315,1,0,0:0:0:0:
192,192,32315,1,0,0:0:0:0:
448,192,32315,1,0,0:0:0:0:
320,192,32399,128,0,32454:0:0:0:0:
64,192,32482,128,0,32593:0:0:0:0:
192,192,32510,128,0,32677:0:0:0:0:
448,192,32565,128,0,32621:0:0:0:0:
64,192,32649,128,0,32732:0:0:0:0:
320,192,32677,128,0,32760:0:0:0:0:
192,192,32732,1,0,0:0:0:0:
448,192,32760,128,0,32927:0:0:0:0:
64,192,32815,128,0,32982:0:0:0:0:
192,192,32982,128,0,33038:0:0:0:0:
320,192,32982,128,0,33038:0:0:0:0:
448,192,32982,128,0,33038:0:0:0:0:
64,192,33065,128,0,33121:0:0:0:0:
192,192,33149,128,0,33232:0:0:0:0:
320,192,33190,128,0,33253:0:0:0:0:
448,192,33232,128,0,33295:0:0:0:0:
320,192,33315,128,0,33427:0:0:0:0:
64,192,33315,128,0,33427:0:0:0:0:
192,192,33399,128,0,33482:0:0:0:0:
320,192,33482,128,0,33593:0:0:0:0:
448,192,33538,128,0,33593:0:0:0:0:
192,192,33565,128,0,33649:0:0:0:0:
448,192,33649,1,0,0:0:0:0:
320,192,33649,1,0,0:0:0:0:
64,192,33649,128,0,33704:0:0:0:0:
192,192,33704,128,0,33760:0:0:0:0:
320,192,33788,128,0,33899:0:0:0:0:
448,192,33815,128,0,33899:0:0:0:0:
192,192,33899,128,0,33954:0:0:0:0:
64,192,33927,128,0,33982:0:0:0:0:
448,192,33982,128,0,34065:0:0:0:0:
320,192,34065,128,0,34121:0:0:0:0:
192,192,34149,128,0,34232:0:0:0:0:
320,192,34204,128,0,34260:0:0:0:0:
448,192,34232,128,0,34315:0:0:0:0:
192,192,34315,128,0,34371:0:0:0:0:
64,192,34315,128,0,34371:0:0:0:0:
320,192,34371,128,0,34427:0:0:0:0:
448,192,34399,128,0,34454:0:0:0:0:
192,192,34482,128,0,34649:0:0:0:0:
64,192,34510,128,0,34593:0:0:0:0:
320,192,34565,128,0,34621:0:0:0:0:
448,192,34649,128,0,34732:0:0:0:0:
64,192,34677,128,0,34788:0:0:0:0:
192,192,34704,128,0,34788:0:0:0:0:
320,192,34815,1,0,0:0:0:0:
448,192,34815,1,0,0:0:0:0:
320,192,34899,1,0,0:0:0:0:
448,192,34899,1,0,0:0:0:0:
64,192,34982,128,0,35038:0:0:0:0:
192,192,34982,128,0,35065:0:0:0:0:
320,192,35065,128,0,35121:0:0:0:0:
448,192,35093,128,0,35149:0:0:0:0:
192,192,35149,128,0,35204:0:0:0:0:
64,192,35190,128,0,35274:0:0:0:0:
448,192,35232,128,0,35315:0:0:0:0:
320,192,35274,128,0,35315:0:0:0:0:
192,192,35315,128,0,35454:0:0:0:0:
64,192,35343,128,0,35510:0:0:0:0:
448,192,35399,128,0,35538:0:0:0:0:
320,192,35482,128,0,35593:0:0:0:0:
192,192,35565,128,0,35649:0:0:0:0:
64,192,35593,128,0,35649:0:0:0:0:
320,192,35649,128,0,35690:0:0:0:0:
448,192,35649,128,0,35711:0:0:0:0:
320,192,35732,128,0,35815:0:0:0:0:
448,192,35760,128,0,35843:0:0:0:0:
64,192,35815,128,0,35871:0:0:0:0:
192,192,35871,128,0,35927:0:0:0:0:
320,192,35899,128,0,35982:0:0:0:0:
192,192,35982,128,0,36024:0:0:0:0:
64,192,35982,128,0,36045:0:0:0:0:
448,192,35982,128,0,36093:0:0:0:0:
192,192,36065,128,0,36149:0:0:0:0:
64,192,36093,128,0,36177:0:0:0:0:
448,192,36149,128,0,36204:0:0:0:0:
320,192,36204,128,0,36260:0:0:0:0:
64,192,36232,128,0,36295:0:0:0:0:
192,192,36260,128,0,36315:0:0:0:0:
320,192,36315,128,0,36357:0:0:0:0:
448,192,36315,128,0,36378:0:0:0:0:
320,192,36399,128,0,36482:0:0:0:0:
448,192,36427,128,0,36510:0:0:0:0:
64,192,36482,128,0,36538:0:0:0:0:
192,192,36538,128,0,36593:0:0:0:0:
320,192,36565,128,0,36649:0:0:0:0:
64,192,36649,128,0,36711:0:0:0:0:
192,192,36649,128,0,36690:0:0:0:0:
448,192,36649,128,0,36760:0:0:0:0:
192,192,36732,128,0,36815:0:0:0:0:
64,192,36760,128,0,36843:0:0:0:0:
320,192,36815,128,0,36899:0:0:0:0:
448,192,36871,128,0,36927:0:0:0:0:
192,192,36899,128,0,36954:0:0:0:0:
64,192,36927,128,0,37010:0:0:0:0:
320,192,36982,128,0,37024:0:0:0:0:
448,192,36982,128,0,37045:0:0:0:0:
320,192,37065,128,0,37149:0:0:0:0:
448,192,37093,128,0,37177:0:0:0:0:
64,192,37149,128,0,37204:0:0:0:0:
192,192,37204,128,0,37260:0:0:0:0:
320,192,37232,128,0,37315:0:0:0:0:
192,192,37315,128,0,37357:0:0:0:0:
64,192,37315,128,0,37378:0:0:0:0:
448,192,37315,128,0,37427:0:0:0:0:
64,192,37427,128,0,37538:0:0:0:0:
192,192,37482,128,0,37593:0:0:0:0:
320,192,37565,128,0,37649:0:0:0:0:
448,192,37649,128,0,37711:0:0:0:0:
64,192,37649,128,0,37704:0:0:0:0:
448,192,37760,128,0,37843:0:0:0:0:
320,192,37815,128,0,37899:0:0:0:0:
64,192,37899,128,0,37982:0:0:0:0:
448,192,37899,1,0,0:0:0:0:
192,192,37982,128,0,38045:0:0:0:0:
320,192,37982,128,0,38024:0:0:0:0:
192,192,38093,128,0,38149:0:0:0:0:
448,192,38149,128,0,38260:0:0:0:0:
320,192,38149,1,0,0:0:0:0:
64,192,38232,128,0,38315:0:0:0:0:
192,192,38260,128,0,38315:0:0:0:0:
448,192,38315,1,0,0:0:0:0:
320,192,38315,128,0,38427:0:0:0:0:
192,192,38427,128,0,38510:0:0:0:0:
320,192,38482,128,0,38593:0:0:0:0:
192,192,38565,128,0,38649:0:0:0:0:
64,192,38593,128,0,38649:0:0:0:0:
448,192,38649,1,0,0:0:0:0:
320,192,38649,1,0,0:0:0:0:
320,192,38760,1,0,0:0:0:0:
192,192,38788,1,0,0:0:0:0:
448,192,38815,128,0,38982:0:0:0:0:
320,192,38871,128,0,38954:0:0:0:0:
192,192,38982,128,0,39065:0:0:0:0:
64,192,38982,128,0,39093:0:0:0:0:
320,192,39093,128,0,39177:0:0:0:0:
192,192,39149,128,0,39260:0:0:0:0:
320,192,39232,128,0,39315:0:0:0:0:
448,192,39260,128,0,39315:0:0:0:0:
192,192,39315,1,0,0:0:0:0:
64,192,39315,1,0,0:0:0:0:
320,192,39399,128,0,39454:0:0:0:0:
64,192,39399,128,0,39482:0:0:0:0:
448,192,39427,128,0,39482:0:0:0:0:
192,192,39482,1,0,0:0:0:0:
192,192,39565,128,0,39621:0:0:0:0:
448,192,39565,128,0,39607:0:0:0:0:
64,192,39593,128,0,39649:0:0:0:0:
320,192,39649,1,0,0:0:0:0:
448,192,39649,1,0,0:0:0:0:
320,192,39760,128,0,39899:0:0:0:0:
448,192,39815,128,0,39927:0:0:0:0:
192,192,39871,1,0,0:0:0:0:
64,192,39899,1,0,0:0:0:0:
192,192,39982,1,0,0:0:0:0:
448,192,40010,128,0,40149:0:0:0:0:
192,192,40065,1,0,0:0:0:0:
320,192,40093,128,0,40177:0:0:0:0:
64,192,40149,128,0,40190:0:0:0:0:
320,192,40232,128,0,40274:0:0:0:0:
448,192,40260,128,0,40315:0:0:0:0:
64,192,40315,128,0,40357:0:0:0:0:
448,192,40399,128,0,40440:0:0:0:0:
64,192,40482,128,0,40524:0:0:0:0:
448,192,40565,128,0,40670:0:0:0:0:
320,192,40649,128,0,40704:0:0:0:0:
192,192,40677,128,0,40815:0:0:0:0:
64,192,40704,128,0,40815:0:0:0:0:
320,192,40795,1,0,0:0:0:0:
448,192,40815,1,0,0:0:0:0:
320,192,40878,128,0,40920:0:0:0:0:
448,192,40899,128,0,40982:0:0:0:0:
192,192,40982,128,0,41086:0:0:0:0:
64,192,40982,128,0,41107:0:0:0:0:
64,192,41149,128,0,41288:0:0:0:0:
192,192,41177,128,0,41288:0:0:0:0:
320,192,41204,128,0,41371:0:0:0:0:
448,192,41343,128,0,41593:0:0:0:0:
64,192,41371,128,0,41621:0:0:0:0:
192,192,41649,1,0,0:0:0:0:
320,192,41649,1,0,0:0:0:0:
448,192,41649,1,0,0:0:0:0:
64,192,41732,1,0,0:0:0:0:
448,192,41732,1,0,0:0:0:0:
320,192,41815,1,0,0:0:0:0:
64,192,41843,1,0,0:0:0:0:
192,192,41857,1,0,0:0:0:0:
320,192,41899,1,0,0:0:0:0:
448,192,41920,1,0,0:0:0:0:
192,192,41982,128,0,42045:0:0:0:0:
320,192,42010,1,0,0:0:0:0:
64,192,42065,128,0,42128:0:0:0:0:
192,192,42093,1,0,0:0:0:0:
320,192,42149,128,0,42211:0:0:0:0:
448,192,42149,128,0,42190:0:0:0:0:
192,192,42232,128,0,42295:0:0:0:0:
320,192,42315,1,0,0:0:0:0:
64,192,42315,1,0,0:0:0:0:
448,192,42336,1,0,0:0:0:0:
448,192,42399,1,0,0:0:0:0:
64,192,42399,1,0,0:0:0:0:
192,192,42461,1,0,0:0:0:0:
320,192,42482,1,0,0:0:0:0:
320,192,42565,1,0,0:0:0:0:
64,192,42649,128,0,42732:0:0:0:0:
192,192,42677,128,0,42732:0:0:0:0:
64,192,42857,128,0,42961:0:0:0:0:
192,192,42899,128,0,42982:0:0:0:0:
320,192,42982,128,0,43045:0:0:0:0:
448,192,42982,128,0,43024:0:0:0:0:
448,192,43065,128,0,43149:0:0:0:0:
320,192,43149,128,0,43288:0:0:0:0:
448,192,43232,128,0,43315:0:0:0:0:
192,192,43315,1,0,0:0:0:0:
192,192,43399,1,0,0:0:0:0:
320,192,43427,128,0,43482:0:0:0:0:
64,192,43454,128,0,43621:0:0:0:0:
192,192,43649,128,0,43920:0:0:0:0:
448,192,43649,128,0,43927:0:0:0:0:
64,192,43815,1,0,0:0:0:0:
192,192,43982,128,0,44107:0:0:0:0:
448,192,43982,128,0,44065:0:0:0:0:
320,192,44038,128,0,44093:0:0:0:0:
192,192,44149,128,0,44204:0:0:0:0:
320,192,44190,128,0,44232:0:0:0:0:
448,192,44211,128,0,44295:0:0:0:0:
192,192,44315,1,0,0:0:0:0:
64,192,44315,1,0,0:0:0:0:
448,192,44336,1,0,0:0:0:0:
192,192,44440,1,0,0:0:0:0:
64,192,44482,128,0,44649:0:0:0:0:
448,192,44649,1,0,0:0:0:0:
320,192,44677,1,0,0:0:0:0:
448,192,44704,1,0,0:0:0:0:
320,192,44760,1,0,0:0:0:0:
64,192,44815,128,0,44982:0:0:0:0:
320,192,44982,128,0,45065:0:0:0:0:
448,192,45065,128,0,45107:0:0:0:0:
448,192,45149,128,0,45204:0:0:0:0:
320,192,45170,128,0,45211:0:0:0:0:
192,192,45232,128,0,45295:0:0:0:0:
320,192,45274,128,0,45315:0:0:0:0:
448,192,45295,128,0,45336:0:0:0:0:
64,192,45315,128,0,45482:0:0:0:0:
320,192,45482,1,0,0:0:0:0:
448,192,45482,1,0,0:0:0:0:
448,192,45565,1,0,0:0:0:0:
64,192,45649,1,0,0:0:0:0:
448,192,45649,1,0,0:0:0:0:
192,192,45649,1,0,0:0:0:0:
192,192,45795,1,0,0:0:0:0:
320,192,45815,1,0,0:0:0:0:
448,192,45815,1,0,0:0:0:0:
320,192,45899,1,0,0:0:0:0:
320,192,45982,128,0,46086:0:0:0:0:
448,192,46003,128,0,46045:0:0:0:0:
192,192,46024,128,0,46128:0:0:0:0:
64,192,46045,128,0,46086:0:0:0:0:
64,192,46149,128,0,46253:0:0:0:0:
192,192,46204,128,0,46260:0:0:0:0:
320,192,46232,128,0,46315:0:0:0:0:
192,192,46315,1,0,0:0:0:0:
64,192,46315,1,0,0:0:0:0:
448,192,46343,128,0,46565:0:0:0:0:
320,192,46482,128,0,46593:0:0:0:0:
64,192,46538,128,0,46593:0:0:0:0:
192,192,46538,128,0,46621:0:0:0:0:
448,192,46649,1,0,0:0:0:0:
192,192,46760,128,0,46843:0:0:0:0:
64,192,46788,128,0,46843:0:0:0:0:
320,192,46815,128,0,46871:0:0:0:0:
448,192,46843,128,0,46927:0:0:0:0:
192,192,46982,128,0,47121:0:0:0:0:
448,192,46982,1,0,0:0:0:0:
64,192,47038,128,0,47260:0:0:0:0:
320,192,47121,128,0,47177:0:0:0:0:
448,192,47149,128,0,47260:0:0:0:0:
448,192,47315,1,0,0:0:0:0:
64,192,47315,128,0,47371:0:0:0:0:
192,192,47399,1,0,0:0:0:0:
64,192,47427,128,0,47482:0:0:0:0:
320,192,47482,1,0,0:0:0:0:
448,192,47482,1,0,0:0:0:0:
64,192,47565,1,0,0:0:0:0:
320,192,47649,1,0,0:0:0:0:
192,192,47649,1,0,0:0:0:0:
448,192,47649,1,0,0:0:0:0:
448,192,47732,1,0,0:0:0:0:
448,192,47815,128,0,47954:0:0:0:0:
320,192,47871,128,0,47927:0:0:0:0:
320,192,47982,128,0,48177:0:0:0:0:
192,192,48038,128,0,48149:0:0:0:0:
64,192,48149,128,0,48288:0:0:0:0:
320,192,48315,1,0,0:0:0:0:
448,192,48315,1,0,0:0:0:0:
64,192,48343,1,0,0:0:0:0:
192,192,48371,1,0,0:0:0:0:
320,192,48399,1,0,0:0:0:0:
448,192,48454,1,0,0:0:0:0:
64,192,48482,1,0,0:0:0:0:
320,192,48510,1,0,0:0:0:0:
192,192,48538,1,0,0:0:0:0:
448,192,48593,1,0,0:0:0:0:
320,192,48621,1,0,0:0:0:0:
64,192,48649,1,0,0:0:0:0:
192,192,48704,1,0,0:0:0:0:
320,192,48760,1,0,0:0:0:0:
448,192,48788,128,0,48982:0:0:0:0:
64,192,48815,128,0,48982:0:0:0:0:
192,192,48982,1,0,0:0:0:0:
320,192,48982,128,0,49093:0:0:0:0:
448,192,49038,128,0,49093:0:0:0:0:
192,192,49149,128,0,49260:0:0:0:0:
320,192,49204,128,0,49260:0:0:0:0:
192,192,49315,128,0,49427:0:0:0:0:
448,192,49371,128,0,49427:0:0:0:0:
448,192,49482,128,0,49649:0:0:0:0:
192,192,49482,128,0,49538:0:0:0:0:
320,192,49649,1,0,0:0:0:0:
64,192,49649,1,0,0:0:0:0:
192,192,49677,1,0,0:0:0:0:
320,192,49732,1,0,0:0:0:0:
192,192,49815,1,0,0:0:0:0:
320,192,49871,1,0,0:0:0:0:
192,192,49927,1,0,0:0:0:0:
448,192,49982,128,0,50038:0:0:0:0:
320,192,50010,128,0,50065:0:0:0:0:
64,192,50065,128,0,50149:0:0:0:0:
320,192,50149,128,0,50204:0:0:0:0:
448,192,50177,128,0,50315:0:0:0:0:
192,192,50315,128,0,50427:0:0:0:0:
64,192,50315,128,0,50454:0:0:0:0:
448,192,50371,128,0,50454:0:0:0:0:
320,192,50399,128,0,50454:0:0:0:0:
192,192,50482,128,0,50565:0:0:0:0:
64,192,50510,128,0,50565:0:0:0:0:
320,192,50565,128,0,50649:0:0:0:0:
448,192,50565,128,0,50621:0:0:0:0:
64,192,50732,128,0,50836:0:0:0:0:
192,192,50788,128,0,50843:0:0:0:0:
448,192,50815,128,0,50927:0:0:0:0:
320,192,50815,128,0,50871:0:0:0:0:
192,192,50927,128,0,50982:0:0:0:0:
448,192,50982,1,0,0:0:0:0:
320,192,51038,1,0,0:0:0:0:
64,192,51065,128,0,51190:0:0:0:0:
192,192,51093,128,0,51204:0:0:0:0:
448,192,51149,128,0,51232:0:0:0:0:
320,192,51232,1,0,0:0:0:0:
192,192,51288,1,0,0:0:0:0:
64,192,51315,1,0,0:0:0:0:
320,192,51357,128,0,51399:0:0:0:0:
448,192,51399,128,0,51482:0:0:0:0:
192,192,51482,128,0,51649:0:0:0:0:
64,192,51565,128,0,51649:0:0:0:0:
320,192,51649,128,0,51732:0:0:0:0:
448,192,51677,1,0,0:0:0:0:
448,192,51760,1,0,0:0:0:0:
320,192,51788,1,0,0:0:0:0:
64,192,51815,1,0,0:0:0:0:
192,192,51871,1,0,0:0:0:0:
320,192,51899,128,0,51982:0:0:0:0:
192,192,51982,1,0,0:0:0:0:
64,192,52038,1,0,0:0:0:0:
192,192,52065,1,0,0:0:0:0:
320,192,52149,128,0,52232:0:0:0:0:
448,192,52177,1,0,0:0:0:0:
448,192,52260,1,0,0:0:0:0:
320,192,52288,1,0,0:0:0:0:
64,192,52315,1,0,0:0:0:0:
192,192,52315,1,0,0:0:0:0:
64,192,52399,1,0,0:0:0:0:
320,192,52482,1,0,0:0:0:0:
192,192,52524,1,0,0:0:0:0:
448,192,52565,1,0,0:0:0:0:
320,192,52593,1,0,0:0:0:0:
64,192,52649,128,0,52704:0:0:0:0:
192,192,52732,128,0,52788:0:0:0:0:
448,192,52815,128,0,52857:0:0:0:0:
320,192,52815,128,0,52878:0:0:0:0:
192,192,52899,128,0,52961:0:0:0:0:
320,192,52982,1,0,0:0:0:0:
64,192,52982,1,0,0:0:0:0:
448,192,53003,1,0,0:0:0:0:
448,192,53065,1,0,0:0:0:0:
64,192,53065,1,0,0:0:0:0:
192,192,53128,1,0,0:0:0:0:
320,192,53149,1,0,0:0:0:0:
192,192,53232,1,0,0:0:0:0:
64,192,53315,128,0,53427:0:0:0:0:
192,192,53343,128,0,53427:0:0:0:0:
192,192,53524,128,0,53628:0:0:0:0:
64,192,53524,128,0,53607:0:0:0:0:
320,192,53649,128,0,53711:0:0:0:0:
448,192,53649,128,0,53690:0:0:0:0:
448,192,53732,128,0,53815:0:0:0:0:
320,192,53815,128,0,53954:0:0:0:0:
448,192,53899,128,0,53982:0:0:0:0:
192,192,53982,1,0,0:0:0:0:
192,192,54065,1,0,0:0:0:0:
320,192,54093,128,0,54149:0:0:0:0:
64,192,54121,128,0,54315:0:0:0:0:
448,192,54315,1,0,0:0:0:0:
192,192,54315,1,0,0:0:0:0:
64,192,54399,128,0,54454:0:0:0:0:
448,192,54482,128,0,54649:0:0:0:0:
320,192,54565,1,0,0:0:0:0:
320,192,54649,1,0,0:0:0:0:
64,192,54649,128,0,54815:0:0:0:0:
192,192,54732,1,0,0:0:0:0:
448,192,54815,128,0,54927:0:0:0:0:
320,192,54899,1,0,0:0:0:0:
192,192,54982,1,0,0:0:0:0:
64,192,54982,1,0,0:0:0:0:
448,192,54982,1,0,0:0:0:0:
64,192,55093,1,0,0:0:0:0:
192,192,55149,128,0,55315:0:0:0:0:
448,192,55315,1,0,0:0:0:0:
320,192,55371,1,0,0:0:0:0:
448,192,55399,128,0,55482:0:0:0:0:
64,192,55482,1,0,0:0:0:0:
192,192,55482,128,0,55649:0:0:0:0:
320,192,55649,128,0,55704:0:0:0:0:
448,192,55649,128,0,55704:0:0:0:0:
320,192,55815,1,0,0:0:0:0:
448,192,55871,128,0,55982:0:0:0:0:
320,192,55899,128,0,55982:0:0:0:0:
192,192,55982,1,0,0:0:0:0:
64,192,56010,128,0,56149:0:0:0:0:
192,192,56065,1,0,0:0:0:0:
320,192,56149,1,0,0:0:0:0:
448,192,56149,1,0,0:0:0:0:
448,192,56232,1,0,0:0:0:0:
448,192,56315,1,0,0:0:0:0:
64,192,56315,1,0,0:0:0:0:
192,192,56315,1,0,0:0:0:0:
192,192,56461,1,0,0:0:0:0:
320,192,56482,1,0,0:0:0:0:
448,192,56482,1,0,0:0:0:0:
320,192,56565,1,0,0:0:0:0:
320,192,56649,128,0,56753:0:0:0:0:
448,192,56670,128,0,56711:0:0:0:0:
192,192,56690,128,0,56795:0:0:0:0:
64,192,56711,128,0,56753:0:0:0:0:
64,192,56815,128,0,56920:0:0:0:0:
192,192,56871,128,0,56927:0:0:0:0:
320,192,56927,128,0,56982:0:0:0:0:
448,192,56982,1,0,0:0:0:0:
64,192,56982,128,0,57038:0:0:0:0:
192,192,57121,1,0,0:0:0:0:
448,192,57149,128,0,57253:0:0:0:0:
64,192,57315,1,0,0:0:0:0:
448,192,57315,1,0,0:0:0:0:
448,192,57399,1,0,0:0:0:0:
320,192,57482,128,0,57565:0:0:0:0:
448,192,57538,128,0,57649:0:0:0:0:
192,192,57649,1,0,0:0:0:0:
64,192,57649,128,0,57899:0:0:0:0:
320,192,57871,128,0,57954:0:0:0:0:
192,192,57871,128,0,57927:0:0:0:0:
448,192,57899,128,0,57982:0:0:0:0:
64,192,57982,128,0,58024:0:0:0:0:
64,192,58065,128,0,58107:0:0:0:0:
192,192,58149,128,0,58190:0:0:0:0:
320,192,58149,1,0,0:0:0:0:
192,192,58232,128,0,58274:0:0:0:0:
64,192,58315,1,0,0:0:0:0:
320,192,58315,1,0,0:0:0:0:
448,192,58336,1,0,0:0:0:0:
192,192,58357,1,0,0:0:0:0:
448,192,58399,1,0,0:0:0:0:
320,192,58427,1,0,0:0:0:0:
64,192,58482,128,0,58593:0:0:0:0:
192,192,58538,128,0,58593:0:0:0:0:
192,192,58649,128,0,58704:0:0:0:0:
448,192,58649,1,0,0:0:0:0:
64,192,58677,128,0,58815:0:0:0:0:
192,192,58815,128,0,58871:0:0:0:0:
320,192,58843,128,0,58982:0:0:0:0:
448,192,58843,128,0,58927:0:0:0:0:
448,192,58982,1,0,0:0:0:0:
192,192,58982,1,0,0:0:0:0:
64,192,58982,1,0,0:0:0:0:
192,192,59149,128,0,59315:0:0:0:0:
64,192,59204,128,0,59315:0:0:0:0:
320,192,59315,128,0,59593:0:0:0:0:
448,192,59427,128,0,59621:0:0:0:0:
64,192,59649,128,0,59788:0:0:0:0:
192,192,59760,128,0,59815:0:0:0:0:
64,192,59843,128,0,59899:0:0:0:0:
192,192,59871,128,0,59954:0:0:0:0:
320,192,59899,128,0,60010:0:0:0:0:
64,192,59982,1,0,0:0:0:0:
448,192,59982,128,0,60065:0:0:0:0:
192,192,60038,128,0,60093:0:0:0:0:
64,192,60093,128,0,60149:0:0:0:0:
448,192,60149,128,0,60204:0:0:0:0:
320,192,60177,128,0,60232:0:0:0:0:
192,192,60232,128,0,60315:0:0:0:0:
448,192,60315,1,0,0:0:0:0:
64,192,60315,1,0,0:0:0:0:
320,192,60357,1,0,0:0:0:0:
448,192,60399,1,0,0:0:0:0:
192,192,60482,1,0,0:0:0:0:
448,192,60565,1,0,0:0:0:0:
64,192,60565,1,0,0:0:0:0:
192,192,60649,128,0,60704:0:0:0:0:
320,192,60677,1,0,0:0:0:0:
64,192,60732,1,0,0:0:0:0:
192,192,60815,1,0,0:0:0:0:
64,192,60815,128,0,60871:0:0:0:0:
320,192,60857,1,0,0:0:0:0:
448,192,60899,1,0,0:0:0:0:
192,192,60982,128,0,61093:0:0:0:0:
64,192,60982,128,0,61121:0:0:0:0:
448,192,61038,128,0,61121:0:0:0:0:
320,192,61065,128,0,61121:0:0:0:0:
192,192,61149,128,0,61232:0:0:0:0:
64,192,61177,128,0,61232:0:0:0:0:
320,192,61232,128,0,61315:0:0:0:0:
448,192,61232,128,0,61288:0:0:0:0:
64,192,61399,128,0,61503:0:0:0:0:
192,192,61454,128,0,61510:0:0:0:0:
448,192,61482,128,0,61593:0:0:0:0:
320,192,61482,128,0,61538:0:0:0:0:
192,192,61593,128,0,61649:0:0:0:0:
448,192,61649,1,0,0:0:0:0:
320,192,61677,1,0,0:0:0:0:
64,192,61732,128,0,61788:0:0:0:0:
192,192,61760,128,0,61815:0:0:0:0:
320,192,61788,128,0,61871:0:0:0:0:
448,192,61815,128,0,61927:0:0:0:0:
448,192,61982,128,0,62038:0:0:0:0:
320,192,62003,128,0,62045:0:0:0:0:
192,192,62024,1,0,0:0:0:0:
64,192,62045,1,0,0:0:0:0:
192,192,62121,128,0,62204:0:0:0:0:
192,192,62288,1,0,0:0:0:0:
320,192,62315,128,0,62371:0:0:0:0:
448,192,62399,1,0,0:0:0:0:
448,192,62482,1,0,0:0:0:0:
320,192,62565,1,0,0:0:0:0:
192,192,62649,128,0,62732:0:0:0:0:
64,192,62815,128,0,62899:0:0:0:0:
448,192,62982,128,0,63065:0:0:0:0:
64,192,63065,1,0,0:0:0:0:
192,192,63149,128,0,63315:0:0:0:0:
320,192,63232,1,0,0:0:0:0:
448,192,63315,1,0,0:0:0:0:
64,192,63482,128,0,63670:0:0:0:0:
320,192,63565,1,0,0:0:0:0:
320,192,63649,1,0,0:0:0:0:
192,192,63649,128,0,63704:0:0:0:0:
64,192,63732,1,0,0:0:0:0:
448,192,63732,1,0,0:0:0:0:
64,192,63815,1,0,0:0:0:0:
192,192,63899,1,0,0:0:0:0:
320,192,63982,128,0,64038:0:0:0:0:
448,192,64065,1,0,0:0:0:0:
448,192,64149,1,0,0:0:0:0:
320,192,64232,1,0,0:0:0:0:
64,192,64315,128,0,64399:0:0:0:0:
448,192,64399,1,0,0:0:0:0:
192,192,64482,128,0,64649:0:0:0:0:
320,192,64565,1,0,0:0:0:0:
448,192,64649,1,0,0:0:0:0:
192,192,64732,1,0,0:0:0:0:
64,192,64815,128,0,65003:0:0:0:0:
320,192,64899,1,0,0:0:0:0:
192,192,64982,1,0,0:0:0:0:
64,192,65065,1,0,0:0:0:0:
448,192,65065,1,0,0:0:0:0:
64,192,65149,1,0,0:0:0:0:
192,192,65232,1,0,0:0:0:0:
320,192,65315,128,0,65371:0:0:0:0:
448,192,65399,1,0,0:0:0:0:
448,192,65482,128,0,65538:0:0:0:0:
320,192,65565,1,0,0:0:0:0:
64,192,65649,128,0,65732:0:0:0:0:
448,192,65732,1,0,0:0:0:0:
192,192,65815,128,0,65982:0:0:0:0:
64,192,65899,1,0,0:0:0:0:
320,192,65982,1,0,0:0:0:0:
192,192,66065,1,0,0:0:0:0:
448,192,66149,1,0,0:0:0:0:
448,192,66232,128,0,66315:0:0:0:0:
192,192,66315,1,0,0:0:0:0:
64,192,66399,1,0,0:0:0:0:
64,192,66482,1,0,0:0:0:0:
192,192,66565,128,0,66621:0:0:0:0:
320,192,66649,1,0,0:0:0:0:
448,192,66732,1,0,0:0:0:0:
448,192,66815,1,0,0:0:0:0:
320,192,66899,128,0,66940:0:0:0:0:
64,192,66982,128,0,67038:0:0:0:0:
448,192,67065,1,0,0:0:0:0:
192,192,67149,1,0,0:0:0:0:
320,192,67232,1,0,0:0:0:0:
192,192,67315,128,0,67371:0:0:0:0:
64,192,67343,128,0,67538:0:0:0:0:
448,192,67482,128,0,67538:0:0:0:0:
64,192,67649,1,0,0:0:0:0:
448,192,67649,1,0,0:0:0:0:
64,192,67732,1,0,0:0:0:0:
320,192,67732,1,0,0:0:0:0:
320,192,67815,1,0,0:0:0:0:
64,192,67815,1,0,0:0:0:0:
448,192,67843,1,0,0:0:0:0:
192,192,67899,128,0,67982:0:0:0:0:
320,192,67982,1,0,0:0:0:0:
192,192,68065,128,0,68149:0:0:0:0:
64,192,68107,128,0,68170:0:0:0:0:
448,192,68149,1,0,0:0:0:0:
192,192,68232,128,0,68295:0:0:0:0:
64,192,68274,128,0,68315:0:0:0:0:
320,192,68315,1,0,0:0:0:0:
448,192,68399,1,0,0:0:0:0:
192,192,68482,128,0,68621:0:0:0:0:
64,192,68565,128,0,68649:0:0:0:0:
448,192,68649,128,0,68815:0:0:0:0:
320,192,68704,128,0,68788:0:0:0:0:
192,192,68815,128,0,68871:0:0:0:0:
320,192,68843,128,0,68982:0:0:0:0:
64,192,68982,1,0,0:0:0:0:
448,192,68982,1,0,0:0:0:0:
64,192,69065,1,0,0:0:0:0:
320,192,69065,1,0,0:0:0:0:
64,192,69149,1,0,0:0:0:0:
320,192,69149,1,0,0:0:0:0:
448,192,69177,1,0,0:0:0:0:
192,192,69232,128,0,69343:0:0:0:0:
320,192,69315,128,0,69399:0:0:0:0:
448,192,69357,128,0,69420:0:0:0:0:
64,192,69399,128,0,69510:0:0:0:0:
192,192,69482,128,0,69565:0:0:0:0:
320,192,69524,128,0,69586:0:0:0:0:
448,192,69565,128,0,69649:0:0:0:0:
64,192,69649,1,0,0:0:0:0:
192,192,69732,1,0,0:0:0:0:
320,192,69815,128,0,69954:0:0:0:0:
448,192,69871,128,0,69982:0:0:0:0:
192,192,69982,128,0,70024:0:0:0:0:
192,192,70065,128,0,70121:0:0:0:0:
64,192,70093,128,0,70260:0:0:0:0:
320,192,70107,128,0,70295:0:0:0:0:
448,192,70121,128,0,70260:0:0:0:0:
448,192,70315,1,0,0:0:0:0:
64,192,70315,1,0,0:0:0:0:
64,192,70399,1,0,0:0:0:0:
320,192,70399,1,0,0:0:0:0:
320,192,70482,128,0,70593:0:0:0:0:
448,192,70510,1,0,0:0:0:0:
192,192,70565,128,0,70621:0:0:0:0:
64,192,70649,1,0,0:0:0:0:
448,192,70690,128,0,70732:0:0:0:0:
64,192,70732,1,0,0:0:0:0:
448,192,70815,128,0,70982:0:0:0:0:
320,192,70857,128,0,70961:0:0:0:0:
64,192,70982,1,0,0:0:0:0:
192,192,71065,1,0,0:0:0:0:
64,192,71149,128,0,71204:0:0:0:0:
320,192,71190,128,0,71253:0:0:0:0:
320,192,71295,128,0,71357:0:0:0:0:
64,192,71315,128,0,71427:0:0:0:0:
448,192,71315,128,0,71427:0:0:0:0:
192,192,71315,128,0,71454:0:0:0:0:
64,192,71482,128,0,71649:0:0:0:0:
320,192,71482,128,0,71649:0:0:0:0:
448,192,71510,128,0,71649:0:0:0:0:
64,192,71815,1,0,0:0:0:0:
320,192,71815,1,0,0:0:0:0:
192,192,71836,1,0,0:0:0:0:
448,192,71843,1,0,0:0:0:0:
192,192,71982,1,0,0:0:0:0:
64,192,71982,1,0,0:0:0:0:
192,192,72038,128,0,72093:0:0:0:0:
64,192,72038,128,0,72093:0:0:0:0:
320,192,72065,128,0,72149:0:0:0:0:
448,192,72093,128,0,72149:0:0:0:0:
64,192,72149,128,0,72204:0:0:0:0:
192,192,72204,128,0,72260:0:0:0:0:
320,192,72232,128,0,72274:0:0:0:0:
64,192,72288,128,0,72343:0:0:0:0:
448,192,72315,128,0,72399:0:0:0:0:
320,192,72371,128,0,72510:0:0:0:0:
192,192,72427,128,0,72482:0:0:0:0:
64,192,72482,128,0,72593:0:0:0:0:
320,192,72565,128,0,72607:0:0:0:0:
448,192,72593,128,0,72649:0:0:0:0:
64,192,72649,128,0,72732:0:0:0:0:
192,192,72704,128,0,72815:0:0:0:0:
320,192,72760,128,0,72815:0:0:0:0:
448,192,72815,128,0,72899:0:0:0:0:
320,192,72871,128,0,72982:0:0:0:0:
192,192,72899,128,0,72982:0:0:0:0:
64,192,72982,128,0,73038:0:0:0:0:
448,192,73024,128,0,73149:0:0:0:0:
448,192,73232,128,0,73315:0:0:0:0:
320,192,73288,128,0,73427:0:0:0:0:
192,192,73315,128,0,73399:0:0:0:0:
192,192,73649,128,0,73711:0:0:0:0:
320,192,73670,128,0,73732:0:0:0:0:
448,192,73704,128,0,73788:0:0:0:0:
320,192,73788,128,0,73871:0:0:0:0:
448,192,73871,128,0,73954:0:0:0:0:
320,192,73940,128,0,74045:0:0:0:0:
192,192,73961,128,0,74024:0:0:0:0:
64,192,73982,128,0,74121:0:0:0:0:
320,192,74093,128,0,74177:0:0:0:0:
448,192,74149,128,0,74260:0:0:0:0:
64,192,74315,128,0,74510:0:0:0:0:
320,192,74315,128,0,74593:0:0:0:0:
448,192,74357,128,0,74482:0:0:0:0:
64,192,74565,128,0,74649:0:0:0:0:
192,192,74649,128,0,74927:0:0:0:0:
320,192,74690,128,0,74815:0:0:0:0:
64,192,74982,128,0,75038:0:0:0:0:
192,192,75003,128,0,75045:0:0:0:0:
64,192,75093,128,0,75149:0:0:0:0:
64,192,75204,1,0,0:0:0:0:
320,192,75315,128,0,75593:0:0:0:0:
192,192,75315,128,0,75371:0:0:0:0:
448,192,75343,128,0,75593:0:0:0:0:
192,192,75427,128,0,75510:0:0:0:0:
64,192,75482,1,0,0:0:0:0:
64,192,75565,128,0,75649:0:0:0:0:
448,192,75649,1,0,0:0:0:0:
320,192,75649,1,0,0:0:0:0:
448,192,75815,128,0,75982:0:0:0:0:
64,192,75857,128,0,76024:0:0:0:0:
192,192,75899,128,0,76010:0:0:0:0:
320,192,75982,128,0,76093:0:0:0:0:
448,192,76038,128,0,76093:0:0:0:0:
64,192,76065,128,0,76204:0:0:0:0:
192,192,76093,128,0,76204:0:0:0:0:
448,192,76149,128,0,76274:0:0:0:0:
320,192,76170,128,0,76274:0:0:0:0:
64,192,76260,128,0,76343:0:0:0:0:
320,192,76315,1,0,0:0:0:0:
192,192,76343,1,0,0:0:0:0:
448,192,76343,1,0,0:0:0:0:
320,192,76482,128,0,76538:0:0:0:0:
448,192,76510,128,0,76593:0:0:0:0:
64,192,76545,128,0,76690:0:0:0:0:
192,192,76593,128,0,76677:0:0:0:0:
448,192,76649,128,0,76753:0:0:0:0:
320,192,76690,128,0,76732:0:0:0:0:
192,192,76732,1,0,0:0:0:0:
64,192,76753,128,0,76795:0:0:0:0:
320,192,76815,128,0,76927:0:0:0:0:
448,192,76815,128,0,76871:0:0:0:0:
64,192,76871,128,0,76982:0:0:0:0:
192,192,76927,128,0,76982:0:0:0:0:
320,192,76982,1,0,0:0:0:0:
448,192,76982,1,0,0:0:0:0:
64,192,77149,128,0,77288:0:0:0:0:
320,192,77177,128,0,77343:0:0:0:0:
448,192,77232,128,0,77315:0:0:0:0:
192,192,77315,128,0,77399:0:0:0:0:
64,192,77343,128,0,77399:0:0:0:0:
448,192,77399,128,0,77482:0:0:0:0:
320,192,77427,128,0,77482:0:0:0:0:
64,192,77482,128,0,77565:0:0:0:0:
192,192,77510,128,0,77565:0:0:0:0:
448,192,77565,128,0,77677:0:0:0:0:
192,192,77649,1,0,0:0:0:0:
64,192,77677,1,0,0:0:0:0:
320,192,77677,1,0,0:0:0:0:
64,192,77815,128,0,77871:0:0:0:0:
192,192,77843,128,0,77927:0:0:0:0:
448,192,77899,128,0,78010:0:0:0:0:
192,192,77982,128,0,78038:0:0:0:0:
320,192,78010,128,0,78065:0:0:0:0:
448,192,78065,1,0,0:0:0:0:
64,192,78093,128,0,78149:0:0:0:0:
192,192,78149,128,0,78232:0:0:0:0:
64,192,78232,128,0,78315:0:0:0:0:
448,192,78315,1,0,0:0:0:0:
320,192,78315,1,0,0:0:0:0:
64,192,78482,128,0,78524:0:0:0:0:
192,192,78510,128,0,78593:0:0:0:0:
320,192,78565,128,0,78649:0:0:0:0:
192,192,78649,128,0,78704:0:0:0:0:
448,192,78677,128,0,78732:0:0:0:0:
64,192,78732,128,0,78871:0:0:0:0:
192,192,78774,128,0,78836:0:0:0:0:
320,192,78815,128,0,78857:0:0:0:0:
64,192,78927,128,0,79010:0:0:0:0:
320,192,78982,1,0,0:0:0:0:
192,192,79010,1,0,0:0:0:0:
448,192,79010,1,0,0:0:0:0:
64,192,79093,128,0,79177:0:0:0:0:
320,192,79177,128,0,79260:0:0:0:0:
64,192,79260,128,0,79399:0:0:0:0:
192,192,79288,128,0,79343:0:0:0:0:
448,192,79399,1,0,0:0:0:0:
320,192,79427,128,0,79482:0:0:0:0:
64,192,79482,128,0,79524:0:0:0:0:
192,192,79482,128,0,79565:0:0:0:0:
448,192,79565,128,0,79649:0:0:0:0:
64,192,79649,1,0,0:0:0:0:
192,192,79649,1,0,0:0:0:0:
64,192,79815,128,0,79871:0:0:0:0:
320,192,79843,128,0,79927:0:0:0:0:
448,192,79899,128,0,79982:0:0:0:0:
192,192,79982,1,0,0:0:0:0:
64,192,80010,1,0,0:0:0:0:
448,192,80065,128,0,80149:0:0:0:0:
320,192,80093,128,0,80149:0:0:0:0:
192,192,80149,1,0,0:0:0:0:
64,192,80149,1,0,0:0:0:0:
64,192,80232,1,0,0:0:0:0:
192,192,80232,1,0,0:0:0:0:
64,192,80315,1,0,0:0:0:0:
448,192,80315,1,0,0:0:0:0:
320,192,80343,1,0,0:0:0:0:
192,192,80482,128,0,80565:0:0:0:0:
448,192,80565,128,0,80649:0:0:0:0:
192,192,80649,128,0,80711:0:0:0:0:
64,192,80690,128,0,80732:0:0:0:0:
320,192,80732,1,0,0:0:0:0:
448,192,80753,128,0,80815:0:0:0:0:
64,192,80815,128,0,80857:0:0:0:0:
64,192,80899,128,0,80940:0:0:0:0:
448,192,80899,1,0,0:0:0:0:
320,192,80982,1,0,0:0:0:0:
192,192,80982,1,0,0:0:0:0:
64,192,81149,1,0,0:0:0:0:
448,192,81177,128,0,81232:0:0:0:0:
320,192,81204,128,0,81260:0:0:0:0:
192,192,81260,128,0,81315:0:0:0:0:
64,192,81315,1,0,0:0:0:0:
448,192,81315,128,0,81427:0:0:0:0:
192,192,81399,128,0,81482:0:0:0:0:
64,192,81482,128,0,81538:0:0:0:0:
320,192,81538,1,0,0:0:0:0:
448,192,81565,128,0,81677:0:0:0:0:
192,192,81649,1,0,0:0:0:0:
64,192,81677,1,0,0:0:0:0:
320,192,81677,1,0,0:0:0:0:
320,192,81815,128,0,81899:0:0:0:0:
64,192,81899,128,0,81982:0:0:0:0:
448,192,81982,128,0,82045:0:0:0:0:
320,192,82003,128,0,82045:0:0:0:0:
64,192,82065,1,0,0:0:0:0:
192,192,82086,128,0,82149:0:0:0:0:
448,192,82149,1,0,0:0:0:0:
320,192,82149,128,0,82190:0:0:0:0:
448,192,82232,1,0,0:0:0:0:
64,192,82232,128,0,82274:0:0:0:0:
192,192,82315,1,0,0:0:0:0:
320,192,82315,1,0,0:0:0:0:
64,192,82482,1,0,0:0:0:0:
320,192,82510,128,0,82565:0:0:0:0:
192,192,82538,1,0,0:0:0:0:
448,192,82565,128,0,82628:0:0:0:0:
320,192,82649,128,0,82753:0:0:0:0:
192,192,82732,128,0,82795:0:0:0:0:
64,192,82774,128,0,82815:0:0:0:0:
320,192,82815,1,0,0:0:0:0:
448,192,82843,128,0,82927:0:0:0:0:
448,192,82982,1,0,0:0:0:0:
64,192,82982,1,0,0:0:0:0:
192,192,83010,1,0,0:0:0:0:
448,192,83149,128,0,83232:0:0:0:0:
192,192,83232,128,0,83315:0:0:0:0:
64,192,83315,128,0,83399:0:0:0:0:
320,192,83399,1,0,0:0:0:0:
448,192,83427,128,0,83482:0:0:0:0:
64,192,83482,128,0,83565:0:0:0:0:
192,192,83510,128,0,83565:0:0:0:0:
448,192,83565,128,0,83649:0:0:0:0:
320,192,83593,128,0,83649:0:0:0:0:
192,192,83649,1,0,0:0:0:0:
64,192,83649,1,0,0:0:0:0:
448,192,83815,1,0,0:0:0:0:
320,192,83843,128,0,83899:0:0:0:0:
192,192,83899,128,0,84010:0:0:0:0:
64,192,83920,128,0,84149:0:0:0:0:
320,192,83982,1,0,0:0:0:0:
448,192,84010,1,0,0:0:0:0:
192,192,84149,128,0,84232:0:0:0:0:
64,192,84232,128,0,84343:0:0:0:0:
320,192,84315,1,0,0:0:0:0:
192,192,84343,1,0,0:0:0:0:
448,192,84343,1,0,0:0:0:0:
192,192,84454,128,0,84510:0:0:0:0:
448,192,84482,128,0,84565:0:0:0:0:
192,192,84565,128,0,84649:0:0:0:0:
448,192,84649,128,0,84704:0:0:0:0:
320,192,84677,1,0,0:0:0:0:
64,192,84732,1,0,0:0:0:0:
320,192,84760,128,0,84815:0:0:0:0:
448,192,84815,128,0,84899:0:0:0:0:
64,192,84899,128,0,84982:0:0:0:0:
192,192,84927,128,0,84982:0:0:0:0:
320,192,84982,128,0,85024:0:0:0:0:
448,192,84982,128,0,85045:0:0:0:0:
320,192,85149,128,0,85190:0:0:0:0:
448,192,85149,128,0,85190:0:0:0:0:
320,192,85232,1,0,0:0:0:0:
64,192,85315,1,0,0:0:0:0:
448,192,85315,128,0,85371:0:0:0:0:
64,192,85399,1,0,0:0:0:0:
320,192,85399,128,0,85454:0:0:0:0:
64,192,85482,1,0,0:0:0:0:
192,192,85482,128,0,85524:0:0:0:0:
192,192,85565,128,0,85649:0:0:0:0:
64,192,85649,1,0,0:0:0:0:
448,192,85649,1,0,0:0:0:0:
320,192,85649,1,0,0:0:0:0:
320,192,85732,128,0,85795:0:0:0:0:
448,192,85774,128,0,85815:0:0:0:0:
192,192,85815,1,0,0:0:0:0:
64,192,85815,1,0,0:0:0:0:
448,192,85899,128,0,85961:0:0:0:0:
192,192,85982,1,0,0:0:0:0:
64,192,85982,1,0,0:0:0:0:
320,192,86065,128,0,86190:0:0:0:0:
64,192,86149,1,0,0:0:0:0:
448,192,86190,1,0,0:0:0:0:
192,192,86232,128,0,86315:0:0:0:0:
320,192,86315,1,0,0:0:0:0:
448,192,86315,1,0,0:0:0:0:
448,192,86482,128,0,86649:0:0:0:0:
64,192,86524,128,0,86690:0:0:0:0:
192,192,86565,128,0,86677:0:0:0:0:
320,192,86649,128,0,86760:0:0:0:0:
448,192,86704,128,0,86760:0:0:0:0:
64,192,86732,128,0,86871:0:0:0:0:
192,192,86760,128,0,86871:0:0:0:0:
448,192,86815,128,0,86940:0:0:0:0:
320,192,86836,128,0,86940:0:0:0:0:
64,192,86927,128,0,87010:0:0:0:0:
320,192,86982,1,0,0:0:0:0:
192,192,87010,1,0,0:0:0:0:
448,192,87010,1,0,0:0:0:0:
320,192,87149,128,0,87204:0:0:0:0:
448,192,87177,128,0,87260:0:0:0:0:
64,192,87211,128,0,87357:0:0:0:0:
192,192,87260,128,0,87343:0:0:0:0:
448,192,87315,128,0,87420:0:0:0:0:
320,192,87357,128,0,87399:0:0:0:0:
192,192,87399,1,0,0:0:0:0:
64,192,87420,128,0,87461:0:0:0:0:
320,192,87482,128,0,87593:0:0:0:0:
448,192,87482,128,0,87538:0:0:0:0:
64,192,87538,128,0,87649:0:0:0:0:
192,192,87593,128,0,87649:0:0:0:0:
320,192,87649,1,0,0:0:0:0:
448,192,87649,1,0,0:0:0:0:
64,192,87815,128,0,87954:0:0:0:0:
320,192,87843,128,0,88010:0:0:0:0:
448,192,87899,128,0,87982:0:0:0:0:
192,192,87982,128,0,88065:0:0:0:0:
64,192,88010,128,0,88065:0:0:0:0:
448,192,88065,128,0,88149:0:0:0:0:
320,192,88093,128,0,88149:0:0:0:0:
64,192,88149,128,0,88232:0:0:0:0:
192,192,88177,128,0,88232:0:0:0:0:
448,192,88232,128,0,88343:0:0:0:0:
192,192,88315,1,0,0:0:0:0:
64,192,88343,1,0,0:0:0:0:
320,192,88343,1,0,0:0:0:0:
64,192,88440,128,0,88524:0:0:0:0:
192,192,88482,128,0,88565:0:0:0:0:
448,192,88565,128,0,88677:0:0:0:0:
192,192,88649,128,0,88704:0:0:0:0:
320,192,88677,128,0,88732:0:0:0:0:
448,192,88732,1,0,0:0:0:0:
64,192,88760,128,0,88815:0:0:0:0:
192,192,88815,128,0,88899:0:0:0:0:
64,192,88899,128,0,88982:0:0:0:0:
448,192,88982,1,0,0:0:0:0:
320,192,88982,1,0,0:0:0:0:
64,192,89149,128,0,89232:0:0:0:0:
192,192,89177,128,0,89260:0:0:0:0:
320,192,89232,128,0,89315:0:0:0:0:
192,192,89315,128,0,89371:0:0:0:0:
448,192,89343,128,0,89399:0:0:0:0:
64,192,89399,128,0,89538:0:0:0:0:
192,192,89440,128,0,89503:0:0:0:0:
320,192,89482,128,0,89524:0:0:0:0:
64,192,89593,128,0,89677:0:0:0:0:
320,192,89649,1,0,0:0:0:0:
192,192,89677,1,0,0:0:0:0:
448,192,89677,1,0,0:0:0:0:
192,192,89760,128,0,89843:0:0:0:0:
448,192,89843,128,0,89927:0:0:0:0:
64,192,89927,128,0,90065:0:0:0:0:
192,192,89954,128,0,90010:0:0:0:0:
448,192,90065,1,0,0:0:0:0:
320,192,90093,128,0,90149:0:0:0:0:
64,192,90149,128,0,90190:0:0:0:0:
192,192,90149,128,0,90232:0:0:0:0:
448,192,90232,128,0,90315:0:0:0:0:
64,192,90315,1,0,0:0:0:0:
192,192,90315,1,0,0:0:0:0:
64,192,90482,128,0,90538:0:0:0:0:
320,192,90510,128,0,90593:0:0:0:0:
448,192,90565,128,0,90649:0:0:0:0:
64,192,90649,128,0,90732:0:0:0:0:
448,192,90732,128,0,90815:0:0:0:0:
320,192,90760,128,0,90815:0:0:0:0:
192,192,90815,1,0,0:0:0:0:
64,192,90815,1,0,0:0:0:0:
64,192,90899,1,0,0:0:0:0:
192,192,90899,1,0,0:0:0:0:
64,192,90982,1,0,0:0:0:0:
448,192,90982,1,0,0:0:0:0:
320,192,91010,1,0,0:0:0:0:
448,192,91093,128,0,91177:0:0:0:0:
64,192,91149,128,0,91288:0:0:0:0:
448,192,91232,128,0,91343:0:0:0:0:
192,192,91315,128,0,91378:0:0:0:0:
64,192,91357,128,0,91399:0:0:0:0:
320,192,91399,1,0,0:0:0:0:
448,192,91420,128,0,91482:0:0:0:0:
64,192,91482,128,0,91565:0:0:0:0:
448,192,91565,128,0,91649:0:0:0:0:
192,192,91649,1,0,0:0:0:0:
64,192,91649,1,0,0:0:0:0:
64,192,91815,1,0,0:0:0:0:
192,192,91857,128,0,91940:0:0:0:0:
448,192,91899,1,0,0:0:0:0:
320,192,91940,128,0,92003:0:0:0:0:
64,192,91982,1,0,0:0:0:0:
448,192,92065,128,0,92121:0:0:0:0:
320,192,92093,128,0,92149:0:0:0:0:
64,192,92149,1,0,0:0:0:0:
192,192,92177,128,0,92232:0:0:0:0:
448,192,92232,128,0,92343:0:0:0:0:
192,192,92315,1,0,0:0:0:0:
64,192,92343,1,0,0:0:0:0:
320,192,92343,1,0,0:0:0:0:
320,192,92482,1,0,0:0:0:0:
192,192,92510,128,0,92593:0:0:0:0:
64,192,92565,128,0,92677:0:0:0:0:
320,192,92649,1,0,0:0:0:0:
448,192,92677,1,0,0:0:0:0:
64,192,92732,1,0,0:0:0:0:
192,192,92760,128,0,92815:0:0:0:0:
320,192,92815,1,0,0:0:0:0:
448,192,92815,1,0,0:0:0:0:
448,192,92899,1,0,0:0:0:0:
192,192,92982,1,0,0:0:0:0:
320,192,92982,1,0,0:0:0:0:
64,192,93149,1,0,0:0:0:0:
320,192,93190,128,0,93274:0:0:0:0:
192,192,93232,128,0,93288:0:0:0:0:
64,192,93274,128,0,93315:0:0:0:0:
448,192,93315,1,0,0:0:0:0:
320,192,93336,128,0,93399:0:0:0:0:
64,192,93399,128,0,93461:0:0:0:0:
192,192,93440,128,0,93524:0:0:0:0:
320,192,93482,1,0,0:0:0:0:
448,192,93503,128,0,93586:0:0:0:0:
64,192,93593,128,0,93677:0:0:0:0:
320,192,93649,1,0,0:0:0:0:
192,192,93677,1,0,0:0:0:0:
448,192,93677,1,0,0:0:0:0:
192,192,93815,128,0,93899:0:0:0:0:
448,192,93899,1,0,0:0:0:0:
64,192,93927,128,0,94010:0:0:0:0:
320,192,93982,128,0,94038:0:0:0:0:
448,192,94003,128,0,94045:0:0:0:0:
64,192,94065,1,0,0:0:0:0:
192,192,94093,128,0,94149:0:0:0:0:
448,192,94149,128,0,94315:0:0:0:0:
320,192,94149,1,0,0:0:0:0:
192,192,94315,1,0,0:0:0:0:
64,192,94315,1,0,0:0:0:0:
448,192,94482,1,0,0:0:0:0:
320,192,94538,128,0,94593:0:0:0:0:
192,192,94565,128,0,94649:0:0:0:0:
448,192,94649,1,0,0:0:0:0:
64,192,94704,128,0,94788:0:0:0:0:
192,192,94760,128,0,94899:0:0:0:0:
320,192,94815,1,0,0:0:0:0:
448,192,94899,128,0,95010:0:0:0:0:
192,192,94982,1,0,0:0:0:0:
320,192,95010,1,0,0:0:0:0:
64,192,95010,1,0,0:0:0:0:
320,192,95149,128,0,95204:0:0:0:0:
448,192,95177,1,0,0:0:0:0:
192,192,95232,128,0,95315:0:0:0:0:
320,192,95315,1,0,0:0:0:0:
448,192,95343,128,0,95399:0:0:0:0:
192,192,95399,1,0,0:0:0:0:
64,192,95420,128,0,95482:0:0:0:0:
448,192,95482,128,0,95565:0:0:0:0:
320,192,95510,128,0,95593:0:0:0:0:
64,192,95565,128,0,95649:0:0:0:0:
192,192,95593,128,0,95649:0:0:0:0:
320,192,95649,128,0,95690:0:0:0:0:
448,192,95649,128,0,95711:0:0:0:0:
320,192,95815,128,0,95857:0:0:0:0:
448,192,95815,128,0,95857:0:0:0:0:
320,192,95899,1,0,0:0:0:0:
64,192,95982,1,0,0:0:0:0:
448,192,95982,128,0,96038:0:0:0:0:
64,192,96065,1,0,0:0:0:0:
320,192,96065,128,0,96121:0:0:0:0:
64,192,96149,1,0,0:0:0:0:
192,192,96149,128,0,96190:0:0:0:0:
192,192,96232,128,0,96315:0:0:0:0:
64,192,96315,1,0,0:0:0:0:
448,192,96315,1,0,0:0:0:0:
320,192,96315,1,0,0:0:0:0:
320,192,96399,128,0,96461:0:0:0:0:
448,192,96440,128,0,96482:0:0:0:0:
192,192,96482,1,0,0:0:0:0:
64,192,96482,1,0,0:0:0:0:
448,192,96565,128,0,96628:0:0:0:0:
192,192,96649,1,0,0:0:0:0:
64,192,96649,1,0,0:0:0:0:
320,192,96732,128,0,96857:0:0:0:0:
64,192,96815,1,0,0:0:0:0:
448,192,96857,1,0,0:0:0:0:
192,192,96899,128,0,96982:0:0:0:0:
448,192,96982,1,0,0:0:0:0:
320,192,96982,128,0,97045:0:0:0:0:
320,192,97149,128,0,97190:0:0:0:0:
320,192,97232,1,0,0:0:0:0:
64,192,97315,1,0,0:0:0:0:
448,192,97315,128,0,97371:0:0:0:0:
64,192,97399,1,0,0:0:0:0:
320,192,97399,128,0,97440:0:0:0:0:
64,192,97482,1,0,0:0:0:0:
192,192,97482,128,0,97524:0:0:0:0:
192,192,97565,128,0,97649:0:0:0:0:
64,192,97649,1,0,0:0:0:0:
448,192,97649,1,0,0:0:0:0:
320,192,97649,1,0,0:0:0:0:
320,192,97732,128,0,97815:0:0:0:0:
448,192,97774,128,0,97815:0:0:0:0:
64,192,97815,1,0,0:0:0:0:
192,192,97815,128,0,97899:0:0:0:0:
448,192,97899,128,0,97982:0:0:0:0:
192,192,97982,1,0,0:0:0:0:
64,192,97982,1,0,0:0:0:0:
320,192,98065,128,0,98170:0:0:0:0:
192,192,98149,1,0,0:0:0:0:
64,192,98170,1,0,0:0:0:0:
448,192,98232,128,0,98315:0:0:0:0:
64,192,98315,1,0,0:0:0:0:
192,192,98315,128,0,98399:0:0:0:0:
320,192,98399,1,0,0:0:0:0:
320,192,98482,128,0,98524:0:0:0:0:
192,192,98565,1,0,0:0:0:0:
64,192,98565,1,0,0:0:0:0:
64,192,98649,128,0,98704:0:0:0:0:
448,192,98649,1,0,0:0:0:0:
192,192,98732,128,0,98788:0:0:0:0:
448,192,98732,1,0,0:0:0:0:
320,192,98815,128,0,98857:0:0:0:0:
448,192,98815,1,0,0:0:0:0:
320,192,98899,128,0,98982:0:0:0:0:
192,192,98982,1,0,0:0:0:0:
64,192,98982,1,0,0:0:0:0:
448,192,98982,1,0,0:0:0:0:
192,192,99065,128,0,99149:0:0:0:0:
64,192,99107,128,0,99149:0:0:0:0:
448,192,99149,1,0,0:0:0:0:
320,192,99149,1,0,0:0:0:0:
448,192,99232,1,0,0:0:0:0:
192,192,99315,1,0,0:0:0:0:
64,192,99315,1,0,0:0:0:0:
448,192,99399,128,0,99482:0:0:0:0:
192,192,99482,1,0,0:0:0:0:
64,192,99503,1,0,0:0:0:0:
448,192,99565,1,0,0:0:0:0:
192,192,99649,1,0,0:0:0:0:
64,192,99649,1,0,0:0:0:0:
64,192,99732,1,0,0:0:0:0:
192,192,99815,1,0,0:0:0:0:
320,192,99899,1,0,0:0:0:0:
448,192,99899,1,0,0:0:0:0:
448,192,99982,128,0,100038:0:0:0:0:
64,192,99982,1,0,0:0:0:0:
64,192,100065,1,0,0:0:0:0:
320,192,100065,128,0,100121:0:0:0:0:
192,192,100149,128,0,100190:0:0:0:0:
64,192,100149,1,0,0:0:0:0:
192,192,100232,128,0,100315:0:0:0:0:
320,192,100315,1,0,0:0:0:0:
64,192,100399,128,0,100440:0:0:0:0:
192,192,100440,1,0,0:0:0:0:
320,192,100482,1,0,0:0:0:0:
448,192,100482,1,0,0:0:0:0:
320,192,100565,1,0,0:0:0:0:
448,192,100593,1,0,0:0:0:0:
192,192,100649,1,0,0:0:0:0:
320,192,100732,128,0,100815:0:0:0:0:
192,192,100815,1,0,0:0:0:0:
448,192,100899,128,0,100954:0:0:0:0:
192,192,100982,128,0,101149:0:0:0:0:
64,192,100982,128,0,101170:0:0:0:0:
320,192,101045,128,0,101128:0:0:0:0:
448,192,101065,128,0,101211:0:0:0:0:
320,192,101177,128,0,101232:0:0:0:0:
192,192,101204,128,0,101260:0:0:0:0:
192,192,101315,128,0,101482:0:0:0:0:
64,192,101371,128,0,101621:0:0:0:0:
192,192,101538,128,0,101677:0:0:0:0:
64,192,101677,128,0,101788:0:0:0:0:
192,192,101732,128,0,101815:0:0:0:0:
320,192,101760,128,0,101843:0:0:0:0:
448,192,101815,128,0,101899:0:0:0:0:
320,192,101899,128,0,101940:0:0:0:0:
192,192,101940,128,0,102003:0:0:0:0:
64,192,101982,1,0,0:0:0:0:
448,192,101982,1,0,0:0:0:0:
320,192,102003,128,0,102107:0:0:0:0:
192,192,102045,1,0,0:0:0:0:
320,192,102315,128,0,102371:0:0:0:0:
192,192,102315,128,0,102371:0:0:0:0:
64,192,102315,128,0,102371:0:0:0:0:
448,192,102482,1,0,0:0:0:0:
192,192,102482,128,0,102621:0:0:0:0:
64,192,102510,128,0,102649:0:0:0:0:
320,192,102593,128,0,102649:0:0:0:0:
448,192,102649,1,0,0:0:0:0:
192,192,102677,128,0,102815:0:0:0:0:
64,192,102704,128,0,102788:0:0:0:0:
320,192,102788,128,0,102843:0:0:0:0:
448,192,102815,1,0,0:0:0:0:
64,192,102843,128,0,102927:0:0:0:0:
192,192,102871,128,0,102927:0:0:0:0:
320,192,102927,128,0,102982:0:0:0:0:
192,192,102982,1,0,0:0:0:0:
64,192,102982,1,0,0:0:0:0:
448,192,103010,1,0,0:0:0:0:
192,192,103121,128,0,103177:0:0:0:0:
64,192,103204,128,0,103343:0:0:0:0:
192,192,103232,128,0,103343:0:0:0:0:
448,192,103315,1,0,0:0:0:0:
448,192,103371,1,0,0:0:0:0:
320,192,103399,1,0,0:0:0:0:
64,192,103427,128,0,103482:0:0:0:0:
320,192,103482,1,0,0:0:0:0:
192,192,103510,128,0,103593:0:0:0:0:
64,192,103538,128,0,103593:0:0:0:0:
448,192,103621,128,0,103677:0:0:0:0:
64,192,103649,128,0,103704:0:0:0:0:
192,192,103649,128,0,103704:0:0:0:0:
320,192,103649,128,0,103704:0:0:0:0:
320,192,103815,128,0,103927:0:0:0:0:
192,192,103843,128,0,103954:0:0:0:0:
320,192,103982,128,0,104093:0:0:0:0:
64,192,103982,1,0,0:0:0:0:
448,192,104010,128,0,104121:0:0:0:0:
320,192,104149,128,0,104232:0:0:0:0:
64,192,104149,1,0,0:0:0:0:
448,192,104177,128,0,104260:0:0:0:0:
192,192,104260,1,0,0:0:0:0:
448,192,104315,1,0,0:0:0:0:
320,192,104315,1,0,0:0:0:0:
64,192,104315,1,0,0:0:0:0:
448,192,104427,1,0,0:0:0:0:
320,192,104454,1,0,0:0:0:0:
64,192,104482,128,0,104593:0:0:0:0:
192,192,104510,128,0,104677:0:0:0:0:
64,192,104649,128,0,104732:0:0:0:0:
320,192,104677,128,0,104760:0:0:0:0:
192,192,104732,1,0,0:0:0:0:
448,192,104760,128,0,104927:0:0:0:0:
64,192,104815,128,0,104982:0:0:0:0:
192,192,104982,128,0,105038:0:0:0:0:
320,192,104982,128,0,105038:0:0:0:0:
448,192,104982,128,0,105038:0:0:0:0:
64,192,105149,1,0,0:0:0:0:
320,192,105149,128,0,105260:0:0:0:0:
448,192,105177,128,0,105288:0:0:0:0:
192,192,105260,128,0,105315:0:0:0:0:
320,192,105315,128,0,105427:0:0:0:0:
64,192,105315,128,0,105357:0:0:0:0:
64,192,105399,128,0,105482:0:0:0:0:
192,192,105399,128,0,105482:0:0:0:0:
320,192,105482,128,0,105593:0:0:0:0:
448,192,105510,128,0,105593:0:0:0:0:
192,192,105593,1,0,0:0:0:0:
64,192,105649,1,0,0:0:0:0:
448,192,105649,1,0,0:0:0:0:
320,192,105649,1,0,0:0:0:0:
320,192,105788,128,0,105899:0:0:0:0:
448,192,105815,128,0,105899:0:0:0:0:
64,192,105871,128,0,105982:0:0:0:0:
192,192,105899,128,0,105982:0:0:0:0:
320,192,105982,128,0,106038:0:0:0:0:
448,192,106003,128,0,106045:0:0:0:0:
64,192,106065,1,0,0:0:0:0:
192,192,106086,1,0,0:0:0:0:
448,192,106093,128,0,106149:0:0:0:0:
320,192,106093,128,0,106149:0:0:0:0:
192,192,106149,128,0,106260:0:0:0:0:
64,192,106149,128,0,106260:0:0:0:0:
448,192,106232,128,0,106315:0:0:0:0:
192,192,106315,128,0,106371:0:0:0:0:
320,192,106315,128,0,106371:0:0:0:0:
64,192,106315,128,0,106371:0:0:0:0:
320,192,106482,128,0,106593:0:0:0:0:
448,192,106510,128,0,106621:0:0:0:0:
192,192,106593,128,0,106649:0:0:0:0:
64,192,106649,1,0,0:0:0:0:
320,192,106649,128,0,106760:0:0:0:0:
448,192,106704,128,0,106760:0:0:0:0:
64,192,106760,128,0,106815:0:0:0:0:
192,192,106788,1,0,0:0:0:0:
320,192,106815,1,0,0:0:0:0:
448,192,106815,1,0,0:0:0:0:
320,192,106899,1,0,0:0:0:0:
448,192,106899,1,0,0:0:0:0:
448,192,106982,128,0,107038:0:0:0:0:
64,192,106982,128,0,107065:0:0:0:0:
192,192,106982,128,0,107045:0:0:0:0:
320,192,107149,1,0,0:0:0:0:
448,192,107149,1,0,0:0:0:0:
320,192,107232,1,0,0:0:0:0:
448,192,107232,1,0,0:0:0:0:
192,192,107315,1,0,0:0:0:0:
64,192,107315,1,0,0:0:0:0:
192,192,107399,1,0,0:0:0:0:
64,192,107399,1,0,0:0:0:0:
320,192,107440,1,0,0:0:0:0:
64,192,107482,1,0,0:0:0:0:
448,192,107482,1,0,0:0:0:0:
448,192,107565,1,0,0:0:0:0:
320,192,107649,128,0,107704:0:0:0:0:
192,192,107649,128,0,107704:0:0:0:0:
64,192,107649,128,0,107704:0:0:0:0:
448,192,107815,1,0,0:0:0:0:
192,192,107815,128,0,107954:0:0:0:0:
64,192,107843,128,0,107982:0:0:0:0:
320,192,107927,128,0,107982:0:0:0:0:
448,192,107982,1,0,0:0:0:0:
192,192,108010,128,0,108149:0:0:0:0:
64,192,108038,128,0,108121:0:0:0:0:
320,192,108121,128,0,108177:0:0:0:0:
448,192,108149,1,0,0:0:0:0:
64,192,108177,128,0,108260:0:0:0:0:
192,192,108204,128,0,108260:0:0:0:0:
320,192,108260,128,0,108315:0:0:0:0:
192,192,108315,1,0,0:0:0:0:
64,192,108315,1,0,0:0:0:0:
448,192,108343,1,0,0:0:0:0:
192,192,108454,128,0,108510:0:0:0:0:
64,192,108538,128,0,108677:0:0:0:0:
192,192,108565,128,0,108677:0:0:0:0:
448,192,108649,1,0,0:0:0:0:
448,192,108704,1,0,0:0:0:0:
320,192,108732,128,0,108899:0:0:0:0:
64,192,108760,128,0,108815:0:0:0:0:
192,192,108843,128,0,108927:0:0:0:0:
64,192,108871,128,0,108927:0:0:0:0:
448,192,108954,128,0,109010:0:0:0:0:
64,192,108982,128,0,109038:0:0:0:0:
192,192,108982,128,0,109038:0:0:0:0:
320,192,108982,128,0,109024:0:0:0:0:
192,192,109093,128,0,109315:0:0:0:0:
320,192,109177,128,0,109260:0:0:0:0:
448,192,109204,128,0,109288:0:0:0:0:
320,192,109315,128,0,109427:0:0:0:0:
448,192,109343,128,0,109454:0:0:0:0:
64,192,109399,128,0,109565:0:0:0:0:
320,192,109482,128,0,109565:0:0:0:0:
448,192,109510,128,0,109593:0:0:0:0:
192,192,109593,1,0,0:0:0:0:
448,192,109649,1,0,0:0:0:0:
320,192,109649,1,0,0:0:0:0:
64,192,109649,1,0,0:0:0:0:
448,192,109760,1,0,0:0:0:0:
320,192,109788,1,0,0:0:0:0:
64,192,109815,128,0,109927:0:0:0:0:
192,192,109843,128,0,110010:0:0:0:0:
64,192,109982,128,0,110065:0:0:0:0:
320,192,110010,128,0,110093:0:0:0:0:
192,192,110065,1,0,0:0:0:0:
448,192,110093,128,0,110260:0:0:0:0:
64,192,110149,128,0,110315:0:0:0:0:
448,192,110315,128,0,110371:0:0:0:0:
320,192,110315,128,0,110371:0:0:0:0:
192,192,110315,128,0,110371:0:0:0:0:
64,192,110371,128,0,110454:0:0:0:0:
192,192,110427,128,0,110510:0:0:0:0:
320,192,110482,128,0,110593:0:0:0:0:
448,192,110538,128,0,110621:0:0:0:0:
192,192,110593,128,0,110649:0:0:0:0:
320,192,110649,128,0,110760:0:0:0:0:
64,192,110649,128,0,110690:0:0:0:0:
64,192,110732,128,0,110815:0:0:0:0:
192,192,110760,128,0,110843:0:0:0:0:
320,192,110815,128,0,110927:0:0:0:0:
448,192,110871,128,0,110927:0:0:0:0:
192,192,110927,1,0,0:0:0:0:
448,192,110982,1,0,0:0:0:0:
320,192,110982,128,0,111038:0:0:0:0:
64,192,110982,128,0,111121:0:0:0:0:
192,192,111093,128,0,111177:0:0:0:0:
320,192,111149,128,0,111204:0:0:0:0:
448,192,111177,128,0,111260:0:0:0:0:
192,192,111232,128,0,111288:0:0:0:0:
64,192,111260,128,0,111399:0:0:0:0:
448,192,111315,128,0,111371:0:0:0:0:
320,192,111399,128,0,111454:0:0:0:0:
192,192,111420,128,0,111461:0:0:0:0:
448,192,111427,1,0,0:0:0:0:
64,192,111454,128,0,111538:0:0:0:0:
192,192,111510,128,0,111565:0:0:0:0:
320,192,111538,128,0,111593:0:0:0:0:
448,192,111593,128,0,111649:0:0:0:0:
192,192,111649,128,0,111704:0:0:0:0:
320,192,111649,128,0,111704:0:0:0:0:
64,192,111649,128,0,111704:0:0:0:0:
192,192,111815,1,0,0:0:0:0:
320,192,111815,128,0,111899:0:0:0:0:
448,192,111857,128,0,111920:0:0:0:0:
64,192,111899,128,0,111954:0:0:0:0:
192,192,111940,128,0,111982:0:0:0:0:
320,192,111982,128,0,112065:0:0:0:0:
448,192,112010,128,0,112093:0:0:0:0:
192,192,112065,128,0,112149:0:0:0:0:
64,192,112107,128,0,112170:0:0:0:0:
448,192,112149,1,0,0:0:0:0:
320,192,112149,128,0,112260:0:0:0:0:
192,192,112232,128,0,112288:0:0:0:0:
64,192,112315,1,0,0:0:0:0:
448,192,112315,1,0,0:0:0:0:
320,192,112315,1,0,0:0:0:0:
320,192,112440,128,0,112503:0:0:0:0:
64,192,112482,1,0,0:0:0:0:
192,192,112482,128,0,112565:0:0:0:0:
448,192,112565,128,0,112649:0:0:0:0:
64,192,112565,1,0,0:0:0:0:
192,192,112649,1,0,0:0:0:0:
448,192,112732,128,0,112774:0:0:0:0:
320,192,112760,128,0,112815:0:0:0:0:
192,192,112815,128,0,112871:0:0:0:0:
64,192,112815,1,0,0:0:0:0:
448,192,112871,128,0,112927:0:0:0:0:
64,192,112899,1,0,0:0:0:0:
320,192,112940,128,0,112982:0:0:0:0:
192,192,112982,128,0,113038:0:0:0:0:
64,192,112982,128,0,113038:0:0:0:0:
320,192,113065,128,0,113121:0:0:0:0:
192,192,113149,128,0,113288:0:0:0:0:
448,192,113149,128,0,113204:0:0:0:0:
64,192,113177,128,0,113315:0:0:0:0:
320,192,113232,128,0,113315:0:0:0:0:
448,192,113315,1,0,0:0:0:0:
192,192,113343,128,0,113427:0:0:0:0:
64,192,113399,128,0,113454:0:0:0:0:
320,192,113454,128,0,113510:0:0:0:0:
448,192,113482,128,0,113538:0:0:0:0:
64,192,113510,128,0,113593:0:0:0:0:
192,192,113538,128,0,113593:0:0:0:0:
320,192,113593,128,0,113649:0:0:0:0:
192,192,113649,1,0,0:0:0:0:
64,192,113649,1,0,0:0:0:0:
448,192,113677,1,0,0:0:0:0:
320,192,113732,128,0,113788:0:0:0:0:
192,192,113788,128,0,113843:0:0:0:0:
64,192,113871,128,0,114010:0:0:0:0:
192,192,113899,128,0,114010:0:0:0:0:
448,192,113982,128,0,114038:0:0:0:0:
320,192,114065,128,0,114121:0:0:0:0:
64,192,114093,128,0,114149:0:0:0:0:
192,192,114149,128,0,114260:0:0:0:0:
64,192,114204,128,0,114260:0:0:0:0:
448,192,114232,128,0,114315:0:0:0:0:
64,192,114315,128,0,114371:0:0:0:0:
192,192,114315,128,0,114371:0:0:0:0:
320,192,114315,128,0,114371:0:0:0:0:
448,192,114399,128,0,114454:0:0:0:0:
192,192,114482,128,0,114593:0:0:0:0:
320,192,114510,128,0,114621:0:0:0:0:
64,192,114565,128,0,114621:0:0:0:0:
192,192,114649,128,0,114760:0:0:0:0:
448,192,114649,1,0,0:0:0:0:
64,192,114677,128,0,114788:0:0:0:0:
320,192,114732,128,0,114815:0:0:0:0:
448,192,114815,1,0,0:0:0:0:
192,192,114815,128,0,114927:0:0:0:0:
320,192,114899,128,0,114982:0:0:0:0:
64,192,114982,1,0,0:0:0:0:
192,192,114982,1,0,0:0:0:0:
448,192,114982,1,0,0:0:0:0:
320,192,115065,128,0,115121:0:0:0:0:
64,192,115149,128,0,115260:0:0:0:0:
192,192,115177,128,0,115343:0:0:0:0:
448,192,115232,128,0,115288:0:0:0:0:
64,192,115315,128,0,115399:0:0:0:0:
320,192,115343,128,0,115427:0:0:0:0:
192,192,115399,1,0,0:0:0:0:
448,192,115427,128,0,115593:0:0:0:0:
64,192,115482,128,0,115649:0:0:0:0:
320,192,115649,128,0,115704:0:0:0:0:
192,192,115649,128,0,115704:0:0:0:0:
448,192,115649,128,0,115760:0:0:0:0:
64,192,115732,128,0,115788:0:0:0:0:
192,192,115815,128,0,115899:0:0:0:0:
320,192,115857,128,0,115920:0:0:0:0:
448,192,115899,128,0,115961:0:0:0:0:
64,192,115982,128,0,116093:0:0:0:0:
320,192,115982,128,0,116038:0:0:0:0:
192,192,116038,128,0,116121:0:0:0:0:
320,192,116149,128,0,116260:0:0:0:0:
448,192,116204,128,0,116260:0:0:0:0:
192,192,116232,128,0,116288:0:0:0:0:
320,192,116315,1,0,0:0:0:0:
64,192,116315,128,0,116399:0:0:0:0:
448,192,116315,128,0,116399:0:0:0:0:
192,192,116371,128,0,116454:0:0:0:0:
320,192,116454,128,0,116565:0:0:0:0:
448,192,116482,128,0,116565:0:0:0:0:
64,192,116538,128,0,116649:0:0:0:0:
192,192,116565,128,0,116649:0:0:0:0:
320,192,116649,128,0,116704:0:0:0:0:
448,192,116677,128,0,116843:0:0:0:0:
320,192,116760,128,0,116815:0:0:0:0:
192,192,116815,128,0,116927:0:0:0:0:
64,192,116843,128,0,116899:0:0:0:0:
320,192,116871,128,0,116954:0:0:0:0:
448,192,116927,128,0,116982:0:0:0:0:
192,192,116982,128,0,117038:0:0:0:0:
64,192,116982,128,0,117038:0:0:0:0:
320,192,117038,128,0,117093:0:0:0:0:
448,192,117065,128,0,117121:0:0:0:0:
192,192,117149,128,0,117315:0:0:0:0:
64,192,117177,128,0,117260:0:0:0:0:
320,192,117232,128,0,117288:0:0:0:0:
448,192,117315,128,0,117399:0:0:0:0:
64,192,117343,128,0,117454:0:0:0:0:
192,192,117371,128,0,117454:0:0:0:0:
320,192,117482,1,0,0:0:0:0:
448,192,117482,1,0,0:0:0:0:
320,192,117565,1,0,0:0:0:0:
448,192,117565,1,0,0:0:0:0:
64,192,117649,128,0,117704:0:0:0:0:
192,192,117649,128,0,117732:0:0:0:0:
320,192,117732,128,0,117788:0:0:0:0:
448,192,117760,128,0,117815:0:0:0:0:
192,192,117815,128,0,117871:0:0:0:0:
64,192,117857,128,0,117940:0:0:0:0:
448,192,117899,128,0,117982:0:0:0:0:
320,192,117940,128,0,117982:0:0:0:0:
192,192,117982,128,0,118121:0:0:0:0:
64,192,118010,128,0,118177:0:0:0:0:
448,192,118065,128,0,118204:0:0:0:0:
320,192,118149,128,0,118260:0:0:0:0:
192,192,118232,128,0,118315:0:0:0:0:
64,192,118260,128,0,118315:0:0:0:0:
320,192,118315,128,0,118357:0:0:0:0:
448,192,118315,128,0,118378:0:0:0:0:
320,192,118399,128,0,118482:0:0:0:0:
448,192,118427,128,0,118510:0:0:0:0:
64,192,118482,128,0,118538:0:0:0:0:
192,192,118538,128,0,118593:0:0:0:0:
320,192,118565,128,0,118649:0:0:0:0:
192,192,118649,128,0,118690:0:0:0:0:
64,192,118649,128,0,118711:0:0:0:0:
448,192,118649,128,0,118760:0:0:0:0:
192,192,118732,128,0,118815:0:0:0:0:
64,192,118760,128,0,118843:0:0:0:0:
448,192,118815,128,0,118871:0:0:0:0:
320,192,118871,128,0,118927:0:0:0:0:
64,192,118899,128,0,118961:0:0:0:0:
192,192,118927,128,0,118982:0:0:0:0:
320,192,118982,128,0,119024:0:0:0:0:
448,192,118982,128,0,119045:0:0:0:0:
320,192,119065,128,0,119149:0:0:0:0:
448,192,119093,128,0,119177:0:0:0:0:
64,192,119149,128,0,119204:0:0:0:0:
192,192,119204,128,0,119260:0:0:0:0:
320,192,119232,128,0,119315:0:0:0:0:
64,192,119315,128,0,119378:0:0:0:0:
192,192,119315,128,0,119357:0:0:0:0:
448,192,119315,128,0,119427:0:0:0:0:
192,192,119399,128,0,119482:0:0:0:0:
64,192,119427,128,0,119510:0:0:0:0:
320,192,119482,128,0,119565:0:0:0:0:
448,192,119538,128,0,119593:0:0:0:0:
192,192,119565,128,0,119621:0:0:0:0:
64,192,119593,128,0,119677:0:0:0:0:
320,192,119649,128,0,119690:0:0:0:0:
448,192,119649,128,0,119711:0:0:0:0:
320,192,119732,128,0,119815:0:0:0:0:
448,192,119760,128,0,119843:0:0:0:0:
64,192,119815,128,0,119871:0:0:0:0:
192,192,119871,128,0,119927:0:0:0:0:
320,192,119899,128,0,119982:0:0:0:0:
192,192,119982,128,0,120024:0:0:0:0:
64,192,119982,128,0,120045:0:0:0:0:
448,192,119982,128,0,120093:0:0:0:0:
64,192,120093,128,0,120204:0:0:0:0:
192,192,120149,128,0,120260:0:0:0:0:
320,192,120232,128,0,120315:0:0:0:0:
64,192,120315,1,0,0:0:0:0:
448,192,120315,128,0,120461:0:0:0:0:
64,192,120461,128,0,120628:0:0:0:0:
320,192,120565,128,0,120628:0:0:0:0:
448,192,120607,128,0,120649:0:0:0:0:
448,192,120690,128,0,120753:0:0:0:0:
320,192,120732,128,0,120774:0:0:0:0:
64,192,120815,128,0,120857:0:0:0:0:
320,192,120815,128,0,120899:0:0:0:0:
192,192,120899,128,0,120940:0:0:0:0:
320,192,120982,128,0,121065:0:0:0:0:
448,192,120982,128,0,121045:0:0:0:0:
64,192,121038,128,0,121121:0:0:0:0:
192,192,121121,1,0,0:0:0:0:
448,192,121149,128,0,121232:0:0:0:0:
320,192,121204,128,0,121260:0:0:0:0:
192,192,121232,1,0,0:0:0:0:
64,192,121232,1,0,0:0:0:0:
64,192,121315,128,0,121482:0:0:0:0:
192,192,121427,1,0,0:0:0:0:
448,192,121482,1,0,0:0:0:0:
320,192,121482,128,0,121565:0:0:0:0:
192,192,121565,128,0,121649:0:0:0:0:
448,192,121649,128,0,121732:0:0:0:0:
320,192,121704,128,0,121760:0:0:0:0:
192,192,121732,1,0,0:0:0:0:
64,192,121732,1,0,0:0:0:0:
64,192,121815,128,0,121982:0:0:0:0:
192,192,121927,1,0,0:0:0:0:
320,192,121982,128,0,122065:0:0:0:0:
448,192,121982,128,0,122045:0:0:0:0:
64,192,122038,128,0,122121:0:0:0:0:
192,192,122121,1,0,0:0:0:0:
448,192,122149,128,0,122232:0:0:0:0:
320,192,122204,128,0,122260:0:0:0:0:
64,192,122232,1,0,0:0:0:0:
192,192,122232,128,0,122288:0:0:0:0:
64,192,122315,128,0,122454:0:0:0:0:
192,192,122427,1,0,0:0:0:0:
320,192,122482,128,0,122565:0:0:0:0:
448,192,122482,1,0,0:0:0:0:
192,192,122565,128,0,122649:0:0:0:0:
448,192,122649,128,0,122732:0:0:0:0:
320,192,122704,128,0,122760:0:0:0:0:
64,192,122732,1,0,0:0:0:0:
192,192,122732,128,0,122788:0:0:0:0:
64,192,122815,128,0,122982:0:0:0:0:
192,192,122927,1,0,0:0:0:0:
448,192,122982,1,0,0:0:0:0:
320,192,122982,128,0,123065:0:0:0:0:
192,192,123065,128,0,123149:0:0:0:0:
448,192,123149,128,0,123232:0:0:0:0:
64,192,123232,128,0,123295:0:0:0:0:
192,192,123274,128,0,123315:0:0:0:0:
448,192,123315,128,0,123538:0:0:0:0:
320,192,123315,128,0,123510:0:0:0:0:
320,192,123565,128,0,123677:0:0:0:0:
448,192,123593,128,0,123649:0:0:0:0:
64,192,123649,1,0,0:0:0:0:
192,192,123704,1,0,0:0:0:0:
192,192,123760,1,0,0:0:0:0:
448,192,123815,1,0,0:0:0:0:
448,192,123871,1,0,0:0:0:0:
320,192,123927,1,0,0:0:0:0:
192,192,123982,1,0,0:0:0:0:
64,192,123982,1,0,0:0:0:0:
448,192,124204,1,0,0:0:0:0:
64,192,124315,128,0,124677:0:0:0:0:
320,192,124427,1,0,0:0:0:0:
320,192,124538,1,0,0:0:0:0:
192,192,124649,128,0,124704:0:0:0:0:
448,192,124690,128,0,124753:0:0:0:0:
320,192,124732,128,0,124788:0:0:0:0:
64,192,124760,1,0,0:0:0:0:
448,192,124815,128,0,124954:0:0:0:0:
64,192,124871,1,0,0:0:0:0:
448,192,125003,128,0,125065:0:0:0:0:
320,192,125045,128,0,125086:0:0:0:0:
64,192,125093,1,0,0:0:0:0:
320,192,125128,128,0,125190:0:0:0:0:
64,192,125204,128,0,125704:0:0:0:0:
320,192,125315,1,0,0:0:0:0:
320,192,125427,1,0,0:0:0:0:
192,192,125482,128,0,125927:0:0:0:0:
448,192,125538,1,0,0:0:0:0:
448,192,125760,1,0,0:0:0:0:
448,192,125871,1,0,0:0:0:0:
320,192,125899,128,0,125954:0:0:0:0:
64,192,125954,128,0,126038:0:0:0:0:
192,192,125982,1,0,0:0:0:0:
320,192,126038,128,0,126149:0:0:0:0:
448,192,126065,128,0,126121:0:0:0:0:
192,192,126093,1,0,0:0:0:0:
64,192,126149,128,0,126232:0:0:0:0:
192,192,126204,128,0,126260:0:0:0:0:
320,192,126232,128,0,126315:0:0:0:0:
448,192,126315,128,0,126677:0:0:0:0:
64,192,126427,1,0,0:0:0:0:
64,192,126538,1,0,0:0:0:0:
192,192,126649,128,0,126732:0:0:0:0:
320,192,126704,128,0,126760:0:0:0:0:
448,192,126732,128,0,126788:0:0:0:0:
64,192,126788,128,0,126843:0:0:0:0:
192,192,126815,128,0,126871:0:0:0:0:
320,192,126871,128,0,126927:0:0:0:0:
448,192,126899,128,0,126954:0:0:0:0:
192,192,126954,128,0,127010:0:0:0:0:
64,192,126982,128,0,127038:0:0:0:0:
64,192,127093,128,0,127260:0:0:0:0:
192,192,127204,128,0,127371:0:0:0:0:
64,192,127315,128,0,127704:0:0:0:0:
320,192,127427,128,0,127621:0:0:0:0:
192,192,127538,128,0,127843:0:0:0:0:
448,192,127649,128,0,127788:0:0:0:0:
320,192,127704,128,0,128232:0:0:0:0:
64,192,127760,128,0,127927:0:0:0:0:
192,192,127899,128,0,128038:0:0:0:0:
448,192,128065,128,0,128288:0:0:0:0:
448,192,128343,128,0,128454:0:0:0:0:
320,192,128399,128,0,128482:0:0:0:0:
192,192,128565,128,0,128704:0:0:0:0:
64,192,128649,128,0,128760:0:0:0:0:
192,192,128760,128,0,128815:0:0:0:0:
320,192,128774,128,0,128836:0:0:0:0:
448,192,128788,128,0,129149:0:0:0:0:
320,192,129177,128,0,129288:0:0:0:0:
192,192,129232,128,0,129399:0:0:0:0:
64,192,129315,128,0,129482:0:0:0:0:
448,192,129427,128,0,129510:0:0:0:0:
320,192,129510,128,0,129593:0:0:0:0:
192,192,129538,128,0,129677:0:0:0:0:
448,192,129649,128,0,129788:0:0:0:0:
320,192,129677,128,0,129843:0:0:0:0:
