osu file format v14

[General]
AudioFilename: audio.mp3
AudioLeadIn: 0
PreviewTime: 19633
Countdown: 0
SampleSet: Normal
StackLeniency: 0.7
Mode: 3
LetterboxInBreaks: 0
SpecialStyle: 0
WidescreenStoryboard: 1

[Editor]
Bookmarks: 123093
DistanceSpacing: 1.3
BeatDivisor: 16
GridSize: 32
TimelineZoom: 2.4

[Metadata]
Title:The Ricochet
TitleUnicode:The Ricochet
Artist:Sta
ArtistUnicode:Sta
Creator:gogozzzx
Version:Extra
Source:Cytus
Tags:雷亞 雷亞遊戲 Rayark Inc. Chapter M. Million Players to One Destination Ω Omega Bit192 ARCADE Mobile Rhythm Video game Electronic Instrumental self progressive remix Vanessa Ryori Ryo ri
BeatmapID:3723846
BeatmapSetID:1815207

[Difficulty]
HPDrainRate:8.5
CircleSize:4
OverallDifficulty:6
ApproachRate:5
SliderMultiplier:1.4
SliderTickRate:1

[Events]
//Background and Video events
0,0,"RICOCHET.png",0,0
//Break Periods
//Storyboard Layer 0 (Background)
//Storyboard Layer 1 (Fail)
//Storyboard Layer 2 (Pass)
//Storyboard Layer 3 (Foreground)
//Storyboard Layer 4 (Overlay)
//Storyboard Sound Samples

[TimingPoints]
2316,333.333333333333,4,1,1,30,1,0

[HitObjects]
64,192,2315,128,0,6760:0:0:0:0:
192,192,3315,128,0,6899:0:0:0:0:
448,192,4732,128,0,7093:0:0:0:0:
64,192,6815,128,0,7315:0:0:0:0:
192,192,6982,128,0,7232:0:0:0:0:
320,192,7065,128,0,7149:0:0:0:0:
448,192,7149,128,0,7482:0:0:0:0:
320,192,7232,128,0,7399:0:0:0:0:
192,192,7315,128,0,8232:0:0:0:0:
64,192,7399,128,0,8204:0:0:0:0:
320,192,7482,128,0,8260:0:0:0:0:
448,192,7565,128,0,8260:0:0:0:0:
448,192,8315,128,0,8399:0:0:0:0:
320,192,8315,128,0,8482:0:0:0:0:
192,192,8399,128,0,8732:0:0:0:0:
64,192,8482,128,0,8760:0:0:0:0:
320,192,8565,128,0,8732:0:0:0:0:
448,192,8649,128,0,8815:0:0:0:0:
64,192,8815,128,0,8982:0:0:0:0:
192,192,8843,128,0,9038:0:0:0:0:
320,192,8982,128,0,9065:0:0:0:0:
448,192,9038,128,0,9204:0:0:0:0:
192,192,9093,128,0,9177:0:0:0:0:
64,192,9149,128,0,9336:0:0:0:0:
448,192,9274,128,0,9399:0:0:0:0:
320,192,9357,128,0,9586:0:0:0:0:
64,192,9399,128,0,9704:0:0:0:0:
320,192,9649,128,0,9732:0:0:0:0:
448,192,9704,128,0,9815:0:0:0:0:
64,192,9760,128,0,9871:0:0:0:0:
192,192,9815,128,0,9927:0:0:0:0:
448,192,9871,128,0,9982:0:0:0:0:
192,192,9982,128,0,10038:0:0:0:0:
64,192,10038,128,0,10121:0:0:0:0:
320,192,10121,128,0,10204:0:0:0:0:
448,192,10149,128,0,10315:0:0:0:0:
192,192,10260,128,0,10343:0:0:0:0:
64,192,10315,128,0,10565:0:0:0:0:
320,192,10482,128,0,10565:0:0:0:0:
192,192,10538,128,0,10593:0:0:0:0:
192,192,10649,128,0,10760:0:0:0:0:
320,192,10704,128,0,10788:0:0:0:0:
448,192,10760,128,0,10815:0:0:0:0:
64,192,10815,128,0,10899:0:0:0:0:
192,192,10843,128,0,10927:0:0:0:0:
320,192,10899,128,0,10982:0:0:0:0:
448,192,10982,128,0,11065:0:0:0:0:
192,192,11093,128,0,11149:0:0:0:0:
64,192,11149,128,0,11232:0:0:0:0:
320,192,11232,128,0,11315:0:0:0:0:
192,192,11315,1,0,0:0:0:0:
192,192,11399,128,0,11593:0:0:0:0:
320,192,11427,128,0,11510:0:0:0:0:
320,192,11593,128,0,11677:0:0:0:0:
448,192,11649,128,0,12232:0:0:0:0:
64,192,11815,1,0,0:0:0:0:
64,192,11982,1,0,0:0:0:0:
64,192,12149,1,0,0:0:0:0:
192,192,12204,128,0,13593:0:0:0:0:
448,192,12315,1,0,0:0:0:0:
448,192,12482,1,0,0:0:0:0:
448,192,12649,1,0,0:0:0:0:
448,192,12815,1,0,0:0:0:0:
448,192,12982,1,0,0:0:0:0:
448,192,13149,1,0,0:0:0:0:
320,192,13315,1,0,0:0:0:0:
64,192,13315,1,0,0:0:0:0:
320,192,13399,1,0,0:0:0:0:
192,192,13649,128,0,13760:0:0:0:0:
64,192,13732,128,0,13843:0:0:0:0:
192,192,13815,128,0,14149:0:0:0:0:
320,192,13871,128,0,13982:0:0:0:0:
64,192,14093,128,0,14315:0:0:0:0:
448,192,14149,128,0,14315:0:0:0:0:
192,192,14315,128,0,15593:0:0:0:0:
448,192,14399,1,0,0:0:0:0:
320,192,14482,1,0,0:0:0:0:
320,192,14649,1,0,0:0:0:0:
320,192,14815,1,0,0:0:0:0:
64,192,14982,128,0,15565:0:0:0:0:
448,192,14982,1,0,0:0:0:0:
448,192,15149,1,0,0:0:0:0:
448,192,15315,1,0,0:0:0:0:
448,192,15482,1,0,0:0:0:0:
192,192,15649,128,0,16315:0:0:0:0:
448,192,15649,128,0,16315:0:0:0:0:
64,192,16315,128,0,16510:0:0:0:0:
320,192,16315,128,0,16593:0:0:0:0:
192,192,16565,128,0,16649:0:0:0:0:
320,192,16649,1,0,0:0:0:0:
64,192,16649,1,0,0:0:0:0:
320,192,16732,128,0,16927:0:0:0:0:
192,192,16760,128,0,16871:0:0:0:0:
192,192,16927,128,0,17038:0:0:0:0:
64,192,16982,128,0,17177:0:0:0:0:
448,192,16982,128,0,17315:0:0:0:0:
64,192,17260,128,0,17538:0:0:0:0:
320,192,17315,128,0,17464:0:0:0:0:
320,192,17538,128,0,17593:0:0:0:0:
192,192,17575,128,0,17649:0:0:0:0:
448,192,17621,128,0,17899:0:0:0:0:
64,192,17899,128,0,18565:0:0:0:0:
192,192,18315,128,0,18593:0:0:0:0:
448,192,18482,128,0,18774:0:0:0:0:
64,192,18649,128,0,18753:0:0:0:0:
320,192,18690,128,0,18815:0:0:0:0:
192,192,18815,1,0,0:0:0:0:
64,192,18815,1,0,0:0:0:0:
192,192,18899,1,0,0:0:0:0:
64,192,18899,1,0,0:0:0:0:
320,192,18982,1,0,0:0:0:0:
448,192,18982,1,0,0:0:0:0:
192,192,19065,1,0,0:0:0:0:
448,192,19107,1,0,0:0:0:0:
192,192,19149,1,0,0:0:0:0:
320,192,19232,1,0,0:0:0:0:
64,192,19315,128,0,19454:0:0:0:0:
448,192,19315,1,0,0:0:0:0:
320,192,19315,128,0,19399:0:0:0:0:
192,192,19649,128,0,19704:0:0:0:0:
320,192,19649,128,0,19704:0:0:0:0:
448,192,19815,1,0,0:0:0:0:
64,192,19815,128,0,19954:0:0:0:0:
192,192,19871,128,0,19927:0:0:0:0:
448,192,19982,1,0,0:0:0:0:
192,192,19982,128,0,20093:0:0:0:0:
320,192,20038,128,0,20093:0:0:0:0:
192,192,20149,128,0,20315:0:0:0:0:
448,192,20149,1,0,0:0:0:0:
64,192,20260,128,0,20315:0:0:0:0:
448,192,20315,1,0,0:0:0:0:
320,192,20315,1,0,0:0:0:0:
192,192,20454,128,0,20538:0:0:0:0:
320,192,20538,128,0,20704:0:0:0:0:
64,192,20649,1,0,0:0:0:0:
64,192,20732,1,0,0:0:0:0:
448,192,20760,128,0,20815:0:0:0:0:
192,192,20815,1,0,0:0:0:0:
320,192,20843,128,0,20982:0:0:0:0:
448,192,20899,128,0,20982:0:0:0:0:
64,192,20982,128,0,21038:0:0:0:0:
192,192,20982,128,0,21038:0:0:0:0:
192,192,21149,128,0,21232:0:0:0:0:
320,192,21204,128,0,21315:0:0:0:0:
448,192,21315,1,0,0:0:0:0:
64,192,21315,128,0,21454:0:0:0:0:
192,192,21371,128,0,21482:0:0:0:0:
320,192,21482,128,0,21649:0:0:0:0:
192,192,21538,128,0,21649:0:0:0:0:
448,192,21649,1,0,0:0:0:0:
64,192,21649,1,0,0:0:0:0:
320,192,21788,128,0,21871:0:0:0:0:
192,192,21815,128,0,22038:0:0:0:0:
448,192,21927,128,0,22010:0:0:0:0:
320,192,21982,128,0,22038:0:0:0:0:
448,192,22065,1,0,0:0:0:0:
192,192,22093,128,0,22232:0:0:0:0:
64,192,22149,128,0,22315:0:0:0:0:
448,192,22232,128,0,22315:0:0:0:0:
192,192,22315,128,0,22371:0:0:0:0:
320,192,22315,128,0,22371:0:0:0:0:
64,192,22482,1,0,0:0:0:0:
320,192,22482,128,0,22593:0:0:0:0:
448,192,22538,128,0,22649:0:0:0:0:
320,192,22649,1,0,0:0:0:0:
192,192,22704,128,0,22788:0:0:0:0:
320,192,22732,128,0,22815:0:0:0:0:
64,192,22815,128,0,22982:0:0:0:0:
192,192,22843,128,0,22982:0:0:0:0:
320,192,22982,1,0,0:0:0:0:
448,192,22982,1,0,0:0:0:0:
448,192,23121,128,0,23177:0:0:0:0:
320,192,23149,128,0,23288:0:0:0:0:
192,192,23232,128,0,23315:0:0:0:0:
448,192,23315,128,0,23371:0:0:0:0:
192,192,23399,1,0,0:0:0:0:
320,192,23427,128,0,23482:0:0:0:0:
64,192,23482,1,0,0:0:0:0:
448,192,23482,128,0,23649:0:0:0:0:
320,192,23565,128,0,23649:0:0:0:0:
64,192,23649,128,0,23704:0:0:0:0:
192,192,23649,128,0,23704:0:0:0:0:
320,192,23815,128,0,23982:0:0:0:0:
448,192,23871,128,0,23954:0:0:0:0:
192,192,23982,1,0,0:0:0:0:
64,192,24038,128,0,24149:0:0:0:0:
192,192,24093,128,0,24149:0:0:0:0:
320,192,24149,1,0,0:0:0:0:
448,192,24149,1,0,0:0:0:0:
320,192,24232,1,0,0:0:0:0:
448,192,24232,1,0,0:0:0:0:
64,192,24315,128,0,24399:0:0:0:0:
192,192,24315,128,0,24427:0:0:0:0:
192,192,24482,128,0,24565:0:0:0:0:
320,192,24565,128,0,24649:0:0:0:0:
448,192,24649,1,0,0:0:0:0:
64,192,24677,128,0,24788:0:0:0:0:
448,192,24732,1,0,0:0:0:0:
192,192,24760,128,0,24843:0:0:0:0:
320,192,24815,128,0,24871:0:0:0:0:
64,192,24871,128,0,24982:0:0:0:0:
192,192,24982,128,0,25038:0:0:0:0:
320,192,24982,128,0,25038:0:0:0:0:
448,192,25149,1,0,0:0:0:0:
64,192,25149,128,0,25288:0:0:0:0:
192,192,25204,128,0,25260:0:0:0:0:
448,192,25315,1,0,0:0:0:0:
192,192,25315,128,0,25427:0:0:0:0:
320,192,25371,128,0,25427:0:0:0:0:
448,192,25482,1,0,0:0:0:0:
192,192,25482,128,0,25649:0:0:0:0:
64,192,25593,128,0,25649:0:0:0:0:
448,192,25649,1,0,0:0:0:0:
320,192,25649,1,0,0:0:0:0:
192,192,25788,128,0,25871:0:0:0:0:
320,192,25871,128,0,26038:0:0:0:0:
64,192,25982,1,0,0:0:0:0:
64,192,26065,1,0,0:0:0:0:
448,192,26093,128,0,26149:0:0:0:0:
192,192,26149,1,0,0:0:0:0:
320,192,26177,128,0,26315:0:0:0:0:
448,192,26232,128,0,26315:0:0:0:0:
64,192,26315,128,0,26371:0:0:0:0:
192,192,26315,128,0,26371:0:0:0:0:
192,192,26482,128,0,26565:0:0:0:0:
320,192,26538,128,0,26649:0:0:0:0:
448,192,26649,1,0,0:0:0:0:
64,192,26649,128,0,26788:0:0:0:0:
192,192,26704,128,0,26815:0:0:0:0:
320,192,26815,128,0,26982:0:0:0:0:
192,192,26871,128,0,26982:0:0:0:0:
448,192,26982,1,0,0:0:0:0:
64,192,26982,1,0,0:0:0:0:
320,192,27121,128,0,27204:0:0:0:0:
192,192,27149,128,0,27371:0:0:0:0:
448,192,27260,128,0,27343:0:0:0:0:
64,192,27315,128,0,27371:0:0:0:0:
448,192,27399,1,0,0:0:0:0:
64,192,27427,128,0,27649:0:0:0:0:
192,192,27482,128,0,27565:0:0:0:0:
448,192,27565,128,0,27649:0:0:0:0:
192,192,27649,128,0,27704:0:0:0:0:
320,192,27649,128,0,27704:0:0:0:0:
64,192,27815,1,0,0:0:0:0:
320,192,27815,128,0,27927:0:0:0:0:
448,192,27871,128,0,27982:0:0:0:0:
320,192,27982,1,0,0:0:0:0:
192,192,28038,128,0,28121:0:0:0:0:
320,192,28065,128,0,28149:0:0:0:0:
64,192,28149,128,0,28315:0:0:0:0:
192,192,28177,128,0,28315:0:0:0:0:
320,192,28315,1,0,0:0:0:0:
448,192,28315,1,0,0:0:0:0:
448,192,28454,128,0,28510:0:0:0:0:
320,192,28482,128,0,28621:0:0:0:0:
192,192,28565,128,0,28649:0:0:0:0:
448,192,28649,128,0,28704:0:0:0:0:
192,192,28732,1,0,0:0:0:0:
320,192,28760,128,0,28815:0:0:0:0:
64,192,28815,1,0,0:0:0:0:
448,192,28815,128,0,28982:0:0:0:0:
320,192,28899,128,0,28982:0:0:0:0:
64,192,28982,128,0,29038:0:0:0:0:
192,192,28982,128,0,29038:0:0:0:0:
320,192,29149,128,0,29315:0:0:0:0:
448,192,29204,128,0,29288:0:0:0:0:
192,192,29315,1,0,0:0:0:0:
64,192,29371,128,0,29482:0:0:0:0:
192,192,29427,128,0,29482:0:0:0:0:
320,192,29482,1,0,0:0:0:0:
448,192,29482,1,0,0:0:0:0:
320,192,29565,1,0,0:0:0:0:
448,192,29565,1,0,0:0:0:0:
64,192,29649,128,0,29732:0:0:0:0:
192,192,29649,128,0,29704:0:0:0:0:
320,192,29774,1,0,0:0:0:0:
448,192,29815,1,0,0:0:0:0:
448,192,29899,1,0,0:0:0:0:
192,192,29982,128,0,30038:0:0:0:0:
64,192,30038,128,0,30093:0:0:0:0:
320,192,30093,128,0,30149:0:0:0:0:
192,192,30149,128,0,30204:0:0:0:0:
448,192,30204,128,0,30260:0:0:0:0:
64,192,30260,128,0,30315:0:0:0:0:
192,192,30315,128,0,30371:0:0:0:0:
320,192,30315,128,0,30371:0:0:0:0:
448,192,30399,128,0,30454:0:0:0:0:
320,192,30482,128,0,30538:0:0:0:0:
192,192,30510,128,0,30593:0:0:0:0:
64,192,30565,128,0,30649:0:0:0:0:
192,192,30649,128,0,30732:0:0:0:0:
320,192,30677,128,0,30760:0:0:0:0:
64,192,30732,128,0,30788:0:0:0:0:
192,192,30815,128,0,30899:0:0:0:0:
448,192,30871,128,0,30954:0:0:0:0:
320,192,30899,128,0,30982:0:0:0:0:
192,192,30982,1,0,0:0:0:0:
64,192,30982,1,0,0:0:0:0:
448,192,31065,128,0,31149:0:0:0:0:
320,192,31149,128,0,31204:0:0:0:0:
192,192,31177,128,0,31260:0:0:0:0:
64,192,31232,128,0,31288:0:0:0:0:
320,192,31315,128,0,31371:0:0:0:0:
448,192,31399,128,0,31482:0:0:0:0:
192,192,31482,128,0,31538:0:0:0:0:
320,192,31510,128,0,31649:0:0:0:0:
448,192,31565,128,0,31649:0:0:0:0:
64,192,31649,128,0,31704:0:0:0:0:
192,192,31649,128,0,31704:0:0:0:0:
320,192,31732,128,0,31788:0:0:0:0:
192,192,31815,128,0,31927:0:0:0:0:
64,192,31899,128,0,31954:0:0:0:0:
192,192,31982,128,0,32038:0:0:0:0:
320,192,32038,128,0,32149:0:0:0:0:
448,192,32065,128,0,32121:0:0:0:0:
192,192,32149,128,0,32260:0:0:0:0:
64,192,32232,128,0,32288:0:0:0:0:
320,192,32315,1,0,0:0:0:0:
448,192,32315,1,0,0:0:0:0:
192,192,32399,128,0,32454:0:0:0:0:
448,192,32482,128,0,32565:0:0:0:0:
320,192,32510,128,0,32649:0:0:0:0:
192,192,32565,128,0,32621:0:0:0:0:
64,192,32649,128,0,32732:0:0:0:0:
448,192,32732,1,0,0:0:0:0:
192,192,32760,128,0,32899:0:0:0:0:
64,192,32815,128,0,32982:0:0:0:0:
448,192,32899,128,0,32982:0:0:0:0:
192,192,32982,128,0,33038:0:0:0:0:
320,192,32982,128,0,33038:0:0:0:0:
64,192,33065,128,0,33121:0:0:0:0:
192,192,33149,128,0,33211:0:0:0:0:
320,192,33190,128,0,33253:0:0:0:0:
448,192,33232,128,0,33295:0:0:0:0:
192,192,33315,128,0,33399:0:0:0:0:
64,192,33399,128,0,33482:0:0:0:0:
192,192,33482,128,0,33538:0:0:0:0:
320,192,33538,128,0,33593:0:0:0:0:
448,192,33565,128,0,33649:0:0:0:0:
64,192,33649,1,0,0:0:0:0:
192,192,33649,128,0,33704:0:0:0:0:
320,192,33704,128,0,33815:0:0:0:0:
192,192,33815,128,0,33927:0:0:0:0:
64,192,33899,128,0,33982:0:0:0:0:
448,192,33982,128,0,34065:0:0:0:0:
320,192,34065,128,0,34149:0:0:0:0:
64,192,34149,128,0,34232:0:0:0:0:
192,192,34190,128,0,34232:0:0:0:0:
320,192,34232,128,0,34274:0:0:0:0:
448,192,34274,128,0,34315:0:0:0:0:
192,192,34315,128,0,34371:0:0:0:0:
64,192,34315,128,0,34371:0:0:0:0:
320,192,34371,128,0,34427:0:0:0:0:
448,192,34399,128,0,34482:0:0:0:0:
192,192,34482,128,0,34593:0:0:0:0:
448,192,34538,128,0,34621:0:0:0:0:
320,192,34565,128,0,34649:0:0:0:0:
192,192,34649,1,0,0:0:0:0:
64,192,34704,128,0,34815:0:0:0:0:
192,192,34760,128,0,34815:0:0:0:0:
320,192,34815,1,0,0:0:0:0:
448,192,34815,1,0,0:0:0:0:
320,192,34899,1,0,0:0:0:0:
448,192,34899,1,0,0:0:0:0:
64,192,34982,128,0,35065:0:0:0:0:
192,192,34982,128,0,35093:0:0:0:0:
320,192,35065,128,0,35121:0:0:0:0:
448,192,35093,128,0,35149:0:0:0:0:
192,192,35149,128,0,35232:0:0:0:0:
64,192,35232,128,0,35315:0:0:0:0:
448,192,35315,1,0,0:0:0:0:
320,192,35315,128,0,35454:0:0:0:0:
192,192,35399,128,0,35510:0:0:0:0:
64,192,35482,128,0,35621:0:0:0:0:
192,192,35565,128,0,35649:0:0:0:0:
320,192,35649,128,0,35704:0:0:0:0:
448,192,35649,128,0,35815:0:0:0:0:
320,192,35760,128,0,35871:0:0:0:0:
192,192,35815,128,0,35927:0:0:0:0:
64,192,35899,128,0,35982:0:0:0:0:
320,192,35982,128,0,36038:0:0:0:0:
448,192,35982,128,0,36149:0:0:0:0:
64,192,36093,128,0,36204:0:0:0:0:
192,192,36149,128,0,36260:0:0:0:0:
320,192,36232,128,0,36315:0:0:0:0:
192,192,36315,128,0,36371:0:0:0:0:
64,192,36315,128,0,36482:0:0:0:0:
192,192,36427,128,0,36538:0:0:0:0:
320,192,36482,128,0,36593:0:0:0:0:
448,192,36565,128,0,36649:0:0:0:0:
192,192,36649,128,0,36704:0:0:0:0:
64,192,36649,128,0,36815:0:0:0:0:
448,192,36760,128,0,36871:0:0:0:0:
320,192,36815,128,0,36927:0:0:0:0:
64,192,36871,128,0,36954:0:0:0:0:
192,192,36899,128,0,36982:0:0:0:0:
448,192,36982,128,0,37149:0:0:0:0:
320,192,36982,128,0,37038:0:0:0:0:
320,192,37093,128,0,37204:0:0:0:0:
64,192,37149,128,0,37232:0:0:0:0:
192,192,37177,128,0,37260:0:0:0:0:
448,192,37232,128,0,37315:0:0:0:0:
192,192,37315,128,0,37371:0:0:0:0:
64,192,37315,128,0,37454:0:0:0:0:
448,192,37427,128,0,37538:0:0:0:0:
320,192,37482,128,0,37593:0:0:0:0:
64,192,37510,128,0,37621:0:0:0:0:
192,192,37565,128,0,37649:0:0:0:0:
320,192,37649,128,0,37704:0:0:0:0:
448,192,37649,128,0,37815:0:0:0:0:
320,192,37760,128,0,37871:0:0:0:0:
192,192,37815,128,0,37927:0:0:0:0:
64,192,37899,128,0,37954:0:0:0:0:
320,192,37982,1,0,0:0:0:0:
448,192,37982,128,0,38065:0:0:0:0:
64,192,38093,128,0,38149:0:0:0:0:
192,192,38149,1,0,0:0:0:0:
448,192,38149,128,0,38315:0:0:0:0:
320,192,38232,128,0,38315:0:0:0:0:
192,192,38315,128,0,38371:0:0:0:0:
64,192,38315,128,0,38371:0:0:0:0:
192,192,38427,128,0,38482:0:0:0:0:
320,192,38482,128,0,38621:0:0:0:0:
448,192,38565,128,0,38649:0:0:0:0:
192,192,38649,1,0,0:0:0:0:
64,192,38649,1,0,0:0:0:0:
320,192,38760,128,0,38815:0:0:0:0:
192,192,38815,128,0,38982:0:0:0:0:
64,192,38871,128,0,38982:0:0:0:0:
320,192,38982,1,0,0:0:0:0:
448,192,38982,1,0,0:0:0:0:
448,192,39065,128,0,39204:0:0:0:0:
320,192,39149,128,0,39260:0:0:0:0:
192,192,39232,128,0,39315:0:0:0:0:
64,192,39260,128,0,39315:0:0:0:0:
320,192,39315,1,0,0:0:0:0:
448,192,39315,1,0,0:0:0:0:
320,192,39399,128,0,39482:0:0:0:0:
448,192,39427,128,0,39482:0:0:0:0:
64,192,39482,1,0,0:0:0:0:
64,192,39565,128,0,39649:0:0:0:0:
192,192,39593,1,0,0:0:0:0:
320,192,39649,1,0,0:0:0:0:
448,192,39649,1,0,0:0:0:0:
320,192,39760,128,0,39954:0:0:0:0:
448,192,39815,128,0,39982:0:0:0:0:
192,192,39899,1,0,0:0:0:0:
64,192,39982,1,0,0:0:0:0:
320,192,40010,128,0,40093:0:0:0:0:
64,192,40093,128,0,40260:0:0:0:0:
192,192,40149,1,0,0:0:0:0:
448,192,40232,128,0,40315:0:0:0:0:
64,192,40315,1,0,0:0:0:0:
448,192,40399,1,0,0:0:0:0:
64,192,40482,1,0,0:0:0:0:
320,192,40565,1,0,0:0:0:0:
448,192,40649,128,0,40815:0:0:0:0:
320,192,40704,128,0,40815:0:0:0:0:
64,192,40788,128,0,40843:0:0:0:0:
320,192,40871,128,0,40982:0:0:0:0:
448,192,40899,128,0,40982:0:0:0:0:
64,192,40982,128,0,41093:0:0:0:0:
192,192,40982,128,0,41177:0:0:0:0:
64,192,41149,128,0,41621:0:0:0:0:
320,192,41177,128,0,41343:0:0:0:0:
448,192,41343,1,0,0:0:0:0:
192,192,41371,128,0,41649:0:0:0:0:
320,192,41649,1,0,0:0:0:0:
448,192,41649,1,0,0:0:0:0:
64,192,41732,1,0,0:0:0:0:
192,192,41815,1,0,0:0:0:0:
320,192,41843,1,0,0:0:0:0:
448,192,41871,1,0,0:0:0:0:
64,192,41899,1,0,0:0:0:0:
192,192,41927,1,0,0:0:0:0:
320,192,41982,128,0,42038:0:0:0:0:
448,192,42065,128,0,42121:0:0:0:0:
64,192,42149,1,0,0:0:0:0:
192,192,42149,128,0,42204:0:0:0:0:
320,192,42232,128,0,42288:0:0:0:0:
64,192,42315,1,0,0:0:0:0:
448,192,42315,1,0,0:0:0:0:
64,192,42399,1,0,0:0:0:0:
192,192,42482,1,0,0:0:0:0:
320,192,42482,1,0,0:0:0:0:
320,192,42565,1,0,0:0:0:0:
192,192,42649,1,0,0:0:0:0:
64,192,42690,128,0,42774:0:0:0:0:
64,192,42857,128,0,42982:0:0:0:0:
448,192,42982,128,0,43065:0:0:0:0:
192,192,42982,128,0,43232:0:0:0:0:
320,192,43065,128,0,43149:0:0:0:0:
448,192,43149,128,0,43315:0:0:0:0:
192,192,43315,1,0,0:0:0:0:
192,192,43399,1,0,0:0:0:0:
64,192,43440,128,0,43649:0:0:0:0:
320,192,43649,1,0,0:0:0:0:
448,192,43649,128,0,43927:0:0:0:0:
64,192,43815,1,0,0:0:0:0:
448,192,43982,128,0,44065:0:0:0:0:
320,192,44038,128,0,44093:0:0:0:0:
320,192,44149,128,0,44232:0:0:0:0:
64,192,44177,128,0,44260:0:0:0:0:
448,192,44204,128,0,44315:0:0:0:0:
192,192,44315,1,0,0:0:0:0:
64,192,44315,1,0,0:0:0:0:
192,192,44427,1,0,0:0:0:0:
320,192,44482,128,0,44649:0:0:0:0:
192,192,44649,1,0,0:0:0:0:
448,192,44690,1,0,0:0:0:0:
192,192,44732,1,0,0:0:0:0:
320,192,44774,1,0,0:0:0:0:
448,192,44815,128,0,44982:0:0:0:0:
192,192,44982,128,0,45093:0:0:0:0:
64,192,45010,128,0,45065:0:0:0:0:
320,192,45065,128,0,45149:0:0:0:0:
448,192,45149,128,0,45260:0:0:0:0:
320,192,45232,128,0,45288:0:0:0:0:
192,192,45260,128,0,45315:0:0:0:0:
64,192,45315,128,0,45482:0:0:0:0:
320,192,45482,1,0,0:0:0:0:
192,192,45482,1,0,0:0:0:0:
320,192,45565,1,0,0:0:0:0:
64,192,45649,1,0,0:0:0:0:
448,192,45649,1,0,0:0:0:0:
192,192,45815,1,0,0:0:0:0:
320,192,45815,1,0,0:0:0:0:
192,192,45899,1,0,0:0:0:0:
64,192,45982,128,0,46204:0:0:0:0:
448,192,45982,128,0,46086:0:0:0:0:
320,192,46024,128,0,46149:0:0:0:0:
192,192,46149,128,0,46232:0:0:0:0:
320,192,46204,128,0,46260:0:0:0:0:
448,192,46232,128,0,46288:0:0:0:0:
192,192,46315,128,0,46454:0:0:0:0:
64,192,46315,1,0,0:0:0:0:
320,192,46427,128,0,46482:0:0:0:0:
448,192,46482,128,0,46621:0:0:0:0:
320,192,46565,128,0,46649:0:0:0:0:
192,192,46593,128,0,46649:0:0:0:0:
64,192,46649,1,0,0:0:0:0:
192,192,46760,128,0,46843:0:0:0:0:
320,192,46815,128,0,46871:0:0:0:0:
448,192,46843,128,0,46927:0:0:0:0:
192,192,46982,1,0,0:0:0:0:
448,192,46982,128,0,47288:0:0:0:0:
320,192,47121,128,0,47315:0:0:0:0:
64,192,47315,1,0,0:0:0:0:
64,192,47399,128,0,47482:0:0:0:0:
320,192,47482,1,0,0:0:0:0:
448,192,47482,1,0,0:0:0:0:
320,192,47565,128,0,47649:0:0:0:0:
64,192,47649,1,0,0:0:0:0:
192,192,47649,1,0,0:0:0:0:
192,192,47732,1,0,0:0:0:0:
64,192,47815,128,0,47927:0:0:0:0:
192,192,47871,128,0,47982:0:0:0:0:
448,192,47982,128,0,48093:0:0:0:0:
320,192,48038,128,0,48149:0:0:0:0:
192,192,48149,128,0,48315:0:0:0:0:
320,192,48315,1,0,0:0:0:0:
192,192,48399,1,0,0:0:0:0:
320,192,48440,1,0,0:0:0:0:
448,192,48482,1,0,0:0:0:0:
192,192,48510,1,0,0:0:0:0:
320,192,48538,1,0,0:0:0:0:
64,192,48593,1,0,0:0:0:0:
192,192,48649,1,0,0:0:0:0:
448,192,48704,1,0,0:0:0:0:
320,192,48732,1,0,0:0:0:0:
192,192,48760,1,0,0:0:0:0:
64,192,48815,128,0,48982:0:0:0:0:
192,192,48899,128,0,48982:0:0:0:0:
320,192,48982,1,0,0:0:0:0:
448,192,49038,128,0,49093:0:0:0:0:
448,192,49149,1,0,0:0:0:0:
320,192,49204,128,0,49315:0:0:0:0:
192,192,49315,1,0,0:0:0:0:
64,192,49371,128,0,49427:0:0:0:0:
64,192,49482,128,0,49649:0:0:0:0:
448,192,49649,1,0,0:0:0:0:
320,192,49649,1,0,0:0:0:0:
192,192,49732,1,0,0:0:0:0:
192,192,49815,1,0,0:0:0:0:
320,192,49871,1,0,0:0:0:0:
192,192,49927,1,0,0:0:0:0:
320,192,49982,128,0,50045:0:0:0:0:
448,192,50024,128,0,50086:0:0:0:0:
64,192,50065,128,0,50232:0:0:0:0:
320,192,50149,128,0,50315:0:0:0:0:
64,192,50315,128,0,50461:0:0:0:0:
192,192,50315,128,0,50482:0:0:0:0:
320,192,50399,128,0,50524:0:0:0:0:
448,192,50482,128,0,50565:0:0:0:0:
64,192,50565,128,0,50628:0:0:0:0:
192,192,50565,128,0,50649:0:0:0:0:
192,192,50732,128,0,50815:0:0:0:0:
64,192,50774,128,0,50836:0:0:0:0:
448,192,50815,128,0,50899:0:0:0:0:
320,192,50815,128,0,50878:0:0:0:0:
64,192,50927,128,0,50982:0:0:0:0:
320,192,50982,128,0,51065:0:0:0:0:
448,192,51065,128,0,51190:0:0:0:0:
192,192,51149,1,0,0:0:0:0:
192,192,51232,1,0,0:0:0:0:
64,192,51315,1,0,0:0:0:0:
320,192,51357,1,0,0:0:0:0:
448,192,51399,128,0,51621:0:0:0:0:
320,192,51482,128,0,51649:0:0:0:0:
192,192,51649,128,0,51760:0:0:0:0:
64,192,51704,1,0,0:0:0:0:
64,192,51788,1,0,0:0:0:0:
192,192,51843,1,0,0:0:0:0:
320,192,51899,128,0,51982:0:0:0:0:
448,192,51954,1,0,0:0:0:0:
320,192,52038,1,0,0:0:0:0:
192,192,52149,128,0,52260:0:0:0:0:
64,192,52204,1,0,0:0:0:0:
64,192,52288,1,0,0:0:0:0:
448,192,52315,1,0,0:0:0:0:
320,192,52315,1,0,0:0:0:0:
64,192,52399,1,0,0:0:0:0:
192,192,52482,1,0,0:0:0:0:
320,192,52510,1,0,0:0:0:0:
448,192,52538,1,0,0:0:0:0:
64,192,52565,1,0,0:0:0:0:
192,192,52593,1,0,0:0:0:0:
448,192,52649,128,0,52704:0:0:0:0:
320,192,52732,128,0,52788:0:0:0:0:
64,192,52815,1,0,0:0:0:0:
192,192,52815,128,0,52871:0:0:0:0:
320,192,52899,128,0,52954:0:0:0:0:
64,192,52982,1,0,0:0:0:0:
448,192,52982,1,0,0:0:0:0:
64,192,53065,1,0,0:0:0:0:
192,192,53149,1,0,0:0:0:0:
448,192,53149,1,0,0:0:0:0:
320,192,53232,1,0,0:0:0:0:
192,192,53315,1,0,0:0:0:0:
64,192,53357,128,0,53440:0:0:0:0:
64,192,53524,1,0,0:0:0:0:
192,192,53565,128,0,53649:0:0:0:0:
448,192,53649,128,0,53732:0:0:0:0:
64,192,53649,128,0,53899:0:0:0:0:
320,192,53732,128,0,53815:0:0:0:0:
448,192,53815,128,0,53982:0:0:0:0:
192,192,53982,1,0,0:0:0:0:
192,192,54065,1,0,0:0:0:0:
64,192,54107,128,0,54315:0:0:0:0:
448,192,54315,1,0,0:0:0:0:
192,192,54399,1,0,0:0:0:0:
448,192,54482,128,0,54593:0:0:0:0:
320,192,54565,1,0,0:0:0:0:
64,192,54649,128,0,54760:0:0:0:0:
192,192,54732,1,0,0:0:0:0:
320,192,54815,128,0,54982:0:0:0:0:
192,192,54982,1,0,0:0:0:0:
64,192,54982,1,0,0:0:0:0:
64,192,55093,1,0,0:0:0:0:
192,192,55149,128,0,55315:0:0:0:0:
320,192,55315,1,0,0:0:0:0:
192,192,55399,1,0,0:0:0:0:
448,192,55482,128,0,55649:0:0:0:0:
192,192,55482,1,0,0:0:0:0:
192,192,55649,128,0,55760:0:0:0:0:
64,192,55677,128,0,55732:0:0:0:0:
320,192,55732,128,0,55815:0:0:0:0:
448,192,55815,128,0,55927:0:0:0:0:
320,192,55899,128,0,55954:0:0:0:0:
192,192,55927,128,0,55982:0:0:0:0:
64,192,55982,128,0,56149:0:0:0:0:
320,192,56149,1,0,0:0:0:0:
192,192,56149,1,0,0:0:0:0:
320,192,56232,1,0,0:0:0:0:
64,192,56315,1,0,0:0:0:0:
448,192,56315,1,0,0:0:0:0:
192,192,56482,1,0,0:0:0:0:
320,192,56482,1,0,0:0:0:0:
192,192,56565,1,0,0:0:0:0:
64,192,56649,128,0,56871:0:0:0:0:
448,192,56649,128,0,56753:0:0:0:0:
320,192,56690,128,0,56815:0:0:0:0:
192,192,56815,128,0,56899:0:0:0:0:
320,192,56871,128,0,56927:0:0:0:0:
448,192,56899,128,0,56954:0:0:0:0:
64,192,56982,1,0,0:0:0:0:
192,192,56982,128,0,57170:0:0:0:0:
64,192,57149,1,0,0:0:0:0:
320,192,57315,1,0,0:0:0:0:
320,192,57399,1,0,0:0:0:0:
192,192,57482,128,0,57649:0:0:0:0:
320,192,57649,1,0,0:0:0:0:
64,192,57704,128,0,57982:0:0:0:0:
192,192,57927,128,0,57982:0:0:0:0:
448,192,57982,1,0,0:0:0:0:
448,192,58065,128,0,58149:0:0:0:0:
192,192,58149,1,0,0:0:0:0:
192,192,58232,128,0,58315:0:0:0:0:
320,192,58315,1,0,0:0:0:0:
448,192,58315,1,0,0:0:0:0:
64,192,58357,1,0,0:0:0:0:
320,192,58399,1,0,0:0:0:0:
448,192,58427,1,0,0:0:0:0:
192,192,58482,128,0,58593:0:0:0:0:
64,192,58538,128,0,58593:0:0:0:0:
64,192,58649,1,0,0:0:0:0:
320,192,58649,128,0,58704:0:0:0:0:
448,192,58677,128,0,58815:0:0:0:0:
64,192,58815,128,0,58954:0:0:0:0:
192,192,58871,128,0,58954:0:0:0:0:
320,192,58982,1,0,0:0:0:0:
448,192,58982,1,0,0:0:0:0:
192,192,59149,128,0,59232:0:0:0:0:
320,192,59190,128,0,59315:0:0:0:0:
192,192,59315,128,0,59482:0:0:0:0:
64,192,59427,128,0,59649:0:0:0:0:
320,192,59649,128,0,59871:0:0:0:0:
448,192,59649,128,0,59927:0:0:0:0:
64,192,59815,128,0,59899:0:0:0:0:
192,192,59871,128,0,59927:0:0:0:0:
192,192,59982,128,0,60065:0:0:0:0:
320,192,60038,128,0,60177:0:0:0:0:
448,192,60065,128,0,60149:0:0:0:0:
192,192,60149,128,0,60204:0:0:0:0:
64,192,60232,128,0,60288:0:0:0:0:
192,192,60315,1,0,0:0:0:0:
320,192,60357,1,0,0:0:0:0:
448,192,60399,1,0,0:0:0:0:
448,192,60482,1,0,0:0:0:0:
448,192,60565,1,0,0:0:0:0:
64,192,60649,128,0,60711:0:0:0:0:
192,192,60690,1,0,0:0:0:0:
448,192,60732,1,0,0:0:0:0:
192,192,60815,1,0,0:0:0:0:
64,192,60815,1,0,0:0:0:0:
320,192,60899,1,0,0:0:0:0:
64,192,60982,128,0,61128:0:0:0:0:
192,192,60982,128,0,61149:0:0:0:0:
320,192,61065,128,0,61190:0:0:0:0:
448,192,61149,128,0,61232:0:0:0:0:
64,192,61232,128,0,61295:0:0:0:0:
192,192,61232,128,0,61315:0:0:0:0:
192,192,61399,128,0,61482:0:0:0:0:
64,192,61440,128,0,61503:0:0:0:0:
448,192,61482,128,0,61565:0:0:0:0:
320,192,61482,128,0,61545:0:0:0:0:
64,192,61593,128,0,61649:0:0:0:0:
320,192,61649,1,0,0:0:0:0:
448,192,61704,1,0,0:0:0:0:
320,192,61815,1,0,0:0:0:0:
192,192,61871,128,0,61982:0:0:0:0:
64,192,61982,128,0,62065:0:0:0:0:
448,192,62010,128,0,62065:0:0:0:0:
192,192,62121,128,0,62260:0:0:0:0:
320,192,62315,128,0,62371:0:0:0:0:
192,192,62399,1,0,0:0:0:0:
448,192,62482,128,0,62538:0:0:0:0:
64,192,62565,1,0,0:0:0:0:
192,192,62649,128,0,62732:0:0:0:0:
320,192,62815,128,0,62927:0:0:0:0:
64,192,62982,128,0,63149:0:0:0:0:
192,192,63149,128,0,63315:0:0:0:0:
64,192,63482,128,0,63649:0:0:0:0:
448,192,63565,1,0,0:0:0:0:
320,192,63649,128,0,63704:0:0:0:0:
64,192,63732,1,0,0:0:0:0:
448,192,63815,128,0,63871:0:0:0:0:
320,192,63899,1,0,0:0:0:0:
64,192,63982,128,0,64065:0:0:0:0:
448,192,64065,1,0,0:0:0:0:
192,192,64149,128,0,64260:0:0:0:0:
320,192,64232,1,0,0:0:0:0:
64,192,64315,128,0,64482:0:0:0:0:
448,192,64399,1,0,0:0:0:0:
192,192,64482,128,0,64649:0:0:0:0:
320,192,64565,1,0,0:0:0:0:
64,192,64649,1,0,0:0:0:0:
448,192,64732,1,0,0:0:0:0:
64,192,64815,128,0,64982:0:0:0:0:
192,192,64899,1,0,0:0:0:0:
320,192,64982,128,0,65038:0:0:0:0:
64,192,65065,1,0,0:0:0:0:
320,192,65149,128,0,65204:0:0:0:0:
448,192,65232,1,0,0:0:0:0:
192,192,65315,128,0,65399:0:0:0:0:
64,192,65399,1,0,0:0:0:0:
320,192,65482,128,0,65565:0:0:0:0:
448,192,65565,1,0,0:0:0:0:
64,192,65649,128,0,65732:0:0:0:0:
320,192,65732,1,0,0:0:0:0:
192,192,65815,128,0,65982:0:0:0:0:
448,192,65899,1,0,0:0:0:0:
64,192,65982,1,0,0:0:0:0:
320,192,66065,1,0,0:0:0:0:
64,192,66149,128,0,66315:0:0:0:0:
192,192,66232,1,0,0:0:0:0:
448,192,66315,1,0,0:0:0:0:
320,192,66399,1,0,0:0:0:0:
192,192,66482,1,0,0:0:0:0:
448,192,66565,1,0,0:0:0:0:
64,192,66649,1,0,0:0:0:0:
192,192,66732,1,0,0:0:0:0:
448,192,66815,1,0,0:0:0:0:
320,192,66899,1,0,0:0:0:0:
64,192,66982,128,0,67038:0:0:0:0:
192,192,67065,1,0,0:0:0:0:
320,192,67149,128,0,67204:0:0:0:0:
448,192,67232,1,0,0:0:0:0:
192,192,67315,128,0,67538:0:0:0:0:
448,192,67482,128,0,67538:0:0:0:0:
448,192,67649,1,0,0:0:0:0:
192,192,67649,1,0,0:0:0:0:
64,192,67732,1,0,0:0:0:0:
320,192,67815,1,0,0:0:0:0:
64,192,67815,1,0,0:0:0:0:
448,192,67899,1,0,0:0:0:0:
192,192,67982,1,0,0:0:0:0:
64,192,67982,1,0,0:0:0:0:
448,192,68065,128,0,68149:0:0:0:0:
320,192,68149,1,0,0:0:0:0:
64,192,68149,1,0,0:0:0:0:
448,192,68232,128,0,68315:0:0:0:0:
192,192,68315,128,0,68399:0:0:0:0:
64,192,68482,128,0,68649:0:0:0:0:
192,192,68565,128,0,68649:0:0:0:0:
320,192,68649,128,0,68704:0:0:0:0:
448,192,68704,128,0,68899:0:0:0:0:
320,192,68815,128,0,68982:0:0:0:0:
448,192,68982,1,0,0:0:0:0:
192,192,68982,1,0,0:0:0:0:
64,192,69065,1,0,0:0:0:0:
64,192,69149,1,0,0:0:0:0:
448,192,69149,1,0,0:0:0:0:
320,192,69232,128,0,69315:0:0:0:0:
64,192,69315,1,0,0:0:0:0:
192,192,69315,128,0,69427:0:0:0:0:
448,192,69399,128,0,69482:0:0:0:0:
64,192,69482,128,0,69593:0:0:0:0:
448,192,69565,128,0,69649:0:0:0:0:
64,192,69649,128,0,69704:0:0:0:0:
320,192,69815,128,0,69899:0:0:0:0:
448,192,69871,128,0,69982:0:0:0:0:
192,192,69982,128,0,70093:0:0:0:0:
448,192,70065,128,0,70232:0:0:0:0:
64,192,70065,128,0,70232:0:0:0:0:
448,192,70315,1,0,0:0:0:0:
64,192,70315,1,0,0:0:0:0:
320,192,70399,1,0,0:0:0:0:
448,192,70482,1,0,0:0:0:0:
192,192,70482,128,0,70593:0:0:0:0:
64,192,70565,128,0,70621:0:0:0:0:
448,192,70649,128,0,70704:0:0:0:0:
320,192,70732,1,0,0:0:0:0:
64,192,70815,128,0,70927:0:0:0:0:
192,192,70871,128,0,70982:0:0:0:0:
448,192,70982,128,0,71065:0:0:0:0:
320,192,71149,128,0,71260:0:0:0:0:
192,192,71232,128,0,71315:0:0:0:0:
320,192,71315,128,0,71538:0:0:0:0:
448,192,71399,128,0,71649:0:0:0:0:
64,192,71482,128,0,71649:0:0:0:0:
64,192,71815,1,0,0:0:0:0:
448,192,71815,1,0,0:0:0:0:
192,192,71843,1,0,0:0:0:0:
320,192,71982,1,0,0:0:0:0:
192,192,71982,1,0,0:0:0:0:
448,192,72038,1,0,0:0:0:0:
64,192,72065,128,0,72149:0:0:0:0:
192,192,72093,128,0,72149:0:0:0:0:
320,192,72149,1,0,0:0:0:0:
192,192,72204,128,0,72260:0:0:0:0:
448,192,72232,1,0,0:0:0:0:
64,192,72288,1,0,0:0:0:0:
320,192,72315,128,0,72371:0:0:0:0:
448,192,72371,128,0,72454:0:0:0:0:
320,192,72427,128,0,72510:0:0:0:0:
192,192,72482,128,0,72565:0:0:0:0:
320,192,72565,128,0,72649:0:0:0:0:
64,192,72649,128,0,72704:0:0:0:0:
192,192,72704,128,0,72760:0:0:0:0:
320,192,72760,128,0,72815:0:0:0:0:
448,192,72815,128,0,72899:0:0:0:0:
192,192,72899,128,0,72982:0:0:0:0:
320,192,72982,128,0,73038:0:0:0:0:
64,192,73038,128,0,73232:0:0:0:0:
192,192,73232,128,0,73399:0:0:0:0:
320,192,73260,1,0,0:0:0:0:
320,192,73649,128,0,73704:0:0:0:0:
192,192,73677,128,0,73732:0:0:0:0:
64,192,73704,128,0,73927:0:0:0:0:
192,192,73940,128,0,74003:0:0:0:0:
448,192,73982,128,0,74121:0:0:0:0:
64,192,74149,128,0,74204:0:0:0:0:
192,192,74177,128,0,74260:0:0:0:0:
192,192,74315,128,0,74371:0:0:0:0:
320,192,74343,128,0,74399:0:0:0:0:
448,192,74371,128,0,74593:0:0:0:0:
64,192,74593,128,0,74649:0:0:0:0:
320,192,74649,128,0,74760:0:0:0:0:
192,192,74690,128,0,74940:0:0:0:0:
64,192,74982,128,0,75038:0:0:0:0:
64,192,75093,128,0,75149:0:0:0:0:
192,192,75204,1,0,0:0:0:0:
320,192,75315,128,0,75454:0:0:0:0:
64,192,75371,128,0,75510:0:0:0:0:
192,192,75427,128,0,75510:0:0:0:0:
448,192,75482,1,0,0:0:0:0:
320,192,75503,1,0,0:0:0:0:
192,192,75565,1,0,0:0:0:0:
64,192,75586,128,0,75649:0:0:0:0:
320,192,75649,1,0,0:0:0:0:
448,192,75649,1,0,0:0:0:0:
320,192,75815,128,0,75927:0:0:0:0:
64,192,75899,128,0,76010:0:0:0:0:
320,192,75982,128,0,76065:0:0:0:0:
448,192,76038,128,0,76121:0:0:0:0:
192,192,76093,128,0,76204:0:0:0:0:
320,192,76149,128,0,76232:0:0:0:0:
64,192,76232,128,0,76315:0:0:0:0:
448,192,76315,1,0,0:0:0:0:
192,192,76315,1,0,0:0:0:0:
320,192,76482,128,0,76565:0:0:0:0:
448,192,76538,128,0,76621:0:0:0:0:
64,192,76593,128,0,76677:0:0:0:0:
320,192,76649,128,0,76732:0:0:0:0:
448,192,76732,1,0,0:0:0:0:
192,192,76815,1,0,0:0:0:0:
64,192,76815,1,0,0:0:0:0:
320,192,76871,128,0,76982:0:0:0:0:
448,192,76927,128,0,76982:0:0:0:0:
192,192,76982,1,0,0:0:0:0:
64,192,76982,1,0,0:0:0:0:
64,192,77149,128,0,77260:0:0:0:0:
448,192,77232,128,0,77343:0:0:0:0:
64,192,77315,128,0,77399:0:0:0:0:
192,192,77371,128,0,77454:0:0:0:0:
320,192,77427,128,0,77510:0:0:0:0:
64,192,77482,128,0,77565:0:0:0:0:
448,192,77565,128,0,77649:0:0:0:0:
320,192,77649,1,0,0:0:0:0:
64,192,77649,1,0,0:0:0:0:
192,192,77815,128,0,77927:0:0:0:0:
448,192,77899,128,0,78010:0:0:0:0:
192,192,77982,128,0,78065:0:0:0:0:
64,192,78065,1,0,0:0:0:0:
320,192,78093,128,0,78177:0:0:0:0:
448,192,78149,128,0,78232:0:0:0:0:
64,192,78232,128,0,78315:0:0:0:0:
320,192,78315,1,0,0:0:0:0:
448,192,78315,1,0,0:0:0:0:
64,192,78482,128,0,78593:0:0:0:0:
320,192,78565,128,0,78677:0:0:0:0:
192,192,78649,128,0,78732:0:0:0:0:
64,192,78704,128,0,78788:0:0:0:0:
320,192,78760,128,0,78843:0:0:0:0:
192,192,78815,128,0,78899:0:0:0:0:
448,192,78899,128,0,78982:0:0:0:0:
320,192,78982,1,0,0:0:0:0:
64,192,78982,1,0,0:0:0:0:
192,192,79149,128,0,79260:0:0:0:0:
448,192,79232,128,0,79343:0:0:0:0:
192,192,79315,128,0,79399:0:0:0:0:
320,192,79399,1,0,0:0:0:0:
448,192,79427,128,0,79482:0:0:0:0:
64,192,79482,1,0,0:0:0:0:
192,192,79482,1,0,0:0:0:0:
320,192,79565,128,0,79649:0:0:0:0:
192,192,79649,1,0,0:0:0:0:
64,192,79649,1,0,0:0:0:0:
64,192,79815,128,0,79927:0:0:0:0:
320,192,79899,128,0,80010:0:0:0:0:
64,192,79982,1,0,0:0:0:0:
192,192,80010,1,0,0:0:0:0:
320,192,80065,128,0,80149:0:0:0:0:
192,192,80149,1,0,0:0:0:0:
64,192,80149,1,0,0:0:0:0:
320,192,80232,1,0,0:0:0:0:
448,192,80232,1,0,0:0:0:0:
64,192,80315,1,0,0:0:0:0:
448,192,80315,1,0,0:0:0:0:
192,192,80482,128,0,80593:0:0:0:0:
448,192,80565,128,0,80677:0:0:0:0:
192,192,80649,128,0,80732:0:0:0:0:
320,192,80732,1,0,0:0:0:0:
448,192,80760,128,0,80815:0:0:0:0:
64,192,80815,1,0,0:0:0:0:
320,192,80899,1,0,0:0:0:0:
192,192,80982,1,0,0:0:0:0:
64,192,80982,1,0,0:0:0:0:
320,192,81149,128,0,81232:0:0:0:0:
448,192,81204,128,0,81260:0:0:0:0:
64,192,81232,128,0,81315:0:0:0:0:
448,192,81315,128,0,81399:0:0:0:0:
192,192,81315,1,0,0:0:0:0:
192,192,81399,128,0,81482:0:0:0:0:
320,192,81482,128,0,81565:0:0:0:0:
64,192,81565,128,0,81649:0:0:0:0:
192,192,81649,1,0,0:0:0:0:
448,192,81649,1,0,0:0:0:0:
320,192,81815,128,0,81899:0:0:0:0:
64,192,81899,128,0,81982:0:0:0:0:
192,192,81982,128,0,82065:0:0:0:0:
320,192,82065,1,0,0:0:0:0:
448,192,82093,128,0,82149:0:0:0:0:
192,192,82149,1,0,0:0:0:0:
64,192,82149,1,0,0:0:0:0:
320,192,82232,1,0,0:0:0:0:
448,192,82232,1,0,0:0:0:0:
192,192,82315,1,0,0:0:0:0:
64,192,82315,1,0,0:0:0:0:
320,192,82482,128,0,82565:0:0:0:0:
192,192,82538,1,0,0:0:0:0:
64,192,82565,128,0,82649:0:0:0:0:
320,192,82649,128,0,82732:0:0:0:0:
64,192,82732,128,0,82795:0:0:0:0:
192,192,82774,128,0,82836:0:0:0:0:
448,192,82815,128,0,82982:0:0:0:0:
64,192,82982,1,0,0:0:0:0:
320,192,82982,1,0,0:0:0:0:
192,192,83149,128,0,83232:0:0:0:0:
64,192,83232,128,0,83315:0:0:0:0:
320,192,83315,128,0,83399:0:0:0:0:
64,192,83399,1,0,0:0:0:0:
192,192,83427,128,0,83482:0:0:0:0:
448,192,83482,128,0,83538:0:0:0:0:
320,192,83510,128,0,83565:0:0:0:0:
192,192,83565,128,0,83649:0:0:0:0:
320,192,83649,1,0,0:0:0:0:
448,192,83649,1,0,0:0:0:0:
320,192,83815,128,0,83899:0:0:0:0:
192,192,83899,128,0,83982:0:0:0:0:
64,192,83927,128,0,84010:0:0:0:0:
448,192,83982,128,0,84149:0:0:0:0:
320,192,83982,1,0,0:0:0:0:
320,192,84149,128,0,84232:0:0:0:0:
192,192,84232,128,0,84315:0:0:0:0:
448,192,84315,1,0,0:0:0:0:
64,192,84315,1,0,0:0:0:0:
192,192,84482,128,0,84565:0:0:0:0:
320,192,84565,128,0,84649:0:0:0:0:
64,192,84649,1,0,0:0:0:0:
448,192,84649,128,0,84732:0:0:0:0:
64,192,84732,1,0,0:0:0:0:
192,192,84760,128,0,84815:0:0:0:0:
448,192,84815,128,0,84899:0:0:0:0:
320,192,84899,128,0,84982:0:0:0:0:
192,192,84982,1,0,0:0:0:0:
64,192,84982,1,0,0:0:0:0:
64,192,85149,1,0,0:0:0:0:
320,192,85232,1,0,0:0:0:0:
192,192,85232,1,0,0:0:0:0:
448,192,85315,1,0,0:0:0:0:
64,192,85315,1,0,0:0:0:0:
320,192,85399,1,0,0:0:0:0:
192,192,85482,1,0,0:0:0:0:
64,192,85482,1,0,0:0:0:0:
448,192,85565,1,0,0:0:0:0:
320,192,85649,1,0,0:0:0:0:
64,192,85649,1,0,0:0:0:0:
64,192,85732,1,0,0:0:0:0:
192,192,85774,1,0,0:0:0:0:
320,192,85815,1,0,0:0:0:0:
448,192,85815,1,0,0:0:0:0:
192,192,85899,1,0,0:0:0:0:
64,192,85899,1,0,0:0:0:0:
320,192,85982,1,0,0:0:0:0:
448,192,86065,1,0,0:0:0:0:
64,192,86065,1,0,0:0:0:0:
192,192,86149,1,0,0:0:0:0:
320,192,86232,1,0,0:0:0:0:
192,192,86315,1,0,0:0:0:0:
64,192,86315,1,0,0:0:0:0:
192,192,86482,128,0,86593:0:0:0:0:
448,192,86565,128,0,86677:0:0:0:0:
192,192,86649,128,0,86732:0:0:0:0:
64,192,86704,128,0,86788:0:0:0:0:
320,192,86760,128,0,86871:0:0:0:0:
192,192,86815,128,0,86899:0:0:0:0:
448,192,86899,128,0,86982:0:0:0:0:
64,192,86982,1,0,0:0:0:0:
320,192,86982,1,0,0:0:0:0:
192,192,87149,128,0,87232:0:0:0:0:
64,192,87204,128,0,87288:0:0:0:0:
448,192,87260,128,0,87343:0:0:0:0:
320,192,87315,128,0,87399:0:0:0:0:
64,192,87399,1,0,0:0:0:0:
320,192,87482,1,0,0:0:0:0:
448,192,87482,1,0,0:0:0:0:
192,192,87538,128,0,87649:0:0:0:0:
64,192,87593,128,0,87649:0:0:0:0:
320,192,87649,1,0,0:0:0:0:
448,192,87649,1,0,0:0:0:0:
448,192,87815,128,0,87927:0:0:0:0:
64,192,87899,128,0,88010:0:0:0:0:
448,192,87982,128,0,88065:0:0:0:0:
320,192,88038,128,0,88121:0:0:0:0:
192,192,88093,128,0,88177:0:0:0:0:
448,192,88149,128,0,88232:0:0:0:0:
64,192,88232,128,0,88315:0:0:0:0:
192,192,88315,1,0,0:0:0:0:
448,192,88315,1,0,0:0:0:0:
320,192,88482,128,0,88593:0:0:0:0:
64,192,88565,128,0,88677:0:0:0:0:
320,192,88649,128,0,88732:0:0:0:0:
448,192,88732,1,0,0:0:0:0:
192,192,88760,128,0,88843:0:0:0:0:
64,192,88815,128,0,88899:0:0:0:0:
448,192,88899,128,0,88982:0:0:0:0:
192,192,88982,1,0,0:0:0:0:
64,192,88982,1,0,0:0:0:0:
448,192,89149,128,0,89260:0:0:0:0:
192,192,89232,128,0,89343:0:0:0:0:
320,192,89315,128,0,89399:0:0:0:0:
448,192,89371,128,0,89454:0:0:0:0:
192,192,89427,128,0,89510:0:0:0:0:
320,192,89482,128,0,89565:0:0:0:0:
64,192,89565,128,0,89649:0:0:0:0:
192,192,89649,1,0,0:0:0:0:
448,192,89649,1,0,0:0:0:0:
320,192,89815,128,0,89927:0:0:0:0:
64,192,89899,128,0,90010:0:0:0:0:
320,192,89982,128,0,90065:0:0:0:0:
192,192,90065,1,0,0:0:0:0:
64,192,90093,128,0,90149:0:0:0:0:
448,192,90149,1,0,0:0:0:0:
320,192,90149,1,0,0:0:0:0:
192,192,90232,128,0,90315:0:0:0:0:
320,192,90315,1,0,0:0:0:0:
448,192,90315,1,0,0:0:0:0:
448,192,90482,128,0,90593:0:0:0:0:
192,192,90565,128,0,90677:0:0:0:0:
448,192,90649,1,0,0:0:0:0:
320,192,90677,1,0,0:0:0:0:
192,192,90732,128,0,90815:0:0:0:0:
320,192,90815,1,0,0:0:0:0:
448,192,90815,1,0,0:0:0:0:
192,192,90899,1,0,0:0:0:0:
64,192,90899,1,0,0:0:0:0:
448,192,90982,1,0,0:0:0:0:
64,192,90982,1,0,0:0:0:0:
320,192,91149,128,0,91260:0:0:0:0:
64,192,91232,128,0,91343:0:0:0:0:
320,192,91315,128,0,91399:0:0:0:0:
192,192,91399,1,0,0:0:0:0:
64,192,91427,128,0,91482:0:0:0:0:
448,192,91482,128,0,91565:0:0:0:0:
64,192,91565,128,0,91649:0:0:0:0:
320,192,91649,1,0,0:0:0:0:
448,192,91649,1,0,0:0:0:0:
64,192,91815,1,0,0:0:0:0:
192,192,91857,128,0,91920:0:0:0:0:
448,192,91899,128,0,91982:0:0:0:0:
320,192,91982,1,0,0:0:0:0:
192,192,92065,128,0,92121:0:0:0:0:
64,192,92093,128,0,92149:0:0:0:0:
448,192,92149,128,0,92232:0:0:0:0:
192,192,92232,128,0,92315:0:0:0:0:
64,192,92315,1,0,0:0:0:0:
448,192,92315,1,0,0:0:0:0:
192,192,92482,128,0,92565:0:0:0:0:
448,192,92565,128,0,92649:0:0:0:0:
320,192,92649,128,0,92732:0:0:0:0:
64,192,92649,1,0,0:0:0:0:
64,192,92732,1,0,0:0:0:0:
192,192,92760,128,0,92815:0:0:0:0:
320,192,92815,1,0,0:0:0:0:
448,192,92815,1,0,0:0:0:0:
192,192,92899,1,0,0:0:0:0:
64,192,92899,1,0,0:0:0:0:
320,192,92982,1,0,0:0:0:0:
448,192,92982,1,0,0:0:0:0:
192,192,93149,128,0,93232:0:0:0:0:
64,192,93232,128,0,93315:0:0:0:0:
320,192,93274,128,0,93357:0:0:0:0:
448,192,93315,128,0,93399:0:0:0:0:
64,192,93399,128,0,93482:0:0:0:0:
192,192,93482,128,0,93649:0:0:0:0:
320,192,93538,128,0,93649:0:0:0:0:
448,192,93649,1,0,0:0:0:0:
64,192,93649,1,0,0:0:0:0:
320,192,93815,128,0,93899:0:0:0:0:
448,192,93899,128,0,93982:0:0:0:0:
192,192,93982,128,0,94065:0:0:0:0:
64,192,94065,1,0,0:0:0:0:
448,192,94093,128,0,94149:0:0:0:0:
320,192,94149,128,0,94232:0:0:0:0:
64,192,94232,128,0,94315:0:0:0:0:
320,192,94315,1,0,0:0:0:0:
448,192,94315,1,0,0:0:0:0:
192,192,94482,128,0,94565:0:0:0:0:
320,192,94565,128,0,94649:0:0:0:0:
64,192,94649,128,0,94815:0:0:0:0:
448,192,94732,128,0,94815:0:0:0:0:
192,192,94815,128,0,94899:0:0:0:0:
320,192,94899,128,0,94982:0:0:0:0:
64,192,94982,1,0,0:0:0:0:
448,192,94982,1,0,0:0:0:0:
320,192,95149,128,0,95232:0:0:0:0:
192,192,95232,128,0,95315:0:0:0:0:
448,192,95315,1,0,0:0:0:0:
64,192,95315,128,0,95399:0:0:0:0:
448,192,95399,1,0,0:0:0:0:
320,192,95427,128,0,95482:0:0:0:0:
64,192,95482,128,0,95565:0:0:0:0:
192,192,95565,128,0,95649:0:0:0:0:
320,192,95649,1,0,0:0:0:0:
448,192,95649,1,0,0:0:0:0:
64,192,95815,1,0,0:0:0:0:
192,192,95899,1,0,0:0:0:0:
320,192,95899,1,0,0:0:0:0:
64,192,95982,1,0,0:0:0:0:
448,192,95982,1,0,0:0:0:0:
192,192,96065,1,0,0:0:0:0:
320,192,96149,1,0,0:0:0:0:
448,192,96149,1,0,0:0:0:0:
64,192,96232,1,0,0:0:0:0:
192,192,96315,1,0,0:0:0:0:
448,192,96315,1,0,0:0:0:0:
448,192,96399,1,0,0:0:0:0:
320,192,96440,1,0,0:0:0:0:
192,192,96482,1,0,0:0:0:0:
64,192,96482,1,0,0:0:0:0:
320,192,96565,1,0,0:0:0:0:
448,192,96565,1,0,0:0:0:0:
192,192,96649,1,0,0:0:0:0:
64,192,96732,1,0,0:0:0:0:
448,192,96732,1,0,0:0:0:0:
320,192,96815,1,0,0:0:0:0:
192,192,96899,1,0,0:0:0:0:
320,192,96982,1,0,0:0:0:0:
448,192,96982,1,0,0:0:0:0:
320,192,97149,1,0,0:0:0:0:
448,192,97149,1,0,0:0:0:0:
192,192,97232,1,0,0:0:0:0:
64,192,97315,1,0,0:0:0:0:
448,192,97315,1,0,0:0:0:0:
320,192,97399,1,0,0:0:0:0:
64,192,97482,1,0,0:0:0:0:
192,192,97482,1,0,0:0:0:0:
448,192,97565,1,0,0:0:0:0:
64,192,97649,1,0,0:0:0:0:
320,192,97649,1,0,0:0:0:0:
64,192,97732,1,0,0:0:0:0:
192,192,97774,1,0,0:0:0:0:
448,192,97815,1,0,0:0:0:0:
320,192,97815,1,0,0:0:0:0:
64,192,97899,1,0,0:0:0:0:
192,192,97899,1,0,0:0:0:0:
320,192,97982,1,0,0:0:0:0:
64,192,98065,1,0,0:0:0:0:
448,192,98065,1,0,0:0:0:0:
192,192,98149,1,0,0:0:0:0:
320,192,98232,1,0,0:0:0:0:
64,192,98315,1,0,0:0:0:0:
192,192,98315,1,0,0:0:0:0:
448,192,98482,1,0,0:0:0:0:
192,192,98565,1,0,0:0:0:0:
320,192,98565,1,0,0:0:0:0:
448,192,98649,1,0,0:0:0:0:
64,192,98649,1,0,0:0:0:0:
192,192,98732,1,0,0:0:0:0:
320,192,98815,1,0,0:0:0:0:
448,192,98815,1,0,0:0:0:0:
64,192,98899,1,0,0:0:0:0:
448,192,98982,1,0,0:0:0:0:
192,192,98982,1,0,0:0:0:0:
448,192,99065,1,0,0:0:0:0:
320,192,99107,1,0,0:0:0:0:
192,192,99149,1,0,0:0:0:0:
64,192,99149,1,0,0:0:0:0:
320,192,99232,1,0,0:0:0:0:
448,192,99232,1,0,0:0:0:0:
192,192,99315,1,0,0:0:0:0:
64,192,99399,1,0,0:0:0:0:
448,192,99399,1,0,0:0:0:0:
320,192,99482,1,0,0:0:0:0:
64,192,99565,1,0,0:0:0:0:
320,192,99649,1,0,0:0:0:0:
448,192,99649,1,0,0:0:0:0:
64,192,99815,1,0,0:0:0:0:
192,192,99899,1,0,0:0:0:0:
320,192,99899,1,0,0:0:0:0:
64,192,99982,1,0,0:0:0:0:
448,192,99982,1,0,0:0:0:0:
320,192,100065,1,0,0:0:0:0:
64,192,100149,1,0,0:0:0:0:
192,192,100149,1,0,0:0:0:0:
448,192,100232,1,0,0:0:0:0:
64,192,100315,1,0,0:0:0:0:
320,192,100315,1,0,0:0:0:0:
64,192,100399,1,0,0:0:0:0:
192,192,100440,1,0,0:0:0:0:
320,192,100482,128,0,100565:0:0:0:0:
64,192,100565,128,0,100649:0:0:0:0:
320,192,100649,1,0,0:0:0:0:
192,192,100732,128,0,100815:0:0:0:0:
320,192,100815,1,0,0:0:0:0:
448,192,100899,128,0,100982:0:0:0:0:
64,192,100982,128,0,101121:0:0:0:0:
192,192,100982,128,0,101149:0:0:0:0:
320,192,101065,128,0,101149:0:0:0:0:
448,192,101093,128,0,101204:0:0:0:0:
64,192,101177,128,0,101232:0:0:0:0:
192,192,101204,128,0,101315:0:0:0:0:
320,192,101315,128,0,101628:0:0:0:0:
320,192,101677,128,0,101760:0:0:0:0:
192,192,101732,128,0,101843:0:0:0:0:
64,192,101815,128,0,101927:0:0:0:0:
192,192,101899,128,0,101954:0:0:0:0:
448,192,101982,1,0,0:0:0:0:
64,192,101982,128,0,102038:0:0:0:0:
320,192,102010,128,0,102093:0:0:0:0:
192,192,102315,128,0,102371:0:0:0:0:
320,192,102315,128,0,102371:0:0:0:0:
448,192,102482,1,0,0:0:0:0:
64,192,102482,128,0,102621:0:0:0:0:
192,192,102538,128,0,102593:0:0:0:0:
448,192,102649,1,0,0:0:0:0:
192,192,102649,128,0,102760:0:0:0:0:
320,192,102704,128,0,102760:0:0:0:0:
448,192,102815,1,0,0:0:0:0:
192,192,102815,128,0,102982:0:0:0:0:
64,192,102927,128,0,102982:0:0:0:0:
320,192,102982,1,0,0:0:0:0:
448,192,102982,1,0,0:0:0:0:
192,192,103121,128,0,103204:0:0:0:0:
320,192,103204,128,0,103371:0:0:0:0:
64,192,103315,1,0,0:0:0:0:
64,192,103399,1,0,0:0:0:0:
448,192,103427,128,0,103482:0:0:0:0:
192,192,103482,1,0,0:0:0:0:
320,192,103510,128,0,103649:0:0:0:0:
448,192,103565,128,0,103649:0:0:0:0:
64,192,103649,128,0,103704:0:0:0:0:
192,192,103649,128,0,103704:0:0:0:0:
192,192,103815,128,0,103899:0:0:0:0:
320,192,103871,128,0,103982:0:0:0:0:
448,192,103982,1,0,0:0:0:0:
64,192,103982,128,0,104121:0:0:0:0:
192,192,104038,128,0,104149:0:0:0:0:
320,192,104149,128,0,104315:0:0:0:0:
192,192,104204,128,0,104315:0:0:0:0:
448,192,104315,1,0,0:0:0:0:
64,192,104315,1,0,0:0:0:0:
320,192,104454,128,0,104538:0:0:0:0:
192,192,104482,128,0,104704:0:0:0:0:
448,192,104593,128,0,104677:0:0:0:0:
64,192,104649,128,0,104704:0:0:0:0:
448,192,104732,1,0,0:0:0:0:
64,192,104760,128,0,104982:0:0:0:0:
192,192,104815,128,0,104899:0:0:0:0:
448,192,104899,128,0,104982:0:0:0:0:
192,192,104982,128,0,105038:0:0:0:0:
320,192,104982,128,0,105038:0:0:0:0:
64,192,105149,1,0,0:0:0:0:
320,192,105149,128,0,105260:0:0:0:0:
448,192,105204,128,0,105315:0:0:0:0:
320,192,105315,1,0,0:0:0:0:
192,192,105371,128,0,105454:0:0:0:0:
320,192,105399,128,0,105482:0:0:0:0:
64,192,105482,128,0,105649:0:0:0:0:
192,192,105510,128,0,105649:0:0:0:0:
320,192,105649,1,0,0:0:0:0:
448,192,105649,1,0,0:0:0:0:
448,192,105788,128,0,105843:0:0:0:0:
320,192,105815,128,0,105954:0:0:0:0:
192,192,105899,128,0,105982:0:0:0:0:
448,192,105982,128,0,106038:0:0:0:0:
192,192,106065,1,0,0:0:0:0:
320,192,106093,128,0,106149:0:0:0:0:
64,192,106149,1,0,0:0:0:0:
448,192,106149,128,0,106315:0:0:0:0:
320,192,106232,128,0,106315:0:0:0:0:
64,192,106315,128,0,106371:0:0:0:0:
192,192,106315,128,0,106371:0:0:0:0:
320,192,106482,128,0,106649:0:0:0:0:
448,192,106538,128,0,106621:0:0:0:0:
192,192,106649,1,0,0:0:0:0:
64,192,106704,128,0,106815:0:0:0:0:
192,192,106760,128,0,106815:0:0:0:0:
320,192,106815,1,0,0:0:0:0:
448,192,106815,1,0,0:0:0:0:
320,192,106899,1,0,0:0:0:0:
448,192,106899,1,0,0:0:0:0:
64,192,106982,128,0,107065:0:0:0:0:
192,192,106982,128,0,107093:0:0:0:0:
192,192,107149,128,0,107232:0:0:0:0:
320,192,107232,128,0,107315:0:0:0:0:
448,192,107315,1,0,0:0:0:0:
64,192,107343,128,0,107454:0:0:0:0:
448,192,107399,1,0,0:0:0:0:
192,192,107427,128,0,107510:0:0:0:0:
320,192,107482,128,0,107538:0:0:0:0:
64,192,107538,128,0,107649:0:0:0:0:
192,192,107649,128,0,107704:0:0:0:0:
320,192,107649,128,0,107704:0:0:0:0:
448,192,107815,1,0,0:0:0:0:
64,192,107815,128,0,107954:0:0:0:0:
192,192,107871,128,0,107927:0:0:0:0:
448,192,107982,1,0,0:0:0:0:
192,192,107982,128,0,108093:0:0:0:0:
320,192,108038,128,0,108093:0:0:0:0:
448,192,108149,1,0,0:0:0:0:
192,192,108149,128,0,108315:0:0:0:0:
64,192,108260,128,0,108315:0:0:0:0:
320,192,108315,1,0,0:0:0:0:
448,192,108315,1,0,0:0:0:0:
192,192,108454,128,0,108538:0:0:0:0:
320,192,108538,128,0,108704:0:0:0:0:
64,192,108649,1,0,0:0:0:0:
64,192,108732,128,0,108871:0:0:0:0:
448,192,108760,128,0,108815:0:0:0:0:
192,192,108815,1,0,0:0:0:0:
320,192,108843,128,0,108982:0:0:0:0:
448,192,108899,128,0,108982:0:0:0:0:
64,192,108982,128,0,109038:0:0:0:0:
192,192,108982,128,0,109038:0:0:0:0:
320,192,109093,128,0,109177:0:0:0:0:
192,192,109149,128,0,109288:0:0:0:0:
448,192,109315,1,0,0:0:0:0:
64,192,109315,128,0,109454:0:0:0:0:
192,192,109371,128,0,109482:0:0:0:0:
320,192,109482,128,0,109649:0:0:0:0:
192,192,109538,128,0,109649:0:0:0:0:
448,192,109649,1,0,0:0:0:0:
64,192,109649,1,0,0:0:0:0:
320,192,109788,128,0,109871:0:0:0:0:
192,192,109815,128,0,110038:0:0:0:0:
448,192,109927,128,0,110010:0:0:0:0:
64,192,109982,128,0,110038:0:0:0:0:
448,192,110065,1,0,0:0:0:0:
64,192,110093,128,0,110315:0:0:0:0:
192,192,110149,128,0,110232:0:0:0:0:
448,192,110232,128,0,110315:0:0:0:0:
192,192,110315,128,0,110371:0:0:0:0:
320,192,110315,128,0,110371:0:0:0:0:
64,192,110371,128,0,110427:0:0:0:0:
192,192,110427,128,0,110482:0:0:0:0:
320,192,110482,128,0,110593:0:0:0:0:
448,192,110538,128,0,110649:0:0:0:0:
320,192,110649,128,0,110732:0:0:0:0:
192,192,110732,128,0,110815:0:0:0:0:
64,192,110815,128,0,110899:0:0:0:0:
192,192,110871,128,0,110927:0:0:0:0:
320,192,110927,128,0,110982:0:0:0:0:
448,192,110982,1,0,0:0:0:0:
64,192,110982,1,0,0:0:0:0:
448,192,111093,128,0,111177:0:0:0:0:
320,192,111149,128,0,111288:0:0:0:0:
192,192,111232,128,0,111315:0:0:0:0:
448,192,111315,128,0,111371:0:0:0:0:
192,192,111399,128,0,111454:0:0:0:0:
320,192,111427,128,0,111482:0:0:0:0:
64,192,111482,1,0,0:0:0:0:
448,192,111482,128,0,111649:0:0:0:0:
320,192,111565,128,0,111649:0:0:0:0:
64,192,111649,128,0,111704:0:0:0:0:
192,192,111649,128,0,111704:0:0:0:0:
320,192,111815,128,0,111982:0:0:0:0:
64,192,111815,1,0,0:0:0:0:
448,192,111871,128,0,111954:0:0:0:0:
64,192,111899,1,0,0:0:0:0:
192,192,111982,1,0,0:0:0:0:
64,192,112038,128,0,112149:0:0:0:0:
192,192,112065,128,0,112149:0:0:0:0:
320,192,112149,1,0,0:0:0:0:
448,192,112149,1,0,0:0:0:0:
320,192,112232,1,0,0:0:0:0:
448,192,112232,1,0,0:0:0:0:
64,192,112315,128,0,112399:0:0:0:0:
192,192,112315,128,0,112371:0:0:0:0:
320,192,112440,1,0,0:0:0:0:
448,192,112482,1,0,0:0:0:0:
448,192,112565,128,0,112649:0:0:0:0:
192,192,112649,128,0,112704:0:0:0:0:
320,192,112649,128,0,112704:0:0:0:0:
64,192,112732,128,0,112788:0:0:0:0:
448,192,112760,128,0,112815:0:0:0:0:
320,192,112815,128,0,112871:0:0:0:0:
192,192,112843,128,0,112927:0:0:0:0:
64,192,112899,128,0,112982:0:0:0:0:
192,192,112982,128,0,113065:0:0:0:0:
448,192,112982,128,0,113038:0:0:0:0:
320,192,113010,128,0,113093:0:0:0:0:
64,192,113065,128,0,113121:0:0:0:0:
192,192,113149,128,0,113232:0:0:0:0:
448,192,113204,128,0,113288:0:0:0:0:
320,192,113232,128,0,113315:0:0:0:0:
192,192,113315,128,0,113371:0:0:0:0:
64,192,113371,128,0,113427:0:0:0:0:
448,192,113399,128,0,113482:0:0:0:0:
320,192,113482,128,0,113538:0:0:0:0:
192,192,113510,128,0,113593:0:0:0:0:
64,192,113565,128,0,113621:0:0:0:0:
320,192,113649,128,0,113704:0:0:0:0:
192,192,113649,128,0,113704:0:0:0:0:
448,192,113732,128,0,113815:0:0:0:0:
192,192,113815,128,0,113871:0:0:0:0:
320,192,113843,128,0,113982:0:0:0:0:
448,192,113899,128,0,113982:0:0:0:0:
64,192,113982,128,0,114038:0:0:0:0:
192,192,113982,128,0,114038:0:0:0:0:
320,192,114065,128,0,114121:0:0:0:0:
192,192,114149,128,0,114260:0:0:0:0:
64,192,114232,128,0,114288:0:0:0:0:
192,192,114315,128,0,114371:0:0:0:0:
320,192,114315,128,0,114371:0:0:0:0:
448,192,114399,128,0,114454:0:0:0:0:
192,192,114482,128,0,114593:0:0:0:0:
64,192,114565,128,0,114621:0:0:0:0:
320,192,114649,128,0,114732:0:0:0:0:
192,192,114704,128,0,114760:0:0:0:0:
64,192,114732,128,0,114788:0:0:0:0:
448,192,114815,128,0,114899:0:0:0:0:
320,192,114843,128,0,114982:0:0:0:0:
192,192,114899,128,0,114954:0:0:0:0:
64,192,114982,128,0,115065:0:0:0:0:
448,192,114982,128,0,115038:0:0:0:0:
320,192,115038,128,0,115093:0:0:0:0:
192,192,115093,128,0,115232:0:0:0:0:
64,192,115149,128,0,115315:0:0:0:0:
448,192,115232,128,0,115315:0:0:0:0:
192,192,115315,128,0,115371:0:0:0:0:
320,192,115371,128,0,115427:0:0:0:0:
64,192,115399,128,0,115454:0:0:0:0:
192,192,115482,128,0,115545:0:0:0:0:
320,192,115524,128,0,115586:0:0:0:0:
448,192,115565,128,0,115628:0:0:0:0:
192,192,115649,128,0,115732:0:0:0:0:
320,192,115649,128,0,115704:0:0:0:0:
64,192,115732,128,0,115815:0:0:0:0:
192,192,115815,128,0,115878:0:0:0:0:
320,192,115857,128,0,115920:0:0:0:0:
448,192,115899,128,0,115982:0:0:0:0:
64,192,115982,1,0,0:0:0:0:
192,192,115982,128,0,116038:0:0:0:0:
320,192,116038,128,0,116149:0:0:0:0:
192,192,116149,128,0,116260:0:0:0:0:
64,192,116232,128,0,116315:0:0:0:0:
448,192,116315,128,0,116399:0:0:0:0:
192,192,116315,128,0,116371:0:0:0:0:
320,192,116399,128,0,116482:0:0:0:0:
64,192,116482,128,0,116565:0:0:0:0:
192,192,116524,128,0,116565:0:0:0:0:
320,192,116565,128,0,116607:0:0:0:0:
448,192,116607,128,0,116649:0:0:0:0:
64,192,116649,128,0,116760:0:0:0:0:
448,192,116732,128,0,116815:0:0:0:0:
192,192,116815,128,0,116927:0:0:0:0:
448,192,116871,128,0,116954:0:0:0:0:
320,192,116899,128,0,116982:0:0:0:0:
192,192,116982,1,0,0:0:0:0:
64,192,117038,128,0,117093:0:0:0:0:
192,192,117093,128,0,117149:0:0:0:0:
320,192,117149,128,0,117288:0:0:0:0:
448,192,117232,128,0,117315:0:0:0:0:
64,192,117315,128,0,117399:0:0:0:0:
448,192,117399,128,0,117482:0:0:0:0:
320,192,117427,128,0,117482:0:0:0:0:
64,192,117482,1,0,0:0:0:0:
192,192,117482,1,0,0:0:0:0:
64,192,117565,1,0,0:0:0:0:
192,192,117565,1,0,0:0:0:0:
448,192,117649,1,0,0:0:0:0:
320,192,117649,128,0,117788:0:0:0:0:
64,192,117732,128,0,117843:0:0:0:0:
192,192,117815,128,0,117927:0:0:0:0:
320,192,117899,128,0,117982:0:0:0:0:
64,192,117982,1,0,0:0:0:0:
192,192,117982,128,0,118121:0:0:0:0:
448,192,118065,128,0,118177:0:0:0:0:
320,192,118149,128,0,118260:0:0:0:0:
192,192,118232,128,0,118315:0:0:0:0:
320,192,118315,128,0,118371:0:0:0:0:
448,192,118315,128,0,118482:0:0:0:0:
320,192,118427,128,0,118538:0:0:0:0:
192,192,118482,128,0,118593:0:0:0:0:
64,192,118565,128,0,118649:0:0:0:0:
320,192,118649,128,0,118704:0:0:0:0:
448,192,118649,128,0,118815:0:0:0:0:
64,192,118760,128,0,118871:0:0:0:0:
192,192,118815,128,0,118927:0:0:0:0:
320,192,118899,128,0,118982:0:0:0:0:
192,192,118982,128,0,119038:0:0:0:0:
64,192,118982,128,0,119149:0:0:0:0:
192,192,119093,128,0,119204:0:0:0:0:
320,192,119149,128,0,119260:0:0:0:0:
448,192,119232,128,0,119315:0:0:0:0:
192,192,119315,128,0,119371:0:0:0:0:
64,192,119315,128,0,119482:0:0:0:0:
448,192,119427,128,0,119538:0:0:0:0:
320,192,119482,128,0,119593:0:0:0:0:
64,192,119538,128,0,119621:0:0:0:0:
192,192,119565,128,0,119649:0:0:0:0:
448,192,119649,128,0,119815:0:0:0:0:
320,192,119649,128,0,119704:0:0:0:0:
320,192,119760,128,0,119871:0:0:0:0:
64,192,119815,128,0,119899:0:0:0:0:
192,192,119843,128,0,119927:0:0:0:0:
448,192,119899,128,0,119982:0:0:0:0:
192,192,119982,128,0,120038:0:0:0:0:
64,192,119982,128,0,120121:0:0:0:0:
448,192,120093,128,0,120204:0:0:0:0:
320,192,120149,128,0,120260:0:0:0:0:
64,192,120177,128,0,120288:0:0:0:0:
192,192,120232,128,0,120315:0:0:0:0:
448,192,120315,128,0,120482:0:0:0:0:
64,192,120461,128,0,120565:0:0:0:0:
192,192,120565,128,0,120649:0:0:0:0:
448,192,120649,128,0,120732:0:0:0:0:
192,192,120732,128,0,120774:0:0:0:0:
64,192,120815,128,0,120871:0:0:0:0:
192,192,120843,1,0,0:0:0:0:
320,192,120899,128,0,120954:0:0:0:0:
192,192,120982,128,0,121149:0:0:0:0:
64,192,120982,1,0,0:0:0:0:
320,192,121038,1,0,0:0:0:0:
448,192,121065,128,0,121149:0:0:0:0:
64,192,121149,128,0,121232:0:0:0:0:
448,192,121232,1,0,0:0:0:0:
320,192,121232,128,0,121315:0:0:0:0:
64,192,121315,128,0,121482:0:0:0:0:
448,192,121482,1,0,0:0:0:0:
320,192,121482,128,0,121649:0:0:0:0:
192,192,121538,1,0,0:0:0:0:
64,192,121565,128,0,121649:0:0:0:0:
448,192,121649,128,0,121732:0:0:0:0:
192,192,121732,128,0,121815:0:0:0:0:
64,192,121732,1,0,0:0:0:0:
448,192,121815,128,0,121982:0:0:0:0:
64,192,121982,1,0,0:0:0:0:
192,192,121982,128,0,122149:0:0:0:0:
320,192,122038,1,0,0:0:0:0:
448,192,122065,128,0,122149:0:0:0:0:
64,192,122149,128,0,122232:0:0:0:0:
320,192,122232,128,0,122315:0:0:0:0:
448,192,122232,1,0,0:0:0:0:
192,192,122315,128,0,122482:0:0:0:0:
320,192,122482,128,0,122649:0:0:0:0:
448,192,122482,1,0,0:0:0:0:
192,192,122538,1,0,0:0:0:0:
64,192,122565,128,0,122649:0:0:0:0:
448,192,122649,128,0,122732:0:0:0:0:
64,192,122732,1,0,0:0:0:0:
192,192,122732,128,0,122815:0:0:0:0:
320,192,122815,128,0,122982:0:0:0:0:
64,192,122982,1,0,0:0:0:0:
192,192,122982,128,0,123149:0:0:0:0:
320,192,123038,1,0,0:0:0:0:
448,192,123065,128,0,123149:0:0:0:0:
320,192,123149,128,0,123232:0:0:0:0:
64,192,123232,128,0,123288:0:0:0:0:
448,192,123315,1,0,0:0:0:0:
320,192,123315,128,0,123649:0:0:0:0:
448,192,123593,128,0,123677:0:0:0:0:
64,192,123649,1,0,0:0:0:0:
192,192,123704,1,0,0:0:0:0:
64,192,123760,1,0,0:0:0:0:
320,192,123815,1,0,0:0:0:0:
448,192,123871,1,0,0:0:0:0:
320,192,123927,1,0,0:0:0:0:
192,192,123982,1,0,0:0:0:0:
64,192,123982,1,0,0:0:0:0:
448,192,124204,128,0,124621:0:0:0:0:
64,192,124427,1,0,0:0:0:0:
64,192,124538,1,0,0:0:0:0:
320,192,124649,128,0,124732:0:0:0:0:
448,192,124690,128,0,124753:0:0:0:0:
192,192,124732,128,0,124815:0:0:0:0:
320,192,124815,128,0,124982:0:0:0:0:
320,192,125038,128,0,125093:0:0:0:0:
448,192,125093,128,0,125149:0:0:0:0:
64,192,125149,128,0,125204:0:0:0:0:
192,192,125204,128,0,125427:0:0:0:0:
320,192,125315,1,0,0:0:0:0:
320,192,125427,1,0,0:0:0:0:
448,192,125482,128,0,125871:0:0:0:0:
192,192,125538,1,0,0:0:0:0:
192,192,125760,1,0,0:0:0:0:
192,192,125871,1,0,0:0:0:0:
64,192,125899,128,0,125982:0:0:0:0:
320,192,125982,128,0,126038:0:0:0:0:
192,192,126038,128,0,126093:0:0:0:0:
448,192,126093,1,0,0:0:0:0:
320,192,126149,128,0,126232:0:0:0:0:
64,192,126232,128,0,126315:0:0:0:0:
192,192,126315,128,0,126649:0:0:0:0:
448,192,126427,1,0,0:0:0:0:
448,192,126538,1,0,0:0:0:0:
320,192,126649,128,0,126704:0:0:0:0:
448,192,126704,128,0,126815:0:0:0:0:
192,192,126815,128,0,126871:0:0:0:0:
320,192,126871,128,0,126982:0:0:0:0:
448,192,126954,128,0,127010:0:0:0:0:
64,192,126982,128,0,127093:0:0:0:0:
192,192,127093,128,0,127204:0:0:0:0:
320,192,127204,128,0,127315:0:0:0:0:
64,192,127315,128,0,127427:0:0:0:0:
320,192,127427,128,0,127538:0:0:0:0:
192,192,127538,128,0,127704:0:0:0:0:
64,192,127649,128,0,127732:0:0:0:0:
448,192,127704,128,0,127788:0:0:0:0:
320,192,127760,128,0,127899:0:0:0:0:
192,192,127899,128,0,128343:0:0:0:0:
64,192,128065,128,0,128315:0:0:0:0:
192,192,128399,128,0,128649:0:0:0:0:
320,192,128649,128,0,129149:0:0:0:0:
448,192,128760,128,0,129121:0:0:0:0:
192,192,129149,128,0,129315:0:0:0:0:
64,192,129315,128,0,129538:0:0:0:0:
448,192,129510,128,0,129565:0:0:0:0:
320,192,129538,128,0,129649:0:0:0:0:
64,192,129649,128,0,129704:0:0:0:0:
192,192,129677,128,0,129760:0:0:0:0:
