osu file format v14

[General]
AudioFilename: audio.mp3
AudioLeadIn: 0
PreviewTime: 19601
Countdown: 0
SampleSet: Soft
StackLeniency: 0.7
Mode: 3
LetterboxInBreaks: 0
SpecialStyle: 0
WidescreenStoryboard: 1

[Editor]
DistanceSpacing: 1.3
BeatDivisor: 16
GridSize: 32
TimelineZoom: 1.7

[Metadata]
Title:The Ricochet
TitleUnicode:The Ricochet
Artist:Sta
ArtistUnicode:Sta
Creator:Tantei B
Version:Sustainable Vector
Source:Cytus
Tags:sv dreamwalker
BeatmapID:1923098
BeatmapSetID:920876

[Difficulty]
HPDrainRate:8.9
CircleSize:4
OverallDifficulty:8.2
ApproachRate:5
SliderMultiplier:1.4
SliderTickRate:1

[Events]
//Background and Video events
0,0,"RicochetBG.jpg",0,0
//Break Periods
//Storyboard Layer 0 (Background)
//Storyboard Layer 1 (Fail)
//Storyboard Layer 2 (Pass)
//Storyboard Layer 3 (Foreground)
//Storyboard Sound Samples

[TimingPoints]
2300,333.333333333333,4,2,1,0,1,0
2300,-250,4,2,1,0,0,0
3633,-232.558139534884,4,2,1,0,0,0
4966,-217.391304347826,4,2,1,0,0,0
5633,-200,4,2,1,0,0,0
6299,-181.818181818182,4,2,1,0,0,0
6966,-166.666666666667,4,2,1,0,0,0
7299,-142.857142857143,4,2,1,0,0,0
7466,-125,4,2,1,0,0,0
7633,-111.111111111111,4,2,1,0,0,0
7799,-99.9999999999999,4,2,1,0,0,0
7966,-90.9090909090909,4,2,1,0,0,0
8049,-83.3333333333333,4,2,1,0,0,0
8133,-74.0740740740741,4,2,1,0,0,0
8216,-66.6666666666667,4,2,1,0,0,0
8300,-10,4,2,1,0,0,0
8327,-1000,4,2,1,0,0,0
8355,-27.027027027027,4,2,1,0,0,0
8362,-1000,4,2,1,0,0,0
8411,-27.027027027027,4,2,1,0,0,0
8418,-1000,4,2,1,0,0,0
8466,-27.027027027027,4,2,1,0,0,0
8473,-1000,4,2,1,0,0,0
8522,-27.027027027027,4,2,1,0,0,0
8529,-1000,4,2,1,0,0,0
8577,-27.027027027027,4,2,1,0,0,0
8584,-1000,4,2,1,0,0,0
8633,-27.027027027027,4,2,1,0,0,0
8640,-1000,4,2,1,0,0,0
8689,-27.027027027027,4,2,1,0,0,0
8696,-1000,4,2,1,0,0,0
8744,-27.027027027027,4,2,1,0,0,0
8751,-1000,4,2,1,0,0,0
8800,-27.027027027027,4,2,1,0,0,0
8807,-1000,4,2,1,0,0,0
8855,-27.027027027027,4,2,1,0,0,0
8862,-1000,4,2,1,0,0,0
8911,-27.027027027027,4,2,1,0,0,0
8918,-1000,4,2,1,0,0,0
8966,-111.111111111111,4,2,1,0,0,0
9299,-10,4,2,1,0,0,0
9341,-66.6666666666667,4,2,1,0,0,0
9383,-83.3333333333333,4,2,1,0,0,0
9425,-100,4,2,1,0,0,0
9466,-117.647058823529,4,2,1,0,0,0
9508,-142.857142857143,4,2,1,0,0,0
9549,-166.666666666667,4,2,1,0,0,0
9591,-200,4,2,1,0,0,0
9633,-100,4,2,1,0,0,0
9716,-98.0392156862745,4,2,1,0,0,0
9799,-95.2380952380952,4,2,1,0,0,0
9883,-92.5925925925926,4,2,1,0,0,0
9966,-89.2857142857143,4,2,1,0,0,0
10049,-86.2068965517241,4,2,1,0,0,0
10132,-83.3333333333333,4,2,1,0,0,0
10216,-80,4,2,1,0,0,0
10299,-100,4,2,1,0,0,0
10382,-106.382978723404,4,2,1,0,0,0
10465,-112.359550561798,4,2,1,0,0,0
10549,-117.647058823529,4,2,1,0,0,0
10632,-121.951219512195,4,2,1,0,0,0
10715,-126.582278481013,4,2,1,0,0,0
10798,-129.87012987013,4,2,1,0,0,0
10882,-133.333333333333,4,2,1,0,0,0
10966,-90.9090909090909,4,2,1,0,0,0
11049,-96.1538461538461,4,2,1,0,0,0
11133,-103.092783505155,4,2,1,0,0,0
11216,-111.111111111111,4,2,1,0,0,0
11299,-10,4,2,1,0,0,0
11327,-133.333333333333,4,2,1,0,0,0
12299,-66.6666666666667,4,2,1,0,0,0
12320,-153.846153846154,4,2,1,0,0,0
12466,-66.6666666666667,4,2,1,0,0,0
12487,-153.846153846154,4,2,1,0,0,0
12633,-66.6666666666667,4,2,1,0,0,0
12654,-153.846153846154,4,2,1,0,0,0
12799,-66.6666666666667,4,2,1,0,0,0
12820,-153.846153846154,4,2,1,0,0,0
12966,-66.6666666666667,4,2,1,0,0,0
12987,-153.846153846154,4,2,1,0,0,0
13133,-66.6666666666667,4,2,1,0,0,0
13154,-153.846153846154,4,2,1,0,0,0
13299,-10,4,2,1,0,0,0
13327,-142.857142857143,4,2,1,0,0,0
13466,-136.986301369863,4,2,1,0,0,0
13549,-131.578947368421,4,2,1,0,0,0
13633,-125,4,2,1,0,0,0
13716,-119.047619047619,4,2,1,0,0,0
13799,-111.111111111111,4,2,1,0,0,0
13883,-102.040816326531,4,2,1,0,0,0
13966,-90.9090909090909,4,2,1,0,0,0
14049,-80.6451612903226,4,2,1,0,0,0
14132,-71.4285714285714,4,2,1,0,0,0
14216,-62.5,4,2,1,0,0,0
14299,-22.2222222222222,4,2,1,0,0,0
14309,-1000,4,2,1,0,0,0
14362,-22.2222222222222,4,2,1,0,0,0
14372,-1000,4,2,1,0,0,0
14424,-22.2222222222222,4,2,1,0,0,0
14434,-1000,4,2,1,0,0,0
14487,-22.2222222222222,4,2,1,0,0,0
14497,-1000,4,2,1,0,0,0
14550,-22.2222222222222,4,2,1,0,0,0
14560,-1000,4,2,1,0,0,0
14612,-22.2222222222222,4,2,1,0,0,0
14622,-1000,4,2,1,0,0,0
14674,-22.2222222222222,4,2,1,0,0,0
14684,-1000,4,2,1,0,0,0
14737,-22.2222222222222,4,2,1,0,0,0
14747,-1000,4,2,1,0,0,0
14799,-22.2222222222222,4,2,1,0,0,0
14809,-1000,4,2,1,0,0,0
14862,-22.2222222222222,4,2,1,0,0,0
14872,-1000,4,2,1,0,0,0
14925,-22.2222222222222,4,2,1,0,0,0
14935,-1000,4,2,1,0,0,0
14966,-30.3030303030303,4,2,1,0,0,0
14976,-1000,4,2,1,0,0,0
15008,-30.3030303030303,4,2,1,0,0,0
15018,-1000,4,2,1,0,0,0
15049,-30.3030303030303,4,2,1,0,0,0
15059,-1000,4,2,1,0,0,0
15091,-30.3030303030303,4,2,1,0,0,0
15101,-1000,4,2,1,0,0,0
15133,-30.3030303030303,4,2,1,0,0,0
15143,-1000,4,2,1,0,0,0
15175,-30.3030303030303,4,2,1,0,0,0
15185,-1000,4,2,1,0,0,0
15216,-30.3030303030303,4,2,1,0,0,0
15226,-1000,4,2,1,0,0,0
15258,-30.3030303030303,4,2,1,0,0,0
15268,-1000,4,2,1,0,0,0
15299,-30.3030303030303,4,2,1,0,0,0
15309,-1000,4,2,1,0,0,0
15341,-30.3030303030303,4,2,1,0,0,0
15351,-1000,4,2,1,0,0,0
15382,-30.3030303030303,4,2,1,0,0,0
15392,-1000,4,2,1,0,0,0
15424,-30.3030303030303,4,2,1,0,0,0
15434,-1000,4,2,1,0,0,0
15466,-30.3030303030303,4,2,1,0,0,0
15476,-1000,4,2,1,0,0,0
15508,-30.3030303030303,4,2,1,0,0,0
15518,-1000,4,2,1,0,0,0
15549,-30.3030303030303,4,2,1,0,0,0
15559,-1000,4,2,1,0,0,0
15591,-30.3030303030303,4,2,1,0,0,0
15601,-1000,4,2,1,0,0,0
15633,-26.3157894736842,4,2,1,0,0,0
15643,-1000,4,2,1,0,0,0
15675,-26.3157894736842,4,2,1,0,0,0
15685,-1000,4,2,1,0,0,0
15716,-26.3157894736842,4,2,1,0,0,0
15726,-1000,4,2,1,0,0,0
15758,-26.3157894736842,4,2,1,0,0,0
15768,-1000,4,2,1,0,0,0
15799,-26.3157894736842,4,2,1,0,0,0
15809,-1000,4,2,1,0,0,0
15841,-26.3157894736842,4,2,1,0,0,0
15851,-1000,4,2,1,0,0,0
15882,-26.3157894736842,4,2,1,0,0,0
15892,-1000,4,2,1,0,0,0
15924,-26.3157894736842,4,2,1,0,0,0
15934,-1000,4,2,1,0,0,0
15966,-26.3157894736842,4,2,1,0,0,0
15976,-1000,4,2,1,0,0,0
16008,-26.3157894736842,4,2,1,0,0,0
16018,-1000,4,2,1,0,0,0
16049,-26.3157894736842,4,2,1,0,0,0
16059,-1000,4,2,1,0,0,0
16091,-26.3157894736842,4,2,1,0,0,0
16101,-1000,4,2,1,0,0,0
16133,-26.3157894736842,4,2,1,0,0,0
16143,-1000,4,2,1,0,0,0
16175,-26.3157894736842,4,2,1,0,0,0
16185,-1000,4,2,1,0,0,0
16216,-26.3157894736842,4,2,1,0,0,0
16226,-1000,4,2,1,0,0,0
16258,-26.3157894736842,4,2,1,0,0,0
16268,-1000,4,2,1,0,0,0
16299,-38.4615384615385,4,2,1,0,0,0
16309,-1000,4,2,1,0,0,0
16341,-38.4615384615385,4,2,1,0,0,0
16351,-1000,4,2,1,0,0,0
16383,-38.4615384615385,4,2,1,0,0,0
16393,-1000,4,2,1,0,0,0
16424,-38.4615384615385,4,2,1,0,0,0
16434,-1000,4,2,1,0,0,0
16466,-38.4615384615385,4,2,1,0,0,0
16476,-1000,4,2,1,0,0,0
16508,-38.4615384615385,4,2,1,0,0,0
16518,-1000,4,2,1,0,0,0
16550,-38.4615384615385,4,2,1,0,0,0
16560,-1000,4,2,1,0,0,0
16591,-38.4615384615385,4,2,1,0,0,0
16601,-1000,4,2,1,0,0,0
16633,-16.6666666666667,4,2,1,0,0,0
16661,-166.666666666667,4,2,1,0,0,0
16716,-142.857142857143,4,2,1,0,0,0
16799,-111.111111111111,4,2,1,0,0,0
16883,-80,4,2,1,0,0,0
16966,-29.4117647058824,4,2,1,0,0,0
16976,-1000,4,2,1,0,0,0
17008,-29.4117647058824,4,2,1,0,0,0
17018,-1000,4,2,1,0,0,0
17049,-29.4117647058824,4,2,1,0,0,0
17059,-1000,4,2,1,0,0,0
17091,-29.4117647058824,4,2,1,0,0,0
17101,-1000,4,2,1,0,0,0
17133,-29.4117647058824,4,2,1,0,0,0
17143,-1000,4,2,1,0,0,0
17175,-29.4117647058824,4,2,1,0,0,0
17185,-1000,4,2,1,0,0,0
17216,-29.4117647058824,4,2,1,0,0,0
17226,-1000,4,2,1,0,0,0
17258,-29.4117647058824,4,2,1,0,0,0
17268,-1000,4,2,1,0,0,0
17299,-29.4117647058824,4,2,1,0,0,0
17309,-1000,4,2,1,0,0,0
17341,-29.4117647058824,4,2,1,0,0,0
17351,-1000,4,2,1,0,0,0
17382,-29.4117647058824,4,2,1,0,0,0
17392,-1000,4,2,1,0,0,0
17424,-29.4117647058824,4,2,1,0,0,0
17434,-1000,4,2,1,0,0,0
17466,-32.2580645161291,4,2,1,0,0,0
17476,-1000,4,2,1,0,0,0
17508,-32.2580645161291,4,2,1,0,0,0
17518,-1000,4,2,1,0,0,0
17549,-30.3030303030303,4,2,1,0,0,0
17559,-1000,4,2,1,0,0,0
17591,-30.3030303030303,4,2,1,0,0,0
17601,-1000,4,2,1,0,0,0
17633,-27.027027027027,4,2,1,0,0,0
17643,-1000,4,2,1,0,0,0
17675,-27.027027027027,4,2,1,0,0,0
17685,-1000,4,2,1,0,0,0
17716,-27.027027027027,4,2,1,0,0,0
17726,-1000,4,2,1,0,0,0
17758,-27.027027027027,4,2,1,0,0,0
17768,-1000,4,2,1,0,0,0
17799,-22.7272727272727,4,2,1,0,0,0
17809,-1000,4,2,1,0,0,0
17841,-22.7272727272727,4,2,1,0,0,0
17851,-1000,4,2,1,0,0,0
17882,-22.7272727272727,4,2,1,0,0,0
17892,-1000,4,2,1,0,0,0
17924,-22.7272727272727,4,2,1,0,0,0
17934,-1000,4,2,1,0,0,0
17966,-22.7272727272727,4,2,1,0,0,0
17976,-1000,4,2,1,0,0,0
18008,-22.7272727272727,4,2,1,0,0,0
18018,-1000,4,2,1,0,0,0
18049,-22.7272727272727,4,2,1,0,0,0
18059,-1000,4,2,1,0,0,0
18091,-22.7272727272727,4,2,1,0,0,0
18101,-1000,4,2,1,0,0,0
18133,-22.7272727272727,4,2,1,0,0,0
18143,-1000,4,2,1,0,0,0
18175,-22.7272727272727,4,2,1,0,0,0
18185,-1000,4,2,1,0,0,0
18216,-22.7272727272727,4,2,1,0,0,0
18226,-1000,4,2,1,0,0,0
18258,-22.7272727272727,4,2,1,0,0,0
18268,-1000,4,2,1,0,0,0
18299,-50,4,2,1,0,0,0
18341,-100,4,2,1,0,0,0
18383,-200,4,2,1,0,0,0
18466,-52.6315789473684,4,2,1,0,0,0
18487,-142.857142857143,4,2,1,0,0,0
18549,-52.6315789473684,4,2,1,0,0,0
18570,-142.857142857143,4,2,1,0,0,0
18633,-52.6315789473684,4,2,1,0,0,0
18654,-142.857142857143,4,2,1,0,0,0
18716,-52.6315789473684,4,2,1,0,0,0
18737,-142.857142857143,4,2,1,0,0,0
18799,-15.8730158730159,4,2,1,0,0,0
18811,-1000,4,2,1,0,0,0
18883,-15.8730158730159,4,2,1,0,0,0
18895,-1000,4,2,1,0,0,0
18966,-33.3333333333333,4,2,1,0,0,0
18987,-142.857142857143,4,2,1,0,0,0
19049,-100,4,2,1,0,0,0
19133,-15.8730158730159,4,2,1,0,0,0
19145,-1000,4,2,1,0,0,0
19217,-15.8730158730159,4,2,1,0,0,0
19229,-1000,4,2,1,0,0,0
19299,-10,4,2,1,0,0,0
19327,-250.000000000001,4,2,1,0,0,0
19424,-200,4,2,1,0,0,0
19466,-153.846153846154,4,2,1,0,0,0
19508,-111.111111111111,4,2,1,0,0,0
19549,-71.4285714285714,4,2,1,0,0,0
19591,-41.6666666666667,4,2,1,0,0,0
19633,-100,4,2,1,0,0,1
20299,-16.1290322580645,4,2,1,0,0,1
20309,-666.666666666667,4,2,1,0,0,1
20341,-250.000000000001,4,2,1,0,0,1
20383,-100,4,2,1,0,0,1
20633,-37.7358490566038,4,2,1,0,0,1
20654,-222.222222222223,4,2,1,0,0,1
20716,-37.7358490566038,4,2,1,0,0,1
20737,-222.222222222223,4,2,1,0,0,1
20799,-181.818181818182,4,2,1,0,0,1
20841,-142.857142857143,4,2,1,0,0,1
20882,-83.3333333333333,4,2,1,0,0,1
20924,-43.4782608695652,4,2,1,0,0,1
20966,-100,4,2,1,0,0,1
21633,-16.1290322580645,4,2,1,0,0,1
21643,-666.666666666667,4,2,1,0,0,1
21675,-250.000000000001,4,2,1,0,0,1
21717,-100,4,2,1,0,0,1
22049,-37.037037037037,4,2,1,0,0,1
22070,-142.857142857143,4,2,1,0,0,1
22091,-333.333333333333,4,2,1,0,0,1
22133,-37.037037037037,4,2,1,0,0,1
22154,-142.857142857143,4,2,1,0,0,1
22175,-333.333333333333,4,2,1,0,0,1
22216,-37.037037037037,4,2,1,0,0,1
22237,-142.857142857143,4,2,1,0,0,1
22258,-333.333333333333,4,2,1,0,0,1
22299,-100,4,2,1,0,0,1
22966,-16.1290322580645,4,2,1,0,0,1
22976,-666.666666666667,4,2,1,0,0,1
23008,-250.000000000001,4,2,1,0,0,1
23050,-100,4,2,1,0,0,1
23299,-37.7358490566038,4,2,1,0,0,1
23320,-222.222222222223,4,2,1,0,0,1
23382,-37.7358490566038,4,2,1,0,0,1
23403,-222.222222222223,4,2,1,0,0,1
23465,-181.818181818182,4,2,1,0,0,1
23507,-142.857142857143,4,2,1,0,0,1
23548,-83.3333333333333,4,2,1,0,0,1
23590,-43.4782608695652,4,2,1,0,0,1
23632,-100,4,2,1,0,0,1
24133,-37.7358490566038,4,2,1,0,0,1
24154,-222.222222222223,4,2,1,0,0,1
24216,-37.7358490566038,4,2,1,0,0,1
24237,-222.222222222223,4,2,1,0,0,1
24299,-16.1290322580645,4,2,1,0,0,1
24309,-666.666666666667,4,2,1,0,0,1
24341,-250.000000000001,4,2,1,0,0,1
24383,-100,4,2,1,0,0,1
24799,-181.818181818182,4,2,1,0,0,1
24841,-142.857142857143,4,2,1,0,0,1
24882,-83.3333333333333,4,2,1,0,0,1
24924,-43.4782608695652,4,2,1,0,0,1
24966,-100,4,2,1,0,0,1
25633,-16.1290322580645,4,2,1,0,0,1
25643,-666.666666666667,4,2,1,0,0,1
25675,-250.000000000001,4,2,1,0,0,1
25717,-100,4,2,1,0,0,1
25966,-37.7358490566038,4,2,1,0,0,1
25987,-222.222222222223,4,2,1,0,0,1
26049,-37.7358490566038,4,2,1,0,0,1
26070,-222.222222222223,4,2,1,0,0,1
26132,-181.818181818182,4,2,1,0,0,1
26174,-142.857142857143,4,2,1,0,0,1
26215,-83.3333333333333,4,2,1,0,0,1
26257,-43.4782608695652,4,2,1,0,0,1
26299,-100,4,2,1,0,0,1
26966,-16.1290322580645,4,2,1,0,0,1
26976,-666.666666666667,4,2,1,0,0,1
27008,-250.000000000001,4,2,1,0,0,1
27050,-100,4,2,1,0,0,1
27382,-37.037037037037,4,2,1,0,0,1
27403,-142.857142857143,4,2,1,0,0,1
27424,-333.333333333333,4,2,1,0,0,1
27466,-37.037037037037,4,2,1,0,0,1
27487,-142.857142857143,4,2,1,0,0,1
27508,-333.333333333333,4,2,1,0,0,1
27549,-37.037037037037,4,2,1,0,0,1
27570,-142.857142857143,4,2,1,0,0,1
27591,-333.333333333333,4,2,1,0,0,1
27632,-100,4,2,1,0,0,1
28299,-16.1290322580645,4,2,1,0,0,1
28309,-666.666666666667,4,2,1,0,0,1
28341,-250.000000000001,4,2,1,0,0,1
28383,-100,4,2,1,0,0,1
28632,-37.7358490566038,4,2,1,0,0,1
28653,-222.222222222223,4,2,1,0,0,1
28715,-37.7358490566038,4,2,1,0,0,1
28736,-222.222222222223,4,2,1,0,0,1
28798,-181.818181818182,4,2,1,0,0,1
28840,-142.857142857143,4,2,1,0,0,1
28881,-83.3333333333333,4,2,1,0,0,1
28923,-43.4782608695652,4,2,1,0,0,1
28965,-100,4,2,1,0,0,1
29466,-37.7358490566038,4,2,1,0,0,1
29487,-222.222222222223,4,2,1,0,0,1
29549,-37.7358490566038,4,2,1,0,0,1
29570,-222.222222222223,4,2,1,0,0,1
29632,-100,4,2,1,0,0,1
29758,-37.7358490566038,4,2,1,0,0,1
29768,-222.222222222223,4,2,1,0,0,1
29799,-37.7358490566038,4,2,1,0,0,1
29820,-222.222222222223,4,2,1,0,0,1
29882,-37.7358490566038,4,2,1,0,0,1
29903,-222.222222222223,4,2,1,0,0,1
29966,-117.647058823529,4,2,1,0,0,1
29994,-114.942528735632,4,2,1,0,0,1
30022,-112.359550561798,4,2,1,0,0,1
30050,-108.695652173913,4,2,1,0,0,1
30077,-105.263157894737,4,2,1,0,0,1
30105,-101.010101010101,4,2,1,0,0,1
30133,-97.0873786407767,4,2,1,0,0,1
30161,-92.5925925925926,4,2,1,0,0,1
30189,-87.719298245614,4,2,1,0,0,1
30217,-82.6446280991736,4,2,1,0,0,1
30244,-78.125,4,2,1,0,0,1
30272,-74.0740740740741,4,2,1,0,0,1
30299,-52.6315789473684,4,2,1,0,0,1
30341,-1000,4,2,1,0,0,1
30383,-100,4,2,1,0,0,1
30966,-10,4,2,1,0,0,1
30971,-100,4,2,1,0,0,1
31633,-52.6315789473684,4,2,1,0,0,1
31675,-1000,4,2,1,0,0,1
31717,-100,4,2,1,0,0,1
32299,-10,4,2,1,0,0,1
32304,-100,4,2,1,0,0,1
32966,-52.6315789473684,4,2,1,0,0,1
33008,-1000,4,2,1,0,0,1
33050,-100,4,2,1,0,0,1
33633,-10,4,2,1,0,0,1
33638,-100,4,2,1,0,0,1
34799,-35.7142857142857,4,2,1,0,0,1
34820,-250,4,2,1,0,0,1
34883,-35.7142857142857,4,2,1,0,0,1
34904,-250,4,2,1,0,0,1
34967,-25,4,2,1,0,0,1
34987,-55.5555555555556,4,2,1,0,0,1
35008,-111.111111111111,4,2,1,0,0,1
35049,-166.666666666667,4,2,1,0,0,1
35133,-35.7142857142857,4,2,1,0,0,1
35154,-250,4,2,1,0,0,1
35217,-35.7142857142857,4,2,1,0,0,1
35238,-250,4,2,1,0,0,1
35299,-20,4,2,1,0,0,1
35320,-142.857142857143,4,2,1,0,0,1
35341,-400,4,2,1,0,0,1
35383,-28.5714285714286,4,2,1,0,0,1
35404,-142.857142857143,4,2,1,0,0,1
35424,-400,4,2,1,0,0,1
35466,-37.037037037037,4,2,1,0,0,1
35487,-142.857142857143,4,2,1,0,0,1
35508,-400,4,2,1,0,0,1
35549,-50,4,2,1,0,0,1
35570,-142.857142857143,4,2,1,0,0,1
35591,-400,4,2,1,0,0,1
35633,-52.6315789473684,4,2,1,0,0,1
35675,-1000,4,2,1,0,0,1
35717,-100,4,2,1,0,0,1
35966,-52.6315789473684,4,2,1,0,0,1
36008,-1000,4,2,1,0,0,1
36050,-100,4,2,1,0,0,1
36299,-52.6315789473684,4,2,1,0,0,1
36341,-1000,4,2,1,0,0,1
36383,-100,4,2,1,0,0,1
36633,-52.6315789473684,4,2,1,0,0,1
36675,-1000,4,2,1,0,0,1
36717,-100,4,2,1,0,0,1
36966,-52.6315789473684,4,2,1,0,0,1
37008,-1000,4,2,1,0,0,1
37050,-100,4,2,1,0,0,1
37299,-52.6315789473684,4,2,1,0,0,1
37341,-1000,4,2,1,0,0,1
37383,-100,4,2,1,0,0,1
37633,-52.6315789473684,4,2,1,0,0,1
37675,-1000,4,2,1,0,0,1
37717,-100,4,2,1,0,0,1
37883,-32.258064516129,4,2,1,0,0,1
37904,-333.333333333333,4,2,1,0,0,1
37966,-52.6315789473684,4,2,1,0,0,1
38008,-1000,4,2,1,0,0,1
38050,-100,4,2,1,0,0,1
38133,-32.258064516129,4,2,1,0,0,1
38154,-333.333333333333,4,2,1,0,0,1
38216,-100,4,2,1,0,0,1
38299,-13.3333333333333,4,2,1,0,0,1
38309,-1000,4,2,1,0,0,1
38340,-33.3333333333333,4,2,1,0,0,1
38350,-1000,4,2,1,0,0,1
38382,-33.3333333333333,4,2,1,0,0,1
38392,-1000,4,2,1,0,0,1
38423,-33.3333333333333,4,2,1,0,0,1
38433,-1000,4,2,1,0,0,1
38465,-100,4,2,1,0,0,1
38633,-52.6315789473684,4,2,1,0,0,1
38675,-1000,4,2,1,0,0,1
38717,-100,4,2,1,0,0,1
38966,-52.6315789473684,4,2,1,0,0,1
39008,-1000,4,2,1,0,0,1
39050,-23.8095238095238,4,2,1,0,0,1
39060,-1000,4,2,1,0,0,1
39091,-23.8095238095238,4,2,1,0,0,1
39101,-1000,4,2,1,0,0,1
39133,-23.8095238095238,4,2,1,0,0,1
39143,-1000,4,2,1,0,0,1
39174,-23.8095238095238,4,2,1,0,0,1
39184,-1000,4,2,1,0,0,1
39216,-100,4,2,1,0,0,1
39299,-52.6315789473684,4,2,1,0,0,1
39341,-1000,4,2,1,0,0,1
39383,-18.5185185185185,4,2,1,0,0,1
39393,-1000,4,2,1,0,0,1
39425,-31.25,4,2,1,0,0,1
39435,-1000,4,2,1,0,0,1
39466,-18.5185185185185,4,2,1,0,0,1
39476,-1000,4,2,1,0,0,1
39508,-31.25,4,2,1,0,0,1
39518,-1000,4,2,1,0,0,1
39549,-18.5185185185185,4,2,1,0,0,1
39559,-1000,4,2,1,0,0,1
39591,-31.25,4,2,1,0,0,1
39601,-1000,4,2,1,0,0,1
39633,-21.7391304347826,4,2,1,0,0,1
39643,-250,4,2,1,0,0,1
39675,-43.4782608695652,4,2,1,0,0,1
39685,-250,4,2,1,0,0,1
39716,-21.7391304347826,4,2,1,0,0,1
39726,-250,4,2,1,0,0,1
39758,-43.4782608695652,4,2,1,0,0,1
39768,-250,4,2,1,0,0,1
39799,-20,4,2,1,0,0,1
39809,-333.333333333333,4,2,1,0,0,1
39841,-38.4615384615385,4,2,1,0,0,1
39851,-333.333333333333,4,2,1,0,0,1
39883,-20,4,2,1,0,0,1
39893,-333.333333333333,4,2,1,0,0,1
39925,-38.4615384615385,4,2,1,0,0,1
39935,-333.333333333333,4,2,1,0,0,1
39966,-18.5185185185184,4,2,1,0,0,1
39976,-500,4,2,1,0,0,1
40008,-34.4827586206897,4,2,1,0,0,1
40018,-500,4,2,1,0,0,1
40049,-18.5185185185184,4,2,1,0,0,1
40059,-500,4,2,1,0,0,1
40091,-34.4827586206897,4,2,1,0,0,1
40101,-500,4,2,1,0,0,1
40133,-17.2413793103448,4,2,1,0,0,1
40143,-1000,4,2,1,0,0,1
40175,-31.25,4,2,1,0,0,1
40185,-1000,4,2,1,0,0,1
40216,-17.2413793103448,4,2,1,0,0,1
40226,-1000,4,2,1,0,0,1
40258,-31.25,4,2,1,0,0,1
40268,-1000,4,2,1,0,0,1
40299,-17.2413793103448,4,2,1,0,0,1
40309,-1000,4,2,1,0,0,1
40341,-31.25,4,2,1,0,0,1
40351,-1000,4,2,1,0,0,1
40383,-17.2413793103448,4,2,1,0,0,1
40393,-1000,4,2,1,0,0,1
40425,-31.25,4,2,1,0,0,1
40435,-1000,4,2,1,0,0,1
40466,-17.2413793103448,4,2,1,0,0,1
40476,-1000,4,2,1,0,0,1
40508,-31.25,4,2,1,0,0,1
40518,-1000,4,2,1,0,0,1
40549,-100,4,2,1,0,0,1
40633,-31.25,4,2,1,0,0,1
40654,-100,4,2,1,0,0,0
40966,-10,4,2,1,0,0,0
40987,-1000,4,2,1,0,0,0
41022,-13.6986301369863,4,2,1,0,0,0
41028,-1000,4,2,1,0,0,0
41077,-13.6986301369863,4,2,1,0,0,0
41083,-1000,4,2,1,0,0,0
41133,-13.6986301369863,4,2,1,0,0,0
41139,-1000,4,2,1,0,0,0
41188,-13.6986301369863,4,2,1,0,0,0
41194,-1000,4,2,1,0,0,0
41244,-13.6986301369863,4,2,1,0,0,0
41250,-1000,4,2,1,0,0,0
41299,-13.6986301369863,4,2,1,0,0,0
41305,-1000,4,2,1,0,0,0
41355,-33.3333333333333,4,2,1,0,0,0
41361,-1000,4,2,1,0,0,0
41383,-100,4,2,1,0,0,0
41404,-1000,4,2,1,0,0,0
41424,-100,4,2,1,0,0,0
41445,-1000,4,2,1,0,0,0
41466,-100,4,2,1,0,0,0
41487,-1000,4,2,1,0,0,0
41508,-100,4,2,1,0,0,0
41529,-1000,4,2,1,0,0,0
41549,-100,4,2,1,0,0,0
41570,-1000,4,2,1,0,0,0
41591,-100,4,2,1,0,0,0
41612,-12.5,4,2,1,0,0,0
41633,-100,4,2,1,0,0,0
42133,-15.8730158730159,4,2,1,0,0,0
42145,-1000,4,2,1,0,0,0
42216,-100,4,2,1,0,0,0
42299,-40,4,2,1,0,0,0
42320,-200,4,2,1,0,0,0
42383,-40,4,2,1,0,0,0
42404,-200,4,2,1,0,0,0
42466,-40,4,2,1,0,0,0
42487,-200,4,2,1,0,0,0
42549,-40,4,2,1,0,0,0
42570,-200,4,2,1,0,0,0
42633,-33.3333333333333,4,2,1,0,0,0
42654,-71.4285714285714,4,2,1,0,0,0
42675,-133.333333333333,4,2,1,0,0,0
42716,-200,4,2,1,0,0,0
42758,-250,4,2,1,0,0,0
42820,-62.5,4,2,1,0,0,0
42841,-100,4,2,1,0,0,0
42862,-166.666666666667,4,2,1,0,0,0
42883,-250,4,2,1,0,0,0
42945,-25,4,2,1,0,0,0
42966,-29.4117647058824,4,2,1,0,0,0
42987,-500,4,2,1,0,0,0
43049,-29.4117647058824,4,2,1,0,0,0
43070,-500,4,2,1,0,0,0
43133,-29.4117647058824,4,2,1,0,0,0
43154,-500,4,2,1,0,0,0
43216,-29.4117647058824,4,2,1,0,0,0
43237,-500,4,2,1,0,0,0
43299,-111.111111111111,4,2,1,0,0,0
43633,-10,4,2,1,0,0,0
43674,-153.846153846154,4,2,1,0,0,0
43966,-20,4,2,1,0,0,0
43976,-333.333333333333,4,2,1,0,0,0
44008,-38.4615384615385,4,2,1,0,0,0
44018,-333.333333333333,4,2,1,0,0,0
44049,-20,4,2,1,0,0,0
44059,-333.333333333333,4,2,1,0,0,0
44091,-38.4615384615385,4,2,1,0,0,0
44101,-333.333333333333,4,2,1,0,0,0
44133,-20,4,2,1,0,0,0
44143,-333.333333333333,4,2,1,0,0,0
44175,-38.4615384615385,4,2,1,0,0,0
44185,-333.333333333333,4,2,1,0,0,0
44216,-20,4,2,1,0,0,0
44226,-333.333333333333,4,2,1,0,0,0
44258,-38.4615384615385,4,2,1,0,0,0
44268,-333.333333333333,4,2,1,0,0,0
44299,-20,4,2,1,0,0,0
44304,-100,4,2,1,0,0,0
44633,-35.7142857142857,4,2,1,0,0,0
44647,-250,4,2,1,0,0,0
44689,-35.7142857142857,4,2,1,0,0,0
44703,-250,4,2,1,0,0,0
44745,-35.7142857142857,4,2,1,0,0,0
44759,-250,4,2,1,0,0,0
44799,-21.7391304347826,4,2,1,0,0,0
44805,-1000,4,2,1,0,0,0
44854,-21.7391304347826,4,2,1,0,0,0
44860,-1000,4,2,1,0,0,0
44910,-50,4,2,1,0,0,0
44916,-1000,4,2,1,0,0,0
44945,-28.5714285714286,4,2,1,0,0,0
44966,-52.6315789473684,4,2,1,0,0,0
45008,-90.9090909090909,4,2,1,0,0,0
45049,-142.857142857143,4,2,1,0,0,0
45133,-100,4,2,1,0,0,0
45466,-15.8730158730159,4,2,1,0,0,0
45478,-1000,4,2,1,0,0,0
45550,-15.8730158730159,4,2,1,0,0,0
45562,-1000,4,2,1,0,0,0
45633,-33.3333333333333,4,2,1,0,0,0
45653,-142.857142857143,4,2,1,0,0,0
45799,-15.8730158730159,4,2,1,0,0,0
45811,-1000,4,2,1,0,0,0
45883,-15.8730158730159,4,2,1,0,0,0
45895,-1000,4,2,1,0,0,0
45966,-10,4,2,1,0,0,0
45987,-16.6666666666667,4,2,1,0,0,0
46008,-33.3333333333333,4,2,1,0,0,0
46029,-66.6666666666667,4,2,1,0,0,0
46049,-100,4,2,1,0,0,0
46070,-133.333333333333,4,2,1,0,0,0
46091,-166.666666666667,4,2,1,0,0,0
46133,-200,4,2,1,0,0,0
46299,-50,4,2,1,0,0,0
46309,-1000,4,2,1,0,0,0
46341,-35.7142857142857,4,2,1,0,0,0
46351,-1000,4,2,1,0,0,0
46382,-19.2307692307692,4,2,1,0,0,0
46392,-1000,4,2,1,0,0,0
46424,-14.9253731343284,4,2,1,0,0,0
46434,-1000,4,2,1,0,0,0
46466,-16.3934426229508,4,2,1,0,0,0
46476,-1000,4,2,1,0,0,0
46508,-27.7777777777778,4,2,1,0,0,0
46518,-1000,4,2,1,0,0,0
46549,-37.037037037037,4,2,1,0,0,0
46559,-1000,4,2,1,0,0,0
46591,-45.4545454545455,4,2,1,0,0,0
46601,-1000,4,2,1,0,0,0
46633,-40,4,2,1,0,0,0
46643,-1000,4,2,1,0,0,0
46675,-40,4,2,1,0,0,0
46685,-1000,4,2,1,0,0,0
46716,-40,4,2,1,0,0,0
46726,-1000,4,2,1,0,0,0
46758,-40,4,2,1,0,0,0
46768,-1000,4,2,1,0,0,0
46800,-200,4,2,1,0,0,0
46945,-20,4,2,1,0,0,0
46966,-111.111111111111,4,2,1,0,0,0
47383,-45.4545454545455,4,2,1,0,0,0
47404,-166.666666666667,4,2,1,0,0,0
47466,-15.8730158730159,4,2,1,0,0,0
47478,-1000,4,2,1,0,0,0
47550,-100,4,2,1,0,0,0
47633,-50,4,2,1,0,0,0
47654,-100,4,2,1,0,0,0
47674,-200,4,2,1,0,0,0
47716,-333.333333333333,4,2,1,0,0,0
47779,-32.258064516129,4,2,1,0,0,0
47799,-100,4,2,1,0,0,0
48216,-500,4,2,1,0,0,0
48279,-29.4117647058824,4,2,1,0,0,0
48299,-10,4,2,1,0,0,0
48305,-1000,4,2,1,0,0,0
48354,-13.6986301369863,4,2,1,0,0,0
48360,-1000,4,2,1,0,0,0
48411,-14.2857142857143,4,2,1,0,0,0
48417,-1000,4,2,1,0,0,0
48466,-15.3846153846154,4,2,1,0,0,0
48472,-1000,4,2,1,0,0,0
48522,-17.5438596491228,4,2,1,0,0,0
48528,-1000,4,2,1,0,0,0
48577,-22.2222222222222,4,2,1,0,0,0
48583,-1000,4,2,1,0,0,0
48633,-25.6410256410255,4,2,1,0,0,0
48639,-1000,4,2,1,0,0,0
48688,-20.8333333333333,4,2,1,0,0,0
48694,-1000,4,2,1,0,0,0
48744,-17.8571428571429,4,2,1,0,0,0
48750,-1000,4,2,1,0,0,0
48799,-200,4,2,1,0,0,0
48841,-142.857142857143,4,2,1,0,0,0
48883,-90.9090909090909,4,2,1,0,0,0
48924,-58.8235294117647,4,2,1,0,0,0
48966,-111.111111111111,4,2,1,0,0,0
49633,-15.8730158730159,4,2,1,0,0,0
49645,-1000,4,2,1,0,0,0
49717,-15.8730158730159,4,2,1,0,0,0
49729,-1000,4,2,1,0,0,0
49799,-35.7142857142857,4,2,1,0,0,0
49813,-250,4,2,1,0,0,0
49855,-35.7142857142857,4,2,1,0,0,0
49869,-250,4,2,1,0,0,0
49911,-35.7142857142857,4,2,1,0,0,0
49925,-250,4,2,1,0,0,0
49966,-45.4545454545455,4,2,1,0,0,0
49987,-166.666666666667,4,2,1,0,0,0
50112,-45.4545454545455,4,2,1,0,0,0
50133,-333.333333333333,4,2,1,0,0,0
50258,-83.3333333333333,4,2,1,0,0,0
50279,-20,4,2,1,0,0,0
50299,-27.027027027027,4,2,1,0,0,0
50320,-1000,4,2,1,0,0,0
50383,-100,4,2,1,0,0,0
50549,-27.027027027027,4,2,1,0,0,0
50570,-1000,4,2,1,0,0,0
50633,-100,4,2,1,0,0,0
50799,-27.027027027027,4,2,1,0,0,0
50820,-1000,4,2,1,0,0,0
50883,-100,4,2,1,0,0,0
51049,-19.2307692307692,4,2,1,0,0,0
51059,-1000,4,2,1,0,0,0
51091,-37.037037037037,4,2,1,0,0,0
51101,-1000,4,2,1,0,0,0
51133,-19.2307692307692,4,2,1,0,0,0
51143,-1000,4,2,1,0,0,0
51175,-37.037037037037,4,2,1,0,0,0
51185,-1000,4,2,1,0,0,0
51216,-52.6315789473684,4,2,1,0,0,0
51258,-1000,4,2,1,0,0,0
51300,-100,4,2,1,0,0,0
51633,-10.6382978723404,4,2,1,0,0,0
51639,-1000,4,2,1,0,0,0
51689,-12.0481927710843,4,2,1,0,0,0
51695,-1000,4,2,1,0,0,0
51744,-13.6986301369863,4,2,1,0,0,0
51750,-1000,4,2,1,0,0,0
51799,-15.625,4,2,1,0,0,0
51805,-1000,4,2,1,0,0,0
51855,-17.5438596491228,4,2,1,0,0,0
51861,-1000,4,2,1,0,0,0
51910,-18.8679245283019,4,2,1,0,0,0
51916,-1000,4,2,1,0,0,0
51966,-250,4,2,1,0,0,0
52029,-35.7142857142857,4,2,1,0,0,0
52049,-250,4,2,1,0,0,0
52112,-35.7142857142857,4,2,1,0,0,0
52133,-200,4,2,1,0,0,0
52279,-22.2222222222222,4,2,1,0,0,0
52299,-100,4,2,1,0,0,0
52799,-15.8730158730159,4,2,1,0,0,0
52811,-1000,4,2,1,0,0,0
52883,-100,4,2,1,0,0,0
52966,-52.6315789473684,4,2,1,0,0,0
52997,-1000,4,2,1,0,0,0
53029,-52.6315789473684,4,2,1,0,0,0
53060,-1000,4,2,1,0,0,0
53091,-52.6315789473684,4,2,1,0,0,0
53122,-1000,4,2,1,0,0,0
53154,-52.6315789473684,4,2,1,0,0,0
53185,-1000,4,2,1,0,0,0
53216,-52.6315789473684,4,2,1,0,0,0
53258,-1000,4,2,1,0,0,0
53299,-33.3333333333333,4,2,1,0,0,0
53320,-66.6666666666667,4,2,1,0,0,0
53341,-125,4,2,1,0,0,0
53382,-200,4,2,1,0,0,0
53486,-50,4,2,1,0,0,0
53507,-90.9090909090909,4,2,1,0,0,0
53528,-142.857142857143,4,2,1,0,0,0
53549,-200,4,2,1,0,0,0
53611,-33.3333333333333,4,2,1,0,0,0
53632,-29.4117647058824,4,2,1,0,0,0
53653,-500,4,2,1,0,0,0
53715,-29.4117647058824,4,2,1,0,0,0
53736,-500,4,2,1,0,0,0
53799,-29.4117647058824,4,2,1,0,0,0
53820,-500,4,2,1,0,0,0
53882,-29.4117647058824,4,2,1,0,0,0
53903,-500,4,2,1,0,0,0
53965,-111.111111111111,4,2,1,0,0,0
54299,-37.037037037037,4,2,1,0,0,0
54320,-333.333333333336,4,2,1,0,0,0
54382,-37.037037037037,4,2,1,0,0,0
54403,-333.333333333336,4,2,1,0,0,0
54465,-37.037037037037,4,2,1,0,0,0
54486,-333.333333333336,4,2,1,0,0,0
54548,-37.037037037037,4,2,1,0,0,0
54569,-333.333333333336,4,2,1,0,0,0
54632,-37.037037037037,4,2,1,0,0,0
54653,-333.333333333336,4,2,1,0,0,0
54715,-37.037037037037,4,2,1,0,0,0
54736,-333.333333333336,4,2,1,0,0,0
54799,-37.037037037037,4,2,1,0,0,0
54820,-333.333333333336,4,2,1,0,0,0
54882,-37.037037037037,4,2,1,0,0,0
54903,-333.333333333336,4,2,1,0,0,0
54966,-19.2307692307692,4,2,1,0,0,0
54987,-250,4,2,1,0,0,0
55133,-40,4,2,1,0,0,0
55154,-200,4,2,1,0,0,0
55216,-40,4,2,1,0,0,0
55237,-200,4,2,1,0,0,0
55299,-62.5,4,2,1,0,0,0
55340,-250,4,2,1,0,0,0
55383,-62.5,4,2,1,0,0,0
55424,-250,4,2,1,0,0,0
55466,-166.666666666667,4,2,1,0,0,0
55612,-26.3157894736842,4,2,1,0,0,0
55633,-100,4,2,1,0,0,0
56133,-15.8730158730159,4,2,1,0,0,0
56145,-1000,4,2,1,0,0,0
56217,-15.8730158730159,4,2,1,0,0,0
56229,-1000,4,2,1,0,0,0
56300,-33.3333333333333,4,2,1,0,0,0
56320,-142.857142857143,4,2,1,0,0,0
56466,-15.8730158730159,4,2,1,0,0,0
56478,-1000,4,2,1,0,0,0
56550,-15.8730158730159,4,2,1,0,0,0
56562,-1000,4,2,1,0,0,0
56633,-10,4,2,1,0,0,0
56654,-16.6666666666667,4,2,1,0,0,0
56675,-33.3333333333333,4,2,1,0,0,0
56696,-66.6666666666667,4,2,1,0,0,0
56716,-100,4,2,1,0,0,0
56737,-133.333333333333,4,2,1,0,0,0
56758,-166.666666666667,4,2,1,0,0,0
56800,-200,4,2,1,0,0,0
56966,-62.5,4,2,1,0,0,0
57022,-166.666666666667,4,2,1,0,0,0
57133,-62.5,4,2,1,0,0,0
57189,-166.666666666667,4,2,1,0,0,0
57299,-62.5,4,2,1,0,0,0
57355,-166.666666666667,4,2,1,0,0,0
57466,-200,4,2,1,0,0,0
57612,-22.7272727272727,4,2,1,0,0,0
57633,-13.6986301369863,4,2,1,0,0,0
57639,-1000,4,2,1,0,0,0
57688,-13.6986301369863,4,2,1,0,0,0
57694,-1000,4,2,1,0,0,0
57744,-13.6986301369863,4,2,1,0,0,0
57750,-1000,4,2,1,0,0,0
57799,-13.6986301369863,4,2,1,0,0,0
57805,-1000,4,2,1,0,0,0
57854,-13.6986301369863,4,2,1,0,0,0
57860,-1000,4,2,1,0,0,0
57910,-13.6986301369863,4,2,1,0,0,0
57916,-1000,4,2,1,0,0,0
57966,-100,4,2,1,0,0,0
58132,-15.8730158730159,4,2,1,0,0,0
58144,-1000,4,2,1,0,0,0
58216,-100,4,2,1,0,0,0
58299,-35.7142857142857,4,2,1,0,0,0
58320,-1000,4,2,1,0,0,0
58362,-100,4,2,1,0,0,0
58466,-35.7142857142857,4,2,1,0,0,0
58487,-1000,4,2,1,0,0,0
58529,-100,4,2,1,0,0,0
58633,-35.7142857142857,4,2,1,0,0,0
58654,-1000,4,2,1,0,0,0
58696,-100,4,2,1,0,0,0
58799,-35.7142857142857,4,2,1,0,0,0
58820,-1000,4,2,1,0,0,0
58862,-100,4,2,1,0,0,0
58966,-25,4,2,1,0,0,0
58987,-133.333333333333,4,2,1,0,0,0
59133,-100,4,2,1,0,0,0
59299,-33.3333333333333,4,2,1,0,0,0
59320,-55.5555555555556,4,2,1,0,0,0
59341,-100,4,2,1,0,0,0
59383,-166.666666666667,4,2,1,0,0,0
59424,-200,4,2,1,0,0,0
59466,-250,4,2,1,0,0,0
59612,-16.6666666666667,4,2,1,0,0,0
59633,-10,4,2,1,0,0,0
59654,-1000,4,2,1,0,0,0
59716,-33.3333333333333,4,2,1,0,0,0
59726,-1000,4,2,1,0,0,0
59772,-33.3333333333333,4,2,1,0,0,0
59782,-1000,4,2,1,0,0,0
59799,-33.3333333333333,4,2,1,0,0,0
59809,-1000,4,2,1,0,0,0
59883,-33.3333333333333,4,2,1,0,0,0
59893,-1000,4,2,1,0,0,0
59945,-33.3333333333333,4,2,1,0,0,0
59955,-1000,4,2,1,0,0,0
59994,-33.3333333333333,4,2,1,0,0,0
60004,-1000,4,2,1,0,0,0
60049,-33.3333333333333,4,2,1,0,0,0
60059,-1000,4,2,1,0,0,0
60133,-33.3333333333333,4,2,1,0,0,0
60143,-1000,4,2,1,0,0,0
60174,-33.3333333333333,4,2,1,0,0,0
60184,-1000,4,2,1,0,0,0
60244,-33.3333333333333,4,2,1,0,0,0
60254,-1000,4,2,1,0,0,0
60299,-29.4117647058824,4,2,1,0,0,0
60309,-500,4,2,1,0,0,0
60341,-29.4117647058824,4,2,1,0,0,0
60351,-500,4,2,1,0,0,0
60383,-15.8730158730159,4,2,1,0,0,0
60395,-1000,4,2,1,0,0,0
60467,-15.8730158730159,4,2,1,0,0,0
60479,-1000,4,2,1,0,0,0
60549,-15.8730158730159,4,2,1,0,0,0
60561,-1000,4,2,1,0,0,0
60633,-100,4,2,1,0,0,0
60674,-166.666666666667,4,2,1,0,0,0
60779,-33.3333333333333,4,2,1,0,0,0
60799,-35.7142857142857,4,2,1,0,0,0
60820,-250,4,2,1,0,0,0
60883,-35.7142857142857,4,2,1,0,0,0
60904,-250,4,2,1,0,0,0
60966,-27.027027027027,4,2,1,0,0,0
60987,-1000,4,2,1,0,0,0
61050,-100,4,2,1,0,0,0
61216,-27.027027027027,4,2,1,0,0,0
61237,-1000,4,2,1,0,0,0
61300,-100,4,2,1,0,0,0
61466,-27.027027027027,4,2,1,0,0,0
61487,-1000,4,2,1,0,0,0
61550,-100,4,2,1,0,0,0
61633,-10,4,2,1,0,0,0
61674,-142.857142857143,4,2,1,0,0,0
61966,-10,4,2,1,0,0,0
62008,-250,4,2,1,0,0,0
62217,-83.3333333333333,4,2,1,0,0,0
62258,-34.4827586206897,4,2,1,0,0,0
62299,-142.857142857143,4,2,1,0,0,0
63633,-35.7142857142857,4,2,1,0,0,0
63654,-250.000000000001,4,2,1,0,0,0
63716,-38.4615384615385,4,2,1,0,0,0
63737,-250.000000000001,4,2,1,0,0,0
63799,-41.6666666666667,4,2,1,0,0,0
63820,-250.000000000001,4,2,1,0,0,0
63882,-45.4545454545455,4,2,1,0,0,0
63903,-250.000000000001,4,2,1,0,0,0
63966,-50,4,2,1,0,0,0
63987,-250.000000000001,4,2,1,0,0,0
64049,-55.5555555555556,4,2,1,0,0,0
64070,-250.000000000001,4,2,1,0,0,0
64133,-58.8235294117647,4,2,1,0,0,0
64154,-250.000000000001,4,2,1,0,0,0
64216,-62.5,4,2,1,0,0,0
64237,-250.000000000001,4,2,1,0,0,0
64299,-66.6666666666667,4,2,1,0,0,0
64320,-250.000000000001,4,2,1,0,0,0
64382,-71.4285714285714,4,2,1,0,0,0
64403,-250.000000000001,4,2,1,0,0,0
64466,-76.9230769230769,4,2,1,0,0,0
64487,-250.000000000001,4,2,1,0,0,0
64549,-83.3333333333333,4,2,1,0,0,0
64570,-250.000000000001,4,2,1,0,0,0
64633,-86.9565217391306,4,2,1,0,0,0
64654,-250.000000000001,4,2,1,0,0,0
64716,-90.9090909090908,4,2,1,0,0,0
64737,-250.000000000001,4,2,1,0,0,0
64799,-95.238095238095,4,2,1,0,0,0
64820,-250.000000000001,4,2,1,0,0,0
64882,-100,4,2,1,0,0,0
64903,-250.000000000001,4,2,1,0,0,0
64966,-41.6666666666667,4,2,1,0,0,0
64987,-285.714285714286,4,2,1,0,0,0
65049,-44.4444444444445,4,2,1,0,0,0
65070,-285.714285714286,4,2,1,0,0,0
65132,-47.6190476190476,4,2,1,0,0,0
65153,-285.714285714286,4,2,1,0,0,0
65215,-51.2820512820513,4,2,1,0,0,0
65236,-285.714285714286,4,2,1,0,0,0
65299,-55.5555555555556,4,2,1,0,0,0
65320,-285.714285714286,4,2,1,0,0,0
65382,-58.8235294117647,4,2,1,0,0,0
65403,-285.714285714286,4,2,1,0,0,0
65466,-62.5,4,2,1,0,0,0
65487,-285.714285714286,4,2,1,0,0,0
65549,-66.6666666666667,4,2,1,0,0,0
65570,-285.714285714286,4,2,1,0,0,0
65632,-71.4285714285714,4,2,1,0,0,0
65653,-285.714285714286,4,2,1,0,0,0
65715,-76.9230769230769,4,2,1,0,0,0
65736,-285.714285714286,4,2,1,0,0,0
65799,-83.3333333333333,4,2,1,0,0,0
65820,-285.714285714286,4,2,1,0,0,0
65882,-90.9090909090909,4,2,1,0,0,0
65903,-285.714285714286,4,2,1,0,0,0
65966,-95.2380952380952,4,2,1,0,0,0
65987,-285.714285714286,4,2,1,0,0,0
66049,-100,4,2,1,0,0,0
66070,-285.714285714286,4,2,1,0,0,0
66132,-105.263157894737,4,2,1,0,0,0
66153,-285.714285714286,4,2,1,0,0,0
66215,-111.111111111111,4,2,1,0,0,0
66236,-285.714285714286,4,2,1,0,0,0
66299,-52.6315789473684,4,2,1,0,0,0
66320,-333.333333333333,4,2,1,0,0,0
66382,-57.1428571428571,4,2,1,0,0,0
66403,-333.333333333333,4,2,1,0,0,0
66465,-62.5,4,2,1,0,0,0
66486,-333.333333333333,4,2,1,0,0,0
66548,-66.6666666666667,4,2,1,0,0,0
66569,-333.333333333333,4,2,1,0,0,0
66632,-71.4285714285714,4,2,1,0,0,0
66653,-333.333333333333,4,2,1,0,0,0
66715,-76.9230769230769,4,2,1,0,0,0
66736,-333.333333333333,4,2,1,0,0,0
66799,-80,4,2,1,0,0,0
66820,-333.333333333333,4,2,1,0,0,0
66882,-83.3333333333333,4,2,1,0,0,0
66903,-333.333333333333,4,2,1,0,0,0
66965,-86.9565217391304,4,2,1,0,0,0
66986,-333.333333333333,4,2,1,0,0,0
67048,-90.9090909090909,4,2,1,0,0,0
67069,-333.333333333333,4,2,1,0,0,0
67132,-95.2380952380952,4,2,1,0,0,0
67153,-333.333333333333,4,2,1,0,0,0
67215,-100,4,2,1,0,0,0
67236,-333.333333333333,4,2,1,0,0,0
67299,-105.263157894737,4,2,1,0,0,0
67320,-333.333333333333,4,2,1,0,0,0
67382,-111.111111111111,4,2,1,0,0,0
67403,-333.333333333333,4,2,1,0,0,0
67465,-117.64705882353,4,2,1,0,0,0
67486,-333.333333333333,4,2,1,0,0,0
67548,-125,4,2,1,0,0,0
67569,-333.333333333333,4,2,1,0,0,0
67633,-27.7777777777778,4,2,1,0,0,0
67654,-333.333333333333,4,2,1,0,0,0
67716,-30.3030303030303,4,2,1,0,0,0
67737,-333.333333333333,4,2,1,0,0,0
67799,-33.3333333333333,4,2,1,0,0,0
67820,-333.333333333333,4,2,1,0,0,0
67882,-35.7142857142857,4,2,1,0,0,0
67903,-333.333333333333,4,2,1,0,0,0
67966,-38.4615384615385,4,2,1,0,0,0
67987,-333.333333333333,4,2,1,0,0,0
68049,-40.8163265306122,4,2,1,0,0,0
68070,-333.333333333333,4,2,1,0,0,0
68133,-43.4782608695652,4,2,1,0,0,0
68154,-333.333333333333,4,2,1,0,0,0
68216,-45.4545454545455,4,2,1,0,0,0
68237,-333.333333333333,4,2,1,0,0,0
68299,-47.6190476190476,4,2,1,0,0,0
68320,-333.333333333333,4,2,1,0,0,0
68383,-50,4,2,1,0,0,0
68404,-333.333333333333,4,2,1,0,0,0
68466,-50,4,2,1,0,0,0
68487,-333.333333333333,4,2,1,0,0,0
68549,-50,4,2,1,0,0,0
68570,-333.333333333333,4,2,1,0,0,0
68633,-33.3333333333333,4,2,1,0,0,0
68654,-250,4,2,1,0,0,0
68716,-33.3333333333333,4,2,1,0,0,0
68737,-238.095238095238,4,2,1,0,0,0
68799,-33.3333333333333,4,2,1,0,0,0
68820,-222.222222222222,4,2,1,0,0,0
68883,-33.3333333333333,4,2,1,0,0,0
68904,-200,4,2,1,0,0,0
68966,-27.7777777777778,4,2,1,0,0,0
68987,-333.333333333333,4,2,1,0,0,0
69049,-30.3030303030303,4,2,1,0,0,0
69070,-333.333333333333,4,2,1,0,0,0
69132,-33.3333333333333,4,2,1,0,0,0
69153,-333.333333333333,4,2,1,0,0,0
69215,-35.7142857142857,4,2,1,0,0,0
69236,-333.333333333333,4,2,1,0,0,0
69299,-38.4615384615385,4,2,1,0,0,0
69320,-333.333333333333,4,2,1,0,0,0
69382,-40.8163265306122,4,2,1,0,0,0
69403,-333.333333333333,4,2,1,0,0,0
69466,-43.4782608695652,4,2,1,0,0,0
69487,-333.333333333333,4,2,1,0,0,0
69549,-45.4545454545455,4,2,1,0,0,0
69570,-333.333333333333,4,2,1,0,0,0
69632,-47.6190476190476,4,2,1,0,0,0
69653,-333.333333333333,4,2,1,0,0,0
69716,-50,4,2,1,0,0,0
69737,-333.333333333333,4,2,1,0,0,0
69799,-50,4,2,1,0,0,0
69820,-333.333333333333,4,2,1,0,0,0
69882,-50,4,2,1,0,0,0
69903,-333.333333333333,4,2,1,0,0,0
69966,-13.6986301369863,4,2,1,0,0,0
69976,-333.333333333333,4,2,1,0,0,0
70133,-166.666666666667,4,2,1,0,0,0
70174,-111.111111111111,4,2,1,0,0,0
70216,-83.3333333333333,4,2,1,0,0,0
70258,-50,4,2,1,0,0,0
70299,-38.4615384615385,4,2,1,0,0,0
70320,-166.666666666667,4,2,1,0,0,0
70383,-41.6666666666667,4,2,1,0,0,0
70404,-200,4,2,1,0,0,0
70466,-45.4545454545455,4,2,1,0,0,0
70487,-222.222222222222,4,2,1,0,0,0
70549,-46.5116279069767,4,2,1,0,0,0
70570,-238.095238095238,4,2,1,0,0,0
70633,-47.6190476190476,4,2,1,0,0,0
70654,-142.857142857143,4,2,1,0,0,0
70799,-41.6666666666667,4,2,1,0,0,0
70820,-125,4,2,1,0,0,0
70841,-250,4,2,1,0,0,0
70883,-41.6666666666667,4,2,1,0,0,0
70904,-125,4,2,1,0,0,0
70925,-250,4,2,1,0,0,0
70965,-111.111111111111,4,2,1,0,0,0
71132,-166.666666666667,4,2,1,0,0,0
71278,-33.3333333333333,4,2,1,0,0,0
71299,-166.666666666666,4,2,1,0,0,0
71444,-33.3333333333333,4,2,1,0,0,0
71465,-125,4,2,1,0,0,0
71799,-10,4,2,1,0,0,0
71820,-142.857142857143,4,2,1,0,0,0
71966,-83.3333333333333,4,2,1,0,0,0
71994,-1000,4,2,1,0,0,0
72022,-78.125,4,2,1,0,0,0
72050,-1000,4,2,1,0,0,0
72077,-73.5294117647059,4,2,1,0,0,0
72105,-1000,4,2,1,0,0,0
72133,-70.4225352112676,4,2,1,0,0,0
72161,-1000,4,2,1,0,0,0
72188,-66.6666666666667,4,2,1,0,0,0
72216,-1000,4,2,1,0,0,0
72244,-63.2911392405063,4,2,1,0,0,0
72272,-1000,4,2,1,0,0,0
72299,-60.2409638554217,4,2,1,0,0,0
72327,-1000,4,2,1,0,0,0
72355,-57.4712643678161,4,2,1,0,0,0
72383,-1000,4,2,1,0,0,0
72410,-54.9450549450549,4,2,1,0,0,0
72438,-1000,4,2,1,0,0,0
72466,-52.6315789473684,4,2,1,0,0,0
72494,-1000,4,2,1,0,0,0
72521,-50,4,2,1,0,0,0
72549,-1000,4,2,1,0,0,0
72577,-47.6190476190476,4,2,1,0,0,0
72605,-1000,4,2,1,0,0,0
72633,-45.4545454545455,4,2,1,0,0,0
72661,-1000,4,2,1,0,0,0
72689,-43.4782608695652,4,2,1,0,0,0
72717,-1000,4,2,1,0,0,0
72744,-41.6666666666667,4,2,1,0,0,0
72772,-1000,4,2,1,0,0,0
72800,-40,4,2,1,0,0,0
72828,-1000,4,2,1,0,0,0
72855,-90.9090909090909,4,2,1,0,0,0
72966,-45.4545454545455,4,2,1,0,0,0
72987,-1000,4,2,1,0,0,0
73008,-50,4,2,1,0,0,0
73029,-1000,4,2,1,0,0,0
73049,-58.8235294117647,4,2,1,0,0,0
73070,-1000,4,2,1,0,0,0
73091,-71.4285714285714,4,2,1,0,0,0
73112,-1000,4,2,1,0,0,0
73133,-47.6190476190476,4,2,1,0,0,0
73154,-1000,4,2,1,0,0,0
73175,-47.6190476190476,4,2,1,0,0,0
73196,-1000,4,2,1,0,0,0
73216,-47.6190476190476,4,2,1,0,0,0
73237,-1000,4,2,1,0,0,0
73258,-90.9090909090909,4,2,1,0,0,0
73299,-100,4,2,1,0,0,0
73383,-111.111111111111,4,2,1,0,0,0
73466,-133.333333333333,4,2,1,0,0,0
73549,-90.9090909090909,4,2,1,0,0,0
73674,-111.111111111111,4,2,1,0,0,0
73715,-142.857142857143,4,2,1,0,0,0
73799,-90.9090909090909,4,2,1,0,0,0
73924,-111.111111111111,4,2,1,0,0,0
73965,-142.857142857143,4,2,1,0,0,0
74049,-90.9090909090909,4,2,1,0,0,0
74174,-142.857142857143,4,2,1,0,0,0
74216,-90.9090909090909,4,2,1,0,0,0
74341,-100,4,2,1,0,0,0
74382,-117.647058823529,4,2,1,0,0,0
74466,-142.857142857143,4,2,1,0,0,0
74549,-90.9090909090909,4,2,1,0,0,0
74674,-100,4,2,1,0,0,0
74715,-117.647058823529,4,2,1,0,0,0
74758,-142.857142857143,4,2,1,0,0,0
74855,-250,4,2,1,0,0,0
74938,-35.7142857142857,4,2,1,0,0,0
74966,-250,4,2,1,0,0,0
75049,-35.7142857142857,4,2,1,0,0,0
75077,-250,4,2,1,0,0,0
75160,-35.7142857142857,4,2,1,0,0,0
75188,-250,4,2,1,0,0,0
75271,-35.7142857142857,4,2,1,0,0,0
75299,-10,4,2,1,0,0,0
75327,-142.857142857143,4,2,1,0,0,0
75633,-41.6666666666667,4,2,1,0,0,0
75654,-83.3333333333333,4,2,1,0,0,0
75674,-142.857142857143,4,2,1,0,0,0
75799,-74.0740740740741,4,2,1,0,0,0
75841,-181.818181818182,4,2,1,0,0,0
75883,-74.0740740740741,4,2,1,0,0,0
75925,-181.818181818182,4,2,1,0,0,0
75966,-74.0740740740741,4,2,1,0,0,0
76008,-181.818181818182,4,2,1,0,0,0
76049,-74.0740740740741,4,2,1,0,0,0
76091,-181.818181818182,4,2,1,0,0,0
76133,-74.0740740740741,4,2,1,0,0,0
76175,-181.818181818182,4,2,1,0,0,0
76217,-74.0740740740741,4,2,1,0,0,0
76259,-181.818181818182,4,2,1,0,0,0
76300,-74.0740740740741,4,2,1,0,0,0
76341,-181.818181818182,4,2,1,0,0,0
76383,-74.0740740740741,4,2,1,0,0,0
76425,-181.818181818182,4,2,1,0,0,0
76466,-74.0740740740741,4,2,1,0,0,0
76508,-181.818181818182,4,2,1,0,0,0
76550,-74.0740740740741,4,2,1,0,0,0
76592,-181.818181818182,4,2,1,0,0,0
76633,-74.0740740740741,4,2,1,0,0,0
76675,-181.818181818182,4,2,1,0,0,0
76716,-1000,4,2,1,0,0,0
76779,-28.5714285714286,4,2,1,0,0,0
76799,-74.0740740740741,4,2,1,0,0,0
76841,-181.818181818182,4,2,1,0,0,0
76883,-74.0740740740741,4,2,1,0,0,0
76925,-181.818181818182,4,2,1,0,0,0
76966,-41.6666666666667,4,2,1,0,0,0
76987,-83.3333333333333,4,2,1,0,0,0
77007,-142.857142857143,4,2,1,0,0,0
77132,-74.0740740740741,4,2,1,0,0,0
77174,-181.818181818182,4,2,1,0,0,0
77216,-74.0740740740741,4,2,1,0,0,0
77258,-181.818181818182,4,2,1,0,0,0
77299,-74.0740740740741,4,2,1,0,0,0
77341,-181.818181818182,4,2,1,0,0,0
77382,-74.0740740740741,4,2,1,0,0,0
77424,-181.818181818182,4,2,1,0,0,0
77466,-74.0740740740741,4,2,1,0,0,0
77508,-181.818181818182,4,2,1,0,0,0
77550,-74.0740740740741,4,2,1,0,0,0
77592,-181.818181818182,4,2,1,0,0,0
77633,-74.0740740740741,4,2,1,0,0,0
77675,-181.818181818182,4,2,1,0,0,0
77716,-74.0740740740741,4,2,1,0,0,0
77758,-181.818181818182,4,2,1,0,0,0
77799,-74.0740740740741,4,2,1,0,0,0
77841,-181.818181818182,4,2,1,0,0,0
77883,-74.0740740740741,4,2,1,0,0,0
77925,-181.818181818182,4,2,1,0,0,0
77966,-74.0740740740741,4,2,1,0,0,0
78008,-181.818181818182,4,2,1,0,0,0
78049,-74.0740740740741,4,2,1,0,0,0
78091,-181.818181818182,4,2,1,0,0,0
78132,-74.0740740740741,4,2,1,0,0,0
78174,-181.818181818182,4,2,1,0,0,0
78216,-74.0740740740741,4,2,1,0,0,0
78258,-181.818181818182,4,2,1,0,0,0
78299,-41.6666666666667,4,2,1,0,0,0
78320,-83.3333333333333,4,2,1,0,0,0
78340,-142.857142857143,4,2,1,0,0,0
78465,-74.0740740740741,4,2,1,0,0,0
78507,-181.818181818182,4,2,1,0,0,0
78549,-74.0740740740741,4,2,1,0,0,0
78591,-181.818181818182,4,2,1,0,0,0
78632,-74.0740740740741,4,2,1,0,0,0
78674,-181.818181818182,4,2,1,0,0,0
78715,-74.0740740740741,4,2,1,0,0,0
78757,-181.818181818182,4,2,1,0,0,0
78799,-74.0740740740741,4,2,1,0,0,0
78841,-181.818181818182,4,2,1,0,0,0
78883,-74.0740740740741,4,2,1,0,0,0
78925,-181.818181818182,4,2,1,0,0,0
78966,-74.0740740740741,4,2,1,0,0,0
79008,-181.818181818182,4,2,1,0,0,0
79049,-74.0740740740741,4,2,1,0,0,0
79091,-181.818181818182,4,2,1,0,0,0
79132,-74.0740740740741,4,2,1,0,0,0
79174,-181.818181818182,4,2,1,0,0,0
79216,-74.0740740740741,4,2,1,0,0,0
79258,-181.818181818182,4,2,1,0,0,0
79299,-74.0740740740741,4,2,1,0,0,0
79341,-181.818181818182,4,2,1,0,0,0
79382,-1000,4,2,1,0,0,0
79445,-28.5714285714286,4,2,1,0,0,0
79465,-74.0740740740741,4,2,1,0,0,0
79507,-181.818181818182,4,2,1,0,0,0
79549,-74.0740740740741,4,2,1,0,0,0
79591,-181.818181818182,4,2,1,0,0,0
79633,-41.6666666666667,4,2,1,0,0,0
79654,-83.3333333333333,4,2,1,0,0,0
79674,-142.857142857143,4,2,1,0,0,0
79799,-74.0740740740741,4,2,1,0,0,0
79841,-181.818181818182,4,2,1,0,0,0
79883,-74.0740740740741,4,2,1,0,0,0
79925,-181.818181818182,4,2,1,0,0,0
79966,-74.0740740740741,4,2,1,0,0,0
80008,-181.818181818182,4,2,1,0,0,0
80049,-74.0740740740741,4,2,1,0,0,0
80091,-181.818181818182,4,2,1,0,0,0
80133,-31.25,4,2,1,0,0,0
80154,-500,4,2,1,0,0,0
80217,-31.25,4,2,1,0,0,0
80238,-500,4,2,1,0,0,0
80300,-31.25,4,2,1,0,0,0
80321,-500,4,2,1,0,0,0
80383,-74.0740740740741,4,2,1,0,0,0
80425,-181.818181818182,4,2,1,0,0,0
80466,-74.0740740740741,4,2,1,0,0,0
80508,-181.818181818182,4,2,1,0,0,0
80550,-74.0740740740741,4,2,1,0,0,0
80592,-181.818181818182,4,2,1,0,0,0
80633,-74.0740740740741,4,2,1,0,0,0
80675,-181.818181818182,4,2,1,0,0,0
80716,-74.0740740740741,4,2,1,0,0,0
80758,-181.818181818182,4,2,1,0,0,0
80799,-74.0740740740741,4,2,1,0,0,0
80841,-181.818181818182,4,2,1,0,0,0
80883,-74.0740740740741,4,2,1,0,0,0
80925,-181.818181818182,4,2,1,0,0,0
80966,-20,4,2,1,0,0,0
80987,-66.6666666666667,4,2,1,0,0,0
81007,-142.857142857143,4,2,1,0,0,0
81133,-100,4,2,1,0,0,0
81633,-20,4,2,1,0,0,0
81654,-66.6666666666667,4,2,1,0,0,0
81674,-142.857142857143,4,2,1,0,0,0
81800,-100,4,2,1,0,0,0
82299,-20,4,2,1,0,0,0
82320,-66.6666666666667,4,2,1,0,0,0
82340,-142.857142857143,4,2,1,0,0,0
82466,-100,4,2,1,0,0,0
82966,-20,4,2,1,0,0,0
82987,-66.6666666666667,4,2,1,0,0,0
83007,-142.857142857143,4,2,1,0,0,0
83133,-100,4,2,1,0,0,0
83633,-20,4,2,1,0,0,0
83654,-66.6666666666667,4,2,1,0,0,0
83674,-142.857142857143,4,2,1,0,0,0
83800,-100,4,2,1,0,0,0
84300,-20,4,2,1,0,0,0
84321,-66.6666666666667,4,2,1,0,0,0
84341,-142.857142857143,4,2,1,0,0,0
84467,-100,4,2,1,0,0,0
85299,-50,4,2,1,0,0,0
85320,-133.333333333333,4,2,1,0,0,0
85383,-50,4,2,1,0,0,0
85403,-133.333333333333,4,2,1,0,0,0
85466,-50,4,2,1,0,0,0
85487,-133.333333333333,4,2,1,0,0,0
85549,-50,4,2,1,0,0,0
85570,-133.333333333333,4,2,1,0,0,0
85633,-50,4,2,1,0,0,0
85653,-133.333333333333,4,2,1,0,0,0
85716,-50,4,2,1,0,0,0
85737,-133.333333333333,4,2,1,0,0,0
85800,-50,4,2,1,0,0,0
85820,-133.333333333333,4,2,1,0,0,0
85883,-50,4,2,1,0,0,0
85904,-133.333333333333,4,2,1,0,0,0
85966,-50,4,2,1,0,0,0
85987,-133.333333333333,4,2,1,0,0,0
86050,-50,4,2,1,0,0,0
86070,-133.333333333333,4,2,1,0,0,0
86133,-50,4,2,1,0,0,0
86154,-133.333333333333,4,2,1,0,0,0
86217,-50,4,2,1,0,0,0
86242,-133.333333333333,4,2,1,0,0,0
86320,-83.3333333333333,4,2,1,0,0,0
86340,-142.857142857143,4,2,1,0,0,0
86466,-74.0740740740741,4,2,1,0,0,0
86508,-181.818181818182,4,2,1,0,0,0
86550,-74.0740740740741,4,2,1,0,0,0
86592,-181.818181818182,4,2,1,0,0,0
86633,-74.0740740740741,4,2,1,0,0,0
86675,-181.818181818182,4,2,1,0,0,0
86716,-74.0740740740741,4,2,1,0,0,0
86758,-181.818181818182,4,2,1,0,0,0
86800,-74.0740740740741,4,2,1,0,0,0
86842,-181.818181818182,4,2,1,0,0,0
86884,-74.0740740740741,4,2,1,0,0,0
86926,-181.818181818182,4,2,1,0,0,0
86967,-74.0740740740741,4,2,1,0,0,0
87008,-181.818181818182,4,2,1,0,0,0
87050,-74.0740740740741,4,2,1,0,0,0
87092,-181.818181818182,4,2,1,0,0,0
87133,-74.0740740740741,4,2,1,0,0,0
87175,-181.818181818182,4,2,1,0,0,0
87217,-74.0740740740741,4,2,1,0,0,0
87259,-181.818181818182,4,2,1,0,0,0
87300,-74.0740740740741,4,2,1,0,0,0
87342,-181.818181818182,4,2,1,0,0,0
87383,-1000,4,2,1,0,0,0
87446,-28.5714285714286,4,2,1,0,0,0
87466,-74.0740740740741,4,2,1,0,0,0
87508,-181.818181818182,4,2,1,0,0,0
87550,-74.0740740740741,4,2,1,0,0,0
87592,-181.818181818182,4,2,1,0,0,0
87633,-41.6666666666667,4,2,1,0,0,0
87654,-83.3333333333333,4,2,1,0,0,0
87674,-142.857142857143,4,2,1,0,0,0
87799,-74.0740740740741,4,2,1,0,0,0
87841,-181.818181818182,4,2,1,0,0,0
87883,-74.0740740740741,4,2,1,0,0,0
87925,-181.818181818182,4,2,1,0,0,0
87966,-74.0740740740741,4,2,1,0,0,0
88008,-181.818181818182,4,2,1,0,0,0
88049,-74.0740740740741,4,2,1,0,0,0
88091,-181.818181818182,4,2,1,0,0,0
88133,-74.0740740740741,4,2,1,0,0,0
88175,-181.818181818182,4,2,1,0,0,0
88217,-74.0740740740741,4,2,1,0,0,0
88259,-181.818181818182,4,2,1,0,0,0
88300,-74.0740740740741,4,2,1,0,0,0
88342,-181.818181818182,4,2,1,0,0,0
88383,-74.0740740740741,4,2,1,0,0,0
88425,-181.818181818182,4,2,1,0,0,0
88466,-74.0740740740741,4,2,1,0,0,0
88508,-181.818181818182,4,2,1,0,0,0
88550,-74.0740740740741,4,2,1,0,0,0
88592,-181.818181818182,4,2,1,0,0,0
88633,-74.0740740740741,4,2,1,0,0,0
88675,-181.818181818182,4,2,1,0,0,0
88716,-74.0740740740741,4,2,1,0,0,0
88758,-181.818181818182,4,2,1,0,0,0
88799,-74.0740740740741,4,2,1,0,0,0
88841,-181.818181818182,4,2,1,0,0,0
88883,-74.0740740740741,4,2,1,0,0,0
88925,-181.818181818182,4,2,1,0,0,0
88966,-41.6666666666667,4,2,1,0,0,0
88987,-83.3333333333333,4,2,1,0,0,0
89007,-142.857142857143,4,2,1,0,0,0
89132,-74.0740740740741,4,2,1,0,0,0
89174,-181.818181818182,4,2,1,0,0,0
89216,-74.0740740740741,4,2,1,0,0,0
89258,-181.818181818182,4,2,1,0,0,0
89299,-74.0740740740741,4,2,1,0,0,0
89341,-181.818181818182,4,2,1,0,0,0
89382,-74.0740740740741,4,2,1,0,0,0
89424,-181.818181818182,4,2,1,0,0,0
89466,-74.0740740740741,4,2,1,0,0,0
89508,-181.818181818182,4,2,1,0,0,0
89550,-74.0740740740741,4,2,1,0,0,0
89592,-181.818181818182,4,2,1,0,0,0
89633,-74.0740740740741,4,2,1,0,0,0
89675,-181.818181818182,4,2,1,0,0,0
89716,-74.0740740740741,4,2,1,0,0,0
89758,-181.818181818182,4,2,1,0,0,0
89799,-74.0740740740741,4,2,1,0,0,0
89841,-181.818181818182,4,2,1,0,0,0
89883,-74.0740740740741,4,2,1,0,0,0
89925,-181.818181818182,4,2,1,0,0,0
89966,-74.0740740740741,4,2,1,0,0,0
90008,-181.818181818182,4,2,1,0,0,0
90049,-1000,4,2,1,0,0,0
90112,-28.5714285714286,4,2,1,0,0,0
90132,-74.0740740740741,4,2,1,0,0,0
90174,-181.818181818182,4,2,1,0,0,0
90216,-74.0740740740741,4,2,1,0,0,0
90258,-181.818181818182,4,2,1,0,0,0
90300,-41.6666666666667,4,2,1,0,0,0
90321,-83.3333333333333,4,2,1,0,0,0
90341,-142.857142857143,4,2,1,0,0,0
90466,-74.0740740740741,4,2,1,0,0,0
90508,-181.818181818182,4,2,1,0,0,0
90550,-74.0740740740741,4,2,1,0,0,0
90592,-181.818181818182,4,2,1,0,0,0
90633,-74.0740740740741,4,2,1,0,0,0
90675,-181.818181818182,4,2,1,0,0,0
90716,-74.0740740740741,4,2,1,0,0,0
90758,-181.818181818182,4,2,1,0,0,0
90800,-31.25,4,2,1,0,0,0
90821,-500,4,2,1,0,0,0
90884,-31.25,4,2,1,0,0,0
90905,-500,4,2,1,0,0,0
90967,-31.25,4,2,1,0,0,0
90988,-500,4,2,1,0,0,0
91050,-74.0740740740741,4,2,1,0,0,0
91092,-181.818181818182,4,2,1,0,0,0
91133,-74.0740740740741,4,2,1,0,0,0
91175,-181.818181818182,4,2,1,0,0,0
91217,-74.0740740740741,4,2,1,0,0,0
91259,-181.818181818182,4,2,1,0,0,0
91300,-74.0740740740741,4,2,1,0,0,0
91342,-181.818181818182,4,2,1,0,0,0
91383,-74.0740740740741,4,2,1,0,0,0
91425,-181.818181818182,4,2,1,0,0,0
91466,-74.0740740740741,4,2,1,0,0,0
91508,-181.818181818182,4,2,1,0,0,0
91550,-74.0740740740741,4,2,1,0,0,0
91592,-181.818181818182,4,2,1,0,0,0
91632,-20,4,2,1,0,0,0
91653,-66.6666666666667,4,2,1,0,0,0
91673,-142.857142857143,4,2,1,0,0,0
91799,-100,4,2,1,0,0,0
92299,-20,4,2,1,0,0,0
92320,-66.6666666666667,4,2,1,0,0,0
92340,-142.857142857143,4,2,1,0,0,0
92466,-100,4,2,1,0,0,0
92965,-20,4,2,1,0,0,0
92986,-66.6666666666667,4,2,1,0,0,0
93006,-142.857142857143,4,2,1,0,0,0
93132,-100,4,2,1,0,0,0
93632,-20,4,2,1,0,0,0
93653,-66.6666666666667,4,2,1,0,0,0
93673,-142.857142857143,4,2,1,0,0,0
93799,-100,4,2,1,0,0,0
94299,-20,4,2,1,0,0,0
94320,-66.6666666666667,4,2,1,0,0,0
94340,-142.857142857143,4,2,1,0,0,0
94466,-100,4,2,1,0,0,0
94966,-20,4,2,1,0,0,0
94987,-66.6666666666667,4,2,1,0,0,0
95007,-142.857142857143,4,2,1,0,0,0
95133,-100,4,2,1,0,0,0
95633,-250,4,2,1,0,0,0
95779,-20.6185567010309,4,2,1,0,0,0
95799,-303.030303030303,4,2,1,0,0,0
95862,-31.25,4,2,1,0,0,0
95883,-303.030303030303,4,2,1,0,0,0
95946,-31.25,4,2,1,0,0,0
95966,-303.030303030303,4,2,1,0,0,0
96029,-31.25,4,2,1,0,0,0
96049,-303.030303030303,4,2,1,0,0,0
96112,-31.25,4,2,1,0,0,0
96133,-303.030303030303,4,2,1,0,0,0
96196,-31.25,4,2,1,0,0,0
96216,-303.030303030303,4,2,1,0,0,0
96279,-31.25,4,2,1,0,0,0
96299,-18.8679245283019,4,2,1,0,0,0
96320,-333.333333333333,4,2,1,0,0,0
96424,-105.263157894737,4,2,1,0,0,0
96466,-29.8507462686567,4,2,1,0,0,0
96487,-357.142857142857,4,2,1,0,0,0
96549,-29.8507462686567,4,2,1,0,0,0
96570,-357.142857142857,4,2,1,0,0,0
96633,-29.8507462686567,4,2,1,0,0,0
96654,-357.142857142857,4,2,1,0,0,0
96716,-31.25,4,2,1,0,0,0
96737,-500,4,2,1,0,0,0
96799,-34.4827586206897,4,2,1,0,0,0
96820,-333.333333333333,4,2,1,0,0,0
96945,-34.4827586206897,4,2,1,0,0,0
96966,-250,4,2,1,0,0,0
97112,-20.6185567010309,4,2,1,0,0,0
97132,-303.030303030303,4,2,1,0,0,0
97195,-31.25,4,2,1,0,0,0
97216,-303.030303030303,4,2,1,0,0,0
97279,-31.25,4,2,1,0,0,0
97299,-303.030303030303,4,2,1,0,0,0
97362,-31.25,4,2,1,0,0,0
97382,-303.030303030303,4,2,1,0,0,0
97445,-31.25,4,2,1,0,0,0
97466,-303.030303030303,4,2,1,0,0,0
97529,-31.25,4,2,1,0,0,0
97549,-303.030303030303,4,2,1,0,0,0
97612,-31.25,4,2,1,0,0,0
97632,-18.8679245283019,4,2,1,0,0,0
97653,-333.333333333333,4,2,1,0,0,0
97757,-105.263157894737,4,2,1,0,0,0
97799,-29.8507462686567,4,2,1,0,0,0
97820,-357.142857142857,4,2,1,0,0,0
97882,-29.8507462686567,4,2,1,0,0,0
97903,-357.142857142857,4,2,1,0,0,0
97966,-29.8507462686567,4,2,1,0,0,0
97987,-357.142857142857,4,2,1,0,0,0
98049,-31.25,4,2,1,0,0,0
98070,-500,4,2,1,0,0,0
98132,-34.4827586206897,4,2,1,0,0,0
98153,-333.333333333333,4,2,1,0,0,0
98278,-34.4827586206897,4,2,1,0,0,0
98299,-250,4,2,1,0,0,0
98445,-20.6185567010309,4,2,1,0,0,0
98465,-500,4,2,1,0,0,0
98528,-31.25,4,2,1,0,0,0
98549,-303.030303030303,4,2,1,0,0,0
98612,-31.25,4,2,1,0,0,0
98632,-303.030303030303,4,2,1,0,0,0
98695,-31.25,4,2,1,0,0,0
98715,-303.030303030303,4,2,1,0,0,0
98778,-31.25,4,2,1,0,0,0
98799,-303.030303030303,4,2,1,0,0,0
98862,-31.25,4,2,1,0,0,0
98882,-303.030303030303,4,2,1,0,0,0
98945,-31.25,4,2,1,0,0,0
98965,-18.8679245283019,4,2,1,0,0,0
98986,-333.333333333333,4,2,1,0,0,0
99090,-105.263157894737,4,2,1,0,0,0
99132,-29.8507462686567,4,2,1,0,0,0
99153,-357.142857142857,4,2,1,0,0,0
99215,-29.8507462686567,4,2,1,0,0,0
99236,-357.142857142857,4,2,1,0,0,0
99299,-29.8507462686567,4,2,1,0,0,0
99320,-357.142857142857,4,2,1,0,0,0
99382,-31.25,4,2,1,0,0,0
99403,-500,4,2,1,0,0,0
99465,-34.4827586206897,4,2,1,0,0,0
99486,-333.333333333333,4,2,1,0,0,0
99611,-34.4827586206897,4,2,1,0,0,0
99633,-250,4,2,1,0,0,0
99779,-20.6185567010309,4,2,1,0,0,0
99799,-500,4,2,1,0,0,0
99862,-31.25,4,2,1,0,0,0
99883,-500,4,2,1,0,0,0
99946,-31.25,4,2,1,0,0,0
99966,-500,4,2,1,0,0,0
100029,-31.25,4,2,1,0,0,0
100049,-500,4,2,1,0,0,0
100112,-31.25,4,2,1,0,0,0
100133,-500,4,2,1,0,0,0
100196,-31.25,4,2,1,0,0,0
100216,-500,4,2,1,0,0,0
100279,-31.25,4,2,1,0,0,0
100299,-38.4615384615385,4,2,1,0,0,0
100320,-250,4,2,1,0,0,0
100383,-105.263157894737,4,2,1,0,0,0
100466,-58.8235294117647,4,2,1,0,0,0
100508,-500,4,2,1,0,0,0
100549,-62.5,4,2,1,0,0,0
100592,-333.333333333333,4,2,1,0,0,0
100633,-62.5,4,2,1,0,0,0
100676,-333.333333333333,4,2,1,0,0,0
100716,-62.5,4,2,1,0,0,0
100759,-250,4,2,1,0,0,0
100799,-71.4285714285714,4,2,1,0,0,0
100842,-200,4,2,1,0,0,0
100924,-71.4285714285714,4,2,1,0,0,0
100966,-250,4,2,1,0,0,0
101466,-200,4,2,1,0,0,0
101633,-153.846153846154,4,2,1,0,0,0
101716,-111.111111111111,4,2,1,0,0,0
101799,-76.9230769230769,4,2,1,0,0,0
101882,-55.5555555555556,4,2,1,0,0,0
101966,-10,4,2,1,0,0,0
101994,-250.000000000001,4,2,1,0,0,0
102091,-200,4,2,1,0,0,0
102133,-153.846153846154,4,2,1,0,0,0
102175,-111.111111111111,4,2,1,0,0,0
102216,-71.4285714285714,4,2,1,0,0,0
102258,-41.6666666666667,4,2,1,0,0,0
102299,-100,4,2,1,0,0,1
102966,-16.1290322580645,4,2,1,0,0,1
102976,-666.666666666667,4,2,1,0,0,1
103008,-250.000000000001,4,2,1,0,0,1
103050,-100,4,2,1,0,0,1
103299,-37.7358490566038,4,2,1,0,0,1
103320,-222.222222222223,4,2,1,0,0,1
103382,-37.7358490566038,4,2,1,0,0,1
103403,-222.222222222223,4,2,1,0,0,1
103465,-181.818181818182,4,2,1,0,0,1
103507,-142.857142857143,4,2,1,0,0,1
103548,-83.3333333333333,4,2,1,0,0,1
103590,-43.4782608695652,4,2,1,0,0,1
103632,-100,4,2,1,0,0,1
104299,-16.1290322580645,4,2,1,0,0,1
104309,-666.666666666667,4,2,1,0,0,1
104341,-250.000000000001,4,2,1,0,0,1
104383,-100,4,2,1,0,0,1
104715,-37.037037037037,4,2,1,0,0,1
104736,-142.857142857143,4,2,1,0,0,1
104757,-333.333333333333,4,2,1,0,0,1
104799,-37.037037037037,4,2,1,0,0,1
104820,-142.857142857143,4,2,1,0,0,1
104841,-333.333333333333,4,2,1,0,0,1
104882,-37.037037037037,4,2,1,0,0,1
104903,-142.857142857143,4,2,1,0,0,1
104924,-333.333333333333,4,2,1,0,0,1
104965,-100,4,2,1,0,0,1
105633,-16.1290322580645,4,2,1,0,0,1
105643,-666.666666666667,4,2,1,0,0,1
105675,-250,4,2,1,0,0,1
105717,-100,4,2,1,0,0,1
105965,-37.7358490566038,4,2,1,0,0,1
105986,-222.222222222223,4,2,1,0,0,1
106048,-37.7358490566038,4,2,1,0,0,1
106069,-222.222222222223,4,2,1,0,0,1
106131,-181.818181818182,4,2,1,0,0,1
106173,-142.857142857143,4,2,1,0,0,1
106214,-83.3333333333333,4,2,1,0,0,1
106256,-43.4782608695652,4,2,1,0,0,1
106298,-100,4,2,1,0,0,1
106799,-37.7358490566038,4,2,1,0,0,1
106820,-222.222222222223,4,2,1,0,0,1
106882,-37.7358490566038,4,2,1,0,0,1
106903,-222.222222222223,4,2,1,0,0,1
106965,-26.3157894736842,4,2,1,0,0,1
106987,-166.666666666667,4,2,1,0,0,1
107133,-37.7358490566038,4,2,1,0,0,1
107154,-222.222222222223,4,2,1,0,0,1
107216,-37.7358490566038,4,2,1,0,0,1
107237,-222.222222222223,4,2,1,0,0,1
107299,-37.7358490566038,4,2,1,0,0,1
107320,-222.222222222223,4,2,1,0,0,1
107382,-37.7358490566038,4,2,1,0,0,1
107403,-222.222222222223,4,2,1,0,0,1
107466,-37.7358490566038,4,2,1,0,0,1
107487,-222.222222222223,4,2,1,0,0,1
107612,-37.7358490566038,4,2,1,0,0,1
107632,-100,4,2,1,0,0,1
108299,-16.1290322580645,4,2,1,0,0,1
108309,-666.666666666667,4,2,1,0,0,1
108341,-250.000000000001,4,2,1,0,0,1
108383,-100,4,2,1,0,0,1
108632,-37.7358490566038,4,2,1,0,0,1
108653,-222.222222222223,4,2,1,0,0,1
108715,-37.7358490566038,4,2,1,0,0,1
108736,-222.222222222223,4,2,1,0,0,1
108798,-181.818181818182,4,2,1,0,0,1
108840,-142.857142857143,4,2,1,0,0,1
108881,-83.3333333333333,4,2,1,0,0,1
108923,-43.4782608695652,4,2,1,0,0,1
108965,-100,4,2,1,0,0,1
109633,-16.1290322580645,4,2,1,0,0,1
109643,-666.666666666667,4,2,1,0,0,1
109675,-250.000000000001,4,2,1,0,0,1
109717,-100,4,2,1,0,0,1
110048,-37.037037037037,4,2,1,0,0,1
110069,-142.857142857143,4,2,1,0,0,1
110090,-333.333333333333,4,2,1,0,0,1
110132,-37.037037037037,4,2,1,0,0,1
110153,-142.857142857143,4,2,1,0,0,1
110174,-333.333333333333,4,2,1,0,0,1
110215,-37.037037037037,4,2,1,0,0,1
110236,-142.857142857143,4,2,1,0,0,1
110257,-333.333333333333,4,2,1,0,0,1
110298,-66.6666666666667,4,2,1,0,0,1
110383,-77.5193798449612,4,2,1,0,0,1
110466,-88.4955752212389,4,2,1,0,0,1
110551,-99.009900990099,4,2,1,0,0,1
110633,-107.52688172043,4,2,1,0,0,1
110718,-114.942528735632,4,2,1,0,0,1
110799,-119.047619047619,4,2,1,0,0,1
110884,-121.951219512195,4,2,1,0,0,1
110966,-117.647058823529,4,2,1,0,0,1
111022,-112.359550561798,4,2,1,0,0,1
111077,-104.166666666667,4,2,1,0,0,1
111133,-95.2380952380952,4,2,1,0,0,1
111188,-85.4700854700855,4,2,1,0,0,1
111244,-75.187969924812,4,2,1,0,0,1
111299,-64.5161290322581,4,2,1,0,0,1
111355,-58.8235294117647,4,2,1,0,0,1
111411,-60.2409638554217,4,2,1,0,0,1
111467,-64.9350649350649,4,2,1,0,0,1
111522,-73.5294117647059,4,2,1,0,0,1
111578,-83.3333333333333,4,2,1,0,0,1
111631,-19.2307692307692,4,2,1,0,0,1
111654,-250,4,2,1,0,0,1
111799,-37.7358490566038,4,2,1,0,0,1
111820,-222.222222222223,4,2,1,0,0,1
111882,-37.7358490566038,4,2,1,0,0,1
111903,-222.222222222223,4,2,1,0,0,1
111966,-37.7358490566038,4,2,1,0,0,1
111987,-222.222222222223,4,2,1,0,0,1
112049,-37.7358490566038,4,2,1,0,0,1
112070,-222.222222222223,4,2,1,0,0,1
112132,-37.7358490566038,4,2,1,0,0,1
112153,-222.222222222223,4,2,1,0,0,1
112215,-37.7358490566038,4,2,1,0,0,1
112236,-222.222222222223,4,2,1,0,0,1
112298,-100,4,2,1,0,0,1
112424,-37.7358490566038,4,2,1,0,0,1
112434,-222.222222222223,4,2,1,0,0,1
112465,-37.7358490566038,4,2,1,0,0,1
112486,-222.222222222223,4,2,1,0,0,1
112548,-37.7358490566038,4,2,1,0,0,1
112569,-222.222222222223,4,2,1,0,0,1
112633,-37.7358490566038,4,2,1,0,0,1
112654,-222.222222222223,4,2,1,0,0,1
112716,-37.7358490566038,4,2,1,0,0,1
112737,-222.222222222223,4,2,1,0,0,1
112799,-37.7358490566038,4,2,1,0,0,1
112820,-222.222222222223,4,2,1,0,0,1
112883,-37.7358490566038,4,2,1,0,0,1
112904,-222.222222222223,4,2,1,0,0,1
112965,-52.6315789473684,4,2,1,0,0,1
113007,-1000,4,2,1,0,0,1
113049,-100,4,2,1,0,0,1
113632,-10,4,2,1,0,0,1
113637,-100,4,2,1,0,0,1
114299,-52.6315789473684,4,2,1,0,0,1
114341,-1000,4,2,1,0,0,1
114383,-100,4,2,1,0,0,1
114965,-10,4,2,1,0,0,1
114970,-100,4,2,1,0,0,1
115632,-52.6315789473684,4,2,1,0,0,1
115674,-1000,4,2,1,0,0,1
115716,-100,4,2,1,0,0,1
116299,-10,4,2,1,0,0,1
116304,-100,4,2,1,0,0,1
117465,-35.7142857142857,4,2,1,0,0,1
117486,-250,4,2,1,0,0,1
117549,-35.7142857142857,4,2,1,0,0,1
117570,-250,4,2,1,0,0,1
117633,-25,4,2,1,0,0,1
117653,-55.5555555555556,4,2,1,0,0,1
117674,-111.111111111111,4,2,1,0,0,1
117715,-166.666666666667,4,2,1,0,0,1
117799,-35.7142857142857,4,2,1,0,0,1
117820,-250,4,2,1,0,0,1
117883,-35.7142857142857,4,2,1,0,0,1
117904,-250,4,2,1,0,0,1
117965,-20,4,2,1,0,0,1
117986,-142.857142857143,4,2,1,0,0,1
118007,-400,4,2,1,0,0,1
118049,-28.5714285714286,4,2,1,0,0,1
118070,-142.857142857143,4,2,1,0,0,1
118090,-400,4,2,1,0,0,1
118132,-37.037037037037,4,2,1,0,0,1
118153,-142.857142857143,4,2,1,0,0,1
118174,-400,4,2,1,0,0,1
118215,-50,4,2,1,0,0,1
118236,-142.857142857143,4,2,1,0,0,1
118257,-400,4,2,1,0,0,1
118299,-52.6315789473684,4,2,1,0,0,1
118341,-1000,4,2,1,0,0,1
118383,-100,4,2,1,0,0,1
118632,-52.6315789473684,4,2,1,0,0,1
118674,-1000,4,2,1,0,0,1
118716,-100,4,2,1,0,0,1
118965,-52.6315789473684,4,2,1,0,0,1
119007,-1000,4,2,1,0,0,1
119049,-100,4,2,1,0,0,1
119299,-52.6315789473684,4,2,1,0,0,1
119341,-1000,4,2,1,0,0,1
119383,-100,4,2,1,0,0,1
119632,-52.6315789473684,4,2,1,0,0,1
119674,-1000,4,2,1,0,0,1
119716,-100,4,2,1,0,0,1
119965,-52.6315789473684,4,2,1,0,0,1
120007,-1000,4,2,1,0,0,1
120049,-100,4,2,1,0,0,1
120299,-83.3333333333333,4,2,1,0,0,1
120633,-37.037037037037,4,2,1,0,0,0
120654,-142.857142857143,4,2,1,0,0,0
120675,-333.333333333333,4,2,1,0,0,0
120717,-37.037037037037,4,2,1,0,0,0
120738,-142.857142857143,4,2,1,0,0,0
120759,-333.333333333333,4,2,1,0,0,0
120800,-37.037037037037,4,2,1,0,0,0
120821,-142.857142857143,4,2,1,0,0,0
120842,-333.333333333333,4,2,1,0,0,0
120883,-37.037037037037,4,2,1,0,0,0
120904,-142.857142857143,4,2,1,0,0,0
120925,-333.333333333333,4,2,1,0,0,0
120966,-22.7272727272727,4,2,1,0,0,0
120995,-500,4,2,1,0,0,0
121050,-125,4,2,1,0,0,0
121216,-22.7272727272727,4,2,1,0,0,0
121245,-500,4,2,1,0,0,0
121300,-125,4,2,1,0,0,0
121466,-22.7272727272727,4,2,1,0,0,0
121495,-500,4,2,1,0,0,0
121550,-125,4,2,1,0,0,0
121716,-22.7272727272727,4,2,1,0,0,0
121745,-500,4,2,1,0,0,0
121800,-125,4,2,1,0,0,0
121966,-22.7272727272727,4,2,1,0,0,0
121995,-500,4,2,1,0,0,0
122050,-125,4,2,1,0,0,0
122216,-22.7272727272727,4,2,1,0,0,0
122245,-500,4,2,1,0,0,0
122300,-125,4,2,1,0,0,0
122466,-22.7272727272727,4,2,1,0,0,0
122495,-500,4,2,1,0,0,0
122550,-125,4,2,1,0,0,0
122716,-22.7272727272727,4,2,1,0,0,0
122745,-500,4,2,1,0,0,0
122800,-125,4,2,1,0,0,0
122966,-22.7272727272727,4,2,1,0,0,0
122995,-500,4,2,1,0,0,0
123050,-125,4,2,1,0,0,0
123299,-10,4,2,1,0,0,0
123320,-250,4,2,1,0,0,0
123355,-181.818181818182,4,2,1,0,0,0
123410,-133.333333333333,4,2,1,0,0,0
123466,-100,4,2,1,0,0,0
123521,-76.9230769230769,4,2,1,0,0,0
123577,-58.8235294117647,4,2,1,0,0,0
123633,-10,4,2,1,0,0,0
123639,-1000,4,2,1,0,0,0
123688,-10,4,2,1,0,0,0
123694,-1000,4,2,1,0,0,0
123744,-10,4,2,1,0,0,0
123750,-1000,4,2,1,0,0,0
123799,-10,4,2,1,0,0,0
123805,-1000,4,2,1,0,0,0
123855,-10,4,2,1,0,0,0
123861,-1000,4,2,1,0,0,0
123911,-10,4,2,1,0,0,0
123917,-1000,4,2,1,0,0,0
123966,-10,4,2,1,0,0,0
123980,-1000,4,2,1,0,0,0

[HitObjects]
320,192,2299,128,0,8299:0:0:0:0:
64,192,8299,128,0,8966:0:0:0:0:
448,192,8299,128,0,8966:0:0:0:0:
320,192,8966,128,0,9299:0:0:0:0:
448,192,9133,128,0,9299:0:0:0:0:
192,192,9299,128,0,9633:0:0:0:0:
64,192,9299,128,0,9799:0:0:0:0:
448,192,9633,128,0,9855:0:0:0:0:
320,192,9744,128,0,9966:0:0:0:0:
192,192,9855,128,0,9966:0:0:0:0:
64,192,9966,128,0,10077:0:0:0:0:
192,192,10077,128,0,10188:0:0:0:0:
320,192,10133,128,0,10244:0:0:0:0:
448,192,10188,128,0,10299:0:0:0:0:
64,192,10244,128,0,10299:0:0:0:0:
192,192,10299,128,0,10633:0:0:0:0:
448,192,10633,128,0,10966:0:0:0:0:
320,192,10716,128,0,10883:0:0:0:0:
192,192,10799,128,0,10966:0:0:0:0:
64,192,10883,128,0,11049:0:0:0:0:
320,192,10966,128,0,11105:0:0:0:0:
192,192,11049,128,0,11105:0:0:0:0:
448,192,11133,1,0,0:0:0:0:
320,192,11188,1,0,0:0:0:0:
192,192,11258,1,0,0:0:0:0:
64,192,11299,128,0,11633:0:0:0:0:
448,192,11299,128,0,11466:0:0:0:0:
192,192,11633,1,0,0:0:0:0:
320,192,11633,128,0,13716:0:0:0:0:
448,192,11633,128,0,13799:0:0:0:0:
64,192,11799,1,0,0:0:0:0:
192,192,11966,1,0,0:0:0:0:
64,192,12133,1,0,0:0:0:0:
192,192,12299,1,0,0:0:0:0:
64,192,12466,1,0,0:0:0:0:
192,192,12633,1,0,0:0:0:0:
64,192,12799,1,0,0:0:0:0:
192,192,12966,1,0,0:0:0:0:
64,192,13133,1,0,0:0:0:0:
192,192,13299,1,0,0:0:0:0:
64,192,13299,1,0,0:0:0:0:
64,192,13633,128,0,14216:0:0:0:0:
192,192,13716,128,0,14216:0:0:0:0:
320,192,13799,128,0,14216:0:0:0:0:
448,192,13883,128,0,14216:0:0:0:0:
320,192,14299,1,0,0:0:0:0:
64,192,14299,128,0,15633:0:0:0:0:
448,192,14466,1,0,0:0:0:0:
320,192,14633,1,0,0:0:0:0:
448,192,14799,1,0,0:0:0:0:
320,192,14966,1,0,0:0:0:0:
192,192,14966,128,0,16299:0:0:0:0:
448,192,15633,128,0,16299:0:0:0:0:
320,192,15633,1,0,0:0:0:0:
64,192,16299,128,0,16966:0:0:0:0:
320,192,16633,128,0,16966:0:0:0:0:
192,192,16633,128,0,16966:0:0:0:0:
448,192,16633,1,0,0:0:0:0:
448,192,16966,128,0,17633:0:0:0:0:
64,192,17466,128,0,17549:0:0:0:0:
192,192,17549,128,0,17633:0:0:0:0:
320,192,17633,128,0,17883:0:0:0:0:
448,192,17883,128,0,18299:0:0:0:0:
320,192,18299,1,0,0:0:0:0:
192,192,18466,1,0,0:0:0:0:
64,192,18633,1,0,0:0:0:0:
192,192,18799,1,0,0:0:0:0:
64,192,18799,1,0,0:0:0:0:
64,192,18883,1,0,0:0:0:0:
192,192,18883,1,0,0:0:0:0:
320,192,18966,1,0,0:0:0:0:
448,192,18966,1,0,0:0:0:0:
192,192,19049,1,0,0:0:0:0:
64,192,19133,1,0,0:0:0:0:
448,192,19133,1,0,0:0:0:0:
192,192,19216,1,0,0:0:0:0:
320,192,19216,1,0,0:0:0:0:
64,192,19299,1,0,0:0:0:0:
448,192,19299,1,0,0:0:0:0:
320,192,19299,1,0,0:0:0:0:
64,192,19633,1,0,0:0:0:0:
192,192,19633,1,0,0:0:0:0:
320,192,19633,1,0,0:0:0:0:
448,192,19633,1,0,0:0:0:0:
192,192,19799,1,0,0:0:0:0:
192,192,19966,1,0,0:0:0:0:
192,192,20133,1,0,0:0:0:0:
64,192,20299,1,0,0:0:0:0:
192,192,20299,1,0,0:0:0:0:
320,192,20299,1,0,0:0:0:0:
448,192,20299,1,0,0:0:0:0:
320,192,20466,1,0,0:0:0:0:
192,192,20633,1,0,0:0:0:0:
320,192,20716,1,0,0:0:0:0:
192,192,20799,1,0,0:0:0:0:
64,192,20799,1,0,0:0:0:0:
448,192,20799,1,0,0:0:0:0:
64,192,20966,1,0,0:0:0:0:
320,192,20966,1,0,0:0:0:0:
448,192,20966,1,0,0:0:0:0:
192,192,20966,1,0,0:0:0:0:
320,192,21133,1,0,0:0:0:0:
320,192,21299,1,0,0:0:0:0:
320,192,21466,1,0,0:0:0:0:
64,192,21633,1,0,0:0:0:0:
320,192,21633,1,0,0:0:0:0:
448,192,21633,1,0,0:0:0:0:
192,192,21633,1,0,0:0:0:0:
320,192,21966,1,0,0:0:0:0:
448,192,22049,128,0,22299:0:0:0:0:
192,192,22049,1,0,0:0:0:0:
64,192,22299,1,0,0:0:0:0:
192,192,22299,1,0,0:0:0:0:
320,192,22299,1,0,0:0:0:0:
448,192,22466,1,0,0:0:0:0:
448,192,22633,1,0,0:0:0:0:
448,192,22799,1,0,0:0:0:0:
320,192,22966,1,0,0:0:0:0:
192,192,22966,1,0,0:0:0:0:
448,192,22966,1,0,0:0:0:0:
64,192,22966,1,0,0:0:0:0:
192,192,23133,1,0,0:0:0:0:
64,192,23299,1,0,0:0:0:0:
192,192,23383,1,0,0:0:0:0:
64,192,23466,1,0,0:0:0:0:
448,192,23466,1,0,0:0:0:0:
320,192,23466,1,0,0:0:0:0:
64,192,23633,1,0,0:0:0:0:
192,192,23633,1,0,0:0:0:0:
320,192,23633,1,0,0:0:0:0:
448,192,23633,1,0,0:0:0:0:
192,192,23799,1,0,0:0:0:0:
320,192,23799,128,0,23966:0:0:0:0:
64,192,23966,1,0,0:0:0:0:
448,192,23966,128,0,24133:0:0:0:0:
64,192,24133,1,0,0:0:0:0:
192,192,24216,1,0,0:0:0:0:
320,192,24216,1,0,0:0:0:0:
320,192,24299,1,0,0:0:0:0:
448,192,24299,1,0,0:0:0:0:
64,192,24299,1,0,0:0:0:0:
192,192,24383,128,0,24466:0:0:0:0:
320,192,24466,128,0,24549:0:0:0:0:
448,192,24549,128,0,24633:0:0:0:0:
64,192,24633,128,0,24966:0:0:0:0:
192,192,24633,1,0,0:0:0:0:
320,192,24799,1,0,0:0:0:0:
192,192,24966,1,0,0:0:0:0:
320,192,24966,1,0,0:0:0:0:
448,192,24966,128,0,25633:0:0:0:0:
64,192,25133,1,0,0:0:0:0:
64,192,25299,1,0,0:0:0:0:
64,192,25466,1,0,0:0:0:0:
64,192,25633,1,0,0:0:0:0:
192,192,25633,1,0,0:0:0:0:
320,192,25633,1,0,0:0:0:0:
448,192,25966,1,0,0:0:0:0:
320,192,26049,1,0,0:0:0:0:
64,192,26133,1,0,0:0:0:0:
192,192,26133,1,0,0:0:0:0:
448,192,26133,1,0,0:0:0:0:
64,192,26299,1,0,0:0:0:0:
320,192,26299,1,0,0:0:0:0:
448,192,26299,1,0,0:0:0:0:
192,192,26299,1,0,0:0:0:0:
320,192,26466,1,0,0:0:0:0:
320,192,26633,1,0,0:0:0:0:
320,192,26799,1,0,0:0:0:0:
64,192,26966,1,0,0:0:0:0:
192,192,26966,1,0,0:0:0:0:
320,192,26966,1,0,0:0:0:0:
448,192,26966,1,0,0:0:0:0:
320,192,27299,128,0,27549:0:0:0:0:
448,192,27299,128,0,27549:0:0:0:0:
64,192,27633,1,0,0:0:0:0:
192,192,27633,1,0,0:0:0:0:
320,192,27633,1,0,0:0:0:0:
448,192,27799,1,0,0:0:0:0:
320,192,27883,1,0,0:0:0:0:
192,192,27966,1,0,0:0:0:0:
320,192,28049,1,0,0:0:0:0:
448,192,28133,1,0,0:0:0:0:
64,192,28133,1,0,0:0:0:0:
64,192,28299,1,0,0:0:0:0:
192,192,28299,1,0,0:0:0:0:
320,192,28299,1,0,0:0:0:0:
448,192,28299,1,0,0:0:0:0:
192,192,28633,128,0,28716:0:0:0:0:
448,192,28716,128,0,28799:0:0:0:0:
320,192,28799,128,0,28966:0:0:0:0:
192,192,28883,128,0,28966:0:0:0:0:
448,192,28966,1,0,0:0:0:0:
64,192,28966,1,0,0:0:0:0:
192,192,29133,128,0,29299:0:0:0:0:
320,192,29299,128,0,29466:0:0:0:0:
64,192,29383,1,0,0:0:0:0:
192,192,29466,1,0,0:0:0:0:
448,192,29466,1,0,0:0:0:0:
320,192,29549,1,0,0:0:0:0:
192,192,29633,1,0,0:0:0:0:
448,192,29633,1,0,0:0:0:0:
64,192,29633,1,0,0:0:0:0:
320,192,29758,1,0,0:0:0:0:
448,192,29799,1,0,0:0:0:0:
64,192,29883,1,0,0:0:0:0:
192,192,29883,1,0,0:0:0:0:
448,192,29966,1,0,0:0:0:0:
320,192,29966,1,0,0:0:0:0:
192,192,30022,1,0,0:0:0:0:
320,192,30077,1,0,0:0:0:0:
448,192,30133,1,0,0:0:0:0:
64,192,30133,1,0,0:0:0:0:
192,192,30188,1,0,0:0:0:0:
320,192,30244,1,0,0:0:0:0:
192,192,30299,1,0,0:0:0:0:
448,192,30299,1,0,0:0:0:0:
64,192,30299,1,0,0:0:0:0:
192,192,30466,1,0,0:0:0:0:
192,192,30633,1,0,0:0:0:0:
192,192,30799,1,0,0:0:0:0:
64,192,30966,1,0,0:0:0:0:
192,192,30966,1,0,0:0:0:0:
448,192,30966,1,0,0:0:0:0:
320,192,31133,1,0,0:0:0:0:
448,192,31299,1,0,0:0:0:0:
320,192,31383,1,0,0:0:0:0:
192,192,31466,1,0,0:0:0:0:
64,192,31466,128,0,31633:0:0:0:0:
448,192,31633,128,0,31799:0:0:0:0:
320,192,31633,1,0,0:0:0:0:
192,192,31799,1,0,0:0:0:0:
320,192,31883,1,0,0:0:0:0:
64,192,31966,1,0,0:0:0:0:
192,192,32049,1,0,0:0:0:0:
448,192,32133,1,0,0:0:0:0:
320,192,32216,1,0,0:0:0:0:
192,192,32299,1,0,0:0:0:0:
64,192,32299,1,0,0:0:0:0:
448,192,32299,1,0,0:0:0:0:
448,192,32633,1,0,0:0:0:0:
192,192,32716,128,0,32966:0:0:0:0:
320,192,32716,128,0,32966:0:0:0:0:
64,192,32966,1,0,0:0:0:0:
448,192,32966,1,0,0:0:0:0:
64,192,33133,1,0,0:0:0:0:
192,192,33216,1,0,0:0:0:0:
448,192,33299,1,0,0:0:0:0:
192,192,33383,1,0,0:0:0:0:
320,192,33466,1,0,0:0:0:0:
64,192,33549,1,0,0:0:0:0:
192,192,33633,1,0,0:0:0:0:
320,192,33633,1,0,0:0:0:0:
448,192,33633,1,0,0:0:0:0:
320,192,33799,1,0,0:0:0:0:
192,192,33883,1,0,0:0:0:0:
64,192,33966,1,0,0:0:0:0:
448,192,33966,1,0,0:0:0:0:
192,192,34049,1,0,0:0:0:0:
448,192,34133,1,0,0:0:0:0:
320,192,34216,1,0,0:0:0:0:
192,192,34299,1,0,0:0:0:0:
64,192,34299,1,0,0:0:0:0:
320,192,34466,1,0,0:0:0:0:
448,192,34549,1,0,0:0:0:0:
192,192,34633,1,0,0:0:0:0:
64,192,34716,1,0,0:0:0:0:
448,192,34799,1,0,0:0:0:0:
320,192,34799,1,0,0:0:0:0:
192,192,34883,1,0,0:0:0:0:
64,192,34883,1,0,0:0:0:0:
64,192,34966,1,0,0:0:0:0:
448,192,34966,1,0,0:0:0:0:
320,192,34966,1,0,0:0:0:0:
192,192,35133,1,0,0:0:0:0:
320,192,35133,1,0,0:0:0:0:
64,192,35216,1,0,0:0:0:0:
448,192,35216,1,0,0:0:0:0:
192,192,35299,1,0,0:0:0:0:
320,192,35299,128,0,35633:0:0:0:0:
448,192,35299,1,0,0:0:0:0:
192,192,35633,128,0,35799:0:0:0:0:
64,192,35633,128,0,35799:0:0:0:0:
448,192,35633,128,0,35966:0:0:0:0:
320,192,35799,128,0,35966:0:0:0:0:
192,192,35966,128,0,36299:0:0:0:0:
64,192,35966,128,0,36133:0:0:0:0:
320,192,36133,128,0,36299:0:0:0:0:
448,192,36299,128,0,36633:0:0:0:0:
64,192,36299,128,0,36466:0:0:0:0:
320,192,36466,128,0,36633:0:0:0:0:
64,192,36633,128,0,36966:0:0:0:0:
192,192,36633,128,0,36799:0:0:0:0:
448,192,36799,128,0,36966:0:0:0:0:
192,192,36966,128,0,37133:0:0:0:0:
320,192,36966,128,0,37299:0:0:0:0:
448,192,37133,128,0,37299:0:0:0:0:
64,192,37299,128,0,37633:0:0:0:0:
192,192,37299,128,0,37466:0:0:0:0:
320,192,37466,128,0,37633:0:0:0:0:
192,192,37633,128,0,37799:0:0:0:0:
448,192,37633,128,0,37966:0:0:0:0:
64,192,37883,1,0,0:0:0:0:
320,192,37883,1,0,0:0:0:0:
192,192,37966,1,0,0:0:0:0:
64,192,37966,1,0,0:0:0:0:
64,192,38133,1,0,0:0:0:0:
320,192,38133,1,0,0:0:0:0:
448,192,38133,1,0,0:0:0:0:
448,192,38299,1,0,0:0:0:0:
64,192,38299,1,0,0:0:0:0:
192,192,38299,1,0,0:0:0:0:
320,192,38466,1,0,0:0:0:0:
64,192,38466,1,0,0:0:0:0:
448,192,38633,1,0,0:0:0:0:
192,192,38633,1,0,0:0:0:0:
320,192,38633,1,0,0:0:0:0:
192,192,38799,1,0,0:0:0:0:
64,192,38799,1,0,0:0:0:0:
64,192,38966,1,0,0:0:0:0:
448,192,38966,1,0,0:0:0:0:
320,192,38966,1,0,0:0:0:0:
192,192,39133,1,0,0:0:0:0:
320,192,39216,1,0,0:0:0:0:
64,192,39299,1,0,0:0:0:0:
192,192,39299,1,0,0:0:0:0:
448,192,39299,1,0,0:0:0:0:
320,192,39383,1,0,0:0:0:0:
192,192,39466,1,0,0:0:0:0:
448,192,39466,1,0,0:0:0:0:
64,192,39549,1,0,0:0:0:0:
320,192,39549,1,0,0:0:0:0:
192,192,39633,1,0,0:0:0:0:
448,192,39633,1,0,0:0:0:0:
320,192,39799,1,0,0:0:0:0:
192,192,39883,1,0,0:0:0:0:
64,192,39966,1,0,0:0:0:0:
448,192,40049,1,0,0:0:0:0:
320,192,40049,1,0,0:0:0:0:
192,192,40133,1,0,0:0:0:0:
64,192,40216,1,0,0:0:0:0:
192,192,40299,1,0,0:0:0:0:
448,192,40299,1,0,0:0:0:0:
320,192,40383,1,0,0:0:0:0:
64,192,40466,1,0,0:0:0:0:
448,192,40466,1,0,0:0:0:0:
320,192,40549,1,0,0:0:0:0:
192,192,40633,128,0,40966:0:0:0:0:
320,192,40799,128,0,40966:0:0:0:0:
64,192,40966,128,0,41299:0:0:0:0:
448,192,40966,128,0,41633:0:0:0:0:
320,192,41299,128,0,41633:0:0:0:0:
192,192,41299,128,0,41633:0:0:0:0:
64,192,41633,128,0,41799:0:0:0:0:
448,192,41799,1,0,0:0:0:0:
320,192,41883,1,0,0:0:0:0:
64,192,41966,1,0,0:0:0:0:
192,192,41966,1,0,0:0:0:0:
320,192,42049,1,0,0:0:0:0:
448,192,42133,1,0,0:0:0:0:
192,192,42133,1,0,0:0:0:0:
320,192,42216,1,0,0:0:0:0:
64,192,42299,1,0,0:0:0:0:
192,192,42299,1,0,0:0:0:0:
448,192,42383,1,0,0:0:0:0:
64,192,42466,1,0,0:0:0:0:
320,192,42549,1,0,0:0:0:0:
192,192,42633,1,0,0:0:0:0:
64,192,42633,1,0,0:0:0:0:
320,192,42855,1,0,0:0:0:0:
448,192,42855,1,0,0:0:0:0:
64,192,42966,1,0,0:0:0:0:
448,192,42966,128,0,43299:0:0:0:0:
320,192,42966,128,0,43133:0:0:0:0:
192,192,43133,128,0,43216:0:0:0:0:
64,192,43216,128,0,43299:0:0:0:0:
320,192,43299,1,0,0:0:0:0:
192,192,43383,128,0,43966:0:0:0:0:
448,192,43383,128,0,43966:0:0:0:0:
64,192,43633,128,0,43966:0:0:0:0:
320,192,43966,128,0,44049:0:0:0:0:
320,192,44133,128,0,44216:0:0:0:0:
64,192,44299,1,0,0:0:0:0:
320,192,44299,1,0,0:0:0:0:
448,192,44299,1,0,0:0:0:0:
192,192,44299,128,0,44466:0:0:0:0:
320,192,44466,128,0,44633:0:0:0:0:
64,192,44633,1,0,0:0:0:0:
192,192,44688,1,0,0:0:0:0:
320,192,44744,1,0,0:0:0:0:
448,192,44799,128,0,44966:0:0:0:0:
192,192,44966,1,0,0:0:0:0:
64,192,44966,1,0,0:0:0:0:
320,192,45049,1,0,0:0:0:0:
448,192,45133,1,0,0:0:0:0:
64,192,45216,1,0,0:0:0:0:
192,192,45299,1,0,0:0:0:0:
320,192,45383,1,0,0:0:0:0:
64,192,45466,1,0,0:0:0:0:
192,192,45466,1,0,0:0:0:0:
320,192,45549,1,0,0:0:0:0:
448,192,45549,1,0,0:0:0:0:
64,192,45633,1,0,0:0:0:0:
192,192,45633,1,0,0:0:0:0:
448,192,45633,1,0,0:0:0:0:
192,192,45799,1,0,0:0:0:0:
320,192,45799,1,0,0:0:0:0:
64,192,45883,1,0,0:0:0:0:
448,192,45883,1,0,0:0:0:0:
64,192,45966,1,0,0:0:0:0:
320,192,45966,128,0,46633:0:0:0:0:
192,192,45966,128,0,46299:0:0:0:0:
64,192,46299,128,0,46633:0:0:0:0:
192,192,46633,128,0,46966:0:0:0:0:
448,192,46966,128,0,47299:0:0:0:0:
64,192,46966,1,0,0:0:0:0:
320,192,46966,1,0,0:0:0:0:
192,192,47299,128,0,47411:0:0:0:0:
64,192,47299,128,0,47411:0:0:0:0:
320,192,47411,128,0,47522:0:0:0:0:
448,192,47411,128,0,47522:0:0:0:0:
64,192,47522,1,0,0:0:0:0:
192,192,47577,1,0,0:0:0:0:
320,192,47633,1,0,0:0:0:0:
448,192,47633,1,0,0:0:0:0:
64,192,47688,1,0,0:0:0:0:
448,192,47744,1,0,0:0:0:0:
320,192,47799,128,0,47966:0:0:0:0:
64,192,47966,1,0,0:0:0:0:
192,192,47966,1,0,0:0:0:0:
64,192,48299,128,0,48966:0:0:0:0:
192,192,48299,128,0,48633:0:0:0:0:
320,192,48299,128,0,48633:0:0:0:0:
448,192,48633,128,0,48966:0:0:0:0:
192,192,48966,1,0,0:0:0:0:
320,192,48966,1,0,0:0:0:0:
64,192,49133,1,0,0:0:0:0:
448,192,49133,1,0,0:0:0:0:
192,192,49299,1,0,0:0:0:0:
448,192,49299,1,0,0:0:0:0:
320,192,49466,1,0,0:0:0:0:
64,192,49466,1,0,0:0:0:0:
64,192,49633,1,0,0:0:0:0:
192,192,49633,1,0,0:0:0:0:
448,192,49633,1,0,0:0:0:0:
320,192,49716,1,0,0:0:0:0:
192,192,49799,1,0,0:0:0:0:
64,192,49883,1,0,0:0:0:0:
320,192,49966,128,0,50299:0:0:0:0:
448,192,49966,128,0,50049:0:0:0:0:
192,192,50049,128,0,50299:0:0:0:0:
64,192,50299,1,0,0:0:0:0:
448,192,50299,128,0,50549:0:0:0:0:
320,192,50383,128,0,50549:0:0:0:0:
64,192,50549,128,0,50799:0:0:0:0:
192,192,50633,128,0,50799:0:0:0:0:
320,192,50799,128,0,50966:0:0:0:0:
448,192,50799,128,0,51133:0:0:0:0:
192,192,50966,1,0,0:0:0:0:
64,192,51049,1,0,0:0:0:0:
320,192,51133,1,0,0:0:0:0:
192,192,51216,1,0,0:0:0:0:
64,192,51299,1,0,0:0:0:0:
320,192,51383,1,0,0:0:0:0:
448,192,51466,1,0,0:0:0:0:
320,192,51549,128,0,51633:0:0:0:0:
192,192,51633,128,0,51966:0:0:0:0:
64,192,51633,128,0,51966:0:0:0:0:
448,192,51966,1,0,0:0:0:0:
320,192,52049,1,0,0:0:0:0:
64,192,52133,128,0,52466:0:0:0:0:
192,192,52133,128,0,52299:0:0:0:0:
320,192,52299,1,0,0:0:0:0:
448,192,52299,1,0,0:0:0:0:
192,192,52466,128,0,52549:0:0:0:0:
320,192,52549,128,0,52633:0:0:0:0:
448,192,52633,1,0,0:0:0:0:
320,192,52716,1,0,0:0:0:0:
64,192,52799,1,0,0:0:0:0:
192,192,52799,1,0,0:0:0:0:
320,192,52883,1,0,0:0:0:0:
448,192,52883,1,0,0:0:0:0:
192,192,52966,128,0,53049:0:0:0:0:
448,192,53049,128,0,53133:0:0:0:0:
320,192,53133,128,0,53216:0:0:0:0:
192,192,53216,128,0,53299:0:0:0:0:
64,192,53299,1,0,0:0:0:0:
320,192,53299,1,0,0:0:0:0:
448,192,53299,128,0,53633:0:0:0:0:
192,192,53549,1,0,0:0:0:0:
320,192,53633,1,0,0:0:0:0:
64,192,53633,128,0,53966:0:0:0:0:
448,192,53966,128,0,54299:0:0:0:0:
320,192,54049,128,0,54299:0:0:0:0:
64,192,54299,128,0,54466:0:0:0:0:
192,192,54299,1,0,0:0:0:0:
320,192,54466,128,0,54633:0:0:0:0:
192,192,54633,128,0,54799:0:0:0:0:
448,192,54799,128,0,54966:0:0:0:0:
64,192,54966,1,0,0:0:0:0:
192,192,54966,1,0,0:0:0:0:
320,192,54966,128,0,55133:0:0:0:0:
192,192,55133,128,0,55299:0:0:0:0:
64,192,55133,128,0,55466:0:0:0:0:
448,192,55299,1,0,0:0:0:0:
320,192,55383,1,0,0:0:0:0:
192,192,55466,128,0,55633:0:0:0:0:
320,192,55633,1,0,0:0:0:0:
448,192,55633,1,0,0:0:0:0:
64,192,55633,1,0,0:0:0:0:
192,192,55799,128,0,55883:0:0:0:0:
64,192,55883,128,0,55966:0:0:0:0:
320,192,55966,128,0,56133:0:0:0:0:
64,192,56133,1,0,0:0:0:0:
448,192,56133,1,0,0:0:0:0:
64,192,56216,1,0,0:0:0:0:
448,192,56216,1,0,0:0:0:0:
192,192,56299,1,0,0:0:0:0:
320,192,56299,1,0,0:0:0:0:
64,192,56466,1,0,0:0:0:0:
192,192,56466,1,0,0:0:0:0:
320,192,56549,1,0,0:0:0:0:
448,192,56549,1,0,0:0:0:0:
64,192,56633,1,0,0:0:0:0:
320,192,56633,128,0,56966:0:0:0:0:
448,192,56633,128,0,56966:0:0:0:0:
192,192,56633,1,0,0:0:0:0:
192,192,56966,1,0,0:0:0:0:
320,192,57133,1,0,0:0:0:0:
192,192,57299,1,0,0:0:0:0:
320,192,57466,1,0,0:0:0:0:
448,192,57466,1,0,0:0:0:0:
64,192,57633,128,0,57966:0:0:0:0:
192,192,57633,1,0,0:0:0:0:
448,192,57633,1,0,0:0:0:0:
320,192,57966,128,0,58049:0:0:0:0:
192,192,58049,128,0,58133:0:0:0:0:
448,192,58133,1,0,0:0:0:0:
64,192,58133,1,0,0:0:0:0:
192,192,58216,1,0,0:0:0:0:
320,192,58216,1,0,0:0:0:0:
64,192,58299,1,0,0:0:0:0:
320,192,58299,1,0,0:0:0:0:
448,192,58299,128,0,58383:0:0:0:0:
192,192,58466,128,0,58549:0:0:0:0:
320,192,58466,128,0,58549:0:0:0:0:
320,192,58633,128,0,58716:0:0:0:0:
448,192,58633,128,0,58716:0:0:0:0:
192,192,58799,128,0,58966:0:0:0:0:
64,192,58799,128,0,58966:0:0:0:0:
320,192,58966,1,0,0:0:0:0:
448,192,58966,1,0,0:0:0:0:
192,192,59133,1,0,0:0:0:0:
320,192,59216,1,0,0:0:0:0:
64,192,59299,1,0,0:0:0:0:
448,192,59299,128,0,59633:0:0:0:0:
192,192,59633,128,0,59966:0:0:0:0:
64,192,59633,128,0,60299:0:0:0:0:
320,192,59633,128,0,59966:0:0:0:0:
448,192,59966,128,0,60299:0:0:0:0:
320,192,60299,1,0,0:0:0:0:
192,192,60383,1,0,0:0:0:0:
64,192,60466,1,0,0:0:0:0:
192,192,60549,1,0,0:0:0:0:
64,192,60633,1,0,0:0:0:0:
320,192,60633,1,0,0:0:0:0:
448,192,60633,1,0,0:0:0:0:
192,192,60716,1,0,0:0:0:0:
320,192,60799,1,0,0:0:0:0:
448,192,60799,1,0,0:0:0:0:
64,192,60966,1,0,0:0:0:0:
192,192,60966,1,0,0:0:0:0:
448,192,60966,128,0,61049:0:0:0:0:
320,192,61049,128,0,61133:0:0:0:0:
192,192,61216,128,0,61299:0:0:0:0:
64,192,61216,1,0,0:0:0:0:
448,192,61466,1,0,0:0:0:0:
192,192,61466,1,0,0:0:0:0:
320,192,61466,128,0,61549:0:0:0:0:
64,192,61633,128,0,62299:0:0:0:0:
192,192,61633,128,0,61966:0:0:0:0:
448,192,61966,128,0,62299:0:0:0:0:
320,192,61966,128,0,62299:0:0:0:0:
192,192,62299,1,0,0:0:0:0:
320,192,62466,128,0,62799:0:0:0:0:
64,192,62466,128,0,63133:0:0:0:0:
448,192,62799,128,0,63133:0:0:0:0:
192,192,63133,128,0,63466:0:0:0:0:
448,192,63466,128,0,63633:0:0:0:0:
64,192,63633,128,0,63799:0:0:0:0:
320,192,63799,128,0,63966:0:0:0:0:
192,192,63966,128,0,64133:0:0:0:0:
448,192,64133,128,0,64299:0:0:0:0:
64,192,64299,128,0,64466:0:0:0:0:
192,192,64466,128,0,64633:0:0:0:0:
320,192,64633,128,0,64799:0:0:0:0:
448,192,64799,128,0,64966:0:0:0:0:
64,192,64966,128,0,65133:0:0:0:0:
320,192,65133,128,0,65299:0:0:0:0:
192,192,65299,128,0,65466:0:0:0:0:
448,192,65466,128,0,65633:0:0:0:0:
64,192,65633,128,0,65799:0:0:0:0:
320,192,65799,128,0,65966:0:0:0:0:
192,192,65966,128,0,66133:0:0:0:0:
448,192,66133,128,0,66299:0:0:0:0:
64,192,66299,128,0,66466:0:0:0:0:
320,192,66466,128,0,66633:0:0:0:0:
192,192,66633,128,0,66799:0:0:0:0:
448,192,66799,128,0,66966:0:0:0:0:
64,192,66966,128,0,67133:0:0:0:0:
192,192,67133,128,0,67299:0:0:0:0:
320,192,67299,128,0,67466:0:0:0:0:
448,192,67466,128,0,67633:0:0:0:0:
64,192,67633,128,0,67966:0:0:0:0:
320,192,67633,1,0,0:0:0:0:
192,192,67799,128,0,68133:0:0:0:0:
448,192,67966,128,0,68299:0:0:0:0:
320,192,68133,128,0,68466:0:0:0:0:
64,192,68299,128,0,68633:0:0:0:0:
192,192,68466,128,0,68633:0:0:0:0:
320,192,68633,128,0,68799:0:0:0:0:
448,192,68633,128,0,68799:0:0:0:0:
192,192,68799,128,0,68966:0:0:0:0:
64,192,68799,128,0,68966:0:0:0:0:
448,192,68966,128,0,69299:0:0:0:0:
320,192,68966,1,0,0:0:0:0:
192,192,69133,128,0,69466:0:0:0:0:
64,192,69299,128,0,69633:0:0:0:0:
320,192,69466,128,0,69633:0:0:0:0:
448,192,69633,128,0,69966:0:0:0:0:
320,192,69799,128,0,69966:0:0:0:0:
192,192,69966,128,0,70299:0:0:0:0:
64,192,69966,128,0,70299:0:0:0:0:
320,192,70299,128,0,70466:0:0:0:0:
448,192,70466,128,0,70633:0:0:0:0:
64,192,70633,128,0,70799:0:0:0:0:
320,192,70799,128,0,70966:0:0:0:0:
448,192,70799,128,0,71133:0:0:0:0:
64,192,70966,128,0,71133:0:0:0:0:
192,192,71133,128,0,71299:0:0:0:0:
320,192,71299,128,0,71466:0:0:0:0:
448,192,71466,128,0,71633:0:0:0:0:
64,192,71633,1,0,0:0:0:0:
192,192,71799,1,0,0:0:0:0:
320,192,71799,1,0,0:0:0:0:
448,192,71799,1,0,0:0:0:0:
64,192,71966,1,0,0:0:0:0:
192,192,71966,1,0,0:0:0:0:
320,192,72022,1,0,0:0:0:0:
448,192,72077,1,0,0:0:0:0:
192,192,72133,1,0,0:0:0:0:
320,192,72188,1,0,0:0:0:0:
64,192,72244,1,0,0:0:0:0:
448,192,72299,1,0,0:0:0:0:
320,192,72355,1,0,0:0:0:0:
192,192,72411,1,0,0:0:0:0:
64,192,72466,1,0,0:0:0:0:
192,192,72522,1,0,0:0:0:0:
320,192,72577,1,0,0:0:0:0:
448,192,72633,1,0,0:0:0:0:
64,192,72688,128,0,72799:0:0:0:0:
192,192,72744,128,0,72855:0:0:0:0:
320,192,72799,128,0,72911:0:0:0:0:
448,192,72855,128,0,72966:0:0:0:0:
64,192,72966,128,0,73549:0:0:0:0:
192,192,73049,128,0,73591:0:0:0:0:
448,192,73216,128,0,73799:0:0:0:0:
320,192,73299,128,0,73841:0:0:0:0:
64,192,73633,128,0,73966:0:0:0:0:
448,192,73883,128,0,74216:0:0:0:0:
320,192,73966,128,0,74133:0:0:0:0:
192,192,74133,128,0,74508:0:0:0:0:
64,192,74216,128,0,74549:0:0:0:0:
320,192,74299,128,0,74633:0:0:0:0:
448,192,74383,128,0,74633:0:0:0:0:
192,192,74633,128,0,74966:0:0:0:0:
64,192,74716,128,0,74966:0:0:0:0:
448,192,74966,1,0,0:0:0:0:
320,192,74966,1,0,0:0:0:0:
192,192,75077,1,0,0:0:0:0:
448,192,75188,1,0,0:0:0:0:
64,192,75299,128,0,75549:0:0:0:0:
192,192,75299,128,0,75549:0:0:0:0:
320,192,75299,128,0,75549:0:0:0:0:
64,192,75633,1,0,0:0:0:0:
192,192,75633,1,0,0:0:0:0:
448,192,75633,1,0,0:0:0:0:
320,192,75716,1,0,0:0:0:0:
192,192,75799,1,0,0:0:0:0:
448,192,75883,1,0,0:0:0:0:
320,192,75966,1,0,0:0:0:0:
448,192,76049,1,0,0:0:0:0:
320,192,76133,1,0,0:0:0:0:
192,192,76216,1,0,0:0:0:0:
64,192,76299,1,0,0:0:0:0:
448,192,76299,1,0,0:0:0:0:
320,192,76299,1,0,0:0:0:0:
192,192,76383,1,0,0:0:0:0:
320,192,76466,1,0,0:0:0:0:
64,192,76549,1,0,0:0:0:0:
192,192,76633,1,0,0:0:0:0:
64,192,76716,1,0,0:0:0:0:
192,192,76799,1,0,0:0:0:0:
320,192,76883,1,0,0:0:0:0:
448,192,76966,1,0,0:0:0:0:
64,192,76966,1,0,0:0:0:0:
192,192,76966,1,0,0:0:0:0:
320,192,77049,1,0,0:0:0:0:
192,192,77133,1,0,0:0:0:0:
64,192,77216,1,0,0:0:0:0:
320,192,77299,1,0,0:0:0:0:
192,192,77383,1,0,0:0:0:0:
64,192,77466,1,0,0:0:0:0:
448,192,77549,1,0,0:0:0:0:
320,192,77633,1,0,0:0:0:0:
192,192,77633,1,0,0:0:0:0:
64,192,77633,1,0,0:0:0:0:
448,192,77716,1,0,0:0:0:0:
192,192,77799,1,0,0:0:0:0:
320,192,77883,1,0,0:0:0:0:
64,192,77966,1,0,0:0:0:0:
192,192,78049,1,0,0:0:0:0:
320,192,78133,1,0,0:0:0:0:
192,192,78216,1,0,0:0:0:0:
64,192,78299,1,0,0:0:0:0:
448,192,78299,1,0,0:0:0:0:
320,192,78299,1,0,0:0:0:0:
192,192,78383,1,0,0:0:0:0:
320,192,78466,1,0,0:0:0:0:
64,192,78549,1,0,0:0:0:0:
192,192,78633,1,0,0:0:0:0:
64,192,78716,1,0,0:0:0:0:
192,192,78799,1,0,0:0:0:0:
320,192,78883,1,0,0:0:0:0:
192,192,78966,1,0,0:0:0:0:
448,192,78966,1,0,0:0:0:0:
64,192,78966,1,0,0:0:0:0:
320,192,79049,1,0,0:0:0:0:
192,192,79133,1,0,0:0:0:0:
448,192,79216,1,0,0:0:0:0:
320,192,79299,1,0,0:0:0:0:
192,192,79383,1,0,0:0:0:0:
64,192,79466,1,0,0:0:0:0:
192,192,79549,1,0,0:0:0:0:
320,192,79633,1,0,0:0:0:0:
64,192,79633,1,0,0:0:0:0:
448,192,79633,1,0,0:0:0:0:
192,192,79716,1,0,0:0:0:0:
448,192,79799,1,0,0:0:0:0:
320,192,79883,1,0,0:0:0:0:
64,192,79966,1,0,0:0:0:0:
192,192,80049,1,0,0:0:0:0:
320,192,80133,1,0,0:0:0:0:
448,192,80133,1,0,0:0:0:0:
192,192,80216,1,0,0:0:0:0:
64,192,80216,1,0,0:0:0:0:
448,192,80299,1,0,0:0:0:0:
320,192,80299,1,0,0:0:0:0:
64,192,80299,128,0,80549:0:0:0:0:
64,192,80633,128,0,80966:0:0:0:0:
448,192,80633,1,0,0:0:0:0:
192,192,80966,1,0,0:0:0:0:
320,192,80966,1,0,0:0:0:0:
448,192,80966,1,0,0:0:0:0:
320,192,81133,1,0,0:0:0:0:
192,192,81299,1,0,0:0:0:0:
320,192,81466,1,0,0:0:0:0:
448,192,81633,1,0,0:0:0:0:
192,192,81633,1,0,0:0:0:0:
64,192,81633,1,0,0:0:0:0:
64,192,81966,1,0,0:0:0:0:
320,192,82049,1,0,0:0:0:0:
192,192,82133,1,0,0:0:0:0:
320,192,82299,1,0,0:0:0:0:
448,192,82299,1,0,0:0:0:0:
64,192,82299,1,0,0:0:0:0:
192,192,82466,1,0,0:0:0:0:
320,192,82633,1,0,0:0:0:0:
64,192,82799,1,0,0:0:0:0:
192,192,82966,1,0,0:0:0:0:
320,192,82966,1,0,0:0:0:0:
448,192,82966,1,0,0:0:0:0:
320,192,83299,1,0,0:0:0:0:
64,192,83383,1,0,0:0:0:0:
192,192,83466,1,0,0:0:0:0:
320,192,83633,1,0,0:0:0:0:
448,192,83633,1,0,0:0:0:0:
64,192,83633,1,0,0:0:0:0:
192,192,83799,1,0,0:0:0:0:
320,192,83966,1,0,0:0:0:0:
448,192,84133,1,0,0:0:0:0:
64,192,84299,1,0,0:0:0:0:
192,192,84299,1,0,0:0:0:0:
320,192,84299,1,0,0:0:0:0:
192,192,84633,1,0,0:0:0:0:
448,192,84716,1,0,0:0:0:0:
320,192,84799,1,0,0:0:0:0:
64,192,84966,1,0,0:0:0:0:
192,192,84966,1,0,0:0:0:0:
448,192,84966,1,0,0:0:0:0:
64,192,85133,1,0,0:0:0:0:
192,192,85133,1,0,0:0:0:0:
320,192,85216,1,0,0:0:0:0:
448,192,85299,1,0,0:0:0:0:
192,192,85299,1,0,0:0:0:0:
320,192,85383,1,0,0:0:0:0:
64,192,85466,1,0,0:0:0:0:
448,192,85466,1,0,0:0:0:0:
192,192,85549,1,0,0:0:0:0:
448,192,85633,1,0,0:0:0:0:
320,192,85633,1,0,0:0:0:0:
64,192,85633,1,0,0:0:0:0:
192,192,85716,1,0,0:0:0:0:
448,192,85799,1,0,0:0:0:0:
320,192,85799,1,0,0:0:0:0:
192,192,85883,1,0,0:0:0:0:
64,192,85883,1,0,0:0:0:0:
448,192,85966,1,0,0:0:0:0:
320,192,85966,1,0,0:0:0:0:
192,192,86049,1,0,0:0:0:0:
320,192,86133,1,0,0:0:0:0:
448,192,86133,1,0,0:0:0:0:
64,192,86216,1,0,0:0:0:0:
192,192,86299,1,0,0:0:0:0:
448,192,86299,1,0,0:0:0:0:
320,192,86383,1,0,0:0:0:0:
448,192,86466,1,0,0:0:0:0:
64,192,86549,1,0,0:0:0:0:
192,192,86633,1,0,0:0:0:0:
64,192,86716,1,0,0:0:0:0:
192,192,86799,1,0,0:0:0:0:
320,192,86883,1,0,0:0:0:0:
64,192,86966,1,0,0:0:0:0:
448,192,86966,1,0,0:0:0:0:
192,192,86966,1,0,0:0:0:0:
320,192,87049,1,0,0:0:0:0:
192,192,87133,1,0,0:0:0:0:
448,192,87216,1,0,0:0:0:0:
320,192,87299,1,0,0:0:0:0:
448,192,87383,1,0,0:0:0:0:
320,192,87466,1,0,0:0:0:0:
192,192,87549,1,0,0:0:0:0:
64,192,87633,1,0,0:0:0:0:
320,192,87633,1,0,0:0:0:0:
448,192,87633,1,0,0:0:0:0:
192,192,87716,1,0,0:0:0:0:
320,192,87799,1,0,0:0:0:0:
448,192,87883,1,0,0:0:0:0:
64,192,87966,1,0,0:0:0:0:
192,192,88049,1,0,0:0:0:0:
320,192,88133,1,0,0:0:0:0:
448,192,88216,1,0,0:0:0:0:
192,192,88299,1,0,0:0:0:0:
64,192,88299,1,0,0:0:0:0:
320,192,88299,1,0,0:0:0:0:
448,192,88383,1,0,0:0:0:0:
320,192,88466,1,0,0:0:0:0:
192,192,88549,1,0,0:0:0:0:
448,192,88633,1,0,0:0:0:0:
320,192,88716,1,0,0:0:0:0:
192,192,88799,1,0,0:0:0:0:
64,192,88883,1,0,0:0:0:0:
192,192,88966,1,0,0:0:0:0:
448,192,88966,1,0,0:0:0:0:
320,192,88966,1,0,0:0:0:0:
64,192,89049,1,0,0:0:0:0:
192,192,89133,1,0,0:0:0:0:
64,192,89216,1,0,0:0:0:0:
192,192,89299,1,0,0:0:0:0:
320,192,89383,1,0,0:0:0:0:
448,192,89466,1,0,0:0:0:0:
320,192,89549,1,0,0:0:0:0:
64,192,89633,1,0,0:0:0:0:
448,192,89633,1,0,0:0:0:0:
192,192,89633,1,0,0:0:0:0:
320,192,89716,1,0,0:0:0:0:
64,192,89799,1,0,0:0:0:0:
192,192,89883,1,0,0:0:0:0:
320,192,89966,1,0,0:0:0:0:
448,192,90049,1,0,0:0:0:0:
320,192,90133,1,0,0:0:0:0:
192,192,90216,1,0,0:0:0:0:
64,192,90299,1,0,0:0:0:0:
320,192,90299,1,0,0:0:0:0:
448,192,90299,1,0,0:0:0:0:
192,192,90383,1,0,0:0:0:0:
320,192,90466,1,0,0:0:0:0:
448,192,90549,1,0,0:0:0:0:
192,192,90633,1,0,0:0:0:0:
320,192,90716,1,0,0:0:0:0:
64,192,90799,1,0,0:0:0:0:
192,192,90883,1,0,0:0:0:0:
64,192,90966,128,0,91216:0:0:0:0:
448,192,90966,1,0,0:0:0:0:
320,192,90966,1,0,0:0:0:0:
64,192,91299,128,0,91633:0:0:0:0:
448,192,91299,1,0,0:0:0:0:
192,192,91633,1,0,0:0:0:0:
320,192,91633,1,0,0:0:0:0:
448,192,91633,1,0,0:0:0:0:
192,192,91799,1,0,0:0:0:0:
448,192,91883,1,0,0:0:0:0:
320,192,91966,1,0,0:0:0:0:
320,192,92133,1,0,0:0:0:0:
448,192,92299,1,0,0:0:0:0:
192,192,92299,1,0,0:0:0:0:
64,192,92299,1,0,0:0:0:0:
192,192,92633,1,0,0:0:0:0:
448,192,92716,1,0,0:0:0:0:
64,192,92799,1,0,0:0:0:0:
320,192,92799,1,0,0:0:0:0:
192,192,92883,1,0,0:0:0:0:
448,192,92966,1,0,0:0:0:0:
64,192,92966,1,0,0:0:0:0:
320,192,92966,1,0,0:0:0:0:
192,192,93133,1,0,0:0:0:0:
320,192,93299,1,0,0:0:0:0:
64,192,93466,1,0,0:0:0:0:
192,192,93633,1,0,0:0:0:0:
320,192,93633,1,0,0:0:0:0:
448,192,93633,1,0,0:0:0:0:
320,192,93966,1,0,0:0:0:0:
64,192,94049,1,0,0:0:0:0:
192,192,94133,1,0,0:0:0:0:
320,192,94299,1,0,0:0:0:0:
448,192,94299,1,0,0:0:0:0:
64,192,94299,1,0,0:0:0:0:
192,192,94466,1,0,0:0:0:0:
320,192,94633,1,0,0:0:0:0:
448,192,94799,1,0,0:0:0:0:
64,192,94966,1,0,0:0:0:0:
192,192,94966,1,0,0:0:0:0:
320,192,94966,1,0,0:0:0:0:
192,192,95299,1,0,0:0:0:0:
448,192,95383,1,0,0:0:0:0:
320,192,95466,1,0,0:0:0:0:
64,192,95633,1,0,0:0:0:0:
192,192,95633,1,0,0:0:0:0:
448,192,95633,1,0,0:0:0:0:
320,192,95799,1,0,0:0:0:0:
448,192,95799,1,0,0:0:0:0:
64,192,95883,1,0,0:0:0:0:
192,192,95883,1,0,0:0:0:0:
448,192,95966,1,0,0:0:0:0:
320,192,96049,1,0,0:0:0:0:
64,192,96133,1,0,0:0:0:0:
192,192,96216,1,0,0:0:0:0:
320,192,96299,1,0,0:0:0:0:
448,192,96299,1,0,0:0:0:0:
64,192,96299,1,0,0:0:0:0:
192,192,96383,1,0,0:0:0:0:
320,192,96466,1,0,0:0:0:0:
448,192,96549,1,0,0:0:0:0:
192,192,96633,1,0,0:0:0:0:
64,192,96633,1,0,0:0:0:0:
448,192,96716,1,0,0:0:0:0:
320,192,96799,1,0,0:0:0:0:
192,192,96883,1,0,0:0:0:0:
64,192,96883,1,0,0:0:0:0:
320,192,96966,1,0,0:0:0:0:
448,192,96966,1,0,0:0:0:0:
64,192,96966,1,0,0:0:0:0:
320,192,97133,1,0,0:0:0:0:
192,192,97216,1,0,0:0:0:0:
64,192,97216,1,0,0:0:0:0:
320,192,97299,1,0,0:0:0:0:
448,192,97299,1,0,0:0:0:0:
64,192,97383,1,0,0:0:0:0:
192,192,97466,1,0,0:0:0:0:
448,192,97549,1,0,0:0:0:0:
320,192,97633,1,0,0:0:0:0:
64,192,97633,1,0,0:0:0:0:
192,192,97633,1,0,0:0:0:0:
448,192,97716,1,0,0:0:0:0:
192,192,97799,1,0,0:0:0:0:
320,192,97883,1,0,0:0:0:0:
64,192,97966,1,0,0:0:0:0:
192,192,98049,1,0,0:0:0:0:
320,192,98133,1,0,0:0:0:0:
448,192,98216,1,0,0:0:0:0:
320,192,98299,1,0,0:0:0:0:
64,192,98299,1,0,0:0:0:0:
320,192,98466,1,0,0:0:0:0:
192,192,98466,1,0,0:0:0:0:
64,192,98549,1,0,0:0:0:0:
448,192,98633,1,0,0:0:0:0:
320,192,98633,1,0,0:0:0:0:
192,192,98716,1,0,0:0:0:0:
64,192,98799,1,0,0:0:0:0:
192,192,98883,1,0,0:0:0:0:
64,192,98966,1,0,0:0:0:0:
320,192,98966,1,0,0:0:0:0:
448,192,98966,1,0,0:0:0:0:
192,192,99049,1,0,0:0:0:0:
448,192,99133,1,0,0:0:0:0:
320,192,99216,1,0,0:0:0:0:
192,192,99299,1,0,0:0:0:0:
64,192,99299,1,0,0:0:0:0:
320,192,99383,1,0,0:0:0:0:
448,192,99383,1,0,0:0:0:0:
64,192,99466,1,0,0:0:0:0:
192,192,99466,1,0,0:0:0:0:
320,192,99549,1,0,0:0:0:0:
448,192,99549,1,0,0:0:0:0:
64,192,99633,1,0,0:0:0:0:
448,192,99633,1,0,0:0:0:0:
192,192,99633,1,0,0:0:0:0:
64,192,99799,1,0,0:0:0:0:
192,192,99883,1,0,0:0:0:0:
320,192,99966,1,0,0:0:0:0:
448,192,99966,1,0,0:0:0:0:
64,192,100049,1,0,0:0:0:0:
192,192,100133,1,0,0:0:0:0:
320,192,100216,1,0,0:0:0:0:
64,192,100299,1,0,0:0:0:0:
192,192,100299,1,0,0:0:0:0:
448,192,100383,1,0,0:0:0:0:
320,192,100466,1,0,0:0:0:0:
192,192,100549,1,0,0:0:0:0:
64,192,100633,128,0,100966:0:0:0:0:
192,192,100799,1,0,0:0:0:0:
320,192,100883,1,0,0:0:0:0:
448,192,100966,128,0,101966:0:0:0:0:
64,192,101966,1,0,0:0:0:0:
192,192,101966,1,0,0:0:0:0:
320,192,101966,1,0,0:0:0:0:
64,192,102299,1,0,0:0:0:0:
192,192,102299,1,0,0:0:0:0:
320,192,102299,1,0,0:0:0:0:
448,192,102299,1,0,0:0:0:0:
192,192,102466,1,0,0:0:0:0:
192,192,102633,1,0,0:0:0:0:
192,192,102799,1,0,0:0:0:0:
64,192,102966,1,0,0:0:0:0:
192,192,102966,1,0,0:0:0:0:
320,192,102966,1,0,0:0:0:0:
448,192,102966,1,0,0:0:0:0:
320,192,103133,1,0,0:0:0:0:
64,192,103299,1,0,0:0:0:0:
192,192,103383,1,0,0:0:0:0:
320,192,103466,1,0,0:0:0:0:
448,192,103466,1,0,0:0:0:0:
64,192,103633,1,0,0:0:0:0:
192,192,103633,1,0,0:0:0:0:
320,192,103633,1,0,0:0:0:0:
448,192,103633,1,0,0:0:0:0:
64,192,103799,1,0,0:0:0:0:
64,192,103966,1,0,0:0:0:0:
64,192,104133,1,0,0:0:0:0:
64,192,104299,1,0,0:0:0:0:
320,192,104299,1,0,0:0:0:0:
448,192,104299,1,0,0:0:0:0:
192,192,104299,1,0,0:0:0:0:
192,192,104633,128,0,104966:0:0:0:0:
320,192,104633,128,0,104966:0:0:0:0:
64,192,104966,1,0,0:0:0:0:
448,192,104966,1,0,0:0:0:0:
448,192,105133,1,0,0:0:0:0:
448,192,105299,1,0,0:0:0:0:
192,192,105466,1,0,0:0:0:0:
448,192,105633,1,0,0:0:0:0:
320,192,105633,1,0,0:0:0:0:
192,192,105633,1,0,0:0:0:0:
64,192,105633,1,0,0:0:0:0:
320,192,105966,1,0,0:0:0:0:
192,192,106049,1,0,0:0:0:0:
64,192,106133,1,0,0:0:0:0:
448,192,106133,1,0,0:0:0:0:
64,192,106299,1,0,0:0:0:0:
192,192,106299,1,0,0:0:0:0:
320,192,106299,1,0,0:0:0:0:
448,192,106299,1,0,0:0:0:0:
320,192,106466,1,0,0:0:0:0:
192,192,106633,1,0,0:0:0:0:
64,192,106799,1,0,0:0:0:0:
192,192,106883,1,0,0:0:0:0:
64,192,106966,1,0,0:0:0:0:
448,192,106966,1,0,0:0:0:0:
320,192,106966,1,0,0:0:0:0:
320,192,107133,1,0,0:0:0:0:
448,192,107133,1,0,0:0:0:0:
192,192,107216,1,0,0:0:0:0:
64,192,107299,1,0,0:0:0:0:
192,192,107383,1,0,0:0:0:0:
320,192,107466,1,0,0:0:0:0:
448,192,107466,1,0,0:0:0:0:
64,192,107549,1,0,0:0:0:0:
192,192,107549,1,0,0:0:0:0:
448,192,107633,1,0,0:0:0:0:
320,192,107633,1,0,0:0:0:0:
192,192,107633,1,0,0:0:0:0:
320,192,107799,1,0,0:0:0:0:
320,192,107966,1,0,0:0:0:0:
320,192,108133,1,0,0:0:0:0:
320,192,108299,1,0,0:0:0:0:
192,192,108299,1,0,0:0:0:0:
448,192,108299,1,0,0:0:0:0:
64,192,108299,1,0,0:0:0:0:
192,192,108633,1,0,0:0:0:0:
320,192,108716,1,0,0:0:0:0:
64,192,108799,1,0,0:0:0:0:
64,192,108966,1,0,0:0:0:0:
192,192,108966,1,0,0:0:0:0:
448,192,108966,1,0,0:0:0:0:
320,192,108966,128,0,109633:0:0:0:0:
192,192,109299,128,0,109633:0:0:0:0:
448,192,109633,1,0,0:0:0:0:
64,192,109633,1,0,0:0:0:0:
192,192,109966,1,0,0:0:0:0:
320,192,110049,128,0,110299:0:0:0:0:
64,192,110299,1,0,0:0:0:0:
192,192,110299,1,0,0:0:0:0:
448,192,110299,1,0,0:0:0:0:
320,192,110466,1,0,0:0:0:0:
192,192,110633,1,0,0:0:0:0:
320,192,110799,1,0,0:0:0:0:
64,192,110966,1,0,0:0:0:0:
192,192,110966,1,0,0:0:0:0:
320,192,110966,1,0,0:0:0:0:
448,192,110966,1,0,0:0:0:0:
64,192,111133,128,0,111633:0:0:0:0:
192,192,111216,128,0,111549:0:0:0:0:
320,192,111299,128,0,111466:0:0:0:0:
448,192,111383,1,0,0:0:0:0:
320,192,111633,1,0,0:0:0:0:
448,192,111633,1,0,0:0:0:0:
64,192,111799,1,0,0:0:0:0:
192,192,111799,1,0,0:0:0:0:
320,192,111883,1,0,0:0:0:0:
448,192,111966,1,0,0:0:0:0:
320,192,112049,1,0,0:0:0:0:
192,192,112133,1,0,0:0:0:0:
64,192,112133,1,0,0:0:0:0:
320,192,112216,1,0,0:0:0:0:
448,192,112216,1,0,0:0:0:0:
64,192,112299,1,0,0:0:0:0:
192,192,112299,1,0,0:0:0:0:
448,192,112299,1,0,0:0:0:0:
320,192,112424,1,0,0:0:0:0:
192,192,112466,128,0,112633:0:0:0:0:
64,192,112549,128,0,112633:0:0:0:0:
320,192,112633,1,0,0:0:0:0:
448,192,112633,1,0,0:0:0:0:
320,192,112716,128,0,112799:0:0:0:0:
448,192,112799,128,0,112883:0:0:0:0:
64,192,112883,128,0,112966:0:0:0:0:
192,192,112966,1,0,0:0:0:0:
320,192,112966,1,0,0:0:0:0:
448,192,113133,1,0,0:0:0:0:
448,192,113299,1,0,0:0:0:0:
448,192,113466,1,0,0:0:0:0:
64,192,113633,1,0,0:0:0:0:
192,192,113633,1,0,0:0:0:0:
448,192,113633,1,0,0:0:0:0:
320,192,113633,1,0,0:0:0:0:
192,192,113966,1,0,0:0:0:0:
320,192,114049,1,0,0:0:0:0:
64,192,114133,1,0,0:0:0:0:
64,192,114299,1,0,0:0:0:0:
192,192,114299,1,0,0:0:0:0:
320,192,114299,1,0,0:0:0:0:
448,192,114299,1,0,0:0:0:0:
192,192,114466,1,0,0:0:0:0:
192,192,114633,1,0,0:0:0:0:
192,192,114799,1,0,0:0:0:0:
64,192,114966,1,0,0:0:0:0:
192,192,114966,1,0,0:0:0:0:
320,192,114966,1,0,0:0:0:0:
448,192,114966,1,0,0:0:0:0:
448,192,115216,1,0,0:0:0:0:
320,192,115299,1,0,0:0:0:0:
64,192,115383,128,0,115633:0:0:0:0:
192,192,115383,128,0,115633:0:0:0:0:
320,192,115633,1,0,0:0:0:0:
448,192,115633,1,0,0:0:0:0:
192,192,115799,1,0,0:0:0:0:
448,192,115966,1,0,0:0:0:0:
320,192,116133,1,0,0:0:0:0:
192,192,116299,1,0,0:0:0:0:
64,192,116299,1,0,0:0:0:0:
448,192,116299,1,0,0:0:0:0:
320,192,116299,1,0,0:0:0:0:
64,192,116633,1,0,0:0:0:0:
448,192,116716,1,0,0:0:0:0:
320,192,116799,1,0,0:0:0:0:
64,192,116966,1,0,0:0:0:0:
192,192,116966,1,0,0:0:0:0:
320,192,116966,1,0,0:0:0:0:
192,192,117133,128,0,117299:0:0:0:0:
320,192,117299,128,0,117466:0:0:0:0:
64,192,117466,1,0,0:0:0:0:
192,192,117466,1,0,0:0:0:0:
320,192,117549,1,0,0:0:0:0:
448,192,117549,1,0,0:0:0:0:
64,192,117633,1,0,0:0:0:0:
192,192,117633,1,0,0:0:0:0:
448,192,117633,1,0,0:0:0:0:
320,192,117799,1,0,0:0:0:0:
192,192,117799,1,0,0:0:0:0:
64,192,117883,1,0,0:0:0:0:
448,192,117883,1,0,0:0:0:0:
192,192,117966,1,0,0:0:0:0:
320,192,117966,1,0,0:0:0:0:
192,192,118299,128,0,118466:0:0:0:0:
320,192,118466,128,0,118633:0:0:0:0:
64,192,118633,1,0,0:0:0:0:
192,192,118633,1,0,0:0:0:0:
448,192,118633,1,0,0:0:0:0:
192,192,118799,128,0,118966:0:0:0:0:
64,192,118966,1,0,0:0:0:0:
320,192,118966,1,0,0:0:0:0:
448,192,118966,1,0,0:0:0:0:
448,192,119133,128,0,119299:0:0:0:0:
192,192,119299,1,0,0:0:0:0:
320,192,119299,1,0,0:0:0:0:
64,192,119299,1,0,0:0:0:0:
192,192,119466,128,0,119633:0:0:0:0:
64,192,119633,1,0,0:0:0:0:
448,192,119633,1,0,0:0:0:0:
320,192,119633,1,0,0:0:0:0:
320,192,119799,128,0,119966:0:0:0:0:
64,192,119966,1,0,0:0:0:0:
192,192,119966,1,0,0:0:0:0:
448,192,119966,1,0,0:0:0:0:
320,192,120133,128,0,120299:0:0:0:0:
64,192,120299,1,0,0:0:0:0:
448,192,120299,1,0,0:0:0:0:
192,192,120299,128,0,120633:0:0:0:0:
64,192,120466,128,0,120633:0:0:0:0:
320,192,120633,1,0,0:0:0:0:
448,192,120716,1,0,0:0:0:0:
192,192,120799,1,0,0:0:0:0:
320,192,120883,1,0,0:0:0:0:
64,192,120966,1,0,0:0:0:0:
192,192,120966,1,0,0:0:0:0:
448,192,120966,1,0,0:0:0:0:
192,192,121216,1,0,0:0:0:0:
320,192,121216,1,0,0:0:0:0:
448,192,121216,1,0,0:0:0:0:
64,192,121466,1,0,0:0:0:0:
320,192,121466,1,0,0:0:0:0:
448,192,121466,1,0,0:0:0:0:
64,192,121716,1,0,0:0:0:0:
192,192,121716,1,0,0:0:0:0:
448,192,121716,1,0,0:0:0:0:
192,192,121966,1,0,0:0:0:0:
64,192,121966,1,0,0:0:0:0:
320,192,121966,1,0,0:0:0:0:
192,192,122216,1,0,0:0:0:0:
320,192,122216,1,0,0:0:0:0:
448,192,122216,1,0,0:0:0:0:
64,192,122466,1,0,0:0:0:0:
320,192,122466,1,0,0:0:0:0:
448,192,122466,1,0,0:0:0:0:
192,192,122716,1,0,0:0:0:0:
64,192,122716,1,0,0:0:0:0:
448,192,122716,1,0,0:0:0:0:
64,192,122966,1,0,0:0:0:0:
192,192,122966,1,0,0:0:0:0:
320,192,122966,1,0,0:0:0:0:
448,192,123049,1,0,0:0:0:0:
64,192,123133,1,0,0:0:0:0:
192,192,123216,1,0,0:0:0:0:
320,192,123299,1,0,0:0:0:0:
64,192,123299,128,0,123633:0:0:0:0:
448,192,123299,128,0,123799:0:0:0:0:
320,192,123633,128,0,123966:0:0:0:0:
192,192,123799,128,0,123966:0:0:0:0:
64,192,123966,1,0,0:0:0:0:
448,192,123966,1,0,0:0:0:0:
