osu file format v14

[General]
AudioFilename: audio.mp3
AudioLeadIn: 0
PreviewTime: 3916
Countdown: 0
SampleSet: Soft
StackLeniency: 0.7
Mode: 0
LetterboxInBreaks: 0
WidescreenStoryboard: 0

[Editor]
Bookmarks: 3916,14271,24627,34982,45337,55693,66048,76404,81581,86759,91937,102292,112324
DistanceSpacing: 1.5
BeatDivisor: 4
GridSize: 32
TimelineZoom: 1.7

[Metadata]
Title:Shadows in the Light
TitleUnicode:Shadows in the Light
Artist:Sta
ArtistUnicode:Sta
Creator:Nerova Riuz GX
Version:Hard
Source:SOUND VOLTEX II -infinite infection-
Tags:nofx n/a sdvx
BeatmapID:1304667
BeatmapSetID:504690

[Difficulty]
HPDrainRate:5
CircleSize:4.4
OverallDifficulty:6
ApproachRate:7.8
SliderMultiplier:1.25
SliderTickRate:1

[Events]
//Background and Video events
0,0,"stashadowbg.png",0,0
//Break Periods
//Storyboard Layer 0 (Background)
//Storyboard Layer 1 (Fail)
//Storyboard Layer 2 (Pass)
//Storyboard Layer 3 (Foreground)
//Storyboard Sound Samples

[TimingPoints]
33,323.60714093091,4,2,1,70,1,0
34982,-100,4,2,1,70,0,1
35063,-100,4,2,1,70,0,0
76404,-100,4,2,1,70,0,1
76485,-100,4,2,1,70,0,0
79963,-83.3333333333333,4,2,1,70,0,0
80287,-125,4,2,1,70,0,0
80449,-133.333333333333,4,2,1,20,0,0
80611,-100,4,2,1,20,0,0
81581,-100,4,2,1,70,0,0
91937,-100,4,2,1,70,0,1
102292,-100,4,2,1,70,0,0

[Colours]
Combo1 : 104,80,72
Combo2 : 116,56,141
Combo3 : 23,72,147
Combo4 : 148,39,43

[HitObjects]
251,299,2621,5,0,3:0:0:0:
258,312,2945,1,0,3:0:0:0:
266,325,3269,6,0,L|394:312,1,125,8|0,0:0|3:0,0:0:0:0:
390,312,3673,1,0,0:0:0:0:
390,312,3754,1,0,3:0:0:0:
331,204,3916,6,0,B|282:208|282:208|259:222|259:222|210:226,1,125,0|0,3:0|3:0,0:0:0:0:
144,294,4401,1,2,0:0:0:0:
47,211,4563,2,0,P|43:177|26:133,1,62.5,8|0,0:0|0:0,0:0:0:0:
41,135,4806,1,0,3:0:0:0:
49,121,4887,1,0,3:0:0:0:
128,68,5048,1,0,3:0:0:0:
237,144,5210,6,0,L|224:15,2,125,0|0|8,3:0|3:0|0:0,0:0:0:0:
311,204,6019,1,2,0:0:0:0:
375,75,6181,2,0,L|382:138,1,62.5,0|8,0:0|0:0,0:0:0:0:
369,287,6505,6,0,P|423:257|485:253,2,125,0|0|8,3:0|3:0|0:0,0:0:0:0:
287,333,7315,1,0,0:0:0:0:
289,348,7395,1,0,0:0:0:0:
290,364,7476,1,0,3:0:0:0:
191,289,7637,1,0,3:0:0:0:
191,289,7799,6,0,B|164:329|164:329|88:340,1,125,0|0,3:0|3:0,0:0:0:0:
15,280,8284,1,2,0:0:0:0:
89,178,8446,2,0,L|27:186,2,62.5,8|0|0,0:0|0:0|0:0,0:0:0:0:
312,61,9093,6,0,B|281:44|246:49|255:62|221:67|190:50,1,125,0|0,3:0|3:0,0:0:0:0:
103,84,9579,1,2,0:0:0:0:
179,186,9741,2,0,L|240:194,1,62.5,8|0,0:0|0:0,0:0:0:0:
250,206,9983,1,0,3:0:0:0:
260,217,10064,1,0,3:0:0:0:
343,173,10226,1,0,3:0:0:0:
392,253,10388,6,0,B|425:241|458:253|447:264|480:275|513:264,1,125,0|0,3:0|3:0,0:0:0:0:
413,338,10873,1,2,0:0:0:0:
329,337,11035,2,0,P|328:305|318:276,1,62.5,8|0,0:0|0:0,0:0:0:0:
220,291,11359,2,0,P|220:322|230:351,1,62.5,0|8,0:0|0:0,0:0:0:0:
260,217,11682,6,0,L|135:207,1,125,0|0,3:0|3:0,0:0:0:0:
59,102,12168,1,0,3:0:0:0:
143,60,12330,2,0,L|205:64,1,62.5,0|0,3:0|3:0,0:0:0:0:
275,127,12653,2,0,L|337:131,1,62.5,0|0,3:0|3:0,0:0:0:0:
440,61,12977,6,0,L|446:98,3,31.25,0|0|0|0,3:0|3:0|3:0|3:0,0:0:0:0:
428,135,13300,2,0,L|433:165,3,31.25,0|0|0|0,3:0|3:0|3:0|3:0,0:0:0:0:
465,200,13624,1,8,0:0:0:0:
372,337,13948,1,0,0:0:0:0:
372,337,14271,6,0,P|432:326|489:351,2,125,0|0|8,3:0|3:0|0:0,0:0:0:0:
278,345,15080,1,0,0:0:0:0:
276,329,15160,1,0,0:0:0:0:
274,314,15241,1,2,0:0:0:0:
231,212,15404,1,0,0:0:0:0:
317,174,15566,6,0,L|387:181,2,62.5,0|0|0,3:0|0:0|3:0,0:0:0:0:
154,267,16213,2,0,P|123:271|92:266,1,62.5,8|2,0:0|0:0,0:0:0:0:
95,153,16536,2,0,P|125:148|156:153,1,62.5,0|8,0:0|0:0,0:0:0:0:
231,212,16860,6,0,L|244:76,1,125,0|0,3:0|3:0,0:0:0:0:
421,29,17507,2,0,L|428:102,1,62.5,8|0,0:0|0:0,0:0:0:0:
439,103,17750,1,0,0:0:0:0:
451,113,17831,1,2,0:0:0:0:
479,202,17993,1,0,0:0:0:0:
434,298,18154,6,0,B|405:303|381:292|381:292|357:299|357:299|334:289|312:288,1,125,0|0,3:0|3:0,0:0:0:0:
197,345,18802,1,8,0:0:0:0:
197,345,19287,5,8,0:0:0:0:
134,274,19449,2,0,B|85:270|85:270|62:256|62:256|13:252,2,125,0|0|8,3:0|3:0|0:0,0:0:0:0:
189,197,20259,1,0,0:0:0:0:
186,181,20339,1,0,0:0:0:0:
184,166,20420,1,2,0:0:0:0:
143,64,20582,1,0,0:0:0:0:
64,114,20743,6,0,P|32:114|3:124,2,62.5,0|0|0,3:0|0:0|3:0,0:0:0:0:
242,54,21391,2,0,L|304:57,1,62.5,8|2,0:0|0:0,0:0:0:0:
360,155,21714,2,0,L|297:151,1,62.5,0|8,0:0|0:0,0:0:0:0:
246,253,22038,6,0,L|370:259,1,125,0|0,3:0|3:0,0:0:0:0:
214,363,22685,2,0,P|183:346|147:337,1,62.5,8|0,0:0|0:0,0:0:0:0:
143,346,22928,1,0,0:0:0:0:
130,354,23009,1,2,0:0:0:0:
56,297,23170,1,0,0:0:0:0:
103,216,23332,6,0,P|95:154|67:98,1,125,0|0,3:0|3:0,0:0:0:0:
122,22,23818,1,0,3:0:0:0:
201,71,23979,6,0,B|235:77|257:91|257:91|281:81|281:81|309:101|309:101|332:85|371:78,1,187.5,8|0,0:0|0:0,0:0:0:0:
473,151,24627,6,0,L|484:20,2,125,0|0|8,3:0|3:0|0:0,0:0:0:0:
417,226,25436,1,0,0:0:0:0:
420,242,25516,1,0,0:0:0:0:
423,257,25597,1,2,0:0:0:0:
483,328,25759,1,0,0:0:0:0:
381,365,25921,6,0,L|312:357,2,62.5,0|0|0,3:0|0:0|3:0,0:0:0:0:
266,216,26568,2,0,P|244:238|230:266,1,62.5,8|2,0:0|0:0,0:0:0:0:
180,361,26892,2,0,P|165:333|144:310,1,62.5,0|8,0:0|0:0,0:0:0:0:
49,243,27215,6,0,P|109:229|149:184,1,125,0|0,3:0|3:0,0:0:0:0:
33,35,27863,2,0,L|103:31,1,62.5,8|0,0:0|0:0,0:0:0:0:
110,30,28105,1,0,0:0:0:0:
126,29,28186,1,2,0:0:0:0:
198,100,28348,1,0,0:0:0:0:
317,57,28510,6,0,B|313:88|295:115|295:115|312:136|319:171,1,125,0|0,3:0|3:0,0:0:0:0:
286,296,29157,1,8,0:0:0:0:
286,296,29643,5,8,0:0:0:0:
371,259,29804,2,0,L|365:383,2,125,0|0|8,3:0|3:0|0:0,0:0:0:0:
447,204,30613,1,0,0:0:0:0:
463,205,30693,1,0,0:0:0:0:
478,206,30774,1,2,0:0:0:0:
510,117,30937,1,0,0:0:0:0:
427,26,31099,6,0,L|358:30,2,62.5,0|0|0,3:0|0:0|3:0,0:0:0:0:
306,203,31746,2,0,P|280:184|251:174,1,62.5,8|2,0:0|0:0,0:0:0:0:
190,78,32070,2,0,P|164:96|135:106,1,62.5,0|8,0:0|0:0,0:0:0:0:
34,156,32393,6,0,B|64:188|64:188|68:278,1,125,0|0,3:0|3:0,0:0:0:0:
72,363,32879,1,2,0:0:0:0:
178,300,33040,2,0,P|208:292|239:296,1,62.5,8|0,0:0|0:0,0:0:0:0:
248,309,33283,1,0,0:0:0:0:
258,322,33364,2,0,L|334:336,1,62.5,2|0,0:0|0:0,0:0:0:0:
406,371,33688,6,0,B|402:344|411:324|411:324|404:298|404:298|412:275|410:248,1,125,0|0,3:0|3:0,0:0:0:0:
421,124,34335,1,8,0:0:0:0:
421,124,34982,6,0,B|388:109|354:118|364:129|331:137|299:124,1,125,0|0,3:0|3:0,0:0:0:0:
227,64,35467,1,2,0:0:0:0:
134,56,35629,2,0,L|146:184,1,125,8|2,0:0|0:0,0:0:0:0:
35,332,36276,6,0,L|23:207,2,125,0|0|8,3:0|3:0|0:0,0:0:0:0:
118,375,37086,1,2,0:0:0:0:
196,323,37247,2,0,L|270:328,1,62.5,0|8,0:0|0:0,0:0:0:0:
361,377,37571,6,0,P|370:315|403:263,1,125,0|0,3:0|3:0,0:0:0:0:
478,206,38056,1,2,0:0:0:0:
489,112,38218,1,8,0:0:0:0:
416,52,38380,1,0,0:0:0:0:
408,66,38460,1,0,0:0:0:0:
400,79,38542,2,0,P|368:79|338:70,1,62.5,2|0,0:0|0:0,0:0:0:0:
231,26,38865,6,0,P|199:26|169:35,2,62.5,0|0|0,3:0|0:0|3:0,0:0:0:0:
191,210,39513,2,0,P|130:200|74:172,1,125,8|0,0:0|0:0,0:0:0:0:
12,242,39998,1,8,0:0:0:0:
22,335,40160,6,0,P|77:306|139:297,1,125,0|0,3:0|3:0,0:0:0:0:
232,290,40645,1,2,0:0:0:0:
319,323,40807,2,0,P|343:348|368:363,1,62.5,8|0,0:0|0:0,0:0:0:0:
382,361,41050,1,0,0:0:0:0:
397,359,41131,2,2,L|476:349,1,62.5
478,223,41454,6,0,P|417:213|365:168,1,125,0|0,3:0|3:0,0:0:0:0:
323,91,41940,1,0,0:0:0:0:
236,56,42101,2,0,B|187:51|187:51|162:61|162:61|113:57,1,125,8|0,0:0|0:0,0:0:0:0:
3,255,42749,6,0,B|51:259|51:259|76:249|76:249|125:253,1,125,0|0,3:0|3:0,0:0:0:0:
218,265,43234,1,0,0:0:0:0:
311,276,43396,2,0,L|322:344,1,62.5,8|0,0:0|0:0,0:0:0:0:
322,352,43639,1,0,0:0:0:0:
324,367,43720,1,2,0:0:0:0:
417,363,43881,1,0,0:0:0:0:
471,286,44043,6,0,B|468:255|484:239|484:239|474:215|474:215|480:193|474:166,1,125,0|0,3:0|3:0,0:0:0:0:
433,61,44528,1,0,0:0:0:0:
349,103,44690,6,0,B|323:95|272:101,1,62.5,8|0,0:0|0:0,0:0:0:0:
245,184,45014,1,0,0:0:0:0:
77,62,45337,6,0,B|62:104|62:104|78:200,1,125,0|0,3:0|3:0,0:0:0:0:
45,272,45823,1,2,0:0:0:0:
73,361,45985,2,0,P|129:333|191:338,1,125,8|2,0:0|0:0,0:0:0:0:
416,338,46632,6,0,P|360:365|298:360,2,125,0|0|8,3:0|3:0|0:0,0:0:0:0:
472,263,47441,1,2,0:0:0:0:
416,187,47603,2,0,L|411:117,1,62.5,0|8,0:0|0:0,0:0:0:0:
325,196,47926,6,0,B|264:208|264:208|204:188,1,125,0|0,3:0|3:0,0:0:0:0:
116,223,48412,1,2,0:0:0:0:
38,169,48574,1,8,0:0:0:0:
73,82,48735,1,0,0:0:0:0:
83,70,48815,1,0,0:0:0:0:
93,58,48897,2,0,L|167:51,1,62.5,2|0,0:0|0:0,0:0:0:0:
264,21,49221,6,0,L|326:26,2,62.5,0|0|0,3:0|0:0|3:0,0:0:0:0:
416,187,49868,1,8,0:0:0:0:
416,187,50353,5,8,0:0:0:0:
475,280,50515,2,0,P|414:278|359:307,1,125,0|0,3:0|3:0,0:0:0:0:
285,366,51001,1,2,0:0:0:0:
197,334,51162,2,0,P|135:336|80:307,1,125,8|2,0:0|0:0,0:0:0:0:
21,102,51810,6,0,B|61:83|61:83|160:90,1,125,0|0,3:0|3:0,0:0:0:0:
234,98,52295,1,0,0:0:0:0:
327,100,52457,2,0,L|322:32,2,62.5,8|2|0,0:0|0:0|0:0,0:0:0:0:
399,162,52942,1,8,0:0:0:0:
493,166,53104,6,0,P|463:228|399:255,1,125,0|0,3:0|3:0,0:0:0:0:
321,246,53589,1,2,0:0:0:0:
276,163,53751,1,8,0:0:0:0:
331,87,53913,1,0,0:0:0:0:
331,87,53994,1,0,0:0:0:0:
331,87,54075,2,0,L|394:81,1,62.5
243,41,54398,6,0,L|105:29,2,125,0|0|8,3:0|3:0|0:0,0:0:0:0:
68,210,55369,2,0,L|5:204,1,62.5,0|8,0:0|0:0,0:0:0:0:
107,296,55693,6,0,P|137:270|223:255,2,125,0|0|8,3:0|3:0|0:0,0:0:0:0:
323,359,56664,2,0,P|320:327|311:297,1,62.5,2|0,0:0|0:0,0:0:0:0:
372,203,56987,6,0,B|454:211|454:211|493:195,1,125,0|0,3:0|3:0,0:0:0:0:
507,102,57473,1,0,0:0:0:0:
418,71,57635,2,0,P|387:78|360:92,1,62.5,8|2,0:0|0:0,0:0:0:0:
287,33,57958,2,0,P|256:25|229:11,1,62.5,0|8,0:0|0:0,0:0:0:0:
165,118,58282,6,0,P|104:110|46:130,1,125,0|0,3:0|3:0,0:0:0:0:
61,222,58767,1,2,0:0:0:0:
122,293,58929,2,0,L|116:355,2,62.5,8|0|2,0:0|0:0|0:0,0:0:0:0:
301,157,59576,6,0,L|287:14,2,125,0|0|8,3:0|3:0|0:0,0:0:0:0:
399,138,60709,1,8,0:0:0:0:
399,138,60871,6,0,L|386:262,1,125,0|0,3:0|3:0,0:0:0:0:
374,355,61356,1,2,0:0:0:0:
283,330,61518,2,0,B|234:326|234:326|211:312|211:312|162:308,1,125,8|2,0:0|0:0,0:0:0:0:
34,167,62165,6,0,L|42:236,2,62.5,0|0|0,3:0|0:0|3:0,0:0:0:0:
64,78,62650,1,0,0:0:0:0:
136,18,62812,2,0,P|166:12|197:17,1,62.5,8|2,0:0|0:0,0:0:0:0:
200,130,63136,2,0,P|169:134|138:130,1,62.5,0|8,0:0|0:0,0:0:0:0:
272,70,63459,6,0,B|301:78|326:73|326:73|342:83|342:83|367:77|393:83,2,125,0|0|8,3:0|3:0|0:0,0:0:0:0:
423,238,64430,1,2,0:0:0:0:
261,334,64754,6,0,B|232:342|207:337|207:337|191:347|191:347|166:341|140:347,2,125,0|0|0,3:0|3:0|3:0,0:0:0:0:
352,312,65563,1,0,3:0:0:0:
354,327,65643,1,8,0:0:0:0:
356,342,65724,1,8,0:0:0:0:
497,163,66048,6,0,P|435:161|384:126,1,125,0|0,3:0|3:0,0:0:0:0:
220,33,66696,2,0,L|346:24,1,125,0|0,3:0|3:0,0:0:0:0:
321,210,67343,6,0,L|196:218,1,125,0|0,3:0|3:0,0:0:0:0:
44,80,67991,2,0,P|105:82|156:117,1,125,0|0,3:0|3:0,0:0:0:0:
96,334,68637,6,0,B|58:284|58:284|113:238,1,125,0|0,3:0|3:0,0:0:0:0:
196,218,69123,1,0,0:0:0:0:
255,290,69284,2,0,P|308:320|370:318,1,125,0|0,3:0|3:0,0:0:0:0:
488,126,69932,6,0,P|426:124|372:154,1,125,0|0,3:0|3:0,0:0:0:0:
280,172,70417,1,2,0:2:0:0:
198,125,70579,2,0,B|150:85|150:85|188:35,1,125,0|0,3:0|3:0,0:0:0:0:
372,154,71226,6,0,B|370:122|381:103|381:103|373:81|373:81|381:58|380:32,2,125,0|0|0,3:0|3:0|3:0,0:0:0:0:
419,234,72035,1,2,0:2:0:0:
357,305,72197,2,0,L|366:373,1,62.5,0|0,3:0|0:0,0:0:0:0:
261,287,72520,6,0,B|229:278|204:262|204:262|179:279|145:284,1,125,0|0,3:0|3:0,0:0:0:0:
57,354,73006,1,2,0:2:0:0:
54,338,73086,1,0,3:0:0:0:
52,323,73168,2,0,L|41:252,1,62.5,0|0,3:0|3:0,0:0:0:0:
121,190,73491,2,0,L|110:119,1,62.5,0|0,3:0|3:0,0:0:0:0:
79,22,73815,6,0,P|115:35|157:33,1,62.5,0|0,3:0|3:0,0:0:0:0:
219,163,74139,2,0,P|250:166|279:178,1,62.5,0|0,3:0|3:0,0:0:0:0:
242,59,74462,2,0,P|245:28|257:0,1,62.5,0|0,3:0|3:0,0:0:0:0:
115,140,74786,2,0,P|112:171|100:200,1,62.5,0|0,3:0|3:0,0:0:0:0:
85,311,75109,6,0,L|123:300,3,31.25,0|0|0|0,3:0|3:0|3:0|3:0,0:0:0:0:
154,328,75433,2,0,L|184:336,3,31.25,0|0|0|0,3:0|3:0|3:0|3:0,0:0:0:0:
223,311,75757,2,0,L|253:302,3,31.25,0|0|0|8,3:0|3:0|3:0|0:0,0:0:0:0:
292,328,76080,5,8,0:0:0:0:
460,212,76404,6,0,B|463:166|463:166|451:134|451:134|455:89,1,125,0|0,3:0|3:0,0:0:0:0:
455,89,77051,1,8,0:0:0:0:
361,45,77213,1,0,0:0:0:0:
345,48,77293,1,0,0:0:0:0:
330,50,77375,2,0,L|259:61,1,62.5,2|0,0:0|0:0,0:0:0:0:
152,120,77698,6,0,L|90:109,2,62.5,0|0|0,3:0|0:0|3:0,0:0:0:0:
152,120,78345,6,0,B|156:162|143:195|143:195|153:231|153:231|137:262|145:302,1,187.5,8|8,0:0|0:0,0:0:0:0:
220,358,78993,6,0,P|251:366|282:365,1,62.5,0|0,3:0|0:0,0:0:0:0:
309,240,79316,2,0,P|277:239|247:246,1,62.5,0|0,3:0|0:0,0:0:0:0:
374,321,79640,1,8,0:0:0:0:
374,321,79802,1,0,0:0:0:0:
454,243,79963,6,0,L|450:147,1,74.9999977111817,0|8,0:0|0:0,0:0:0:0:
447,73,80287,2,0,L|496:77,2,50,0|0|0,3:0|0:0|0:0,0:0:0:0:
321,130,81581,5,0,3:0:0:0:
321,130,81905,6,0,L|237:123,1,62.5,0|2,0:0|0:0,0:0:0:0:
172,175,82229,1,8,0:0:0:0:
96,119,82391,2,0,P|79:160|84:260,1,125,0|0,0:0|0:0,0:0:0:0:
65,349,82876,6,0,B|94:352|124:336|124:336|138:347|166:337|188:350|210:327|210:327|232:350|277:346,1,218.75,0|0,3:0|3:0,0:0:0:0:
312,323,83523,1,8,0:0:0:0:
395,366,83685,2,0,L|416:228,1,125,0|0,0:0|0:0,0:0:0:0:
428,149,84170,5,2,3:2:0:0:
287,43,84494,2,0,P|293:23|297:2,2,41.6666666666667,2|2|2,0:0|0:0|0:0,0:0:0:0:
229,101,84818,2,0,P|235:120|239:141,2,41.6666666666667,2|2|2,0:0|0:0|0:0,0:0:0:0:
154,65,85141,2,0,B|105:60|105:60|80:70|80:70|31:66,2,125,0|0|0,0:0|0:0|0:0,0:0:0:0:
132,303,86112,5,0,0:0:0:0:
132,303,86274,2,0,L|139:344,2,31.25,2|0|0,0:0|0:0|0:0,0:0:0:0:
309,365,86759,6,0,P|330:319|390:266,1,125,0|0,3:0|0:0,0:0:0:0:
472,234,87245,2,0,P|443:195|434:166,1,62.5,2|8,0:0|0:0,0:0:0:0:
453,89,87568,2,0,B|424:106|393:94|393:94|361:81|333:99,1,125,0|0,0:0|0:0,0:0:0:0:
257,49,88054,6,0,B|212:68|164:58|164:58|197:87|195:115|195:115|188:128|188:128|195:144|190:169,1,218.75,0|0,3:0|3:0,0:0:0:0:
153,197,88701,2,0,P|67:214|122:258,1,187.5,8|0,0:0|0:0,0:0:0:0:
198,275,89348,1,0,3:0:0:0:
198,275,90642,6,0,P|138:277|85:335,2,125,0|0|0,0:0|0:0|0:0,0:0:0:0:
274,329,91452,2,0,L|276:370,2,31.25,0|0|8,3:0|0:0|0:0,0:0:0:0:
451,267,91937,5,0,3:0:0:0:
395,190,92099,2,0,P|408:161|415:131,1,62.5,0|0,3:0|0:0,0:0:0:0:
378,44,92422,1,0,0:0:0:0:
276,91,92584,2,0,L|269:10,2,62.5,8|0|0,0:0|3:0|0:0,0:0:0:0:
205,154,93070,1,0,0:0:0:0:
104,103,93231,6,0,B|88:93|63:99|63:99|56:95|56:95|34:100|14:88,2,93.75,0|0|0,3:0|3:0|3:0,0:0:0:0:
83,196,93879,2,0,L|90:264,1,62.5,8|0,0:0|3:0,0:0:0:0:
312,366,94526,6,0,B|297:264|297:264|314:277,1,125,0|0,3:0|0:0,0:0:0:0:
404,303,95011,1,0,0:0:0:0:
485,256,95173,1,8,0:0:0:0:
508,165,95335,2,0,L|377:142,1,125,0|0,3:0|0:0,0:0:0:0:
296,113,95820,6,0,B|308:85|322:74|322:74|312:55|313:29,2,93.75,0|0|0,3:0|3:0|3:0,0:0:0:0:
221,56,96467,2,0,L|151:62,2,62.5,8|0|0,0:0|3:0|0:0,0:0:0:0:
183,236,97115,6,0,P|123:212|54:219,1,125,0|0,3:0|3:0,0:0:0:0:
38,306,97600,1,0,0:0:0:0:
117,356,97762,2,0,L|195:342,1,62.5,8|0,0:0|0:0,0:0:0:0:
194,351,98005,1,0,3:0:0:0:
209,357,98085,2,0,L|287:343,1,62.5,0|0,3:0|3:0,0:0:0:0:
373,298,98409,6,0,P|404:306|441:335,2,62.5,0|0|0,3:0|0:0|3:0,0:0:0:0:
346,89,99056,2,0,P|418:71|360:118,1,187.5,8|8,0:0|0:0,0:0:0:0:
288,157,99703,6,0,L|154:143,1,125,0|0,3:0|3:0,0:0:0:0:
32,25,100351,2,0,P|52:50|65:78,1,62.5,8|0,0:0|0:0,0:0:0:0:
55,173,100674,2,0,P|35:197|22:225,1,62.5,0|0,0:0|0:0,0:0:0:0:
83,320,100998,6,0,B|-16:334|-16:334|11:358,2,125,0|0|0,3:0|3:0|3:0,0:0:0:0:
369,359,102292,6,0,P|359:327|364:279,1,62.5,0|0,3:0|3:0,0:0:0:0:
401,213,102616,1,0,0:0:0:0:
347,136,102778,1,2,0:0:0:0:
257,163,102940,2,0,L|271:303,1,125,8|2,0:0|0:0,0:0:0:0:
81,294,103587,6,0,B|93:322|93:322|84:388,2,93.75,0|0|0,3:0|3:0|3:0,0:0:0:0:
0,228,104234,2,0,L|20:90,1,125,8|2,0:0|0:0,0:0:0:0:
88,42,104719,1,0,0:0:0:0:
174,77,104881,6,0,P|234:89|287:59,1,125,0|0,3:0|0:0,0:0:0:0:
375,24,105367,1,2,0:0:0:0:
427,101,105528,2,0,L|494:109,1,62.5,8|0,0:0|0:0,0:0:0:0:
445,192,105852,2,0,L|382:184,1,62.5,2|0,0:0|0:0,0:0:0:0:
401,277,106176,6,0,L|494:288,2,93.75,0|0|0,3:0|3:0|3:0,0:0:0:0:
320,320,106823,2,0,B|274:323|274:323|245:341|245:341|200:345,1,125,8|2,0:0|0:0,0:0:0:0:
82,187,107470,6,0,P|143:178|188:137,1,125,0|0,3:0|3:0,0:0:0:0:
317,47,108117,2,0,P|293:104|306:164,1,125,0|0,3:0|3:0,0:0:0:0:
320,320,108764,2,0,P|282:271|223:252,1,125,0|0,3:0|3:0,0:0:0:0:
82,187,109412,2,0,P|49:193|14:213,2,62.5,0|0|0,3:0|3:0|3:0,0:0:0:0:
147,120,109897,1,0,3:0:0:0:
256,131,110059,6,0,P|282:146|305:179,1,62.5,0|0,3:0|3:0,0:0:0:0:
395,155,110383,2,0,P|388:185|364:217,1,62.5,0|0,3:0|3:0,0:0:0:0:
413,295,110706,2,0,P|382:297|344:285,1,62.5,0|0,3:0|3:0,0:0:0:0:
287,357,111030,2,0,P|274:328|275:288,1,62.5,0|0,3:0|3:0,0:0:0:0:
188,255,111353,6,0,P|200:243|212:234,3,31.25,0|0|0|0,3:0|3:0|3:0|3:0,0:0:0:0:
224,188,111677,2,0,P|219:172|218:157,3,31.25,0|0|0|0,3:0|3:0|3:0|3:0,0:0:0:0:
183,124,112001,2,0,P|167:119|153:113,3,31.25,0|0|0|0,3:0|3:0|3:0|3:0,0:0:0:0:
107,127,112324,5,2,0:0:0:0:
