osu file format v14

[General]
AudioFilename: audio.mp3
AudioLeadIn: 0
PreviewTime: 86856
Countdown: 1
SampleSet: Normal
StackLeniency: 0.7
Mode: 0
LetterboxInBreaks: 0
WidescreenStoryboard: 0

[Editor]
Bookmarks: 11754,18832,36640,36972,50798,51130,64956,65287,79113,79445,193039,200118,283294,284511,284622,284843,285064,313379,341695
DistanceSpacing: 1
BeatDivisor: 4
GridSize: 4
TimelineZoom: 1.8

[Metadata]
Title:Disaster
TitleUnicode:Disaster
Artist:Sta
ArtistUnicode:Sta
Creator:Nitronic Techno
Version:Critical!
Source:Cytus -Alive-
Tags:Cytus -Alive- Sta Disaster Progressive Rock Beat Nitro Nitronic Techno NyarkoO
BeatmapID:1432555
BeatmapSetID:677356

[Difficulty]
HPDrainRate:7
CircleSize:4.2
OverallDifficulty:8
ApproachRate:8.8
SliderMultiplier:1.9
SliderTickRate:1

[Events]
//Background and Video events
0,0,"45457.jpg",0,0
//Break Periods
//Storyboard Layer 0 (Background)
//Storyboard Layer 1 (Fail)
//Storyboard Layer 2 (Pass)
//Storyboard Layer 3 (Foreground)
//Storyboard Sound Samples

[TimingPoints]
1910,442.428934852339,4,1,0,55,1,0
1910,-142.857142857143,4,1,0,55,0,0
6334,-285.714285714286,4,1,0,55,0,0
6666,-200,4,1,0,55,0,0
7219,-142.857142857143,4,1,0,55,0,0
11754,-142.857142857143,4,1,0,5,0,0
11864,-142.857142857143,4,1,0,55,0,0
13855,-200,4,1,0,55,0,0
14298,-142.857142857143,4,1,0,55,0,0
18832,-142.857142857143,4,1,0,5,0,0
18943,-142.857142857143,4,1,0,55,0,0
20492,-285.714285714286,4,1,0,55,0,0
20824,-200,4,1,0,55,0,0
21377,-142.857142857143,4,1,0,55,0,0
30225,-111.111111111111,4,2,0,60,0,0
36419,-1000,4,2,0,60,0,0
36640,-1000,4,2,0,5,0,0
36751,-333.333333333333,4,2,0,60,0,0
36972,-333.333333333333,4,2,0,5,0,0
37083,-200,4,2,0,60,0,0
37304,-111.111111111111,4,2,0,60,0,0
43498,-66.6666666666667,4,2,0,60,0,0
43940,-57.1428571428571,4,2,0,60,0,0
44383,-111.111111111111,4,2,0,60,0,0
48807,-333.333333333333,4,2,0,60,0,0
49139,-166.666666666666,4,2,0,60,0,0
49692,-111.111111111111,4,2,0,60,0,0
50577,-1000,4,2,0,60,0,0
50798,-1000,4,2,0,5,0,0
50909,-333.333333333333,4,2,0,60,0,0
51130,-333.333333333333,4,2,0,5,0,0
51241,-200,4,2,0,60,0,0
51462,-111.111111111111,4,2,0,60,0,0
57213,-222.222222222222,4,2,0,85,0,0
57434,-148.148148148148,4,2,0,75,0,0
57656,-111.111111111111,4,2,0,90,0,0
58540,-111.111111111111,4,2,0,60,0,0
62965,-50,4,2,0,75,0,0
63407,-100,4,2,0,80,0,0
63850,-111.111111111111,4,2,0,60,0,0
64734,-1000,4,2,0,60,0,0
64955,-1000,4,2,0,5,0,0
65066,-333.333333333333,4,2,0,60,0,0
65287,-333.333333333333,4,2,0,5,0,0
65398,-200,4,2,0,60,0,0
65619,-111.111111111111,4,2,0,60,0,0
69159,-71.4285714285714,4,2,0,60,0,0
69822,-142.857142857143,4,2,0,60,0,0
70044,-71.4285714285714,4,2,0,60,0,0
70486,-142.857142857143,4,2,0,60,0,0
70928,-222.222222222222,4,2,0,60,0,0
71924,-111.111111111111,4,2,0,60,0,0
77122,-333.333333333333,4,2,0,60,0,0
77454,-166.666666666666,4,2,0,60,0,0
78007,-111.111111111111,4,2,0,60,0,0
78892,-1000,4,2,0,60,0,0
79113,-1000,4,2,0,5,0,0
79224,-333.333333333333,4,2,0,60,0,0
79445,-333.333333333333,4,2,0,5,0,0
79556,-200,4,2,0,60,0,0
79777,-111.111111111111,4,2,0,60,0,0
83316,-55.5555555555555,4,2,0,60,0,0
83980,-111.111111111111,4,2,0,60,0,0
86856,-95.2380952380952,4,1,0,40,0,0
101014,-95.2380952380952,4,1,0,40,0,0
113402,-400,4,2,0,5,0,0
114286,-90.9090909090909,4,1,0,75,0,0
115171,-83.3333333333333,4,1,0,80,0,1
119596,-166.666666666667,4,1,0,80,0,1
119927,-111.111111111111,4,1,0,80,0,1
120480,-83.3333333333333,4,1,0,80,0,1
126674,-166.666666666667,4,1,0,80,0,1
127117,-83.3333333333333,4,1,0,80,0,1
127891,-111.111111111111,4,1,0,80,0,1
128223,-166.666666666667,4,1,0,80,0,1
128444,-83.3333333333333,4,1,0,80,0,1
133753,-166.666666666667,4,1,0,80,0,1
134084,-111.111111111111,4,1,0,80,0,1
134637,-83.3333333333333,4,1,0,80,0,1
143487,-153.846153846154,4,2,0,60,0,0
147247,-133.333333333333,4,2,0,60,0,0
152004,-133.333333333333,4,2,0,20,0,0
152335,-133.333333333333,4,2,0,60,0,0
156981,-133.333333333333,4,2,0,15,0,0
157866,-133.333333333333,4,2,0,60,0,0
158751,-133.333333333333,4,2,0,30,0,0
159635,-133.333333333333,4,2,0,60,0,0
160520,-133.333333333333,4,2,0,45,0,0
161405,-133.333333333333,4,2,0,60,0,0
169148,-133.333333333333,4,2,0,35,0,0
170254,-133.333333333333,4,2,0,60,0,0
171802,-111.111111111111,4,1,0,40,0,0
193039,-100,4,1,0,60,0,0
200118,-166.666666666667,4,2,0,60,0,0
206312,-666.666666666667,4,2,0,60,0,0
206533,-666.666666666667,4,2,0,5,0,0
206644,-333.333333333333,4,2,0,60,0,0
206865,-333.333333333333,4,2,0,5,0,0
206975,-222.222222222222,4,2,0,60,0,0
207197,-166.666666666667,4,2,0,60,0,0
214275,-133.333333333333,4,2,0,60,0,0
218700,-400,4,2,0,60,0,0
219032,-200,4,2,0,60,0,0
219585,-133.333333333333,4,2,0,60,0,0
220469,-1000,4,2,0,60,0,0
220690,-1000,4,2,0,5,0,0
220801,-333.333333333333,4,2,0,60,0,0
221022,-333.333333333333,4,2,0,5,0,0
221133,-200,4,2,0,60,0,0
221354,-133.333333333333,4,2,0,60,0,0
228433,-100,4,1,0,60,0,0
234627,-1000,4,1,0,60,0,0
234848,-1000,4,1,0,5,0,0
234959,-333.333333333333,4,1,0,60,0,0
235180,-333.333333333333,4,1,0,5,0,0
235291,-200,4,1,0,60,0,0
235512,-100,4,1,0,60,0,0
247015,-400,4,1,0,60,0,0
247347,-200,4,1,0,60,0,0
247900,-100,4,1,0,60,0,0
248785,-1000,4,1,0,60,0,0
249006,-1000,4,1,0,5,0,0
249117,-333.333333333333,4,1,0,60,0,0
249338,-333.333333333333,4,1,0,5,0,0
249449,-200,4,1,0,60,0,0
249670,-100,4,1,0,60,0,0
256749,-90.9090909090909,4,1,0,70,0,0
283294,-666.666666666667,4,2,0,20,0,0
284511,-111.111111111111,4,1,0,60,0,0
285064,-83.3333333333333,4,1,0,80,0,1
289488,-166.666666666667,4,1,0,80,0,1
289819,-111.111111111111,4,1,0,80,0,1
290372,-83.3333333333333,4,1,0,80,0,1
297784,-111.111111111111,4,1,0,80,0,1
298116,-166.666666666667,4,1,0,80,0,1
298337,-83.3333333333333,4,1,0,80,0,1
310725,-166.666666666667,4,1,0,80,0,1
311168,-83.3333333333333,4,1,0,80,0,1
313379,-76.9230769230769,4,1,0,80,0,1
317804,-153.846153846154,4,1,0,80,0,1
318136,-114.285714285714,4,1,0,80,0,1
318689,-76.9230769230769,4,1,0,80,0,1
326099,-114.285714285714,4,1,0,80,0,1
326431,-153.846153846154,4,1,0,80,0,1
326652,-76.9230769230769,4,1,0,80,0,1
331961,-153.846153846154,4,1,0,80,0,1
332293,-114.285714285714,4,1,0,80,0,1
332846,-76.9230769230769,4,1,0,80,0,1
341695,-142.857142857143,4,2,0,50,0,0
347889,-1000,4,2,0,50,0,0
348110,-1000,4,2,0,5,0,0
348221,-333.333333333333,4,2,0,50,0,0
348442,-333.333333333333,4,2,0,5,0,0
348553,-200,4,2,0,50,0,0
348774,-142.857142857143,4,2,0,50,0,0
362047,-1000,4,2,0,50,0,0
362268,-1000,4,2,0,5,0,0
362379,-333.333333333333,4,2,0,50,0,0
362600,-333.333333333333,4,2,0,5,0,0
362711,-200,4,2,0,50,0,0
362932,-142.857142857143,4,2,0,50,0,0

[HitObjects]
103,148,1910,6,0,P|135:161|179:141,1,66.4999979705811
260,102,2352,2,0,P|215:90|189:102,1,66.4999979705811,8|0,0:0|0:0,0:0:0:0:
195,218,2794,1,0,0:0:0:0:
183,249,2905,1,0,0:0:0:0:
172,280,3016,1,0,0:0:0:0:
280,217,3237,2,0,L|301:130,1,66.4999979705811,8|0,0:0|0:0,0:0:0:0:
361,144,3679,5,0,0:0:0:0:
217,172,3900,1,0,0:0:0:0:
345,263,4122,2,0,P|394:257|420:237,1,66.4999979705811,8|0,0:0|0:0,0:0:0:0:
391,336,4564,1,0,0:0:0:0:
360,350,4675,1,0,0:0:0:0:
327,352,4785,1,0,0:0:0:0:
192,312,5007,2,0,P|232:296|251:265,1,66.4999979705811,8|0,0:0|0:0,0:0:0:0:
249,245,5338,1,0,0:0:0:0:
250,211,5449,5,0,0:0:0:0:
302,91,5670,1,0,0:0:0:0:
406,167,5891,1,8,0:0:0:0:
353,296,6113,1,0,0:0:0:0:
254,294,6334,2,2,L|258:301,4,8.31249974632264
187,274,6666,2,2,L|180:256,8,11.875,2|2|10|2|2|2|2|2|2,0:0|0:0|0:0|0:0|0:0|0:0|0:0|0:0|0:0,0:0:0:0:
111,258,7219,6,0,P|98:224|102:180,1,66.4999979705811
124,75,7661,2,0,P|136:106|137:140,1,66.4999979705811,8|0,0:0|0:0,0:0:0:0:
256,90,8104,1,2,0:0:0:0:
287,99,8214,1,2,0:0:0:0:
318,109,8325,1,2,0:0:0:0:
349,117,8435,1,2,0:0:0:0:
380,127,8546,2,0,P|426:153|432:214,1,99.7499969558717
427,227,8988,5,0,0:0:0:0:
296,253,9210,1,0,0:0:0:0:
167,288,9431,1,8,0:0:0:0:
37,318,9652,1,0,0:0:0:0:
109,192,9873,2,0,L|126:160,2,33.2499989852906
116,97,10316,2,0,P|151:96|179:117,1,66.4999979705811,8|0,0:0|0:0,0:0:0:0:
302,152,10758,6,0,P|363:165|380:153,1,66.4999979705811
492,131,11201,2,0,P|456:120|421:129,1,66.4999979705811,8|0,0:0|0:0,0:0:0:0:
360,246,11643,2,0,L|339:296,1,33.2499989852906
326,303,11864,1,0,0:0:0:0:
294,314,11975,1,0,0:0:0:0:
262,305,12085,2,0,P|209:283|178:284,1,66.4999979705811,8|0,0:0|0:0,0:0:0:0:
100,290,12528,5,0,0:0:0:0:
192,194,12749,1,0,0:0:0:0:
234,354,12970,2,0,P|274:348|327:301,1,99.7499969558717,8|0,0:0|0:0,0:0:0:0:
341,286,13413,2,2,P|359:245|348:174,1,99.7499969558717
336,177,13855,2,2,L|320:166,4,11.875,10|2|2|2|2,0:0|0:0|0:0|0:0|0:0,0:0:0:0:
292,87,14298,6,2,P|248:73|208:79,1,66.4999979705811
101,98,14740,2,0,P|134:105|167:101,1,66.4999979705811,8|0,0:0|0:0,0:0:0:0:
263,178,15182,1,2,0:0:0:0:
251,209,15293,1,2,0:0:0:0:
239,240,15404,1,2,0:0:0:0:
227,270,15514,1,2,0:0:0:0:
217,302,15625,2,0,P|177:321|103:296,1,99.7499969558717,8|0,0:0|0:0,0:0:0:0:
91,303,16067,6,0,P|98:261|114:233,1,66.4999979705811
190,141,16510,2,0,P|181:173|162:200,1,66.4999979705811,8|0,0:0|0:0,0:0:0:0:
275,124,16952,2,0,L|299:85,2,33.2499989852906
333,201,17395,2,0,P|315:244|289:270,1,66.4999979705811,8|0,0:0|0:0,0:0:0:0:
233,331,17837,5,0,0:0:0:0:
397,272,18058,1,0,0:0:0:0:
255,210,18279,2,0,P|206:222|186:233,1,66.4999979705811,8|0,0:0|0:0,0:0:0:0:
60,310,18722,2,0,L|66:265,1,33.2499989852906
67,243,18943,1,0,0:0:0:0:
70,209,19054,1,0,0:0:0:0:
71,175,19164,2,0,P|86:135|111:111,1,66.4999979705811,8|0,0:0|0:0,0:0:0:0:
127,96,19496,1,0,0:0:0:0:
157,82,19607,5,0,0:0:0:0:
288,62,19828,1,0,0:0:0:0:
414,102,20049,2,0,P|436:131|435:200,1,99.7499969558717,8|0,0:0|0:0,0:0:0:0:
374,224,20492,2,2,L|376:235,4,8.31249974632264
305,254,20823,2,2,L|303:268,8,8.31249974632264,2|2|10|2|2|2|2|2|2,0:0|0:0|0:0|0:0|0:0|0:0|0:0|0:0|0:0,0:0:0:0:
245,211,21376,6,0,P|211:211|187:227,1,47.5
168,228,21708,1,0,0:0:0:0:
134,227,21819,2,0,P|96:216|77:183,1,66.4999979705811,8|0,0:0|0:0,0:0:0:0:
79,162,22151,1,0,0:0:0:0:
89,130,22261,1,2,0:0:0:0:
113,107,22372,1,2,0:0:0:0:
141,90,22482,1,2,0:0:0:0:
174,85,22593,1,2,0:0:0:0:
207,86,22704,2,0,P|256:96|285:88,1,66.4999979705811,8|0,0:0|0:0,0:0:0:0:
336,193,23146,6,0,P|297:186|264:198,1,66.4999979705811
160,243,23589,2,0,P|193:249|225:241,1,66.4999979705811,8|0,0:0|0:0,0:0:0:0:
328,274,24031,1,0,0:0:0:0:
360,279,24142,1,0,0:0:0:0:
392,284,24252,1,0,0:0:0:0:
286,320,24473,2,0,P|236:336|205:329,1,66.4999979705811,8|0,0:0|0:0,0:0:0:0:
110,353,24916,5,0,0:0:0:0:
84,256,25137,1,0,0:0:0:0:
60,159,25358,1,8,0:0:0:0:
62,52,25579,2,0,L|52:16,1,33.2499989852906
131,73,25801,2,0,P|160:97|172:128,1,66.4999979705811
197,142,26132,1,0,0:0:0:0:
229,148,26243,2,0,P|270:128|303:134,1,66.4999979705811,8|0,0:0|0:0,0:0:0:0:
256,34,26686,5,0,0:0:0:0:
225,163,26907,1,0,0:0:0:0:
357,158,27128,1,8,0:0:0:0:
323,286,27349,1,0,0:0:0:0:
197,330,27570,2,0,P|182:281|192:246,1,66.4999979705811
257,159,28013,2,0,L|243:203,1,33.2499989852906,8|0,0:0|0:0,0:0:0:0:
310,243,28234,2,0,L|322:202,1,33.2499989852906
344,120,28455,6,2,L|363:166,1,33.2499989852906
287,158,28676,2,2,L|285:199,1,33.2499989852906
214,137,28898,2,2,P|199:175|196:212,1,66.4999979705811,10|2,0:0|0:0,0:0:0:0:
166,85,29340,2,0,P|127:104|103:205,1,132.999995941162,0|8,0:0|0:0,0:0:0:0:
70,283,30225,6,0,P|118:277|156:169,1,170.999994781494,4|0,0:0|0:0,0:0:0:0:
31,228,30889,1,0,0:0:0:0:
73,109,31110,2,0,L|37:21,1,85.4999973907472,8|0,0:0|0:0,0:0:0:0:
173,117,31552,2,0,L|220:204,1,85.4999973907472,8|0,0:0|0:0,0:0:0:0:
293,91,31995,6,0,P|333:67|382:68,2,85.4999973907472,0|0|2,0:0|0:0|0:0,0:0:0:0:
304,187,32658,2,0,P|272:227|219:236,2,85.4999973907472,0|8|0,0:0|0:0|0:0,0:0:0:0:
197,140,33322,1,8,0:0:0:0:
394,141,33543,1,0,0:0:0:0:
433,243,33764,6,2,P|389:289|322:301,1,128.249996086121
347,230,34207,2,2,L|290:158,1,85.4999973907472
221,106,34649,2,0,L|232:156,1,42.7499986953736,8|0,0:0|0:0,0:0:0:0:
166,185,34870,2,0,L|154:131,1,42.7499986953736
92,102,35092,2,0,P|79:158|105:227,1,128.249996086121,8|0,0:0|0:0,0:0:0:0:
177,242,35534,6,0,P|162:183|142:151,2,85.4999973907472,2|0|2,0:0|0:0|0:0,0:0:0:0:
257,182,36198,1,0,0:0:0:0:
242,141,36308,1,0,0:0:0:0:
230,111,36419,6,8,L|228:101,1,9.5,8|0,0:0|0:0,0:0:0:0:
302,129,36751,2,8,L|292:97,1,28.4999991302491
369,144,37083,1,8,0:0:0:0:
437,171,37304,6,0,P|429:221|352:256,1,128.249996086121,2|0,0:0|0:0,0:0:0:0:
339,189,37746,2,0,L|284:262,2,85.4999973907472,2|0|8,0:0|0:0|0:0,0:0:0:0:
243,171,38410,2,0,L|219:260,2,85.4999973907472,0|8|0,0:0|0:0|0:0,0:0:0:0:
166,108,39074,6,2,P|221:92|327:142,1,170.999994781494
345,217,39737,2,0,L|371:193,1,21.3749993476868
345,248,39848,1,0,0:0:0:0:
326,286,39958,1,8,0:0:0:0:
198,271,40180,1,0,0:0:0:0:
268,163,40401,2,0,P|227:127|132:120,1,128.249996086121,8|0,0:0|0:0,0:0:0:0:
92,141,40843,6,2,L|71:158,3,21.3749993476868
108,216,41064,2,2,L|78:242,3,21.3749993476868
155,270,41286,2,0,P|130:302|145:353,1,85.4999973907472,2|0,0:0|0:0,0:0:0:0:
176,359,41617,1,0,0:0:0:0:
218,364,41728,2,0,P|279:371|308:349,1,85.4999973907472,8|0,0:0|0:0,0:0:0:0:
426,301,42171,2,0,P|384:296|344:310,1,85.4999973907472,8|0,0:0|0:0,0:0:0:0:
263,236,42613,6,2,P|249:196|282:115,1,128.249996086121
344,83,43055,2,2,P|299:49|229:60,1,128.249996086121
165,90,43498,2,2,L|153:129,6,35.625001358986,10|2|2|2|2|2|2,0:0|0:0|0:0|0:0|0:0|0:0|0:0,0:0:0:0:
95,162,43940,2,2,L|103:215,6,41.5625003963709,10|2|2|2|2|2|2,0:0|0:0|0:0|0:0|0:0|0:0|0:0,0:0:0:0:
168,228,44383,6,0,P|173:257|183:279,1,42.7499986953736,2|0,0:0|0:0,0:0:0:0:
245,284,44604,1,0,0:0:0:0:
371,304,44825,2,0,P|417:291|452:240,1,85.4999973907472,2|0,0:0|0:0,0:0:0:0:
360,104,45268,6,0,L|355:152,1,42.7499986953736,8|0,0:0|0:0,0:0:0:0:
374,209,45489,2,0,P|311:213|292:187,1,85.4999973907472,0|8,0:0|0:0,0:0:0:0:
277,139,45821,2,0,P|230:148|202:180,1,85.4999973907472
184,211,46152,6,2,P|119:221|69:132,1,170.999994781494
241,182,46816,2,0,P|297:192|338:291,1,170.999994781494
257,266,47480,1,8,0:0:0:0:
148,139,47701,1,0,0:0:0:0:
106,256,47922,6,2,L|220:186,1,128.249996086121
245,219,48365,2,2,P|266:171|237:95,1,128.249996086121
188,55,48807,2,2,L|188:62,4,7.12499978256226,10|2|2|2|2,0:0|0:0|0:0|0:0|0:0,0:0:0:0:
122,85,49139,2,2,L|122:109,8,14.2499995651245,2|2|10|2|2|2|2|2|2,0:0|0:0|0:0|0:0|0:0|0:0|0:0|0:0|0:0,0:0:0:0:
55,121,49692,6,0,P|43:176|64:208,1,85.4999973907472,2|0,0:0|0:0,0:0:0:0:
93,220,50024,1,0,0:0:0:0:
134,228,50134,1,2,0:0:0:0:
175,216,50245,1,0,0:0:0:0:
216,205,50355,2,0,L|271:176,1,42.7499986953736
320,156,50577,6,8,L|320:169,1,9.5
384,134,50909,2,8,L|384:163,1,28.4999991302491
445,111,51240,1,8,0:0:0:0:
382,43,51462,6,0,P|321:37|283:52,1,85.4999973907472,2|0,0:0|0:0,0:0:0:0:
116,106,51904,2,0,P|178:121|240:106,1,128.249996086121,2|0,0:0|0:0,0:0:0:0:
280,118,52346,1,8,0:0:0:0:
248,242,52568,1,0,0:0:0:0:
355,162,52789,1,8,0:0:0:0:
331,254,53011,1,0,0:0:0:0:
457,217,53231,6,2,P|462:159|384:69,1,170.999994781494
268,88,53895,2,0,L|262:64,1,21.3749993476868
240,107,54006,1,0,0:0:0:0:
211,138,54116,2,0,P|168:161|105:159,1,85.4999973907472,8|0,0:0|0:0,0:0:0:0:
106,199,54448,1,0,0:0:0:0:
83,235,54559,2,0,P|160:251|225:231,1,128.249996086121,8|0,0:0|0:0,0:0:0:0:
266,198,55001,6,2,L|243:158,1,42.7499986953736
333,184,55222,2,2,L|361:224,1,42.7499986953736
362,124,55443,1,2,0:0:0:0:
302,62,55665,2,0,P|225:45|202:54,1,85.4999973907472,0|8,0:0|0:0,0:0:0:0:
188,72,55996,1,0,0:0:0:0:
155,99,56107,1,0,0:0:0:0:
130,134,56218,1,0,0:0:0:0:
106,169,56328,1,8,0:0:0:0:
115,299,56549,2,0,L|140:255,1,42.7499986953736
197,223,56771,5,2,0:0:0:0:
316,175,56992,1,2,0:0:0:0:
415,255,57213,2,2,L|417:279,1,21.3749993476868
350,224,57434,2,2,L|349:201,2,16.0312500611544
281,258,57656,5,8,0:0:0:0:
243,278,57766,1,8,0:0:0:0:
200,277,57877,1,8,0:0:0:0:
174,242,57987,1,8,0:0:0:0:
132,232,58098,5,8,0:0:0:0:
120,190,58209,1,8,0:0:0:0:
109,148,58319,1,8,0:0:0:0:
99,106,58430,1,8,0:0:0:0:
84,66,58540,6,2,L|260:40,1,170.999994781494
331,76,59204,2,0,P|309:118|265:131,1,85.4999973907472,0|8,0:0|0:0,0:0:0:0:
262,215,59646,2,0,P|229:241|217:289,2,85.4999973907472,0|8|0,0:0|0:0|0:0,0:0:0:0:
325,342,60310,6,2,P|369:327|405:235,1,128.249996086121
352,216,60753,2,2,L|419:151,1,85.4999973907472,2|0,0:0|0:0,0:0:0:0:
274,83,61195,2,0,L|274:195,1,85.4999973907472,8|0,0:0|0:0,0:0:0:0:
115,143,61637,2,0,P|149:196|207:222,1,128.249996086121,8|0,0:0|0:0,0:0:0:0:
305,221,62080,6,0,P|362:196|396:143,1,128.249996086121,2|0,0:0|0:0,0:0:0:0:
301,138,62522,2,0,L|210:138,1,85.4999973907472,2|0,0:0|0:0,0:0:0:0:
212,238,62965,2,2,L|192:289,6,47.5,10|2|2|2|2|2|2,0:0|0:0|0:0|0:0|0:0|0:0|0:0,0:0:0:0:
300,238,63407,2,2,L|319:289,3,47.5,10|2|2|2,0:0|0:0|0:0|0:0,0:0:0:0:
309,342,63850,6,2,P|247:354|184:344,1,128.249996086121
165,308,64292,1,2,0:0:0:0:
347,308,64513,1,0,0:0:0:0:
371,272,64624,1,0,0:0:0:0:
400,236,64734,6,8,L|400:223,1,9.5
334,229,65066,2,8,L|334:197,1,28.4999991302491
266,231,65398,1,8,0:0:0:0:
196,280,65619,6,2,P|157:234|179:124,1,170.999994781494
204,47,66283,2,0,P|243:93|221:203,1,170.999994781494
173,304,66947,2,0,L|152:259,1,42.7499986953736,8|0,0:0|0:0,0:0:0:0:
338,309,67278,1,0,0:0:0:0:
357,265,67389,6,0,P|371:222|354:178,1,85.4999973907472,2|0,0:0|0:0,0:0:0:0:
279,52,67831,2,0,P|272:93|295:128,1,85.4999973907472,2|0,0:0|0:0,0:0:0:0:
282,169,68163,1,0,0:0:0:0:
254,201,68274,2,0,P|270:247|247:298,1,85.4999973907472,8|0,0:0|0:0,0:0:0:0:
201,327,68716,2,0,P|190:275|213:218,1,85.4999973907472,8|0,0:0|0:0,0:0:0:0:
156,180,69159,6,2,L|180:147,4,33.2499989852906
77,182,69601,1,2,0:0:0:0:
108,280,69822,2,0,L|127:253,1,33.2499989852906
195,266,70044,2,2,L|219:231,6,33.2499989852906,10|2|2|2|2|2|2,0:0|0:0|0:0|0:0|0:0|0:0|0:0,0:0:0:0:
239,320,70486,2,2,L|207:364,2,44.3333319803874,10|2|2,0:0|0:0|0:0,0:0:0:0:
310,316,70928,2,2,L|332:336,3,21.3749993476868
299,249,71371,2,2,B|320:238|320:238|333:220|333:220|320:238|320:238|298:249,1,85.4999973907472
229,244,71924,2,2,L|213:224,6,21.3749993476868
379,82,72698,6,0,P|334:50|237:115,1,170.999994781494,4|2,0:0|0:0,0:0:0:0:
245,182,73362,2,0,L|330:119,1,85.4999973907472,0|8,0:0|0:0,0:0:0:0:
250,272,73804,2,0,L|330:212,2,85.4999973907472,0|8|0,0:0|0:0|0:0,0:0:0:0:
294,345,74468,2,2,P|229:368|152:293,1,170.999994781494
238,288,75131,2,0,P|204:246|89:275,1,170.999994781494
72,332,75795,1,8,0:0:0:0:
256,192,76016,1,0,0:0:0:0:
341,187,76238,6,0,P|384:149|403:70,1,128.249996086121,2|0,0:0|0:0,0:0:0:0:
398,56,76680,2,0,L|280:47,1,85.4999973907472,2|0,0:0|0:0,0:0:0:0:
255,89,77122,2,2,L|254:100,4,7.12499978256226,10|2|2|2|2,0:0|0:0|0:0|0:0|0:0,0:0:0:0:
195,46,77454,2,2,L|198:20,8,14.2499995651245,2|2|10|2|2|2|2|2|2,0:0|0:0|0:0|0:0|0:0|0:0|0:0|0:0|0:0,0:0:0:0:
131,74,78007,6,0,P|116:123|124:166,1,85.4999973907472,2|0,0:0|0:0,0:0:0:0:
152,184,78339,1,0,0:0:0:0:
193,193,78450,1,2,0:0:0:0:
233,181,78560,1,0,0:0:0:0:
265,153,78671,2,0,L|307:115,1,42.7499986953736
365,127,78892,6,8,L|375:119,1,9.5
398,184,79224,2,8,L|426:155,1,28.4999991302491
427,243,79556,1,8,0:0:0:0:
458,322,79777,6,0,P|405:339|334:311,1,128.249996086121,2|0,0:0|0:0,0:0:0:0:
285,279,80219,2,0,L|214:358,1,85.4999973907472,2|0,0:0|0:0,0:0:0:0:
143,193,80883,1,0,0:0:0:0:
198,106,81104,1,8,0:0:0:0:
132,26,81325,1,0,0:0:0:0:
256,58,81547,6,2,P|296:86|394:32,1,170.999994781494
372,169,82210,2,0,L|396:152,1,21.3749993476868
348,186,82321,1,0,0:0:0:0:
311,208,82432,2,0,P|262:234|211:227,1,85.4999973907472,8|0,0:0|0:0,0:0:0:0:
192,222,82763,1,0,0:0:0:0:
151,208,82874,2,0,P|97:207|58:217,1,85.4999973907472,8|0,0:0|0:0,0:0:0:0:
46,312,83316,6,2,B|134:340|134:340|214:301,1,170.999994781494
230,290,83648,2,2,B|308:250|308:250|386:293,1,170.999994781494
407,303,83980,1,2,0:0:0:0:
439,323,84091,1,0,0:0:0:0:
475,343,84201,6,0,P|499:292|485:233,1,85.4999973907472,8|0,0:0|0:0,0:0:0:0:
468,233,84533,1,0,0:0:0:0:
437,198,84644,2,0,L|428:131,1,42.7499986953736,8|0,0:0|0:0,0:0:0:0:
360,192,84865,2,0,L|361:143,1,42.7499986953736
304,89,85086,6,2,P|285:138|282:186,1,85.4999973907472
229,213,85418,1,2,0:0:0:0:
174,256,85529,2,2,P|166:306|171:350,1,85.4999973907472
210,349,85860,1,2,0:0:0:0:
251,338,85971,2,2,L|302:311,1,42.7499986953736
225,275,86192,2,2,L|194:295,4,21.3749993476868
116,107,86856,6,2,P|188:133|300:64,1,199.499993911743
385,112,87519,1,0,0:0:0:0:
389,212,87741,2,0,L|365:280,1,49.8749984779358,8|0,0:0|0:0,0:0:0:0:
362,206,87962,2,0,P|310:167|241:172,2,99.7499969558717,0|8|0,0:0|0:0|0:0,0:0:0:0:
267,239,88626,6,0,P|186:215|165:173,1,99.7499969558717,2|0,0:0|0:0,0:0:0:0:
26,258,89068,2,0,P|74:248|106:211,1,99.7499969558717,2|0,0:0|0:0,0:0:0:0:
143,142,89510,1,8,0:0:0:0:
134,290,89732,1,0,0:0:0:0:
134,290,89842,1,0,0:0:0:0:
134,290,89953,2,0,P|192:313|282:279,1,149.624995433808,8|0,0:0|0:0,0:0:0:0:
346,245,90395,6,0,L|296:45,2,199.499993911743,2|2|8,0:0|0:0|0:0,0:0:0:0:
426,278,91501,1,0,0:0:0:0:
242,168,91723,1,8,0:0:0:0:
360,22,91944,1,0,0:0:0:0:
416,106,92165,6,2,B|369:151|319:128|294:97|294:97|236:121,1,199.499993911743
151,50,92829,2,0,B|137:97|140:120|140:120|110:137|57:103|57:103,1,149.624995433808
63,147,93271,1,0,0:0:0:0:
65,186,93382,1,0,0:0:0:0:
69,225,93492,1,8,0:0:0:0:
219,220,93714,1,0,0:0:0:0:
248,191,93824,2,0,L|235:167,1,24.9374992389679
287,194,93935,6,2,P|344:192|432:82,1,199.499993911743
333,110,94598,1,0,0:0:0:0:
397,266,94820,2,0,L|475:275,1,49.8749984779358,8|0,0:0|0:0,0:0:0:0:
367,267,95041,2,0,L|251:346,2,99.7499969558717,0|8|0,0:0|0:0|0:0,0:0:0:0:
271,238,95704,6,0,L|299:117,1,99.7499969558717,2|0,0:0|0:0,0:0:0:0:
199,232,96147,2,0,L|157:121,1,99.7499969558717,2|0,0:0|0:0,0:0:0:0:
138,278,96589,2,0,L|54:210,1,99.7499969558717,8|0,0:0|0:0,0:0:0:0:
49,176,96921,1,0,0:0:0:0:
67,140,97032,2,0,B|101:99|101:99|126:83|169:101|224:110,1,149.624995433808,8|0,0:0|0:0,0:0:0:0:
229,125,97474,6,2,P|286:136|419:60,1,199.499993911743
340,260,98138,2,2,P|258:224|233:107,1,199.499993911743
334,161,98801,1,8,0:0:0:0:
167,262,99023,1,0,0:0:0:0:
170,113,99244,6,0,P|196:63|192:16,2,99.7499969558717,2|0|2,0:0|0:0|0:0,0:0:0:0:
71,187,99908,1,0,0:0:0:0:
61,225,100018,1,0,0:0:0:0:
51,263,100129,2,0,L|32:320,1,49.8749984779358,8|0,0:0|0:0,0:0:0:0:
130,278,100350,2,0,L|105:352,1,49.8749984779358
200,292,100571,1,8,0:0:0:0:
262,224,100792,1,0,0:0:0:0:
288,254,100903,1,0,0:0:0:0:
315,282,101014,6,2,P|391:270|430:158,1,199.499993911743
346,114,101677,1,0,0:0:0:0:
246,115,101898,2,0,L|188:104,1,49.8749984779358,8|0,0:0|0:0,0:0:0:0:
224,176,102120,2,0,L|138:250,2,99.7499969558717,0|8|0,0:0|0:0|0:0,0:0:0:0:
96,159,102783,6,0,L|119:48,1,99.7499969558717,2|0,0:0|0:0,0:0:0:0:
24,182,103226,2,0,L|35:288,1,99.7499969558717,2|0,0:0|0:0,0:0:0:0:
179,225,103668,1,8,0:0:0:0:
177,102,103889,1,0,0:0:0:0:
216,133,104000,1,0,0:0:0:0:
254,164,104111,1,8,0:0:0:0:
255,58,104332,1,0,0:0:0:0:
371,61,104553,6,0,L|470:269,2,199.499993911743,2|2|8,0:0|0:0|0:0,0:0:0:0:
289,60,105659,1,0,0:0:0:0:
468,108,105880,1,8,0:0:0:0:
396,300,106102,1,0,0:0:0:0:
311,246,106323,6,2,P|249:285|138:241,1,199.499993911743
199,91,106986,2,2,B|147:132|230:147|230:147|228:246,1,149.624995433808
258,203,107429,1,2,0:0:0:0:
287,207,107539,1,2,0:0:0:0:
316,213,107650,1,8,0:0:0:0:
398,156,107871,1,0,0:0:0:0:
465,82,108092,6,2,P|384:45|277:67,1,199.499993911743
365,140,108756,1,0,0:0:0:0:
283,197,108977,1,8,0:0:0:0:
261,242,109088,1,0,0:0:0:0:
238,286,109199,1,0,0:0:0:0:
226,153,109420,2,0,L|302:52,1,99.7499969558717,8|0,0:0|0:0,0:0:0:0:
147,109,109862,6,2,P|89:93|53:207,1,199.499993911743
192,232,110526,2,0,L|93:151,1,99.7499969558717,0|8,0:0|0:0,0:0:0:0:
140,291,110968,1,0,0:0:0:0:
186,310,111079,1,0,0:0:0:0:
235,306,111189,2,0,P|280:266|281:218,1,99.7499969558717,8|0,0:0|0:0,0:0:0:0:
164,116,111632,6,2,P|208:60|316:100,1,199.499993911743
325,238,112296,2,2,P|267:238|253:115,1,199.499993911743
299,173,112959,1,2,0:0:0:0:
345,153,113070,1,2,0:0:0:0:
390,134,113180,1,2,0:0:0:0:
435,112,113291,1,2,0:0:0:0:
478,93,113402,6,2,B|488:134|488:134|479:185,1,83.125
419,216,114286,6,0,L|443:254,3,34.8333343963623,2|2|2|8,0:0|0:0|0:0|0:0,0:0:0:0:
289,192,114729,1,8,0:0:0:0:
193,316,114950,1,8,0:0:0:0:
153,281,115061,1,8,0:0:0:0:
109,244,115171,6,0,P|86:187|105:129,1,113.999996520996,4|0,0:0|0:0,0:0:0:0:
84,39,115503,2,0,P|147:59|162:126,1,113.999996520996,4|0,0:0|0:0,0:0:0:0:
263,163,115835,2,0,P|200:188|154:163,1,113.999996520996,4|8,0:0|0:0,0:0:0:0:
256,81,116277,1,0,0:0:0:0:
403,168,116499,1,0,0:0:0:0:
256,260,116720,1,0,0:0:0:0:
239,147,116941,6,0,P|299:155|340:201,1,113.999996520996,2|0,0:0|0:0,0:0:0:0:
429,227,117273,2,0,P|380:271|314:251,1,113.999996520996,2|0,0:0|0:0,0:0:0:0:
232,320,117605,2,0,P|241:252|286:225,1,113.999996520996,2|2,0:0|0:0,0:0:0:0:
255,58,118047,1,0,0:0:0:0:
149,192,118268,1,0,0:0:0:0:
363,192,118490,1,0,0:0:0:0:
256,325,118711,6,0,P|233:267|252:203,1,113.999996520996,8|0,0:0|0:0,0:0:0:0:
311,52,119153,2,0,P|320:107|294:157,1,113.999996520996,8|0,0:0|0:0,0:0:0:0:
298,232,119596,2,2,L|320:246,4,14.2499995651245,10|2|2|2|2,0:0|0:0|0:0|0:0|0:0,0:0:0:0:
214,151,119927,2,2,L|186:134,8,21.3749993476868,2|2|10|2|2|2|2|2|2,0:0|0:0|0:0|0:0|0:0|0:0|0:0|0:0|0:0,0:0:0:0:
185,232,120480,6,2,P|156:304|279:357,1,227.999993041992
335,239,121144,2,2,L|236:295,1,113.999996520996
201,294,121476,1,2,0:0:0:0:
166,294,121587,1,2,0:0:0:0:
132,295,121697,1,2,0:0:0:0:
97,296,121808,2,0,P|49:250|76:139,1,170.999994781494,8|0,0:0|0:0,0:0:0:0:
119,218,122250,6,0,P|162:175|160:119,1,113.999996520996,2|0,0:0|0:0,0:0:0:0:
235,176,122582,2,0,L|235:58,1,113.999996520996,2|0,0:0|0:0,0:0:0:0:
349,98,122914,2,2,P|306:142|312:205,1,113.999996520996
419,172,123356,1,0,0:0:0:0:
256,331,123577,1,0,0:0:0:0:
93,172,123799,1,0,0:0:0:0:
196,78,124020,6,0,P|217:119|182:184,1,113.999996520996,2|0,0:0|0:0,0:0:0:0:
187,272,124352,2,0,P|123:230|126:184,1,113.999996520996,2|0,0:0|0:0,0:0:0:0:
41,140,124684,2,2,P|102:114|149:141,1,113.999996520996
266,100,125126,2,0,L|385:54,2,113.999996520996
286,235,125790,6,2,P|326:297|505:271,1,227.999993041992
385,233,126453,1,0,0:0:0:0:
318,140,126674,2,2,B|334:126|334:126|342:105|342:105|334:127|334:127|318:140,1,85.4999973907472,10|2,0:0|0:0,0:0:0:0:
247,142,127117,2,2,L|225:171,4,28.4999991302491,10|2|2|2|2,0:0|0:0|0:0|0:0|0:0,0:0:0:0:
150,81,127559,6,0,P|116:140|109:214,1,113.999996520996,8|0,0:0|0:0,0:0:0:0:
216,112,127891,2,0,P|188:157|178:208,1,85.4999973907472,8|0,0:0|0:0,0:0:0:0:
283,132,128223,1,8,0:0:0:0:
256,242,128444,1,8,0:0:0:0:
302,209,128555,1,0,0:0:0:0:
348,176,128665,1,8,0:0:0:0:
391,138,128776,1,0,0:0:0:0:
433,100,128887,1,8,0:0:0:0:
414,221,129108,1,0,0:0:0:0:
310,267,129329,6,0,P|253:302|232:354,1,113.999996520996,2|0,0:0|0:0,0:0:0:0:
264,193,129661,2,0,L|172:274,1,113.999996520996,2|0,0:0|0:0,0:0:0:0:
200,141,129993,2,2,P|134:168|82:158,1,113.999996520996
178,74,130435,1,0,0:0:0:0:
379,89,130656,1,0,0:0:0:0:
359,318,130878,1,0,0:0:0:0:
249,349,131099,6,0,P|241:291|266:224,1,113.999996520996,2|0,0:0|0:0,0:0:0:0:
312,95,131431,2,0,P|321:151|302:204,1,113.999996520996,2|0,0:0|0:0,0:0:0:0:
276,51,131762,2,2,P|214:81|145:57,1,113.999996520996
64,114,132205,1,0,0:0:0:0:
208,290,132426,1,0,0:0:0:0:
402,170,132647,1,0,0:0:0:0:
212,43,132868,6,0,P|188:114|200:156,1,113.999996520996,8|0,0:0|0:0,0:0:0:0:
272,285,133311,2,0,P|281:229|267:175,1,113.999996520996,8|0,0:0|0:0,0:0:0:0:
263,99,133753,2,0,L|282:101,4,14.2499995651245,8|0|0|0|0,0:0|0:0|0:0|0:0|0:0,0:0:0:0:
196,201,134085,2,0,L|165:187,8,21.3749993476868,0|0|8|0|0|0|0|0|0,0:0|0:0|0:0|0:0|0:0|0:0|0:0|0:0|0:0,0:0:0:0:
180,295,134638,6,2,P|248:282|257:132,1,227.999993041992
349,281,135302,1,0,0:0:0:0:
212,211,135523,1,2,0:0:0:0:
167,184,135634,1,0,0:0:0:0:
140,140,135744,1,0,0:0:0:0:
136,88,135855,1,0,0:0:0:0:
158,42,135965,1,2,0:0:0:0:
255,121,136187,1,0,0:0:0:0:
371,167,136408,6,0,P|414:104|405:44,1,113.999996520996,2|0,0:0|0:0,0:0:0:0:
302,147,136740,2,0,P|265:196|176:205,1,113.999996520996,2|0,0:0|0:0,0:0:0:0:
262,79,137072,2,0,P|300:29|303:-26,1,113.999996520996,2|2,0:0|0:0,0:0:0:0:
96,63,137514,1,0,0:0:0:0:
69,289,137735,1,0,0:0:0:0:
295,311,137956,1,0,0:0:0:0:
335,85,138178,6,0,P|371:135|374:207,1,113.999996520996,2|0,0:0|0:0,0:0:0:0:
269,113,138509,2,0,P|231:65|181:40,1,113.999996520996,2|0,0:0|0:0,0:0:0:0:
217,164,138841,2,2,P|244:222|229:291,1,113.999996520996
71,301,139284,1,0,0:0:0:0:
85,246,139394,1,0,0:0:0:0:
100,190,139505,1,0,0:0:0:0:
205,324,139726,1,0,0:0:0:0:
354,241,139947,6,2,L|458:286,2,113.999996520996
255,59,140611,1,0,0:0:0:0:
255,59,140722,2,0,B|256:120|256:120|234:135|212:196|237:239,1,170.999994781494
229,254,141164,2,0,L|200:277,1,28.4999991302491
265,257,141275,1,8,0:0:0:0:
314,267,141385,1,0,0:0:0:0:
363,279,141496,1,0,0:0:0:0:
412,290,141606,1,0,0:0:0:0:
479,255,141717,6,0,L|477:317,1,56.9999982604981,2|0,0:0|0:0,0:0:0:0:
413,223,141938,2,0,L|429:159,1,56.9999982604981
333,218,142159,2,0,P|277:255|222:250,1,113.999996520996,2|0,0:0|0:0,0:0:0:0:
277,148,142602,2,0,L|317:90,1,56.9999982604981,8|0,0:0|0:0,0:0:0:0:
226,113,142823,2,0,L|208:136,1,28.4999991302491
207,88,142934,2,0,L|233:63,1,28.4999991302491
172,77,143044,5,8,0:0:0:0:
172,77,143487,5,4,0:0:0:0:
147,133,143708,1,0,0:0:0:0:
123,190,143929,1,0,0:0:0:0:
108,249,144150,1,0,0:0:0:0:
88,307,144372,2,0,L|214:334,2,123.499994346619,0|0|4,0:0|0:0|0:0,0:0:0:0:
130,261,145478,5,0,0:0:0:0:
181,227,145699,1,0,0:0:0:0:
232,193,145920,1,0,0:0:0:0:
281,156,146141,2,0,L|195:48,2,123.499994346619,0|0|4,0:0|0:0|0:0,0:0:0:0:
231,207,147247,5,0,0:0:0:0:
159,212,147469,1,0,0:0:0:0:
121,151,147690,1,0,0:0:0:0:
121,79,147911,2,0,P|183:56|262:80,1,142.500005435944
333,193,148796,5,4,0:0:0:0:
298,255,149017,1,0,0:0:0:0:
229,274,149238,1,0,0:0:0:0:
167,237,149460,1,0,0:0:0:0:
119,184,149681,2,0,P|127:131|207:92,1,142.500005435944
342,99,150566,5,4,0:0:0:0:
286,143,150787,1,0,0:0:0:0:
270,212,151008,1,0,0:0:0:0:
289,280,151229,1,0,0:0:0:0:
349,317,151450,2,0,P|405:306|443:235,1,142.500005435944
444,199,152004,1,0,0:0:0:0:
444,163,152114,1,0,0:0:0:0:
417,96,152335,5,4,0:0:0:0:
353,63,152557,1,0,0:0:0:0:
253,101,152778,1,0,0:0:0:0:
153,139,152999,1,0,0:0:0:0:
54,179,153220,2,0,P|41:231|98:302,1,142.500005435944
221,354,154105,5,4,0:0:0:0:
255,291,154326,1,0,0:0:0:0:
190,206,154547,1,0,0:0:0:0:
125,120,154769,1,0,0:0:0:0:
59,35,154990,2,0,P|108:22|207:28,1,142.500005435944
410,59,155875,5,4,0:0:0:0:
451,116,156096,1,0,0:0:0:0:
423,219,156317,1,0,0:0:0:0:
396,321,156538,1,0,0:0:0:0:
205,223,156981,5,2,0:0:0:0:
198,195,157202,1,2,0:0:0:0:
192,167,157423,1,2,0:0:0:0:
451,116,157866,5,2,0:0:0:0:
423,219,158087,1,2,0:0:0:0:
396,321,158308,1,2,0:0:0:0:
179,238,158751,5,2,0:0:0:0:
169,196,158972,1,2,0:0:0:0:
160,154,159193,1,2,0:0:0:0:
451,116,159635,5,2,0:0:0:0:
423,219,159856,1,2,0:0:0:0:
396,321,160077,1,2,0:0:0:0:
141,261,160520,5,2,0:0:0:0:
125,198,160741,1,2,0:0:0:0:
111,135,160962,1,2,0:0:0:0:
451,116,161405,5,2,0:0:0:0:
423,219,161626,1,2,0:0:0:0:
396,321,161847,1,2,0:0:0:0:
83,296,162290,5,2,0:0:0:0:
60,202,162511,1,2,0:0:0:0:
39,107,162732,1,2,0:0:0:0:
451,116,163175,5,2,0:0:0:0:
423,219,163396,1,2,0:0:0:0:
396,321,163617,1,2,0:0:0:0:
83,296,164060,5,8,0:0:0:0:
60,202,164281,1,8,0:0:0:0:
39,107,164502,1,8,0:0:0:0:
451,116,164945,5,2,0:0:0:0:
423,219,165166,1,2,0:0:0:0:
396,321,165387,1,2,0:0:0:0:
60,202,165830,5,8,0:0:0:0:
83,296,166051,1,8,0:0:0:0:
39,107,166272,1,8,0:0:0:0:
451,116,166714,5,2,0:0:0:0:
423,219,166935,1,2,0:0:0:0:
396,321,167156,1,2,0:0:0:0:
83,296,167599,5,8,0:0:0:0:
39,107,167820,1,8,0:0:0:0:
60,202,168041,1,8,0:0:0:0:
451,116,168484,5,2,0:0:0:0:
423,219,168705,1,2,0:0:0:0:
396,321,168926,1,2,0:0:0:0:
290,340,169148,6,0,P|218:329|210:317,1,71.2500027179719
190,293,169479,1,0,0:0:0:0:
211,236,169590,2,0,L|178:197,1,35.625001358986
264,165,169811,2,0,L|236:134,1,35.625001358986
451,116,170254,5,2,0:0:0:0:
423,219,170475,1,2,0:0:0:0:
396,321,170696,1,2,0:0:0:0:
83,296,171139,5,8,0:0:0:0:
60,202,171360,1,8,0:0:0:0:
39,107,171581,1,8,0:0:0:0:
159,63,171802,6,0,P|208:58|261:104,1,85.4999973907472,8|0,0:0|0:0,0:0:0:0:
304,127,172245,2,0,P|323:197|278:292,1,170.999994781494,0|8,0:0|0:0,0:0:0:0:
238,193,172908,1,0,0:0:0:0:
253,338,173129,1,0,0:0:0:0:
391,246,173351,1,8,0:0:0:0:
358,127,173572,6,0,L|297:41,1,85.4999973907472,8|0,0:0|0:0,0:0:0:0:
223,193,174014,2,0,L|274:103,1,85.4999973907472,8|0,0:0|0:0,0:0:0:0:
247,94,174346,1,0,0:0:0:0:
218,66,174457,2,0,P|168:52|103:74,1,85.4999973907472,8|2,0:0|0:0,0:0:0:0:
108,90,174789,1,2,0:0:0:0:
93,129,174899,1,2,0:0:0:0:
81,170,175010,1,2,0:0:0:0:
92,211,175120,1,2,0:0:0:0:
134,285,175342,6,0,P|176:309|262:260,1,128.249996086121,8|0,0:0|0:0,0:0:0:0:
191,244,175784,2,0,P|234:216|319:291,2,170.999994781494,0|8|8,0:0|0:0|0:0,0:0:0:0:
276,163,176890,2,0,L|363:11,1,170.999994781494,8|0,0:0|0:0,0:0:0:0:
390,131,177554,1,8,0:0:0:0:
242,53,177775,1,8,0:0:0:0:
278,164,177996,2,0,P|218:166|186:184,1,85.4999973907472,8|2,0:0|0:0,0:0:0:0:
157,196,178328,1,2,0:0:0:0:
119,216,178439,1,2,0:0:0:0:
76,211,178549,1,2,0:0:0:0:
43,183,178660,1,2,0:0:0:0:
58,266,178881,6,0,P|148:307|230:260,1,170.999994781494,8|0,0:0|0:0,0:0:0:0:
143,203,179545,1,0,0:0:0:0:
69,131,179766,2,0,P|124:100|238:141,1,170.999994781494,8|0,0:0|0:0,0:0:0:0:
276,213,180430,1,8,0:0:0:0:
368,237,180651,6,0,L|347:343,1,85.4999973907472,8|0,0:0|0:0,0:0:0:0:
442,181,181093,2,0,L|425:285,1,85.4999973907472,8|0,0:0|0:0,0:0:0:0:
499,170,181536,2,0,P|499:124|472:91,1,85.4999973907472,8|2,0:0|0:0,0:0:0:0:
435,79,181867,1,2,0:0:0:0:
392,72,181978,1,2,0:0:0:0:
349,77,182089,1,2,0:0:0:0:
309,91,182199,1,2,0:0:0:0:
208,69,182421,6,0,B|162:86|148:151|148:151|128:173,1,128.249996086121,8|0,0:0|0:0,0:0:0:0:
81,217,182863,2,0,B|130:252|179:218|179:218|212:182|212:182|224:155,2,170.999994781494,0|8|8,0:0|0:0|0:0,0:0:0:0:
192,292,183969,1,8,0:0:0:0:
275,233,184190,6,0,L|311:193,1,42.7499986953736
225,184,184411,2,0,L|189:219,1,42.7499986953736
201,114,184633,1,2,0:0:0:0:
233,86,184743,1,2,0:0:0:0:
265,57,184854,1,8,0:0:0:0:
101,87,185075,2,0,P|63:130|53:190,1,85.4999973907472,8|2,0:0|0:0,0:0:0:0:
53,198,185407,1,2,0:0:0:0:
53,240,185518,1,2,0:0:0:0:
73,277,185628,1,0,0:0:0:0:
108,300,185739,1,0,0:0:0:0:
192,219,185960,6,2,P|232:239|265:327,2,128.249996086121
279,183,186845,2,0,P|218:144|115:159,1,170.999994781494,8|0,0:0|0:0,0:0:0:0:
234,77,187508,1,8,0:0:0:0:
364,52,187730,6,8,L|352:233,1,170.999994781494
287,123,188283,2,0,L|279:256,1,128.249996086121,0|8,0:0|0:0,0:0:0:0:
208,71,188836,1,2,0:0:0:0:
204,113,188946,1,2,0:0:0:0:
202,155,189057,1,2,0:0:0:0:
199,197,189168,1,2,0:0:0:0:
197,239,189278,1,2,0:0:0:0:
48,354,189499,6,8,P|83:306|63:194,1,170.999994781494,8|0,0:0|0:0,0:0:0:0:
168,31,190384,2,0,P|140:83|166:191,1,170.999994781494,8|8,0:0|0:0,0:0:0:0:
218,106,191048,1,8,0:0:0:0:
360,106,191269,6,0,L|309:28,1,85.4999973907472,8|0,0:0|0:0,0:0:0:0:
328,166,191712,2,0,L|382:254,1,85.4999973907472,8|0,0:0|0:0,0:0:0:0:
295,161,192043,1,2,0:0:0:0:
254,154,192154,2,0,P|203:151|165:188,1,85.4999973907472,8|2,0:0|0:0,0:0:0:0:
153,206,192486,1,2,0:0:0:0:
114,224,192596,1,2,0:0:0:0:
71,221,192707,1,2,0:0:0:0:
41,190,192818,1,2,0:0:0:0:
80,103,193039,5,8,0:0:0:0:
171,78,193260,1,0,0:0:0:0:
256,138,193481,1,8,0:0:0:0:
341,78,193702,1,0,0:0:0:0:
432,103,193923,5,8,0:0:0:0:
401,193,194145,1,0,0:0:0:0:
256,266,194366,1,8,0:0:0:0:
294,179,194587,1,0,0:0:0:0:
218,120,194809,5,8,0:0:0:0:
329,227,195030,1,0,0:0:0:0:
175,205,195251,1,8,0:0:0:0:
312,133,195472,1,0,0:0:0:0:
244,272,195693,5,8,0:0:0:0:
255,130,195915,1,2,0:0:0:0:
270,165,196025,1,2,0:0:0:0:
289,202,196136,1,8,0:0:0:0:
318,32,196357,1,2,0:0:0:0:
351,66,196468,1,2,0:0:0:0:
384,99,196578,5,8,0:0:0:0:
400,256,196799,1,8,0:0:0:0:
272,349,197021,1,0,0:0:0:0:
127,285,197242,1,8,0:0:0:0:
111,127,197463,5,8,0:0:0:0:
384,99,197684,1,8,0:0:0:0:
239,34,197906,1,0,0:0:0:0:
400,256,198127,1,8,0:0:0:0:
223,142,198348,6,8,L|186:245,1,95
302,142,198790,2,2,L|327:89,1,47.5
345,208,199012,2,8,L|308:325,1,95
416,169,199454,2,2,L|462:129,1,47.5
403,235,199675,2,2,L|454:252,1,47.5
333,268,199896,2,2,L|352:328,1,47.5
263,250,200118,6,0,P|240:287|225:292,1,56.9999982604981,4|0,0:0|0:0,0:0:0:0:
151,320,200449,2,2,L|174:222,1,85.4999973907472
93,154,201003,2,0,P|139:180|145:204,1,56.9999982604981,8|0,1:0|0:0,0:0:0:0:
206,157,201334,1,0,0:0:0:0:
206,157,201445,2,0,L|210:113,2,28.4999991302491
257,56,201887,6,0,P|275:93|271:161,1,85.4999973907472
326,192,202330,2,0,L|299:220,1,28.4999991302491
237,198,202551,2,0,L|216:222,1,28.4999991302491
154,259,202772,2,0,P|138:222|142:191,1,56.9999982604981,8|2,1:0|0:0,0:0:0:0:
142,177,203104,1,2,0:0:0:0:
156,152,203215,1,2,0:0:0:0:
171,128,203325,1,2,0:0:0:0:
185,103,203436,1,2,0:0:0:0:
190,75,203546,1,2,0:0:0:0:
188,46,203657,6,8,P|148:33|92:48,2,85.4999973907472
286,72,204542,2,0,L|268:98,1,28.4999991302491,8|0,1:0|0:0,0:0:0:0:
336,126,204763,2,0,L|308:149,1,28.4999991302491
376,189,204984,2,0,L|346:199,1,28.4999991302491
392,262,205206,2,0,L|358:261,1,28.4999991302491
395,346,205427,6,2,L|483:334,2,85.4999973907472
312,333,206201,1,0,0:0:0:0:
270,329,206312,6,8,L|257:318,1,14.2499995651245,8|8,1:0|1:0,1:0:0:0:
222,258,206643,2,8,L|236:247,1,14.2499995651245,8|8,1:0|1:0,1:0:0:0:
281,200,206975,1,8,1:0:0:0:
230,79,207197,6,2,P|259:75|309:104,2,85.4999973907472
149,117,208081,2,0,L|123:181,1,56.9999982604981,8|2,1:0|0:0,0:0:0:0:
116,196,208413,1,2,0:0:0:0:
104,222,208524,1,2,0:0:0:0:
97,249,208634,1,2,0:0:0:0:
86,275,208745,1,2,0:0:0:0:
159,343,208966,6,0,P|208:323|234:285,2,85.4999973907472
145,260,209740,2,0,L|144:282,1,14.2499995651245
132,228,209851,2,0,P|120:199|126:159,1,56.9999982604981,8|0,1:0|0:0,0:0:0:0:
195,186,210183,2,0,P|230:195|275:166,1,85.4999973907472
346,115,210736,6,2,L|339:73,1,28.4999991302491
420,126,210957,2,2,L|426:160,1,28.4999991302491
329,144,211178,2,0,L|310:67,1,56.9999982604981
429,169,211621,2,0,L|451:245,1,56.9999982604981,8|0,1:0|0:0,0:0:0:0:
392,89,212063,1,0,0:0:0:0:
351,246,212284,1,0,0:0:0:0:
201,303,212506,6,2,P|220:275|219:223,1,75.9999976806641
177,152,212948,2,2,L|152:195,1,37.9999988403321
311,81,213391,2,2,P|292:109|293:161,1,75.9999976806641
335,232,213833,2,2,L|360:189,1,37.9999988403321
407,98,214275,5,8,0:0:0:0:
407,98,214718,1,8,0:0:0:0:
321,122,215160,2,0,L|279:197,1,71.2500027179719,2|0,0:0|0:0,0:0:0:0:
408,124,215603,2,0,L|448:57,1,71.2500027179719,2|0,0:0|0:0,0:0:0:0:
418,215,216045,6,0,P|391:254|312:279,1,106.875004076958,8|0,0:0|0:0,0:0:0:0:
258,235,216488,2,0,L|206:257,1,35.625001358986,8|0,0:0|0:0,0:0:0:0:
277,157,216709,2,0,L|319:140,1,35.625001358986
220,108,216930,2,0,P|181:115|148:135,1,71.2500027179719,2|0,0:0|0:0,0:0:0:0:
137,161,217262,1,0,0:0:0:0:
118,191,217372,2,0,L|94:239,1,35.625001358986,2|0,0:0|0:0,0:0:0:0:
155,274,217594,2,0,L|180:229,1,35.625001358986
249,223,217815,6,8,P|296:206|354:127,1,142.500005435944
205,168,218478,1,0,0:0:0:0:
124,217,218700,2,2,L|126:226,4,5.9375
64,175,219031,2,2,L|61:166,6,5.9375
111,97,219585,5,8,0:0:0:0:
111,97,219806,1,2,0:0:0:0:
142,113,219916,1,2,0:0:0:0:
176,121,220027,1,10,0:0:0:0:
211,115,220138,1,2,0:0:0:0:
238,92,220248,1,2,0:0:0:0:
344,89,220469,6,8,L|348:101,1,9.5
290,148,220801,2,8,L|291:183,1,28.4999991302491
211,192,221133,1,8,0:0:0:0:
104,233,221354,6,0,P|91:276|126:337,1,106.875004076958,2|0,0:0|0:0,0:0:0:0:
163,277,221797,2,0,L|200:342,1,71.2500027179719,2|0,0:0|0:0,0:0:0:0:
361,331,222239,2,0,P|369:295|334:220,1,106.875004076958,8|0,0:0|0:0,0:0:0:0:
292,285,222682,2,0,L|270:246,1,35.625001358986,8|0,0:0|0:0,0:0:0:0:
304,194,222903,2,0,L|283:158,1,35.625001358986
326,106,223124,6,2,P|288:86|173:119,1,142.500005435944
230,178,223788,2,0,L|218:199,1,17.812500679493
278,178,223898,2,0,L|286:193,1,17.812500679493
256,166,224009,2,8,L|256:279,2,106.875004076958
256,137,224783,1,8,0:0:0:0:
256,93,224894,6,0,L|256:46,3,35.625001358986,2|0|0|0,0:0|0:0|0:0|0:0,0:0:0:0:
196,122,225336,2,0,P|226:153|320:110,1,142.500005435944,2|8,0:0|0:0,0:0:0:0:
338,117,225889,1,0,0:0:0:0:
366,122,226000,2,0,L|398:159,1,35.625001358986
329,177,226221,2,0,L|338:221,1,35.625001358986,8|0,0:0|0:0,0:0:0:0:
263,185,226442,2,0,L|249:226,1,35.625001358986
203,146,226663,5,2,0:0:0:0:
182,159,226774,1,2,0:0:0:0:
161,173,226885,1,2,0:0:0:0:
140,187,226995,1,2,0:0:0:0:
119,201,227106,1,2,0:0:0:0:
98,215,227216,1,2,0:0:0:0:
78,231,227327,1,2,0:0:0:0:
55,241,227438,1,2,0:0:0:0:
36,257,227548,6,0,P|54:301|89:321,1,71.2500027179719,8|0,0:0|0:0,0:0:0:0:
96,321,227880,1,2,0:0:0:0:
118,331,227991,2,0,L|142:294,1,35.625001358986,8|0,0:0|0:0,0:0:0:0:
205,312,228212,2,8,L|182:350,1,35.625001358986
258,355,228433,6,2,P|298:288|249:188,1,190
210,268,229097,1,0,0:0:0:0:
344,202,229318,2,0,L|434:158,1,95,8|0,0:0|0:0,0:0:0:0:
338,308,229760,2,0,L|446:370,1,95,8|0,0:0|0:0,0:0:0:0:
249,258,230203,6,0,P|185:240|73:268,1,142.5,2|0,0:0|0:0,0:0:0:0:
39,261,230645,2,0,L|78:155,1,95,2|0,0:0|0:0,0:0:0:0:
174,136,231088,2,0,L|132:235,1,95,8|0,0:0|0:0,0:0:0:0:
83,104,231530,1,8,0:0:0:0:
116,301,231751,1,0,0:0:0:0:
237,169,231973,6,2,L|200:317,2,142.5
304,189,232857,2,0,L|287:255,1,47.5,8|0,0:0|0:0,0:0:0:0:
363,234,233079,2,0,L|346:290,1,47.5
349,361,233300,2,0,P|411:360|465:272,1,142.5,8|0,0:0|0:0,0:0:0:0:
388,293,233742,6,0,L|432:206,2,95,2|0|2,0:0|0:0|0:0,0:0:0:0:
365,158,234406,1,0,0:0:0:0:
382,129,234517,1,0,0:0:0:0:
401,102,234627,6,8,L|402:92,1,9.5
329,114,234959,2,8,L|312:88,1,28.4999991302491
274,161,235291,1,8,0:0:0:0:
171,51,235512,6,0,L|121:151,1,95,2|0,0:0|0:0,0:0:0:0:
84,220,235954,1,2,0:0:0:0:
171,52,236176,2,0,L|285:52,1,95,0|8,0:0|0:0,0:0:0:0:
212,129,236618,2,0,L|324:129,2,95,0|8|0,0:0|0:0|0:0,0:0:0:0:
235,272,237282,6,2,P|176:222|227:122,1,190
58,207,237945,2,0,L|47:181,1,23.75
69,235,238056,1,0,0:0:0:0:
76,263,238167,2,0,L|68:363,1,95,8|0,0:0|0:0,0:0:0:0:
154,193,238609,2,0,L|145:302,1,95,8|0,0:0|0:0,0:0:0:0:
212,353,239051,6,0,L|216:289,1,47.5,2|0,0:0|0:0,0:0:0:0:
286,267,239273,2,0,L|282:333,1,47.5
222,245,239494,2,0,L|227:139,1,95,2|0,0:0|0:0,0:0:0:0:
63,312,239936,6,0,P|94:267|93:199,1,95,8|0,0:0|0:0,0:0:0:0:
61,198,240268,1,0,0:0:0:0:
34,170,240379,2,2,L|32:155,8,11.875,10|2|2|2|2|2|2|2|2,0:0|0:0|0:0|0:0|0:0|0:0|0:0|0:0|0:0,0:0:0:0:
58,131,240711,1,0,0:0:0:0:
98,107,240821,6,2,P|133:73|167:64,1,63.3333333333333
177,73,241042,2,2,L|212:76,2,31.6666666666667
148,107,241264,2,0,P|173:136|231:139,2,95,2|0|8,0:0|0:0|0:0,0:0:0:0:
102,122,241817,1,0,0:0:0:0:
61,146,241927,1,8,0:0:0:0:
50,192,242038,1,0,0:0:0:0:
46,239,242148,6,0,L|37:300,1,47.5,8|0,0:0|0:0,0:0:0:0:
119,231,242370,2,0,L|111:287,1,47.5
190,222,242591,6,2,P|229:184|369:188,1,190
287,251,243254,2,0,L|263:359,1,95,0|8,0:0|0:0,0:0:0:0:
370,276,243697,1,0,0:0:0:0:
167,322,243918,1,8,0:0:0:0:
121,238,244139,1,0,0:0:0:0:
103,193,244250,1,0,0:0:0:0:
85,148,244361,6,0,P|123:110|105:25,1,142.5,2|0,0:0|0:0,0:0:0:0:
178,18,244803,2,0,L|218:123,1,95,2|0,0:0|0:0,0:0:0:0:
255,35,245245,1,8,0:0:0:0:
354,137,245467,1,0,0:0:0:0:
303,270,245688,2,0,P|253:284|173:222,1,142.5,8|0,0:0|0:0,0:0:0:0:
253,212,246130,6,2,L|298:71,2,142.5
350,150,247015,2,2,L|353:157,4,5.9375,10|2|2|2|2,0:0|0:0|0:0|0:0|0:0,0:0:0:0:
211,132,247347,2,2,L|207:114,8,11.875,2|2|10|2|2|2|2|2|2,0:0|0:0|0:0|0:0|0:0|0:0|0:0|0:0|0:0,0:0:0:0:
154,173,247900,6,0,P|109:193|90:256,1,95,2|0,0:0|0:0,0:0:0:0:
84,265,248232,1,0,0:0:0:0:
77,297,248342,2,0,P|122:337|182:340,1,95,2|0,0:0|0:0,0:0:0:0:
187,338,248674,1,0,0:0:0:0:
229,338,248785,6,8,L|241:335,1,9.5
201,272,249117,2,8,L|219:248,1,28.4999991302491
138,247,249448,1,8,0:0:0:0:
156,131,249670,6,0,P|125:95|73:78,1,95,2|0,0:0|0:0,0:0:0:0:
245,144,250112,2,0,P|272:189|317:210,1,95,2|0,0:0|0:0,0:0:0:0:
413,58,250555,2,0,L|394:157,1,95,8|2,0:0|0:0,0:0:0:0:
362,150,250886,2,0,L|334:268,1,95,8|2,0:0|0:0,0:0:0:0:
356,271,251218,1,8,0:0:0:0:
188,338,251439,6,0,P|243:319|279:214,1,142.5,2|0,0:0|0:0,0:0:0:0:
209,167,251882,2,0,L|206:271,1,95,2|0,0:0|0:0,0:0:0:0:
176,276,252214,1,0,0:0:0:0:
147,293,252324,2,0,L|56:347,1,95,8|0,0:0|0:0,0:0:0:0:
222,355,252767,1,8,0:0:0:0:
52,261,252988,1,0,0:0:0:0:
81,138,253209,6,2,P|159:101|197:104,1,95
192,70,253541,2,2,P|239:100|264:136,1,95
244,154,253873,2,0,P|268:200|355:235,1,142.5
380,172,254315,2,2,L|426:201,1,47.5
390,100,254536,2,8,L|448:132,1,47.5
402,33,254758,2,8,L|454:60,1,47.5
326,35,254979,6,0,P|280:58|263:98,1,95,2|0,0:0|0:0,0:0:0:0:
262,134,255311,1,0,0:0:0:0:
259,171,255421,2,0,P|242:221|191:240,1,95,2|0,0:0|0:0,0:0:0:0:
166,153,255864,2,8,L|129:110,1,47.5
223,106,256085,2,8,L|246:129,3,31.6666666666667
68,57,256749,6,0,P|57:108|141:248,1,209.000006378174,8|0,0:0|0:0,0:0:0:0:
190,157,257412,1,0,0:0:0:0:
255,355,257633,1,0,0:0:0:0:
50,309,257855,1,2,0:0:0:0:
309,133,258076,2,0,P|319:186|249:292,1,156.750004783631,2|0,0:0|0:0,0:0:0:0:
188,298,258518,6,0,P|212:244|167:106,1,209.000006378174,8|0,0:0|0:0,0:0:0:0:
111,254,259182,1,0,0:0:0:0:
285,138,259403,1,0,0:0:0:0:
286,346,259624,1,2,0:0:0:0:
116,80,259846,1,10,0:0:0:0:
324,81,260288,6,0,P|371:134|342:255,1,156.750004783631,8|0,0:0|0:0,0:0:0:0:
308,166,260730,2,0,L|278:273,1,104.500003189087
268,295,261062,1,0,0:0:0:0:
256,324,261173,1,0,0:0:0:0:
229,144,261394,1,0,0:0:0:0:
355,290,261615,1,8,0:0:0:0:
167,351,261836,1,0,0:0:0:0:
39,192,262058,6,2,P|85:164|231:191,1,209.000006378174
459,102,262721,2,2,P|358:126|283:114,1,156.750004783631
257,101,263164,1,2,0:0:0:0:
215,95,263274,1,2,0:0:0:0:
173,90,263385,1,8,0:0:0:0:
255,283,263606,1,0,0:0:0:0:
297,289,263716,1,0,0:0:0:0:
338,296,263827,6,0,P|407:283|468:160,1,209.000006378174,2|8,0:0|0:0,0:0:0:0:
313,129,264491,2,0,L|396:227,1,104.500003189087
334,45,264934,1,2,0:0:0:0:
289,198,265155,2,0,L|251:311,1,104.500003189087,8|2,0:0|0:0,0:0:0:0:
242,128,265597,6,2,L|160:337,1,209.000006378174,2|10,0:0|0:0,0:0:0:0:
140,166,266261,2,0,L|189:46,1,104.500003189087
265,325,266703,1,2,0:0:0:0:
139,165,266924,2,0,L|100:262,1,104.500003189087,8|0,0:0|0:0,0:0:0:0:
257,73,267367,6,2,P|288:160|397:198,1,209.000006378174,2|10,0:0|0:0,0:0:0:0:
199,193,268031,2,2,P|303:231|406:184,1,209.000006378174
262,274,268694,2,0,P|357:238|407:155,1,156.750004783631,8|0,0:0|0:0,0:0:0:0:
304,175,269137,6,2,L|369:54,1,104.500003189087
227,180,269579,2,0,L|171:280,1,104.500003189087,8|0,0:0|0:0,0:0:0:0:
151,119,270021,2,2,L|191:64,1,52.2500015945435
91,66,270243,2,2,L|133:19,1,52.2500015945435
23,103,270464,2,0,L|17:251,1,104.500003189087,8|0,0:0|0:0,0:0:0:0:
49,235,270796,1,0,0:0:0:0:
79,262,270906,6,2,P|141:277|269:208,1,209.000006378174,2|10,0:0|0:0,0:0:0:0:
75,181,271570,2,0,P|25:212|5:267,1,104.500003189087,0|2,0:0|0:0,0:0:0:0:
202,319,272012,1,2,0:0:0:0:
75,181,272234,2,0,L|75:59,1,104.500003189087,8|0,0:0|0:0,0:0:0:0:
234,50,272676,6,2,P|197:111|242:245,1,209.000006378174
459,184,273340,1,0,0:0:0:0:
358,155,273561,1,0,0:0:0:0:
257,126,273782,1,2,0:0:0:0:
459,184,274003,2,0,P|462:256|383:336,1,156.750004783631,8|0,0:0|0:0,0:0:0:0:
395,242,274446,6,2,P|333:277|203:230,1,209.000006378174,2|10,0:0|0:0,0:0:0:0:
23,178,275109,2,2,P|76:151|224:181,1,209.000006378174
119,230,275773,1,0,0:0:0:0:
306,195,275994,1,0,0:0:0:0:
306,195,276105,1,0,0:0:0:0:
306,195,276215,6,2,P|350:148|269:31,1,209.000006378174
220,43,276879,2,8,L|220:110,1,52.2500015945435
152,74,277100,2,8,L|152:151,1,52.2500015945435
77,85,277322,1,2,0:0:0:0:
77,189,277543,2,2,P|105:249|209:288,1,156.750004783631
168,201,277985,6,2,P|224:170|372:205,1,209.000006378174,2|10,0:0|0:0,0:0:0:0:
256,328,278649,1,0,0:0:0:0:
138,124,278870,1,0,0:0:0:0:
373,124,279091,1,0,0:0:0:0:
69,307,279312,2,0,P|91:215|56:134,1,156.750004783631,8|0,0:0|0:0,0:0:0:0:
40,95,279755,6,2,P|91:56|232:99,1,209.000006378174,2|10,0:0|0:0,0:0:0:0:
136,234,280419,2,0,L|136:113,1,104.500003189087
212,244,280861,2,2,L|212:303,1,52.2500015945435
283,232,281082,2,0,P|293:168|268:72,1,156.750004783631,8|0,0:0|0:0,0:0:0:0:
256,34,281525,5,2,0:0:0:0:
414,192,281967,1,2,0:0:0:0:
256,350,282409,1,2,0:0:0:0:
171,271,282631,1,8,0:0:0:0:
98,192,282852,1,2,0:0:0:0:
134,193,282962,1,2,0:0:0:0:
170,194,283073,1,2,0:0:0:0:
206,196,283184,1,2,0:0:0:0:
243,194,283294,6,2,B|278:183|278:183|315:193,1,71.2499978256226
372,222,284511,6,0,L|372:236,4,10.6874996738434,0|0|0|0|8,0:0|0:0|0:0|0:0|0:0,0:0:0:0:
372,102,284843,5,8,0:0:0:0:
357,142,284953,1,8,0:0:0:0:
338,177,285064,6,0,P|302:228|237:250,1,113.999996520996,2|0,0:0|0:0,0:0:0:0:
150,304,285396,2,0,P|170:232|216:195,1,113.999996520996,2|0,0:0|0:0,0:0:0:0:
206,73,285728,2,2,P|249:138|252:187,1,113.999996520996
121,112,286170,1,0,0:0:0:0:
224,315,286391,1,0,0:0:0:0:
312,95,286613,1,0,0:0:0:0:
456,198,286834,6,0,P|412:240|338:255,1,113.999996520996,2|0,0:0|0:0,0:0:0:0:
263,205,287166,2,0,P|334:229|381:287,1,113.999996520996,2|0,0:0|0:0,0:0:0:0:
304,343,287497,2,2,P|353:301|358:239,1,113.999996520996
371,131,287940,1,0,0:0:0:0:
443,315,288161,1,0,0:0:0:0:
267,281,288382,1,0,0:0:0:0:
157,250,288603,6,0,L|194:129,1,113.999996520996,8|0,0:0|0:0,0:0:0:0:
63,277,289046,2,0,L|108:159,1,113.999996520996,8|0,0:0|0:0,0:0:0:0:
48,82,289488,2,2,L|58:62,4,14.2499995651245,10|2|2|2|2,0:0|0:0|0:0|0:0|0:0,0:0:0:0:
137,60,289820,2,2,L|123:91,8,21.3749993476868,2|2|10|2|2|2|2|2|2,0:0|0:0|0:0|0:0|0:0|0:0|0:0|0:0|0:0,0:0:0:0:
217,37,290373,6,2,P|235:111|159:251,1,227.999993041992
140,120,291037,1,0,0:0:0:0:
351,83,291258,1,2,0:0:0:0:
328,135,291369,1,2,0:0:0:0:
307,187,291479,1,2,0:0:0:0:
282,238,291590,1,2,0:0:0:0:
250,285,291700,2,0,P|188:330|76:308,1,170.999994781494,8|0,0:0|0:0,0:0:0:0:
117,254,292143,6,0,P|177:193|189:129,1,113.999996520996,2|0,0:0|0:0,0:0:0:0:
176,20,292475,2,0,P|144:81|133:144,1,113.999996520996,2|0,0:0|0:0,0:0:0:0:
207,237,292807,2,2,P|224:174|201:118,1,113.999996520996
63,108,293249,1,0,0:0:0:0:
230,72,293470,1,0,0:0:0:0:
397,38,293691,1,0,0:0:0:0:
429,121,293913,6,0,P|431:192|384:234,1,113.999996520996,2|0,0:0|0:0,0:0:0:0:
350,108,294244,2,0,L|302:221,1,113.999996520996,2|0,0:0|0:0,0:0:0:0:
272,81,294576,2,2,P|223:123|233:188,1,113.999996520996
332,281,295019,1,0,0:0:0:0:
346,38,295240,1,0,0:0:0:0:
241,257,295461,1,0,0:0:0:0:
441,153,295682,6,2,L|204:88,1,227.999993041992
120,147,296346,1,0,0:0:0:0:
106,260,296567,1,2,0:0:0:0:
159,279,296678,1,2,0:0:0:0:
215,286,296788,1,2,0:0:0:0:
271,279,296899,1,2,0:0:0:0:
326,265,297010,2,0,P|371:231|392:164,1,113.999996520996,8|0,0:0|0:0,0:0:0:0:
322,97,297452,6,0,P|279:153|273:216,1,113.999996520996,8|0,0:0|0:0,0:0:0:0:
243,80,297784,2,0,P|210:126|203:163,1,85.4999973907472,8|0,0:0|0:0,0:0:0:0:
196,33,298116,1,8,0:0:0:0:
52,140,298337,2,2,L|52:71,1,56.9999982604981
121,147,298558,2,2,L|121:212,1,56.9999982604981
190,115,298779,1,8,0:0:0:0:
225,113,298890,1,0,0:0:0:0:
259,114,299001,1,8,0:0:0:0:
292,116,299111,1,0,0:0:0:0:
326,117,299222,6,0,P|366:164|359:223,1,113.999996520996,2|0,0:0|0:0,0:0:0:0:
277,301,299554,2,0,P|272:227|302:179,1,113.999996520996,2|0,0:0|0:0,0:0:0:0:
455,263,299885,2,2,P|399:273|346:257,1,113.999996520996
270,149,300328,1,0,0:0:0:0:
77,270,300549,1,0,0:0:0:0:
127,47,300770,1,0,0:0:0:0:
163,170,300991,6,0,P|196:224|256:244,1,113.999996520996,2|0,0:0|0:0,0:0:0:0:
326,106,301323,2,0,P|257:133|235:185,1,113.999996520996,2|0,0:0|0:0,0:0:0:0:
309,288,301655,2,2,P|325:223|308:176,1,113.999996520996
202,108,302098,1,0,0:0:0:0:
277,322,302319,1,0,0:0:0:0:
423,147,302540,1,0,0:0:0:0:
260,24,302761,6,2,P|209:74|49:19,1,227.999993041992
183,157,303425,1,0,0:0:0:0:
269,183,303646,2,2,L|259:216,12,28.4999991302491,10|2|2|2|2|2|2|2|10|2|2|2|2,0:0|0:0|0:0|0:0|0:0|0:0|0:0|0:0|0:0|0:0|0:0|0:0|0:0,0:0:0:0:
331,284,304531,6,2,P|273:316|177:204,1,227.999993041992
277,158,305195,1,0,0:0:0:0:
420,73,305416,1,2,0:0:0:0:
367,51,305526,1,2,0:0:0:0:
313,71,305637,1,2,0:0:0:0:
259,91,305748,1,2,0:0:0:0:
209,62,305858,1,10,0:0:0:0:
101,98,306079,1,0,0:0:0:0:
72,208,306301,6,0,P|66:278|104:336,1,113.999996520996,2|0,0:0|0:0,0:0:0:0:
140,221,306632,2,0,P|179:163|173:84,1,113.999996520996,2|0,0:0|0:0,0:0:0:0:
210,261,306964,2,2,P|180:335|195:387,1,113.999996520996
298,346,307407,1,0,0:0:0:0:
369,190,307628,1,0,0:0:0:0:
416,25,307849,1,0,0:0:0:0:
271,116,308070,6,0,P|236:163|240:236,1,113.999996520996,2|0,0:0|0:0,0:0:0:0:
245,54,308402,2,0,P|197:95|173:160,1,113.999996520996,2|0,0:0|0:0,0:0:0:0:
188,2,308734,2,2,L|110:92,1,113.999996520996
63,190,309176,1,0,0:0:0:0:
152,336,309398,1,0,0:0:0:0:
322,336,309619,1,0,0:0:0:0:
255,178,309840,6,2,P|298:132|443:189,1,227.999993041992
343,319,310504,1,0,0:0:0:0:
218,229,310725,6,2,B|198:258|198:258|178:270|178:270|198:257|198:257|218:231,1,113.999996520996
211,192,311278,1,2,0:0:0:0:
205,152,311389,1,2,0:0:0:0:
197,112,311499,1,2,0:0:0:0:
180,75,311610,6,8,L|151:16,1,56.9999982604981
263,75,311831,2,8,L|236:19,1,56.9999982604981
336,85,312052,1,8,0:0:0:0:
263,239,312273,1,2,0:0:0:0:
247,275,312384,1,2,0:0:0:0:
237,313,312495,6,2,L|261:367,1,56.9999982604981
163,307,312716,2,2,L|185:376,1,56.9999982604981
93,284,312937,1,2,0:0:0:0:
95,226,313048,1,2,0:0:0:0:
97,169,313158,1,2,0:0:0:0:
101,111,313269,1,2,0:0:0:0:
102,52,313379,6,0,P|165:43|248:68,1,123.499994346619,2|0,0:0|0:0,0:0:0:0:
310,69,313711,2,0,P|318:141|285:219,1,123.499994346619,2|0,0:0|0:0,0:0:0:0:
222,197,314043,2,2,P|154:229|91:209,1,123.499994346619
149,120,314486,1,0,0:0:0:0:
256,289,314707,1,8,0:0:0:0:
441,289,314928,1,0,0:0:0:0:
398,108,315149,6,0,P|328:83|270:103,1,123.499994346619,2|0,0:0|0:0,0:0:0:0:
215,135,315481,2,0,P|194:203|219:271,1,123.499994346619,2|0,0:0|0:0,0:0:0:0:
286,254,315813,2,2,P|363:277|423:240,1,123.499994346619
347,174,316255,1,0,0:0:0:0:
225,313,316476,1,8,0:0:0:0:
39,315,316698,1,0,0:0:0:0:
171,119,316919,6,0,L|106:361,1,246.999988693238,2|8,0:0|0:0,0:0:0:0:
56,178,317583,1,0,0:0:0:0:
211,206,317804,2,2,L|215:231,4,15.4374992933274,10|2|2|2|2,0:0|0:0|0:0|0:0|0:0,0:0:0:0:
264,141,318136,2,2,L|258:111,8,20.7812501981854,2|2|10|2|2|2|2|2|2,0:0|0:0|0:0|0:0|0:0|0:0|0:0|0:0|0:0,0:0:0:0:
341,172,318689,6,0,P|361:231|227:344,1,246.999988693238,2|8,0:0|0:0,0:0:0:0:
434,335,319352,1,0,0:0:0:0:
261,242,319573,1,2,0:0:0:0:
200,226,319684,1,2,0:0:0:0:
144,198,319795,1,2,0:0:0:0:
97,157,319905,1,2,0:0:0:0:
78,97,320016,1,8,0:0:0:0:
255,89,320237,1,0,0:0:0:0:
374,57,320458,6,0,P|402:121|385:216,1,123.499994346619,2|0,0:0|0:0,0:0:0:0:
336,315,320790,2,0,P|324:255|334:195,1,123.499994346619,2|0,0:0|0:0,0:0:0:0:
259,47,321122,2,2,P|271:108|262:169,1,123.499994346619
139,159,321564,1,0,0:0:0:0:
259,300,321786,1,8,0:0:0:0:
366,149,322007,1,0,0:0:0:0:
163,39,322228,6,0,P|148:118|160:174,1,123.499994346619,2|0,0:0|0:0,0:0:0:0:
220,303,322560,2,0,P|231:243|220:183,1,123.499994346619,2|0,0:0|0:0,0:0:0:0:
278,34,322892,2,2,P|265:94|283:153,1,123.499994346619
404,176,323334,1,0,0:0:0:0:
295,325,323555,1,8,0:0:0:0:
109,325,323777,1,0,0:0:0:0:
152,145,323998,6,2,P|207:201|362:131,1,246.999988693238
255,74,324661,1,0,0:0:0:0:
129,151,324883,2,0,L|206:258,1,123.499994346619,8|0,0:0|0:0,0:0:0:0:
383,151,325325,2,0,L|306:258,1,123.499994346619,8|0,0:0|0:0,0:0:0:0:
195,322,325767,6,8,P|260:343|333:315,1,123.499994346619
212,255,326099,2,8,P|262:272|314:250,1,83.1250007927418
257,200,326431,1,8,0:0:0:0:
177,91,326652,1,2,0:0:0:0:
362,94,326874,1,0,0:0:0:0:
255,22,327095,2,2,L|257:59,6,30.8749985866547
194,73,327537,6,0,P|160:140|105:169,1,123.499994346619,2|0,0:0|0:0,0:0:0:0:
152,233,327869,2,0,L|270:147,1,123.499994346619,2|0,0:0|0:0,0:0:0:0:
300,219,328201,2,2,P|242:260|218:311,1,123.499994346619
337,341,328643,1,0,0:0:0:0:
446,192,328864,1,8,0:0:0:0:
333,43,329086,1,0,0:0:0:0:
224,192,329307,6,0,P|184:254|131:275,1,123.499994346619,2|0,0:0|0:0,0:0:0:0:
166,153,329639,2,0,P|200:94|257:66,1,123.499994346619,2|0,0:0|0:0,0:0:0:0:
357,76,329971,2,2,P|313:133|220:130,1,123.499994346619
314,257,330413,1,0,0:0:0:0:
157,157,330634,1,8,0:0:0:0:
139,341,330855,1,0,0:0:0:0:
323,319,331077,6,2,P|396:320|425:174,1,246.999988693238
256,247,331740,1,0,0:0:0:0:
155,306,331961,2,2,L|146:326,4,15.4374992933274,10|2|2|2|2,0:0|0:0|0:0|0:0|0:0,0:0:0:0:
99,242,332293,2,2,L|110:210,8,20.7812501981854,2|2|10|2|2|2|2|2|2,0:0|0:0|0:0|0:0|0:0|0:0|0:0|0:0|0:0,0:0:0:0:
190,186,332846,6,2,P|184:118|43:29,1,246.999988693238
256,38,333510,1,0,0:0:0:0:
469,30,333731,5,2,0:0:0:0:
407,38,333842,1,2,0:0:0:0:
356,72,333952,1,2,0:0:0:0:
325,126,334063,1,2,0:0:0:0:
322,186,334174,1,8,0:0:0:0:
256,290,334395,1,0,0:0:0:0:
84,298,334616,6,0,P|142:254|143:183,1,123.499994346619,2|0,0:0|0:0,0:0:0:0:
218,293,334948,2,0,L|220:164,1,123.499994346619,2|0,0:0|0:0,0:0:0:0:
353,299,335280,2,2,P|295:255|294:184,1,123.499994346619
218,93,335722,1,0,0:0:0:0:
363,225,335943,1,8,0:0:0:0:
74,221,336165,1,0,0:0:0:0:
63,108,336386,6,0,P|129:132|163:191,1,123.499994346619,2|0,0:0|0:0,0:0:0:0:
236,144,336718,2,0,L|236:282,1,123.499994346619,2|0,0:0|0:0,0:0:0:0:
381,276,337049,2,0,P|317:253|312:199,1,123.499994346619
401,199,337492,1,0,0:0:0:0:
255,313,337713,1,8,0:0:0:0:
111,199,337934,1,0,0:0:0:0:
163,21,338155,6,2,B|132:86|174:134|174:134|224:187|180:291,1,246.999988693238
117,194,338819,1,0,0:0:0:0:
232,80,339040,1,2,0:0:0:0:
354,219,339262,1,0,0:0:0:0:
254,347,339483,2,2,L|277:281,1,61.7499971733095
199,297,339704,2,2,L|236:217,1,61.7499971733095
177,176,339925,6,8,L|142:244,1,61.7499971733095
116,137,340146,2,8,L|81:206,1,61.7499971733095
52,111,340368,1,2,0:0:0:0:
169,73,340589,1,2,0:0:0:0:
256,192,340810,12,4,341695,0:0:0:0:
256,103,342359,5,8,0:0:0:0:
341,105,342580,2,2,L|321:228,2,99.7499969558717
256,79,343465,2,8,P|231:125|228:157,1,66.4999979705811
256,305,343907,2,8,P|281:259|284:227,1,66.4999979705811
171,279,344349,2,2,L|191:156,2,99.7499969558717
341,279,345234,6,2,L|321:156,2,99.7499969558717
255,351,346119,1,8,0:0:0:0:
255,351,346340,1,2,0:0:0:0:
254,317,346451,1,2,0:0:0:0:
255,283,346562,1,2,0:0:0:0:
254,249,346672,1,2,0:0:0:0:
253,215,346783,1,2,0:0:0:0:
193,106,347004,6,0,P|245:86|325:114,1,132.999995941162
176,196,347668,2,0,L|145:165,1,33.2499989852906
136,257,347889,6,8,L|143:268,1,9.5
68,268,348221,2,8,L|68:303,1,28.4999991302491
16,226,348553,1,8,0:0:0:0:
110,189,348774,6,2,L|128:81,2,99.7499969558717
212,109,349659,1,8,0:0:0:0:
212,109,349769,2,2,P|219:155|259:189,2,99.7499969558717,10|2|2,0:0|0:0|0:0,0:0:0:0:
232,88,350544,6,2,P|272:74|303:88,1,66.4999979705811
377,135,350986,1,0,0:0:0:0:
335,225,351207,1,2,0:0:0:0:
315,252,351318,1,2,0:0:0:0:
293,277,351428,2,2,P|247:312|200:318,2,99.7499969558717
277,190,352313,6,0,L|202:113,1,99.7499969558717,8|0,0:0|0:0,0:0:0:0:
157,64,352756,2,0,L|69:143,1,99.7499969558717,8|0,0:0|0:0,0:0:0:0:
32,182,353198,2,0,L|115:264,1,99.7499969558717,8|0,0:0|0:0,0:0:0:0:
152,300,353641,2,0,L|231:214,1,99.7499969558717,8|0,0:0|0:0,0:0:0:0:
283,206,354083,5,0,0:0:0:0:
315,200,354194,1,0,0:0:0:0:
347,195,354304,1,0,0:0:0:0:
380,192,354415,1,0,0:0:0:0:
412,189,354525,2,0,P|457:159|469:109,1,99.7499969558717,8|0,0:0|0:0,0:0:0:0:
446,85,354968,2,2,L|425:63,12,16.6249994926453
309,73,355853,6,2,L|312:182,2,99.7499969558717
254,112,356738,1,0,0:0:0:0:
200,172,356959,2,2,L|203:73,1,99.7499969558717
51,189,357622,5,8,0:0:0:0:
106,225,357844,2,8,P|143:244|236:223,1,132.999995941162
276,180,358507,2,2,L|373:234,2,99.7499969558717
274,80,359392,6,2,L|180:26,2,99.7499969558717
238,304,360388,2,2,L|332:358,2,99.7499969558717
228,240,361162,6,8,L|191:215,1,33.2499989852906
259,181,361383,2,8,L|222:156,1,33.2499989852906
296,126,361604,1,8,0:0:0:0:
405,119,361825,2,2,L|436:89,1,33.2499989852906
419,187,362047,6,8,L|429:191,1,9.5
367,233,362378,2,8,L|374:241,1,9.5
299,243,362710,1,8,0:0:0:0:
177,194,362932,6,2,L|154:304,2,99.7499969558717
335,190,363927,2,2,L|358:80,1,99.7499969558717
197,107,364480,2,2,L|212:64,1,33.2499989852906
125,118,364701,6,8,P|106:158|116:200,1,66.4999979705811
218,252,365365,2,2,L|195:308,1,33.2499989852906
292,234,365586,2,8,L|335:138,2,99.7499969558717
201,120,366471,6,2,P|143:101|87:106,2,99.7499969558717
255,148,367356,2,0,L|255:291,1,132.999995941162
311,264,368241,6,2,P|369:283|425:278,2,99.7499969558717
256,192,369015,12,4,370010,0:0:0:0:
