osu file format v14

[General]
AudioFilename: Book of Law.mp3
AudioLeadIn: 0
PreviewTime: 88753
Countdown: 0
SampleSet: None
StackLeniency: 0.7
Mode: 3
LetterboxInBreaks: 0
SpecialStyle: 0
WidescreenStoryboard: 0

[Editor]
DistanceSpacing: 0.8
BeatDivisor: 4
GridSize: 32
TimelineZoom: 1

[Metadata]
Title:Book of Law
TitleUnicode:Book of Law
Artist:Srezcat
ArtistUnicode:Srezcat
Creator:riktoi
Version:Word of God
Source:
Tags:SUPER REUNION tower of heaven dnb broken jumpstream stream
BeatmapID:1592886
BeatmapSetID:757130

[Difficulty]
HPDrainRate:8
CircleSize:4
OverallDifficulty:8
ApproachRate:5
SliderMultiplier:1.4
SliderTickRate:1

[Events]
//Background and Video events
0,0,"bg.png",0,0
//Break Periods
//Storyboard Layer 0 (Background)
//Storyboard Layer 1 (Fail)
//Storyboard Layer 2 (Pass)
//Storyboard Layer 3 (Foreground)
//Storyboard Sound Samples

[TimingPoints]
1003,342.857143,4,3,0,45,1,0

[HitObjects]
192,192,1003,5,0,0:0:0:0:
320,192,1003,128,0,5803:0:0:0:0:
192,192,5803,128,0,6488:0:0:0:0:
448,192,6488,128,0,11288:0:0:0:0:
320,192,11288,128,0,11974:0:0:0:0:
192,192,11974,128,0,16774:0:0:0:0:
64,192,16774,128,0,17460:0:0:0:0:
448,192,17460,128,0,22945:0:0:0:0:
320,192,22945,1,0,0:0:0:0:
64,192,22945,1,0,0:0:0:0:
192,192,23117,1,0,0:0:0:0:
64,192,23203,1,0,0:0:0:0:
320,192,23288,1,0,0:0:0:0:
192,192,23288,1,0,0:0:0:0:
448,192,23460,1,0,0:0:0:0:
192,192,23545,1,0,0:0:0:0:
64,192,23545,1,0,0:0:0:0:
448,192,23631,1,0,0:0:0:0:
320,192,23631,1,0,0:0:0:0:
192,192,23717,1,0,0:0:0:0:
320,192,23803,1,0,0:0:0:0:
192,192,23888,1,0,0:0:0:0:
448,192,23974,1,0,0:0:0:0:
64,192,23974,1,0,0:0:0:0:
192,192,24145,1,0,0:0:0:0:
320,192,24231,1,0,0:0:0:0:
448,192,24317,1,0,0:0:0:0:
192,192,24317,1,0,0:0:0:0:
320,192,24488,1,0,0:0:0:0:
448,192,24574,1,0,0:0:0:0:
320,192,24660,1,0,0:0:0:0:
192,192,24660,1,0,0:0:0:0:
448,192,24831,1,0,0:0:0:0:
192,192,24917,1,0,0:0:0:0:
64,192,24917,1,0,0:0:0:0:
448,192,25003,1,0,0:0:0:0:
320,192,25003,1,0,0:0:0:0:
192,192,25088,1,0,0:0:0:0:
320,192,25174,1,0,0:0:0:0:
192,192,25260,1,0,0:0:0:0:
448,192,25345,1,0,0:0:0:0:
64,192,25345,1,0,0:0:0:0:
192,192,25517,1,0,0:0:0:0:
320,192,25603,1,0,0:0:0:0:
448,192,25688,1,0,0:0:0:0:
192,192,25688,1,0,0:0:0:0:
320,192,25860,1,0,0:0:0:0:
448,192,25945,1,0,0:0:0:0:
320,192,26031,1,0,0:0:0:0:
192,192,26031,1,0,0:0:0:0:
448,192,26203,1,0,0:0:0:0:
192,192,26288,1,0,0:0:0:0:
64,192,26288,1,0,0:0:0:0:
448,192,26374,1,0,0:0:0:0:
320,192,26374,1,0,0:0:0:0:
192,192,26460,1,0,0:0:0:0:
320,192,26545,1,0,0:0:0:0:
192,192,26631,1,0,0:0:0:0:
448,192,26717,1,0,0:0:0:0:
64,192,26717,1,0,0:0:0:0:
192,192,26888,1,0,0:0:0:0:
320,192,26974,1,0,0:0:0:0:
448,192,27060,1,0,0:0:0:0:
192,192,27060,1,0,0:0:0:0:
320,192,27231,1,0,0:0:0:0:
448,192,27317,1,0,0:0:0:0:
320,192,27403,1,0,0:0:0:0:
192,192,27403,1,0,0:0:0:0:
448,192,27574,1,0,0:0:0:0:
192,192,27660,1,0,0:0:0:0:
64,192,27660,1,0,0:0:0:0:
448,192,27745,1,0,0:0:0:0:
320,192,27745,1,0,0:0:0:0:
192,192,27831,1,0,0:0:0:0:
320,192,27917,1,0,0:0:0:0:
192,192,28003,1,0,0:0:0:0:
448,192,28088,1,0,0:0:0:0:
64,192,28088,1,0,0:0:0:0:
320,192,28260,1,0,0:0:0:0:
192,192,28345,1,0,0:0:0:0:
320,192,28431,1,0,0:0:0:0:
64,192,28431,1,0,0:0:0:0:
192,192,28603,1,0,0:0:0:0:
64,192,28688,1,0,0:0:0:0:
320,192,28774,1,0,0:0:0:0:
192,192,28774,1,0,0:0:0:0:
448,192,28945,1,0,0:0:0:0:
192,192,29031,1,0,0:0:0:0:
64,192,29031,1,0,0:0:0:0:
448,192,29117,1,0,0:0:0:0:
320,192,29117,1,0,0:0:0:0:
192,192,29203,1,0,0:0:0:0:
320,192,29288,1,0,0:0:0:0:
192,192,29374,1,0,0:0:0:0:
448,192,29460,1,0,0:0:0:0:
64,192,29460,1,0,0:0:0:0:
192,192,29631,1,0,0:0:0:0:
320,192,29717,1,0,0:0:0:0:
448,192,29803,1,0,0:0:0:0:
192,192,29803,1,0,0:0:0:0:
320,192,29974,1,0,0:0:0:0:
448,192,30060,1,0,0:0:0:0:
320,192,30145,1,0,0:0:0:0:
192,192,30145,1,0,0:0:0:0:
448,192,30317,1,0,0:0:0:0:
192,192,30403,1,0,0:0:0:0:
64,192,30403,1,0,0:0:0:0:
448,192,30488,1,0,0:0:0:0:
320,192,30488,1,0,0:0:0:0:
192,192,30574,1,0,0:0:0:0:
320,192,30660,1,0,0:0:0:0:
192,192,30745,1,0,0:0:0:0:
448,192,30831,1,0,0:0:0:0:
64,192,30831,1,0,0:0:0:0:
192,192,31003,1,0,0:0:0:0:
320,192,31088,1,0,0:0:0:0:
448,192,31174,1,0,0:0:0:0:
192,192,31174,1,0,0:0:0:0:
320,192,31345,1,0,0:0:0:0:
448,192,31431,1,0,0:0:0:0:
320,192,31517,1,0,0:0:0:0:
192,192,31517,1,0,0:0:0:0:
448,192,31688,1,0,0:0:0:0:
192,192,31774,1,0,0:0:0:0:
64,192,31774,1,0,0:0:0:0:
448,192,31860,1,0,0:0:0:0:
320,192,31860,1,0,0:0:0:0:
192,192,31945,1,0,0:0:0:0:
320,192,32031,1,0,0:0:0:0:
192,192,32117,1,0,0:0:0:0:
448,192,32203,1,0,0:0:0:0:
64,192,32203,1,0,0:0:0:0:
320,192,32374,1,0,0:0:0:0:
192,192,32460,1,0,0:0:0:0:
320,192,32545,1,0,0:0:0:0:
64,192,32545,1,0,0:0:0:0:
192,192,32717,1,0,0:0:0:0:
64,192,32803,1,0,0:0:0:0:
320,192,32888,1,0,0:0:0:0:
192,192,32888,1,0,0:0:0:0:
448,192,33060,1,0,0:0:0:0:
192,192,33145,1,0,0:0:0:0:
64,192,33145,1,0,0:0:0:0:
448,192,33231,1,0,0:0:0:0:
320,192,33231,1,0,0:0:0:0:
192,192,33317,1,0,0:0:0:0:
320,192,33403,1,0,0:0:0:0:
192,192,33488,1,0,0:0:0:0:
448,192,33574,1,0,0:0:0:0:
64,192,33574,1,0,0:0:0:0:
192,192,33745,1,0,0:0:0:0:
320,192,33831,1,0,0:0:0:0:
448,192,33917,1,0,0:0:0:0:
192,192,33917,1,0,0:0:0:0:
320,192,34088,1,0,0:0:0:0:
448,192,34174,1,0,0:0:0:0:
320,192,34260,1,0,0:0:0:0:
192,192,34260,1,0,0:0:0:0:
448,192,34431,1,0,0:0:0:0:
192,192,34517,1,0,0:0:0:0:
64,192,34517,1,0,0:0:0:0:
448,192,34603,1,0,0:0:0:0:
320,192,34603,1,0,0:0:0:0:
192,192,34688,1,0,0:0:0:0:
320,192,34774,1,0,0:0:0:0:
192,192,34860,1,0,0:0:0:0:
448,192,34945,1,0,0:0:0:0:
64,192,34945,1,0,0:0:0:0:
192,192,35117,1,0,0:0:0:0:
320,192,35203,1,0,0:0:0:0:
448,192,35288,1,0,0:0:0:0:
192,192,35288,1,0,0:0:0:0:
320,192,35460,1,0,0:0:0:0:
448,192,35545,1,0,0:0:0:0:
320,192,35631,1,0,0:0:0:0:
192,192,35631,1,0,0:0:0:0:
448,192,35803,1,0,0:0:0:0:
192,192,35888,1,0,0:0:0:0:
64,192,35888,1,0,0:0:0:0:
448,192,35974,1,0,0:0:0:0:
320,192,35974,1,0,0:0:0:0:
192,192,36060,1,0,0:0:0:0:
320,192,36145,1,0,0:0:0:0:
192,192,36231,1,0,0:0:0:0:
448,192,36317,1,0,0:0:0:0:
64,192,36317,1,0,0:0:0:0:
192,192,36488,1,0,0:0:0:0:
320,192,36574,1,0,0:0:0:0:
448,192,36660,1,0,0:0:0:0:
192,192,36660,1,0,0:0:0:0:
320,192,36831,1,0,0:0:0:0:
448,192,36917,1,0,0:0:0:0:
320,192,37003,1,0,0:0:0:0:
192,192,37003,1,0,0:0:0:0:
448,192,37174,1,0,0:0:0:0:
192,192,37260,1,0,0:0:0:0:
64,192,37260,1,0,0:0:0:0:
448,192,37345,1,0,0:0:0:0:
320,192,37345,1,0,0:0:0:0:
192,192,37431,1,0,0:0:0:0:
320,192,37517,1,0,0:0:0:0:
192,192,37603,1,0,0:0:0:0:
448,192,37688,1,0,0:0:0:0:
64,192,37688,1,0,0:0:0:0:
192,192,37860,1,0,0:0:0:0:
320,192,37945,1,0,0:0:0:0:
448,192,38031,1,0,0:0:0:0:
192,192,38031,1,0,0:0:0:0:
320,192,38203,1,0,0:0:0:0:
448,192,38288,1,0,0:0:0:0:
320,192,38374,1,0,0:0:0:0:
192,192,38374,1,0,0:0:0:0:
448,192,38545,1,0,0:0:0:0:
192,192,38631,1,0,0:0:0:0:
64,192,38631,1,0,0:0:0:0:
448,192,38717,1,0,0:0:0:0:
320,192,38717,1,0,0:0:0:0:
192,192,38803,1,0,0:0:0:0:
320,192,38888,1,0,0:0:0:0:
192,192,38974,1,0,0:0:0:0:
448,192,39060,1,0,0:0:0:0:
64,192,39060,1,0,0:0:0:0:
320,192,39231,1,0,0:0:0:0:
192,192,39317,1,0,0:0:0:0:
320,192,39403,1,0,0:0:0:0:
64,192,39403,1,0,0:0:0:0:
192,192,39574,1,0,0:0:0:0:
64,192,39660,1,0,0:0:0:0:
320,192,39745,1,0,0:0:0:0:
192,192,39745,1,0,0:0:0:0:
448,192,39917,1,0,0:0:0:0:
192,192,40003,1,0,0:0:0:0:
64,192,40003,1,0,0:0:0:0:
448,192,40088,1,0,0:0:0:0:
320,192,40088,1,0,0:0:0:0:
192,192,40174,1,0,0:0:0:0:
320,192,40260,1,0,0:0:0:0:
192,192,40345,1,0,0:0:0:0:
448,192,40431,1,0,0:0:0:0:
64,192,40431,1,0,0:0:0:0:
192,192,40603,1,0,0:0:0:0:
320,192,40688,1,0,0:0:0:0:
448,192,40774,1,0,0:0:0:0:
192,192,40774,1,0,0:0:0:0:
320,192,40945,1,0,0:0:0:0:
448,192,41031,1,0,0:0:0:0:
320,192,41117,1,0,0:0:0:0:
192,192,41117,1,0,0:0:0:0:
448,192,41288,1,0,0:0:0:0:
192,192,41374,1,0,0:0:0:0:
64,192,41374,1,0,0:0:0:0:
448,192,41460,1,0,0:0:0:0:
320,192,41460,1,0,0:0:0:0:
192,192,41545,1,0,0:0:0:0:
320,192,41631,1,0,0:0:0:0:
192,192,41717,1,0,0:0:0:0:
448,192,41803,1,0,0:0:0:0:
64,192,41803,1,0,0:0:0:0:
192,192,41974,1,0,0:0:0:0:
320,192,42060,1,0,0:0:0:0:
448,192,42145,1,0,0:0:0:0:
192,192,42145,1,0,0:0:0:0:
320,192,42317,1,0,0:0:0:0:
448,192,42403,1,0,0:0:0:0:
320,192,42488,1,0,0:0:0:0:
192,192,42488,1,0,0:0:0:0:
448,192,42660,1,0,0:0:0:0:
192,192,42745,1,0,0:0:0:0:
64,192,42745,1,0,0:0:0:0:
448,192,42831,1,0,0:0:0:0:
320,192,42831,1,0,0:0:0:0:
192,192,42917,1,0,0:0:0:0:
320,192,43003,1,0,0:0:0:0:
192,192,43088,1,0,0:0:0:0:
448,192,43174,1,0,0:0:0:0:
64,192,43174,1,0,0:0:0:0:
320,192,43345,1,0,0:0:0:0:
192,192,43431,1,0,0:0:0:0:
320,192,43517,1,0,0:0:0:0:
64,192,43517,1,0,0:0:0:0:
192,192,43688,1,0,0:0:0:0:
64,192,43774,1,0,0:0:0:0:
320,192,43860,1,0,0:0:0:0:
192,192,43860,1,0,0:0:0:0:
448,192,44031,1,0,0:0:0:0:
192,192,44117,1,0,0:0:0:0:
64,192,44117,1,0,0:0:0:0:
448,192,44203,1,0,0:0:0:0:
320,192,44203,1,0,0:0:0:0:
192,192,44288,1,0,0:0:0:0:
320,192,44374,1,0,0:0:0:0:
192,192,44460,1,0,0:0:0:0:
448,192,44545,1,0,0:0:0:0:
64,192,44545,1,0,0:0:0:0:
192,192,44717,1,0,0:0:0:0:
320,192,44803,1,0,0:0:0:0:
448,192,44888,1,0,0:0:0:0:
64,192,44888,1,0,0:0:0:0:
320,192,45403,1,0,0:0:0:0:
320,192,45917,1,0,0:0:0:0:
320,192,46431,1,0,0:0:0:0:
192,192,46945,1,0,0:0:0:0:
192,192,47288,1,0,0:0:0:0:
320,192,47631,1,0,0:0:0:0:
320,192,48145,1,0,0:0:0:0:
320,192,48660,1,0,0:0:0:0:
320,192,49174,1,0,0:0:0:0:
192,192,49688,1,0,0:0:0:0:
192,192,50031,1,0,0:0:0:0:
320,192,50374,1,0,0:0:0:0:
320,192,50888,1,0,0:0:0:0:
320,192,51403,1,0,0:0:0:0:
320,192,51917,1,0,0:0:0:0:
192,192,52431,1,0,0:0:0:0:
192,192,52774,1,0,0:0:0:0:
320,192,53117,1,0,0:0:0:0:
320,192,53631,1,0,0:0:0:0:
320,192,54145,1,0,0:0:0:0:
320,192,54660,1,0,0:0:0:0:
64,192,55174,1,0,0:0:0:0:
64,192,55517,1,0,0:0:0:0:
320,192,55860,1,0,0:0:0:0:
320,192,56374,1,0,0:0:0:0:
320,192,56888,1,0,0:0:0:0:
320,192,57403,1,0,0:0:0:0:
192,192,57917,1,0,0:0:0:0:
192,192,58260,1,0,0:0:0:0:
320,192,58603,1,0,0:0:0:0:
320,192,59117,1,0,0:0:0:0:
320,192,59631,1,0,0:0:0:0:
320,192,60145,1,0,0:0:0:0:
192,192,60660,1,0,0:0:0:0:
192,192,61003,1,0,0:0:0:0:
448,192,61345,1,0,0:0:0:0:
448,192,61860,1,0,0:0:0:0:
448,192,62374,1,0,0:0:0:0:
448,192,62888,1,0,0:0:0:0:
192,192,63403,1,0,0:0:0:0:
192,192,63745,1,0,0:0:0:0:
448,192,64088,1,0,0:0:0:0:
448,192,64603,1,0,0:0:0:0:
448,192,65117,1,0,0:0:0:0:
448,192,65631,1,0,0:0:0:0:
64,192,66145,1,0,0:0:0:0:
64,192,66488,1,0,0:0:0:0:
320,192,66831,128,0,67003:0:0:0:0:
192,192,67003,128,0,67174:0:0:0:0:
320,192,67174,128,0,67345:0:0:0:0:
448,192,67345,128,0,67860:0:0:0:0:
192,192,67688,128,0,67860:0:0:0:0:
320,192,67860,128,0,68203:0:0:0:0:
192,192,68203,128,0,68374:0:0:0:0:
64,192,68374,128,0,68545:0:0:0:0:
192,192,68545,128,0,68717:0:0:0:0:
320,192,68717,128,0,69231:0:0:0:0:
192,192,69060,128,0,69231:0:0:0:0:
448,192,69231,128,0,69403:0:0:0:0:
320,192,69403,128,0,69574:0:0:0:0:
192,192,69574,128,0,70603:0:0:0:0:
320,192,70088,128,0,71974:0:0:0:0:
448,192,70603,128,0,71974:0:0:0:0:
64,192,71974,128,0,72060:0:0:0:0:
192,192,72060,128,0,72145:0:0:0:0:
320,192,72145,128,0,72231:0:0:0:0:
448,192,72231,128,0,72317:0:0:0:0:
192,192,72317,128,0,73345:0:0:0:0:
320,192,72831,128,0,73345:0:0:0:0:
64,192,73345,128,0,73688:0:0:0:0:
320,192,73688,128,0,74031:0:0:0:0:
192,192,74031,128,0,74203:0:0:0:0:
320,192,74203,128,0,75060:0:0:0:0:
64,192,74545,128,0,75060:0:0:0:0:
192,192,74803,128,0,75060:0:0:0:0:
448,192,75060,128,0,75317:0:0:0:0:
320,192,75317,128,0,75574:0:0:0:0:
192,192,75574,128,0,75745:0:0:0:0:
448,192,75745,128,0,76003:0:0:0:0:
320,192,76003,128,0,76260:0:0:0:0:
64,192,76260,128,0,77803:0:0:0:0:
320,192,77803,1,0,0:0:0:0:
192,192,77803,1,0,0:0:0:0:
320,192,78145,1,0,0:0:0:0:
192,192,78145,1,0,0:0:0:0:
320,192,78488,1,0,0:0:0:0:
192,192,78488,1,0,0:0:0:0:
320,192,78831,1,0,0:0:0:0:
192,192,78831,1,0,0:0:0:0:
448,192,79174,1,0,0:0:0:0:
192,192,79174,1,0,0:0:0:0:
448,192,79517,1,0,0:0:0:0:
192,192,79517,1,0,0:0:0:0:
448,192,79860,1,0,0:0:0:0:
192,192,79860,1,0,0:0:0:0:
448,192,80203,1,0,0:0:0:0:
192,192,80203,1,0,0:0:0:0:
448,192,80545,1,0,0:0:0:0:
64,192,80545,1,0,0:0:0:0:
448,192,80888,1,0,0:0:0:0:
64,192,80888,1,0,0:0:0:0:
448,192,81231,1,0,0:0:0:0:
64,192,81231,1,0,0:0:0:0:
448,192,81574,1,0,0:0:0:0:
64,192,81574,1,0,0:0:0:0:
320,192,81917,1,0,0:0:0:0:
64,192,81917,1,0,0:0:0:0:
320,192,82260,1,0,0:0:0:0:
64,192,82260,1,0,0:0:0:0:
320,192,82603,1,0,0:0:0:0:
192,192,82603,1,0,0:0:0:0:
320,192,82945,1,0,0:0:0:0:
192,192,82945,1,0,0:0:0:0:
192,192,83288,1,0,0:0:0:0:
64,192,83288,1,0,0:0:0:0:
448,192,83460,1,0,0:0:0:0:
320,192,83460,1,0,0:0:0:0:
192,192,83631,1,0,0:0:0:0:
64,192,83631,1,0,0:0:0:0:
448,192,83803,1,0,0:0:0:0:
320,192,83803,1,0,0:0:0:0:
192,192,83974,1,0,0:0:0:0:
64,192,83974,1,0,0:0:0:0:
448,192,84145,1,0,0:0:0:0:
320,192,84145,1,0,0:0:0:0:
192,192,84317,1,0,0:0:0:0:
64,192,84317,1,0,0:0:0:0:
448,192,84488,1,0,0:0:0:0:
320,192,84488,1,0,0:0:0:0:
192,192,84660,1,0,0:0:0:0:
64,192,84660,1,0,0:0:0:0:
448,192,84831,1,0,0:0:0:0:
320,192,84831,1,0,0:0:0:0:
192,192,85003,1,0,0:0:0:0:
64,192,85003,1,0,0:0:0:0:
448,192,85174,1,0,0:0:0:0:
320,192,85174,1,0,0:0:0:0:
192,192,85345,1,0,0:0:0:0:
64,192,85345,1,0,0:0:0:0:
448,192,85517,1,0,0:0:0:0:
320,192,85517,1,0,0:0:0:0:
192,192,85688,1,0,0:0:0:0:
64,192,85688,1,0,0:0:0:0:
448,192,85860,1,0,0:0:0:0:
320,192,85860,1,0,0:0:0:0:
192,192,86031,1,0,0:0:0:0:
64,192,86031,1,0,0:0:0:0:
448,192,86117,1,0,0:0:0:0:
320,192,86117,1,0,0:0:0:0:
192,192,86203,1,0,0:0:0:0:
64,192,86203,1,0,0:0:0:0:
448,192,86288,1,0,0:0:0:0:
320,192,86288,1,0,0:0:0:0:
192,192,86374,1,0,0:0:0:0:
64,192,86374,1,0,0:0:0:0:
448,192,86460,1,0,0:0:0:0:
320,192,86460,1,0,0:0:0:0:
192,192,86545,1,0,0:0:0:0:
64,192,86545,1,0,0:0:0:0:
448,192,86631,1,0,0:0:0:0:
320,192,86631,1,0,0:0:0:0:
192,192,86717,1,0,0:0:0:0:
64,192,86717,1,0,0:0:0:0:
448,192,86803,1,0,0:0:0:0:
320,192,86803,1,0,0:0:0:0:
192,192,86888,1,0,0:0:0:0:
64,192,86888,1,0,0:0:0:0:
448,192,86974,1,0,0:0:0:0:
320,192,86974,1,0,0:0:0:0:
192,192,87060,1,0,0:0:0:0:
64,192,87060,1,0,0:0:0:0:
448,192,87145,1,0,0:0:0:0:
320,192,87145,1,0,0:0:0:0:
192,192,87231,1,0,0:0:0:0:
64,192,87231,1,0,0:0:0:0:
448,192,87317,1,0,0:0:0:0:
320,192,87317,1,0,0:0:0:0:
64,192,87403,128,0,87917:0:0:0:0:
448,192,87917,128,0,88431:0:0:0:0:
192,192,88431,128,0,88774:0:0:0:0:
64,192,88431,1,0,0:0:0:0:
448,192,88774,128,0,91517:0:0:0:0:
320,192,88774,1,0,0:0:0:0:
192,192,88945,1,0,0:0:0:0:
320,192,89117,1,0,0:0:0:0:
64,192,89117,1,0,0:0:0:0:
192,192,89203,1,0,0:0:0:0:
64,192,89288,1,0,0:0:0:0:
320,192,89374,1,0,0:0:0:0:
192,192,89460,1,0,0:0:0:0:
320,192,89545,1,0,0:0:0:0:
64,192,89631,1,0,0:0:0:0:
192,192,89803,1,0,0:0:0:0:
64,192,89803,1,0,0:0:0:0:
320,192,89974,1,0,0:0:0:0:
320,192,90145,1,0,0:0:0:0:
64,192,90145,1,0,0:0:0:0:
192,192,90317,1,0,0:0:0:0:
192,192,90488,1,0,0:0:0:0:
64,192,90488,1,0,0:0:0:0:
320,192,90574,1,0,0:0:0:0:
192,192,90660,1,0,0:0:0:0:
320,192,90745,1,0,0:0:0:0:
64,192,90831,1,0,0:0:0:0:
192,192,90917,1,0,0:0:0:0:
320,192,91003,1,0,0:0:0:0:
192,192,91174,1,0,0:0:0:0:
64,192,91174,1,0,0:0:0:0:
320,192,91345,1,0,0:0:0:0:
192,192,91517,1,0,0:0:0:0:
64,192,91517,128,0,91603:0:0:0:0:
320,192,91603,128,0,91688:0:0:0:0:
448,192,91688,128,0,91774:0:0:0:0:
192,192,91774,128,0,91860:0:0:0:0:
64,192,91860,128,0,91945:0:0:0:0:
192,192,91945,128,0,92031:0:0:0:0:
320,192,92031,128,0,92117:0:0:0:0:
448,192,92117,128,0,92203:0:0:0:0:
320,192,92203,128,0,92288:0:0:0:0:
192,192,92288,128,0,92374:0:0:0:0:
320,192,92374,128,0,92460:0:0:0:0:
64,192,92460,128,0,92545:0:0:0:0:
448,192,92545,128,0,92631:0:0:0:0:
320,192,92631,128,0,92717:0:0:0:0:
192,192,92717,128,0,92803:0:0:0:0:
64,192,92803,128,0,92888:0:0:0:0:
448,192,92888,1,0,0:0:0:0:
320,192,92888,128,0,92974:0:0:0:0:
192,192,92974,128,0,93060:0:0:0:0:
320,192,93060,128,0,93145:0:0:0:0:
64,192,93145,128,0,93231:0:0:0:0:
192,192,93231,128,0,93317:0:0:0:0:
320,192,93317,128,0,93403:0:0:0:0:
448,192,93403,128,0,93488:0:0:0:0:
320,192,93488,128,0,93574:0:0:0:0:
192,192,93574,128,0,93660:0:0:0:0:
64,192,93660,128,0,93745:0:0:0:0:
192,192,93745,128,0,93831:0:0:0:0:
320,192,93831,128,0,93917:0:0:0:0:
448,192,93917,128,0,94003:0:0:0:0:
192,192,94003,128,0,94088:0:0:0:0:
320,192,94088,128,0,94174:0:0:0:0:
64,192,94174,128,0,94260:0:0:0:0:
448,192,94260,128,0,97003:0:0:0:0:
320,192,94260,1,0,0:0:0:0:
192,192,94431,1,0,0:0:0:0:
320,192,94603,1,0,0:0:0:0:
64,192,94603,1,0,0:0:0:0:
192,192,94688,1,0,0:0:0:0:
64,192,94774,1,0,0:0:0:0:
320,192,94860,1,0,0:0:0:0:
192,192,94945,1,0,0:0:0:0:
320,192,95031,1,0,0:0:0:0:
64,192,95117,1,0,0:0:0:0:
192,192,95288,1,0,0:0:0:0:
64,192,95288,1,0,0:0:0:0:
320,192,95460,1,0,0:0:0:0:
320,192,95631,1,0,0:0:0:0:
64,192,95631,1,0,0:0:0:0:
192,192,95803,1,0,0:0:0:0:
192,192,95974,1,0,0:0:0:0:
64,192,95974,1,0,0:0:0:0:
320,192,96060,1,0,0:0:0:0:
192,192,96145,1,0,0:0:0:0:
320,192,96231,1,0,0:0:0:0:
64,192,96317,1,0,0:0:0:0:
192,192,96403,1,0,0:0:0:0:
320,192,96488,1,0,0:0:0:0:
192,192,96660,1,0,0:0:0:0:
64,192,96660,1,0,0:0:0:0:
320,192,96831,1,0,0:0:0:0:
192,192,97003,128,0,97088:0:0:0:0:
64,192,97003,1,0,0:0:0:0:
320,192,97088,128,0,97174:0:0:0:0:
448,192,97174,128,0,97260:0:0:0:0:
192,192,97260,128,0,97345:0:0:0:0:
320,192,97345,128,0,97431:0:0:0:0:
192,192,97431,128,0,97517:0:0:0:0:
64,192,97517,128,0,97603:0:0:0:0:
320,192,97603,128,0,97688:0:0:0:0:
192,192,97688,128,0,97774:0:0:0:0:
320,192,97774,128,0,97860:0:0:0:0:
448,192,97860,128,0,97945:0:0:0:0:
320,192,97945,128,0,98031:0:0:0:0:
64,192,98031,128,0,98117:0:0:0:0:
192,192,98117,128,0,98203:0:0:0:0:
64,192,98203,128,0,98288:0:0:0:0:
448,192,98288,128,0,98374:0:0:0:0:
320,192,98374,128,0,98888:0:0:0:0:
192,192,98374,1,0,0:0:0:0:
192,192,98888,128,0,99231:0:0:0:0:
320,192,99231,128,0,99403:0:0:0:0:
64,192,99403,128,0,99745:0:0:0:0:
448,192,99745,128,0,102488:0:0:0:0:
192,192,99745,1,0,0:0:0:0:
192,192,99917,1,0,0:0:0:0:
320,192,100088,1,0,0:0:0:0:
64,192,100088,1,0,0:0:0:0:
192,192,100174,1,0,0:0:0:0:
64,192,100260,1,0,0:0:0:0:
320,192,100345,1,0,0:0:0:0:
192,192,100431,1,0,0:0:0:0:
320,192,100517,1,0,0:0:0:0:
64,192,100603,1,0,0:0:0:0:
192,192,100774,1,0,0:0:0:0:
64,192,100774,1,0,0:0:0:0:
320,192,100945,1,0,0:0:0:0:
320,192,101117,1,0,0:0:0:0:
64,192,101117,1,0,0:0:0:0:
192,192,101288,1,0,0:0:0:0:
192,192,101460,1,0,0:0:0:0:
64,192,101460,1,0,0:0:0:0:
320,192,101545,1,0,0:0:0:0:
192,192,101631,1,0,0:0:0:0:
320,192,101717,1,0,0:0:0:0:
64,192,101803,1,0,0:0:0:0:
192,192,101888,1,0,0:0:0:0:
320,192,101974,1,0,0:0:0:0:
192,192,102145,1,0,0:0:0:0:
64,192,102145,1,0,0:0:0:0:
320,192,102317,1,0,0:0:0:0:
192,192,102488,1,0,0:0:0:0:
64,192,102488,128,0,102574:0:0:0:0:
320,192,102574,128,0,102660:0:0:0:0:
448,192,102660,128,0,102745:0:0:0:0:
192,192,102745,128,0,102831:0:0:0:0:
64,192,102831,128,0,102917:0:0:0:0:
192,192,102917,128,0,103003:0:0:0:0:
320,192,103003,128,0,103088:0:0:0:0:
448,192,103088,128,0,103174:0:0:0:0:
320,192,103174,128,0,103260:0:0:0:0:
192,192,103260,128,0,103345:0:0:0:0:
320,192,103345,128,0,103431:0:0:0:0:
64,192,103431,128,0,103517:0:0:0:0:
448,192,103517,128,0,103603:0:0:0:0:
320,192,103603,128,0,103688:0:0:0:0:
192,192,103688,128,0,103774:0:0:0:0:
64,192,103774,128,0,103860:0:0:0:0:
448,192,103860,1,0,0:0:0:0:
320,192,103860,128,0,103945:0:0:0:0:
192,192,103945,128,0,104031:0:0:0:0:
320,192,104031,128,0,104117:0:0:0:0:
64,192,104117,128,0,104203:0:0:0:0:
192,192,104203,128,0,104288:0:0:0:0:
320,192,104288,128,0,104374:0:0:0:0:
448,192,104374,128,0,104460:0:0:0:0:
320,192,104460,128,0,104545:0:0:0:0:
192,192,104545,128,0,104631:0:0:0:0:
64,192,104631,128,0,104717:0:0:0:0:
192,192,104717,128,0,104803:0:0:0:0:
320,192,104803,128,0,104888:0:0:0:0:
448,192,104888,128,0,104974:0:0:0:0:
192,192,104974,128,0,105060:0:0:0:0:
320,192,105060,128,0,105145:0:0:0:0:
64,192,105145,128,0,105231:0:0:0:0:
448,192,105231,128,0,107974:0:0:0:0:
320,192,105231,1,0,0:0:0:0:
192,192,105403,1,0,0:0:0:0:
320,192,105574,1,0,0:0:0:0:
64,192,105574,1,0,0:0:0:0:
192,192,105660,1,0,0:0:0:0:
64,192,105745,1,0,0:0:0:0:
320,192,105831,1,0,0:0:0:0:
192,192,105917,1,0,0:0:0:0:
320,192,106003,1,0,0:0:0:0:
64,192,106088,1,0,0:0:0:0:
192,192,106260,1,0,0:0:0:0:
64,192,106260,1,0,0:0:0:0:
320,192,106431,1,0,0:0:0:0:
320,192,106603,1,0,0:0:0:0:
64,192,106603,1,0,0:0:0:0:
192,192,106774,1,0,0:0:0:0:
192,192,106945,1,0,0:0:0:0:
64,192,106945,1,0,0:0:0:0:
320,192,107031,1,0,0:0:0:0:
192,192,107117,1,0,0:0:0:0:
320,192,107203,1,0,0:0:0:0:
64,192,107288,1,0,0:0:0:0:
192,192,107374,1,0,0:0:0:0:
320,192,107460,1,0,0:0:0:0:
192,192,107631,1,0,0:0:0:0:
64,192,107631,1,0,0:0:0:0:
320,192,107803,1,0,0:0:0:0:
192,192,107974,128,0,108060:0:0:0:0:
64,192,107974,1,0,0:0:0:0:
320,192,108060,128,0,108145:0:0:0:0:
448,192,108145,128,0,108231:0:0:0:0:
192,192,108231,128,0,108317:0:0:0:0:
320,192,108317,128,0,108403:0:0:0:0:
192,192,108403,128,0,108488:0:0:0:0:
64,192,108488,128,0,108574:0:0:0:0:
320,192,108574,128,0,108660:0:0:0:0:
192,192,108660,128,0,108745:0:0:0:0:
320,192,108745,128,0,108831:0:0:0:0:
448,192,108831,128,0,108917:0:0:0:0:
320,192,108917,128,0,109003:0:0:0:0:
64,192,109003,128,0,109088:0:0:0:0:
192,192,109088,128,0,109174:0:0:0:0:
64,192,109174,128,0,109260:0:0:0:0:
448,192,109260,128,0,109345:0:0:0:0:
320,192,109345,128,0,109860:0:0:0:0:
64,192,109345,1,0,0:0:0:0:
64,192,110031,1,0,0:0:0:0:
192,192,110074,1,0,0:0:0:0:
320,192,110117,1,0,0:0:0:0:
448,192,110160,1,0,0:0:0:0:
64,192,110203,1,0,0:0:0:0:
192,192,110245,1,0,0:0:0:0:
320,192,110288,1,0,0:0:0:0:
448,192,110331,1,0,0:0:0:0:
192,192,110374,1,0,0:0:0:0:
64,192,110374,1,0,0:0:0:0:
448,192,110545,1,0,0:0:0:0:
320,192,110545,1,0,0:0:0:0:
192,192,110717,1,0,0:0:0:0:
64,192,110717,1,0,0:0:0:0:
192,192,110888,1,0,0:0:0:0:
448,192,111060,1,0,0:0:0:0:
320,192,111060,1,0,0:0:0:0:
192,192,111145,1,0,0:0:0:0:
320,192,111231,1,0,0:0:0:0:
192,192,111317,1,0,0:0:0:0:
448,192,111403,1,0,0:0:0:0:
320,192,111488,1,0,0:0:0:0:
64,192,111574,1,0,0:0:0:0:
320,192,111745,1,0,0:0:0:0:
192,192,111745,1,0,0:0:0:0:
448,192,111917,1,0,0:0:0:0:
320,192,112088,1,0,0:0:0:0:
64,192,112088,1,0,0:0:0:0:
320,192,112260,1,0,0:0:0:0:
192,192,112431,1,0,0:0:0:0:
64,192,112431,1,0,0:0:0:0:
320,192,112517,1,0,0:0:0:0:
448,192,112603,1,0,0:0:0:0:
192,192,112688,1,0,0:0:0:0:
448,192,112774,1,0,0:0:0:0:
64,192,112860,1,0,0:0:0:0:
192,192,112945,1,0,0:0:0:0:
448,192,113117,1,0,0:0:0:0:
192,192,113117,1,0,0:0:0:0:
64,192,113288,1,0,0:0:0:0:
448,192,113460,1,0,0:0:0:0:
320,192,113460,1,0,0:0:0:0:
320,192,113631,1,0,0:0:0:0:
192,192,113803,1,0,0:0:0:0:
64,192,113803,1,0,0:0:0:0:
320,192,113888,1,0,0:0:0:0:
192,192,113974,1,0,0:0:0:0:
320,192,114060,1,0,0:0:0:0:
64,192,114145,1,0,0:0:0:0:
192,192,114231,1,0,0:0:0:0:
448,192,114317,1,0,0:0:0:0:
320,192,114488,1,0,0:0:0:0:
192,192,114488,1,0,0:0:0:0:
448,192,114660,1,0,0:0:0:0:
320,192,114831,1,0,0:0:0:0:
64,192,114831,1,0,0:0:0:0:
320,192,115003,1,0,0:0:0:0:
192,192,115174,1,0,0:0:0:0:
64,192,115174,1,0,0:0:0:0:
320,192,115260,1,0,0:0:0:0:
448,192,115345,1,0,0:0:0:0:
192,192,115431,1,0,0:0:0:0:
448,192,115517,1,0,0:0:0:0:
64,192,115603,1,0,0:0:0:0:
192,192,115688,1,0,0:0:0:0:
448,192,115860,1,0,0:0:0:0:
192,192,115860,1,0,0:0:0:0:
320,192,116031,1,0,0:0:0:0:
192,192,116203,1,0,0:0:0:0:
64,192,116203,1,0,0:0:0:0:
192,192,116374,1,0,0:0:0:0:
448,192,116545,1,0,0:0:0:0:
320,192,116545,1,0,0:0:0:0:
192,192,116631,1,0,0:0:0:0:
320,192,116717,1,0,0:0:0:0:
192,192,116803,1,0,0:0:0:0:
448,192,116888,1,0,0:0:0:0:
320,192,116974,1,0,0:0:0:0:
64,192,117060,1,0,0:0:0:0:
320,192,117231,1,0,0:0:0:0:
192,192,117231,1,0,0:0:0:0:
64,192,117403,1,0,0:0:0:0:
448,192,117574,1,0,0:0:0:0:
192,192,117574,1,0,0:0:0:0:
320,192,117745,1,0,0:0:0:0:
448,192,117917,1,0,0:0:0:0:
320,192,117917,1,0,0:0:0:0:
192,192,118003,1,0,0:0:0:0:
64,192,118088,1,0,0:0:0:0:
320,192,118174,1,0,0:0:0:0:
64,192,118260,1,0,0:0:0:0:
448,192,118345,1,0,0:0:0:0:
320,192,118431,1,0,0:0:0:0:
320,192,118603,1,0,0:0:0:0:
64,192,118603,1,0,0:0:0:0:
448,192,118774,1,0,0:0:0:0:
192,192,118860,1,0,0:0:0:0:
448,192,118945,1,0,0:0:0:0:
320,192,118945,1,0,0:0:0:0:
320,192,119117,1,0,0:0:0:0:
192,192,119288,1,0,0:0:0:0:
64,192,119288,1,0,0:0:0:0:
320,192,119374,1,0,0:0:0:0:
192,192,119460,1,0,0:0:0:0:
320,192,119545,1,0,0:0:0:0:
64,192,119631,1,0,0:0:0:0:
192,192,119717,1,0,0:0:0:0:
448,192,119803,1,0,0:0:0:0:
320,192,119974,1,0,0:0:0:0:
192,192,119974,1,0,0:0:0:0:
448,192,120145,1,0,0:0:0:0:
320,192,120317,1,0,0:0:0:0:
64,192,120317,1,0,0:0:0:0:
320,192,120488,1,0,0:0:0:0:
192,192,120660,1,0,0:0:0:0:
64,192,120660,1,0,0:0:0:0:
320,192,120745,1,0,0:0:0:0:
192,192,120831,1,0,0:0:0:0:
320,192,120917,1,0,0:0:0:0:
448,192,121003,1,0,0:0:0:0:
64,192,121088,1,0,0:0:0:0:
192,192,121174,1,0,0:0:0:0:
448,192,121345,1,0,0:0:0:0:
192,192,121345,1,0,0:0:0:0:
64,192,121517,1,0,0:0:0:0:
448,192,121688,128,0,124431:0:0:0:0:
320,192,121688,1,0,0:0:0:0:
192,192,121860,1,0,0:0:0:0:
320,192,122031,1,0,0:0:0:0:
64,192,122031,1,0,0:0:0:0:
192,192,122117,1,0,0:0:0:0:
64,192,122203,1,0,0:0:0:0:
320,192,122288,1,0,0:0:0:0:
192,192,122374,1,0,0:0:0:0:
320,192,122460,1,0,0:0:0:0:
64,192,122545,1,0,0:0:0:0:
192,192,122717,1,0,0:0:0:0:
64,192,122717,1,0,0:0:0:0:
320,192,122888,1,0,0:0:0:0:
320,192,123060,1,0,0:0:0:0:
64,192,123060,1,0,0:0:0:0:
192,192,123231,1,0,0:0:0:0:
192,192,123403,1,0,0:0:0:0:
64,192,123403,1,0,0:0:0:0:
320,192,123488,1,0,0:0:0:0:
192,192,123574,1,0,0:0:0:0:
320,192,123660,1,0,0:0:0:0:
64,192,123745,1,0,0:0:0:0:
192,192,123831,1,0,0:0:0:0:
320,192,123917,1,0,0:0:0:0:
192,192,124088,1,0,0:0:0:0:
64,192,124088,1,0,0:0:0:0:
320,192,124260,1,0,0:0:0:0:
192,192,124431,1,0,0:0:0:0:
64,192,124431,128,0,124517:0:0:0:0:
320,192,124517,128,0,124603:0:0:0:0:
448,192,124603,128,0,124688:0:0:0:0:
192,192,124688,128,0,124774:0:0:0:0:
64,192,124774,128,0,124860:0:0:0:0:
192,192,124860,128,0,124945:0:0:0:0:
320,192,124945,128,0,125031:0:0:0:0:
448,192,125031,128,0,125117:0:0:0:0:
320,192,125117,128,0,125203:0:0:0:0:
192,192,125203,128,0,125288:0:0:0:0:
320,192,125288,128,0,125374:0:0:0:0:
64,192,125374,128,0,125460:0:0:0:0:
448,192,125460,128,0,125545:0:0:0:0:
320,192,125545,128,0,125631:0:0:0:0:
192,192,125631,128,0,125717:0:0:0:0:
64,192,125717,128,0,125803:0:0:0:0:
448,192,125803,1,0,0:0:0:0:
320,192,125803,128,0,125888:0:0:0:0:
192,192,125888,128,0,125974:0:0:0:0:
320,192,125974,128,0,126060:0:0:0:0:
64,192,126060,128,0,126145:0:0:0:0:
192,192,126145,128,0,126231:0:0:0:0:
320,192,126231,128,0,126317:0:0:0:0:
448,192,126317,128,0,126403:0:0:0:0:
320,192,126403,128,0,126488:0:0:0:0:
192,192,126488,128,0,126574:0:0:0:0:
64,192,126574,128,0,126660:0:0:0:0:
192,192,126660,128,0,126745:0:0:0:0:
320,192,126745,128,0,126831:0:0:0:0:
448,192,126831,128,0,126917:0:0:0:0:
192,192,126917,128,0,127003:0:0:0:0:
320,192,127003,128,0,127088:0:0:0:0:
64,192,127088,128,0,127174:0:0:0:0:
448,192,127174,128,0,129917:0:0:0:0:
320,192,127174,1,0,0:0:0:0:
192,192,127345,1,0,0:0:0:0:
320,192,127517,1,0,0:0:0:0:
64,192,127517,1,0,0:0:0:0:
192,192,127603,1,0,0:0:0:0:
64,192,127688,1,0,0:0:0:0:
320,192,127774,1,0,0:0:0:0:
192,192,127860,1,0,0:0:0:0:
320,192,127945,1,0,0:0:0:0:
64,192,128031,1,0,0:0:0:0:
192,192,128203,1,0,0:0:0:0:
64,192,128203,1,0,0:0:0:0:
320,192,128374,1,0,0:0:0:0:
320,192,128545,1,0,0:0:0:0:
64,192,128545,1,0,0:0:0:0:
192,192,128717,1,0,0:0:0:0:
192,192,128888,1,0,0:0:0:0:
64,192,128888,1,0,0:0:0:0:
320,192,128974,1,0,0:0:0:0:
192,192,129060,1,0,0:0:0:0:
320,192,129145,1,0,0:0:0:0:
64,192,129231,1,0,0:0:0:0:
192,192,129317,1,0,0:0:0:0:
320,192,129403,1,0,0:0:0:0:
192,192,129574,1,0,0:0:0:0:
64,192,129574,1,0,0:0:0:0:
320,192,129745,1,0,0:0:0:0:
192,192,129917,128,0,130003:0:0:0:0:
64,192,129917,1,0,0:0:0:0:
320,192,130003,128,0,130088:0:0:0:0:
448,192,130088,128,0,130174:0:0:0:0:
192,192,130174,128,0,130260:0:0:0:0:
320,192,130260,128,0,130345:0:0:0:0:
192,192,130345,128,0,130431:0:0:0:0:
64,192,130431,128,0,130517:0:0:0:0:
320,192,130517,128,0,130603:0:0:0:0:
192,192,130603,128,0,130688:0:0:0:0:
320,192,130688,128,0,130774:0:0:0:0:
448,192,130774,128,0,130860:0:0:0:0:
320,192,130860,128,0,130945:0:0:0:0:
64,192,130945,128,0,131031:0:0:0:0:
192,192,131031,128,0,131117:0:0:0:0:
64,192,131117,128,0,131203:0:0:0:0:
448,192,131203,128,0,131288:0:0:0:0:
320,192,131288,128,0,131803:0:0:0:0:
64,192,131288,1,0,0:0:0:0:
64,192,131974,1,0,0:0:0:0:
192,192,132017,1,0,0:0:0:0:
320,192,132060,1,0,0:0:0:0:
448,192,132103,1,0,0:0:0:0:
64,192,132145,1,0,0:0:0:0:
192,192,132188,1,0,0:0:0:0:
320,192,132231,1,0,0:0:0:0:
448,192,132274,1,0,0:0:0:0:
192,192,132317,1,0,0:0:0:0:
64,192,132317,1,0,0:0:0:0:
448,192,132488,1,0,0:0:0:0:
320,192,132488,1,0,0:0:0:0:
192,192,132660,1,0,0:0:0:0:
64,192,132660,1,0,0:0:0:0:
320,192,132831,1,0,0:0:0:0:
64,192,132917,1,0,0:0:0:0:
320,192,133003,1,0,0:0:0:0:
192,192,133003,1,0,0:0:0:0:
448,192,133174,1,0,0:0:0:0:
64,192,133260,1,0,0:0:0:0:
448,192,133345,1,0,0:0:0:0:
192,192,133431,1,0,0:0:0:0:
448,192,133517,1,0,0:0:0:0:
320,192,133517,1,0,0:0:0:0:
192,192,133603,1,0,0:0:0:0:
448,192,133688,1,0,0:0:0:0:
64,192,133688,1,0,0:0:0:0:
192,192,133860,1,0,0:0:0:0:
320,192,133945,1,0,0:0:0:0:
448,192,134031,1,0,0:0:0:0:
192,192,134031,1,0,0:0:0:0:
320,192,134203,1,0,0:0:0:0:
448,192,134288,1,0,0:0:0:0:
320,192,134374,1,0,0:0:0:0:
192,192,134374,1,0,0:0:0:0:
448,192,134545,1,0,0:0:0:0:
64,192,134631,1,0,0:0:0:0:
448,192,134717,1,0,0:0:0:0:
192,192,134803,1,0,0:0:0:0:
448,192,134888,1,0,0:0:0:0:
320,192,134888,1,0,0:0:0:0:
192,192,134974,1,0,0:0:0:0:
448,192,135060,1,0,0:0:0:0:
64,192,135060,1,0,0:0:0:0:
192,192,135231,1,0,0:0:0:0:
320,192,135317,1,0,0:0:0:0:
448,192,135403,1,0,0:0:0:0:
192,192,135403,1,0,0:0:0:0:
320,192,135574,1,0,0:0:0:0:
448,192,135660,1,0,0:0:0:0:
320,192,135745,1,0,0:0:0:0:
192,192,135745,1,0,0:0:0:0:
448,192,135917,1,0,0:0:0:0:
64,192,136003,1,0,0:0:0:0:
448,192,136088,1,0,0:0:0:0:
192,192,136174,1,0,0:0:0:0:
448,192,136260,1,0,0:0:0:0:
320,192,136260,1,0,0:0:0:0:
192,192,136345,1,0,0:0:0:0:
448,192,136431,1,0,0:0:0:0:
64,192,136431,1,0,0:0:0:0:
192,192,136603,1,0,0:0:0:0:
320,192,136688,1,0,0:0:0:0:
448,192,136774,1,0,0:0:0:0:
192,192,136774,1,0,0:0:0:0:
320,192,136945,1,0,0:0:0:0:
448,192,137031,1,0,0:0:0:0:
320,192,137117,1,0,0:0:0:0:
192,192,137117,1,0,0:0:0:0:
448,192,137288,1,0,0:0:0:0:
64,192,137374,1,0,0:0:0:0:
448,192,137460,1,0,0:0:0:0:
192,192,137545,1,0,0:0:0:0:
320,192,137631,1,0,0:0:0:0:
64,192,137631,1,0,0:0:0:0:
192,192,137717,1,0,0:0:0:0:
448,192,137803,1,0,0:0:0:0:
64,192,137803,1,0,0:0:0:0:
320,192,137974,1,0,0:0:0:0:
192,192,138060,1,0,0:0:0:0:
320,192,138145,1,0,0:0:0:0:
64,192,138145,1,0,0:0:0:0:
192,192,138317,1,0,0:0:0:0:
64,192,138403,1,0,0:0:0:0:
320,192,138488,1,0,0:0:0:0:
192,192,138488,1,0,0:0:0:0:
448,192,138660,1,0,0:0:0:0:
64,192,138745,1,0,0:0:0:0:
448,192,138831,1,0,0:0:0:0:
192,192,138917,1,0,0:0:0:0:
448,192,139003,1,0,0:0:0:0:
320,192,139003,1,0,0:0:0:0:
192,192,139088,1,0,0:0:0:0:
448,192,139174,1,0,0:0:0:0:
64,192,139174,1,0,0:0:0:0:
192,192,139345,1,0,0:0:0:0:
320,192,139431,1,0,0:0:0:0:
448,192,139517,1,0,0:0:0:0:
192,192,139517,1,0,0:0:0:0:
320,192,139688,1,0,0:0:0:0:
448,192,139774,1,0,0:0:0:0:
320,192,139860,1,0,0:0:0:0:
192,192,139860,1,0,0:0:0:0:
448,192,140031,1,0,0:0:0:0:
64,192,140117,1,0,0:0:0:0:
448,192,140203,1,0,0:0:0:0:
192,192,140288,1,0,0:0:0:0:
448,192,140374,1,0,0:0:0:0:
320,192,140374,1,0,0:0:0:0:
192,192,140460,1,0,0:0:0:0:
448,192,140545,1,0,0:0:0:0:
64,192,140545,1,0,0:0:0:0:
192,192,140717,1,0,0:0:0:0:
320,192,140803,1,0,0:0:0:0:
448,192,140888,1,0,0:0:0:0:
192,192,140888,1,0,0:0:0:0:
320,192,141060,1,0,0:0:0:0:
448,192,141145,1,0,0:0:0:0:
320,192,141231,1,0,0:0:0:0:
192,192,141231,1,0,0:0:0:0:
448,192,141403,1,0,0:0:0:0:
64,192,141488,1,0,0:0:0:0:
448,192,141574,1,0,0:0:0:0:
192,192,141660,1,0,0:0:0:0:
448,192,141745,1,0,0:0:0:0:
320,192,141745,1,0,0:0:0:0:
192,192,141831,1,0,0:0:0:0:
448,192,141917,1,0,0:0:0:0:
64,192,141917,1,0,0:0:0:0:
320,192,142088,1,0,0:0:0:0:
192,192,142174,1,0,0:0:0:0:
320,192,142260,1,0,0:0:0:0:
64,192,142260,1,0,0:0:0:0:
192,192,142431,1,0,0:0:0:0:
64,192,142517,1,0,0:0:0:0:
320,192,142603,1,0,0:0:0:0:
192,192,142603,1,0,0:0:0:0:
448,192,142774,1,0,0:0:0:0:
64,192,142860,1,0,0:0:0:0:
448,192,142945,1,0,0:0:0:0:
192,192,143031,1,0,0:0:0:0:
320,192,143117,1,0,0:0:0:0:
64,192,143117,1,0,0:0:0:0:
192,192,143203,1,0,0:0:0:0:
448,192,143288,1,0,0:0:0:0:
64,192,143288,1,0,0:0:0:0:
192,192,143460,1,0,0:0:0:0:
320,192,143545,1,0,0:0:0:0:
448,192,143631,1,0,0:0:0:0:
192,192,143631,1,0,0:0:0:0:
320,192,143803,1,0,0:0:0:0:
448,192,143888,1,0,0:0:0:0:
320,192,143974,1,0,0:0:0:0:
192,192,143974,1,0,0:0:0:0:
448,192,144145,1,0,0:0:0:0:
64,192,144231,1,0,0:0:0:0:
448,192,144317,1,0,0:0:0:0:
192,192,144403,1,0,0:0:0:0:
448,192,144488,1,0,0:0:0:0:
320,192,144488,1,0,0:0:0:0:
192,192,144574,1,0,0:0:0:0:
448,192,144660,1,0,0:0:0:0:
64,192,144660,1,0,0:0:0:0:
192,192,144831,1,0,0:0:0:0:
320,192,144917,1,0,0:0:0:0:
448,192,145003,1,0,0:0:0:0:
192,192,145003,1,0,0:0:0:0:
320,192,145174,1,0,0:0:0:0:
448,192,145260,1,0,0:0:0:0:
320,192,145345,1,0,0:0:0:0:
192,192,145345,1,0,0:0:0:0:
448,192,145517,1,0,0:0:0:0:
64,192,145603,1,0,0:0:0:0:
448,192,145688,1,0,0:0:0:0:
192,192,145774,1,0,0:0:0:0:
448,192,145860,1,0,0:0:0:0:
320,192,145860,1,0,0:0:0:0:
192,192,145945,1,0,0:0:0:0:
448,192,146031,1,0,0:0:0:0:
64,192,146031,1,0,0:0:0:0:
192,192,146203,1,0,0:0:0:0:
320,192,146288,1,0,0:0:0:0:
448,192,146374,1,0,0:0:0:0:
192,192,146374,1,0,0:0:0:0:
320,192,146545,1,0,0:0:0:0:
448,192,146631,1,0,0:0:0:0:
320,192,146717,1,0,0:0:0:0:
192,192,146717,1,0,0:0:0:0:
448,192,146888,1,0,0:0:0:0:
64,192,146974,1,0,0:0:0:0:
448,192,147060,1,0,0:0:0:0:
192,192,147145,1,0,0:0:0:0:
448,192,147231,1,0,0:0:0:0:
320,192,147231,1,0,0:0:0:0:
192,192,147317,1,0,0:0:0:0:
448,192,147403,1,0,0:0:0:0:
64,192,147403,1,0,0:0:0:0:
192,192,147574,1,0,0:0:0:0:
320,192,147660,1,0,0:0:0:0:
448,192,147745,1,0,0:0:0:0:
192,192,147745,1,0,0:0:0:0:
320,192,147917,1,0,0:0:0:0:
448,192,148003,1,0,0:0:0:0:
320,192,148088,1,0,0:0:0:0:
192,192,148088,1,0,0:0:0:0:
448,192,148260,1,0,0:0:0:0:
64,192,148345,1,0,0:0:0:0:
448,192,148431,1,0,0:0:0:0:
192,192,148517,1,0,0:0:0:0:
320,192,148603,1,0,0:0:0:0:
64,192,148603,1,0,0:0:0:0:
192,192,148688,1,0,0:0:0:0:
448,192,148774,1,0,0:0:0:0:
64,192,148774,1,0,0:0:0:0:
320,192,148945,1,0,0:0:0:0:
192,192,149031,1,0,0:0:0:0:
320,192,149117,1,0,0:0:0:0:
64,192,149117,1,0,0:0:0:0:
192,192,149288,1,0,0:0:0:0:
320,192,149374,1,0,0:0:0:0:
448,192,149460,1,0,0:0:0:0:
192,192,149460,1,0,0:0:0:0:
320,192,149631,1,0,0:0:0:0:
192,192,149717,1,0,0:0:0:0:
320,192,149803,1,0,0:0:0:0:
64,192,149803,1,0,0:0:0:0:
192,192,149974,1,0,0:0:0:0:
320,192,150060,1,0,0:0:0:0:
448,192,150145,1,0,0:0:0:0:
192,192,150145,1,0,0:0:0:0:
320,192,150317,1,0,0:0:0:0:
192,192,150403,1,0,0:0:0:0:
320,192,150488,1,0,0:0:0:0:
64,192,150488,1,0,0:0:0:0:
192,192,150660,1,0,0:0:0:0:
320,192,150745,1,0,0:0:0:0:
448,192,150831,1,0,0:0:0:0:
192,192,150831,1,0,0:0:0:0:
320,192,151003,1,0,0:0:0:0:
192,192,151088,1,0,0:0:0:0:
320,192,151174,1,0,0:0:0:0:
64,192,151174,1,0,0:0:0:0:
192,192,151345,1,0,0:0:0:0:
320,192,151431,1,0,0:0:0:0:
448,192,151517,1,0,0:0:0:0:
192,192,151517,1,0,0:0:0:0:
320,192,151688,1,0,0:0:0:0:
192,192,151774,1,0,0:0:0:0:
448,192,151860,1,0,0:0:0:0:
64,192,151860,1,0,0:0:0:0:
320,192,152031,1,0,0:0:0:0:
192,192,152031,1,0,0:0:0:0:
320,192,152203,1,0,0:0:0:0:
192,192,152203,1,0,0:0:0:0:
448,192,152374,1,0,0:0:0:0:
64,192,152374,1,0,0:0:0:0:
448,192,152545,1,0,0:0:0:0:
320,192,152545,1,0,0:0:0:0:
192,192,152631,1,0,0:0:0:0:
64,192,152631,1,0,0:0:0:0:
448,192,152717,1,0,0:0:0:0:
320,192,152717,1,0,0:0:0:0:
192,192,152803,1,0,0:0:0:0:
64,192,152803,1,0,0:0:0:0:
448,192,152888,1,0,0:0:0:0:
320,192,152888,1,0,0:0:0:0:
192,192,152974,1,0,0:0:0:0:
64,192,152974,1,0,0:0:0:0:
448,192,153060,1,0,0:0:0:0:
320,192,153060,1,0,0:0:0:0:
192,192,153145,1,0,0:0:0:0:
64,192,153145,1,0,0:0:0:0:
448,192,153231,1,0,0:0:0:0:
320,192,153231,1,0,0:0:0:0:
192,192,153574,1,0,0:0:0:0:
64,192,153574,1,0,0:0:0:0:
320,192,153660,1,0,0:0:0:0:
192,192,153745,1,0,0:0:0:0:
320,192,153831,1,0,0:0:0:0:
448,192,153917,1,0,0:0:0:0:
64,192,153917,1,0,0:0:0:0:
192,192,154088,1,0,0:0:0:0:
448,192,154260,1,0,0:0:0:0:
320,192,154260,1,0,0:0:0:0:
192,192,154431,1,0,0:0:0:0:
320,192,154603,1,0,0:0:0:0:
64,192,154603,1,0,0:0:0:0:
192,192,154688,1,0,0:0:0:0:
448,192,154774,1,0,0:0:0:0:
320,192,154860,1,0,0:0:0:0:
64,192,154945,1,0,0:0:0:0:
192,192,155031,1,0,0:0:0:0:
448,192,155117,1,0,0:0:0:0:
320,192,155203,1,0,0:0:0:0:
64,192,155288,1,0,0:0:0:0:
192,192,155374,1,0,0:0:0:0:
448,192,155460,1,0,0:0:0:0:
320,192,155545,1,0,0:0:0:0:
64,192,155631,1,0,0:0:0:0:
192,192,155717,1,0,0:0:0:0:
448,192,155803,1,0,0:0:0:0:
320,192,155888,1,0,0:0:0:0:
64,192,155974,1,0,0:0:0:0:
192,192,156060,1,0,0:0:0:0:
448,192,156145,1,0,0:0:0:0:
320,192,156231,1,0,0:0:0:0:
64,192,156317,1,0,0:0:0:0:
192,192,156403,1,0,0:0:0:0:
448,192,156488,1,0,0:0:0:0:
320,192,156574,1,0,0:0:0:0:
64,192,156660,1,0,0:0:0:0:
192,192,156745,1,0,0:0:0:0:
448,192,156831,1,0,0:0:0:0:
320,192,156917,1,0,0:0:0:0:
64,192,157003,1,0,0:0:0:0:
64,192,157345,1,0,0:0:0:0:
192,192,157431,1,0,0:0:0:0:
448,192,157517,1,0,0:0:0:0:
320,192,157603,1,0,0:0:0:0:
64,192,157688,1,0,0:0:0:0:
192,192,157774,1,0,0:0:0:0:
448,192,157860,1,0,0:0:0:0:
320,192,157945,1,0,0:0:0:0:
64,192,158031,1,0,0:0:0:0:
192,192,158117,1,0,0:0:0:0:
448,192,158203,1,0,0:0:0:0:
320,192,158288,1,0,0:0:0:0:
64,192,158374,1,0,0:0:0:0:
192,192,158460,1,0,0:0:0:0:
448,192,158545,1,0,0:0:0:0:
320,192,158631,1,0,0:0:0:0:
64,192,158717,1,0,0:0:0:0:
192,192,158803,1,0,0:0:0:0:
448,192,158888,1,0,0:0:0:0:
320,192,158974,1,0,0:0:0:0:
64,192,159060,1,0,0:0:0:0:
192,192,159145,1,0,0:0:0:0:
448,192,159231,1,0,0:0:0:0:
320,192,159317,1,0,0:0:0:0:
64,192,159403,1,0,0:0:0:0:
192,192,159488,1,0,0:0:0:0:
448,192,159574,1,0,0:0:0:0:
320,192,159660,1,0,0:0:0:0:
64,192,159745,1,0,0:0:0:0:
64,192,160088,1,0,0:0:0:0:
192,192,160174,1,0,0:0:0:0:
448,192,160260,1,0,0:0:0:0:
320,192,160345,1,0,0:0:0:0:
64,192,160431,1,0,0:0:0:0:
192,192,160517,1,0,0:0:0:0:
448,192,160603,1,0,0:0:0:0:
320,192,160688,1,0,0:0:0:0:
64,192,160774,1,0,0:0:0:0:
192,192,160860,1,0,0:0:0:0:
448,192,160945,1,0,0:0:0:0:
320,192,161031,1,0,0:0:0:0:
64,192,161117,1,0,0:0:0:0:
192,192,161203,1,0,0:0:0:0:
448,192,161288,1,0,0:0:0:0:
320,192,161374,1,0,0:0:0:0:
64,192,161460,1,0,0:0:0:0:
192,192,161545,1,0,0:0:0:0:
448,192,161631,1,0,0:0:0:0:
320,192,161717,1,0,0:0:0:0:
64,192,161803,1,0,0:0:0:0:
192,192,161888,1,0,0:0:0:0:
448,192,161974,1,0,0:0:0:0:
320,192,162060,1,0,0:0:0:0:
64,192,162145,1,0,0:0:0:0:
192,192,162231,1,0,0:0:0:0:
448,192,162317,1,0,0:0:0:0:
320,192,162403,1,0,0:0:0:0:
64,192,162488,1,0,0:0:0:0:
64,192,162831,1,0,0:0:0:0:
192,192,162917,1,0,0:0:0:0:
448,192,163003,1,0,0:0:0:0:
320,192,163088,1,0,0:0:0:0:
64,192,163174,1,0,0:0:0:0:
192,192,163260,1,0,0:0:0:0:
448,192,163345,1,0,0:0:0:0:
320,192,163431,1,0,0:0:0:0:
64,192,163517,1,0,0:0:0:0:
192,192,163603,1,0,0:0:0:0:
448,192,163688,1,0,0:0:0:0:
320,192,163774,1,0,0:0:0:0:
64,192,163860,1,0,0:0:0:0:
192,192,163945,1,0,0:0:0:0:
448,192,164031,1,0,0:0:0:0:
320,192,164117,1,0,0:0:0:0:
64,192,164203,1,0,0:0:0:0:
192,192,164288,1,0,0:0:0:0:
448,192,164374,1,0,0:0:0:0:
320,192,164460,1,0,0:0:0:0:
64,192,164545,1,0,0:0:0:0:
192,192,164631,1,0,0:0:0:0:
448,192,164717,1,0,0:0:0:0:
320,192,164803,1,0,0:0:0:0:
64,192,164888,1,0,0:0:0:0:
192,192,164974,1,0,0:0:0:0:
448,192,165060,1,0,0:0:0:0:
320,192,165145,1,0,0:0:0:0:
64,192,165231,1,0,0:0:0:0:
64,192,165574,1,0,0:0:0:0:
192,192,165660,1,0,0:0:0:0:
448,192,165745,1,0,0:0:0:0:
320,192,165831,1,0,0:0:0:0:
64,192,165917,1,0,0:0:0:0:
192,192,166003,1,0,0:0:0:0:
448,192,166088,1,0,0:0:0:0:
320,192,166174,1,0,0:0:0:0:
64,192,166260,1,0,0:0:0:0:
192,192,166345,1,0,0:0:0:0:
448,192,166431,1,0,0:0:0:0:
320,192,166517,1,0,0:0:0:0:
64,192,166603,1,0,0:0:0:0:
192,192,166688,1,0,0:0:0:0:
448,192,166774,1,0,0:0:0:0:
320,192,166860,1,0,0:0:0:0:
64,192,166945,1,0,0:0:0:0:
192,192,167031,1,0,0:0:0:0:
448,192,167117,1,0,0:0:0:0:
320,192,167203,1,0,0:0:0:0:
64,192,167288,1,0,0:0:0:0:
192,192,167374,1,0,0:0:0:0:
448,192,167460,1,0,0:0:0:0:
320,192,167545,1,0,0:0:0:0:
64,192,167631,1,0,0:0:0:0:
192,192,167717,1,0,0:0:0:0:
448,192,167803,1,0,0:0:0:0:
320,192,167888,1,0,0:0:0:0:
64,192,167974,1,0,0:0:0:0:
64,192,168317,1,0,0:0:0:0:
192,192,168403,1,0,0:0:0:0:
448,192,168488,1,0,0:0:0:0:
320,192,168574,1,0,0:0:0:0:
64,192,168660,1,0,0:0:0:0:
192,192,168745,1,0,0:0:0:0:
448,192,168831,1,0,0:0:0:0:
320,192,168917,1,0,0:0:0:0:
64,192,169003,1,0,0:0:0:0:
192,192,169088,1,0,0:0:0:0:
448,192,169174,1,0,0:0:0:0:
320,192,169260,1,0,0:0:0:0:
64,192,169345,1,0,0:0:0:0:
192,192,169431,1,0,0:0:0:0:
448,192,169517,1,0,0:0:0:0:
320,192,169603,1,0,0:0:0:0:
64,192,169688,1,0,0:0:0:0:
192,192,169774,1,0,0:0:0:0:
448,192,169860,1,0,0:0:0:0:
320,192,169945,1,0,0:0:0:0:
64,192,170031,1,0,0:0:0:0:
192,192,170117,1,0,0:0:0:0:
448,192,170203,1,0,0:0:0:0:
320,192,170288,1,0,0:0:0:0:
64,192,170374,1,0,0:0:0:0:
192,192,170460,1,0,0:0:0:0:
448,192,170545,1,0,0:0:0:0:
320,192,170631,1,0,0:0:0:0:
64,192,170717,1,0,0:0:0:0:
64,192,171060,1,0,0:0:0:0:
192,192,171145,1,0,0:0:0:0:
448,192,171231,1,0,0:0:0:0:
320,192,171317,1,0,0:0:0:0:
64,192,171403,1,0,0:0:0:0:
192,192,171488,1,0,0:0:0:0:
448,192,171574,1,0,0:0:0:0:
320,192,171660,1,0,0:0:0:0:
64,192,171745,1,0,0:0:0:0:
192,192,171831,1,0,0:0:0:0:
448,192,171917,1,0,0:0:0:0:
320,192,172003,1,0,0:0:0:0:
64,192,172088,1,0,0:0:0:0:
192,192,172174,1,0,0:0:0:0:
448,192,172260,1,0,0:0:0:0:
320,192,172345,1,0,0:0:0:0:
64,192,172431,1,0,0:0:0:0:
192,192,172517,1,0,0:0:0:0:
448,192,172603,1,0,0:0:0:0:
320,192,172688,1,0,0:0:0:0:
64,192,172774,1,0,0:0:0:0:
192,192,172860,1,0,0:0:0:0:
448,192,172945,1,0,0:0:0:0:
320,192,173031,1,0,0:0:0:0:
64,192,173117,1,0,0:0:0:0:
192,192,173203,1,0,0:0:0:0:
448,192,173288,1,0,0:0:0:0:
320,192,173374,1,0,0:0:0:0:
64,192,173460,1,0,0:0:0:0:
64,192,173803,1,0,0:0:0:0:
192,192,173888,1,0,0:0:0:0:
448,192,173974,1,0,0:0:0:0:
320,192,174060,1,0,0:0:0:0:
64,192,174145,1,0,0:0:0:0:
192,192,174231,1,0,0:0:0:0:
448,192,174317,1,0,0:0:0:0:
320,192,174403,1,0,0:0:0:0:
64,192,174488,1,0,0:0:0:0:
192,192,174574,1,0,0:0:0:0:
448,192,174660,1,0,0:0:0:0:
320,192,174745,1,0,0:0:0:0:
64,192,174831,1,0,0:0:0:0:
192,192,174917,1,0,0:0:0:0:
448,192,175003,1,0,0:0:0:0:
320,192,175088,1,0,0:0:0:0:
64,192,175174,1,0,0:0:0:0:
192,192,175260,1,0,0:0:0:0:
448,192,175345,1,0,0:0:0:0:
320,192,175431,1,0,0:0:0:0:
64,192,175517,1,0,0:0:0:0:
192,192,175603,1,0,0:0:0:0:
448,192,175688,1,0,0:0:0:0:
320,192,175774,1,0,0:0:0:0:
64,192,175860,1,0,0:0:0:0:
192,192,175945,1,0,0:0:0:0:
320,192,176031,1,0,0:0:0:0:
192,192,176117,1,0,0:0:0:0:
64,192,176203,1,0,0:0:0:0:
448,192,176288,1,0,0:0:0:0:
192,192,176374,1,0,0:0:0:0:
448,192,176460,1,0,0:0:0:0:
320,192,176545,128,0,176717:0:0:0:0:
64,192,176545,1,0,0:0:0:0:
192,192,176717,128,0,176888:0:0:0:0:
320,192,176888,128,0,177060:0:0:0:0:
448,192,177060,128,0,177574:0:0:0:0:
64,192,177060,1,0,0:0:0:0:
192,192,177403,128,0,177574:0:0:0:0:
320,192,177574,128,0,177917:0:0:0:0:
64,192,177574,1,0,0:0:0:0:
192,192,177917,128,0,178088:0:0:0:0:
448,192,178088,1,0,0:0:0:0:
64,192,178088,128,0,178260:0:0:0:0:
192,192,178260,128,0,178431:0:0:0:0:
320,192,178431,128,0,178945:0:0:0:0:
448,192,178603,1,0,0:0:0:0:
192,192,178774,128,0,178945:0:0:0:0:
448,192,178945,128,0,179117:0:0:0:0:
64,192,178945,1,0,0:0:0:0:
320,192,179117,128,0,179288:0:0:0:0:
192,192,179288,128,0,180317:0:0:0:0:
64,192,179288,1,0,0:0:0:0:
448,192,179803,1,0,0:0:0:0:
320,192,179803,128,0,181688:0:0:0:0:
448,192,180317,128,0,181688:0:0:0:0:
64,192,180317,1,0,0:0:0:0:
64,192,180831,1,0,0:0:0:0:
64,192,181345,1,0,0:0:0:0:
64,192,181688,128,0,181774:0:0:0:0:
192,192,181774,128,0,181860:0:0:0:0:
320,192,181860,128,0,181945:0:0:0:0:
448,192,181945,128,0,182031:0:0:0:0:
192,192,182031,128,0,183060:0:0:0:0:
64,192,182031,1,0,0:0:0:0:
320,192,182545,128,0,183060:0:0:0:0:
64,192,182545,1,0,0:0:0:0:
448,192,183060,1,0,0:0:0:0:
64,192,183060,128,0,183403:0:0:0:0:
320,192,183403,128,0,183745:0:0:0:0:
64,192,183574,1,0,0:0:0:0:
192,192,183745,128,0,183917:0:0:0:0:
320,192,183917,128,0,184774:0:0:0:0:
448,192,184088,1,0,0:0:0:0:
64,192,184260,128,0,184774:0:0:0:0:
448,192,184431,1,0,0:0:0:0:
192,192,184517,128,0,184774:0:0:0:0:
448,192,184774,128,0,185031:0:0:0:0:
320,192,185031,128,0,185288:0:0:0:0:
192,192,185288,128,0,185460:0:0:0:0:
64,192,185288,1,0,0:0:0:0:
448,192,185460,128,0,185717:0:0:0:0:
320,192,185717,128,0,185974:0:0:0:0:
192,192,185803,1,0,0:0:0:0:
64,192,185974,128,0,187517:0:0:0:0:
448,192,186317,1,0,0:0:0:0:
448,192,186831,1,0,0:0:0:0:
320,192,187174,1,0,0:0:0:0:
448,192,187517,1,0,0:0:0:0:
192,192,187517,1,0,0:0:0:0:
192,192,187688,1,0,0:0:0:0:
448,192,187860,1,0,0:0:0:0:
192,192,187945,1,0,0:0:0:0:
64,192,187945,1,0,0:0:0:0:
448,192,188031,1,0,0:0:0:0:
320,192,188031,1,0,0:0:0:0:
192,192,188117,1,0,0:0:0:0:
448,192,188203,1,0,0:0:0:0:
320,192,188288,1,0,0:0:0:0:
64,192,188374,1,0,0:0:0:0:
320,192,188545,1,0,0:0:0:0:
192,192,188545,1,0,0:0:0:0:
448,192,188717,1,0,0:0:0:0:
320,192,188888,1,0,0:0:0:0:
320,192,189060,1,0,0:0:0:0:
192,192,189231,1,0,0:0:0:0:
320,192,189317,1,0,0:0:0:0:
64,192,189317,1,0,0:0:0:0:
448,192,189403,1,0,0:0:0:0:
192,192,189403,1,0,0:0:0:0:
320,192,189488,1,0,0:0:0:0:
448,192,189574,1,0,0:0:0:0:
64,192,189660,1,0,0:0:0:0:
192,192,189745,1,0,0:0:0:0:
320,192,189917,1,0,0:0:0:0:
192,192,189917,1,0,0:0:0:0:
64,192,190088,1,0,0:0:0:0:
448,192,190260,1,0,0:0:0:0:
320,192,190260,1,0,0:0:0:0:
320,192,190431,1,0,0:0:0:0:
64,192,190603,1,0,0:0:0:0:
448,192,190688,1,0,0:0:0:0:
320,192,190688,1,0,0:0:0:0:
192,192,190774,1,0,0:0:0:0:
64,192,190774,1,0,0:0:0:0:
320,192,190860,1,0,0:0:0:0:
64,192,190945,1,0,0:0:0:0:
192,192,191031,1,0,0:0:0:0:
448,192,191117,1,0,0:0:0:0:
320,192,191288,1,0,0:0:0:0:
192,192,191288,1,0,0:0:0:0:
448,192,191460,1,0,0:0:0:0:
320,192,191631,1,0,0:0:0:0:
320,192,191803,1,0,0:0:0:0:
192,192,191974,1,0,0:0:0:0:
320,192,192060,1,0,0:0:0:0:
64,192,192060,1,0,0:0:0:0:
448,192,192145,1,0,0:0:0:0:
192,192,192145,1,0,0:0:0:0:
320,192,192231,1,0,0:0:0:0:
448,192,192317,1,0,0:0:0:0:
64,192,192403,1,0,0:0:0:0:
192,192,192488,1,0,0:0:0:0:
320,192,192660,1,0,0:0:0:0:
192,192,192660,1,0,0:0:0:0:
320,192,192831,1,0,0:0:0:0:
448,192,193003,1,0,0:0:0:0:
64,192,193003,1,0,0:0:0:0:
192,192,193174,1,0,0:0:0:0:
448,192,193345,1,0,0:0:0:0:
192,192,193431,1,0,0:0:0:0:
64,192,193431,1,0,0:0:0:0:
448,192,193517,1,0,0:0:0:0:
320,192,193517,1,0,0:0:0:0:
192,192,193603,1,0,0:0:0:0:
448,192,193688,1,0,0:0:0:0:
320,192,193774,1,0,0:0:0:0:
64,192,193860,1,0,0:0:0:0:
448,192,194031,1,0,0:0:0:0:
192,192,194031,1,0,0:0:0:0:
320,192,194203,1,0,0:0:0:0:
64,192,194203,1,0,0:0:0:0:
448,192,194374,1,0,0:0:0:0:
320,192,194545,1,0,0:0:0:0:
320,192,194717,1,0,0:0:0:0:
448,192,194803,1,0,0:0:0:0:
192,192,194803,1,0,0:0:0:0:
320,192,194888,1,0,0:0:0:0:
64,192,194888,1,0,0:0:0:0:
192,192,194974,1,0,0:0:0:0:
64,192,195060,1,0,0:0:0:0:
448,192,195145,1,0,0:0:0:0:
320,192,195231,1,0,0:0:0:0:
192,192,195403,1,0,0:0:0:0:
64,192,195403,1,0,0:0:0:0:
448,192,195574,1,0,0:0:0:0:
320,192,195574,1,0,0:0:0:0:
192,192,195660,1,0,0:0:0:0:
64,192,195660,1,0,0:0:0:0:
448,192,195745,1,0,0:0:0:0:
320,192,195745,1,0,0:0:0:0:
320,192,195917,1,0,0:0:0:0:
192,192,196088,1,0,0:0:0:0:
448,192,196174,1,0,0:0:0:0:
320,192,196174,1,0,0:0:0:0:
192,192,196260,1,0,0:0:0:0:
64,192,196260,1,0,0:0:0:0:
320,192,196345,1,0,0:0:0:0:
64,192,196431,1,0,0:0:0:0:
192,192,196517,1,0,0:0:0:0:
448,192,196603,1,0,0:0:0:0:
320,192,196774,1,0,0:0:0:0:
192,192,196774,1,0,0:0:0:0:
448,192,196945,1,0,0:0:0:0:
320,192,197117,1,0,0:0:0:0:
64,192,197117,1,0,0:0:0:0:
320,192,197288,1,0,0:0:0:0:
192,192,197460,1,0,0:0:0:0:
448,192,197545,1,0,0:0:0:0:
320,192,197545,1,0,0:0:0:0:
192,192,197631,1,0,0:0:0:0:
64,192,197631,1,0,0:0:0:0:
320,192,197717,1,0,0:0:0:0:
448,192,197803,1,0,0:0:0:0:
64,192,197888,1,0,0:0:0:0:
192,192,197974,1,0,0:0:0:0:
448,192,198145,1,0,0:0:0:0:
320,192,198145,1,0,0:0:0:0:
64,192,198317,1,0,0:0:0:0:
448,192,198488,1,0,0:0:0:0:
192,192,198488,1,0,0:0:0:0:
448,192,198660,1,0,0:0:0:0:
320,192,198831,1,0,0:0:0:0:
64,192,198831,1,0,0:0:0:0:
192,192,198917,1,0,0:0:0:0:
64,192,199003,1,0,0:0:0:0:
448,192,199174,1,0,0:0:0:0:
192,192,199174,1,0,0:0:0:0:
320,192,199260,1,0,0:0:0:0:
192,192,199345,1,0,0:0:0:0:
64,192,199431,1,0,0:0:0:0:
448,192,199517,1,0,0:0:0:0:
320,192,199517,1,0,0:0:0:0:
64,192,199688,1,0,0:0:0:0:
192,192,199860,1,0,0:0:0:0:
64,192,199860,1,0,0:0:0:0:
192,192,200031,1,0,0:0:0:0:
448,192,200203,1,0,0:0:0:0:
320,192,200203,1,0,0:0:0:0:
192,192,200288,1,0,0:0:0:0:
448,192,200374,1,0,0:0:0:0:
192,192,200545,1,0,0:0:0:0:
64,192,200545,1,0,0:0:0:0:
320,192,200631,1,0,0:0:0:0:
192,192,200717,1,0,0:0:0:0:
320,192,200803,1,0,0:0:0:0:
448,192,200888,1,0,0:0:0:0:
64,192,200888,1,0,0:0:0:0:
320,192,201060,1,0,0:0:0:0:
192,192,201231,1,0,0:0:0:0:
64,192,201231,128,0,201317:0:0:0:0:
320,192,201317,128,0,201403:0:0:0:0:
448,192,201403,128,0,201488:0:0:0:0:
192,192,201488,128,0,201574:0:0:0:0:
320,192,201574,1,0,0:0:0:0:
64,192,201574,128,0,201660:0:0:0:0:
192,192,201660,128,0,201745:0:0:0:0:
320,192,201745,128,0,201831:0:0:0:0:
448,192,201831,128,0,201917:0:0:0:0:
320,192,201917,128,0,202003:0:0:0:0:
64,192,201917,1,0,0:0:0:0:
192,192,202003,128,0,202088:0:0:0:0:
320,192,202088,128,0,202174:0:0:0:0:
64,192,202174,128,0,202260:0:0:0:0:
448,192,202260,128,0,202345:0:0:0:0:
192,192,202260,1,0,0:0:0:0:
320,192,202345,128,0,202431:0:0:0:0:
192,192,202431,128,0,202517:0:0:0:0:
64,192,202517,128,0,202603:0:0:0:0:
448,192,202603,1,0,0:0:0:0:
320,192,202603,128,0,202688:0:0:0:0:
192,192,202688,128,0,202774:0:0:0:0:
320,192,202774,128,0,202860:0:0:0:0:
64,192,202860,128,0,202945:0:0:0:0:
448,192,202945,1,0,0:0:0:0:
192,192,202945,128,0,203031:0:0:0:0:
320,192,203031,128,0,203117:0:0:0:0:
448,192,203117,128,0,203203:0:0:0:0:
320,192,203203,128,0,203288:0:0:0:0:
448,192,203288,1,0,0:0:0:0:
192,192,203288,128,0,203374:0:0:0:0:
64,192,203374,128,0,203460:0:0:0:0:
192,192,203460,128,0,203545:0:0:0:0:
320,192,203545,128,0,203631:0:0:0:0:
448,192,203631,128,0,203717:0:0:0:0:
64,192,203631,1,0,0:0:0:0:
192,192,203717,128,0,203803:0:0:0:0:
320,192,203803,128,0,203888:0:0:0:0:
448,192,203888,128,0,203974:0:0:0:0:
192,192,203974,1,0,0:0:0:0:
64,192,203974,1,0,0:0:0:0:
448,192,204145,1,0,0:0:0:0:
320,192,204145,1,0,0:0:0:0:
192,192,204317,1,0,0:0:0:0:
64,192,204317,1,0,0:0:0:0:
448,192,204488,1,0,0:0:0:0:
320,192,204488,1,0,0:0:0:0:
192,192,204660,1,0,0:0:0:0:
64,192,204660,1,0,0:0:0:0:
448,192,204831,1,0,0:0:0:0:
320,192,204831,1,0,0:0:0:0:
192,192,205003,1,0,0:0:0:0:
64,192,205003,1,0,0:0:0:0:
448,192,205174,1,0,0:0:0:0:
320,192,205174,1,0,0:0:0:0:
192,192,205345,1,0,0:0:0:0:
64,192,205345,1,0,0:0:0:0:
448,192,205517,1,0,0:0:0:0:
320,192,205517,1,0,0:0:0:0:
192,192,205688,1,0,0:0:0:0:
64,192,205688,1,0,0:0:0:0:
448,192,205860,1,0,0:0:0:0:
320,192,205860,1,0,0:0:0:0:
192,192,206031,1,0,0:0:0:0:
64,192,206031,1,0,0:0:0:0:
448,192,206203,1,0,0:0:0:0:
320,192,206203,1,0,0:0:0:0:
192,192,206374,1,0,0:0:0:0:
64,192,206374,1,0,0:0:0:0:
448,192,206545,1,0,0:0:0:0:
320,192,206545,1,0,0:0:0:0:
192,192,206717,1,0,0:0:0:0:
64,192,206717,1,0,0:0:0:0:
448,192,206803,1,0,0:0:0:0:
320,192,206803,1,0,0:0:0:0:
192,192,206888,1,0,0:0:0:0:
64,192,206888,1,0,0:0:0:0:
448,192,206974,1,0,0:0:0:0:
320,192,206974,1,0,0:0:0:0:
192,192,207060,1,0,0:0:0:0:
64,192,207060,1,0,0:0:0:0:
448,192,207145,1,0,0:0:0:0:
320,192,207145,1,0,0:0:0:0:
192,192,207231,1,0,0:0:0:0:
64,192,207231,1,0,0:0:0:0:
448,192,207317,1,0,0:0:0:0:
320,192,207317,1,0,0:0:0:0:
192,192,207403,1,0,0:0:0:0:
64,192,207403,1,0,0:0:0:0:
448,192,207488,1,0,0:0:0:0:
320,192,207488,1,0,0:0:0:0:
192,192,207574,1,0,0:0:0:0:
64,192,207574,1,0,0:0:0:0:
448,192,207660,1,0,0:0:0:0:
320,192,207660,1,0,0:0:0:0:
192,192,207745,1,0,0:0:0:0:
64,192,207745,1,0,0:0:0:0:
448,192,207831,1,0,0:0:0:0:
320,192,207831,1,0,0:0:0:0:
192,192,207917,1,0,0:0:0:0:
64,192,207917,1,0,0:0:0:0:
448,192,208003,1,0,0:0:0:0:
320,192,208003,1,0,0:0:0:0:
192,192,208088,1,0,0:0:0:0:
64,192,208088,128,0,208603:0:0:0:0:
448,192,208603,128,0,209117:0:0:0:0:
320,192,208945,128,0,209117:0:0:0:0:
192,192,209117,128,0,209460:0:0:0:0:
64,192,209117,1,0,0:0:0:0:
448,192,209460,128,0,212203:0:0:0:0:
320,192,209460,1,0,0:0:0:0:
192,192,209631,1,0,0:0:0:0:
320,192,209803,1,0,0:0:0:0:
64,192,209803,1,0,0:0:0:0:
192,192,209888,1,0,0:0:0:0:
64,192,209974,1,0,0:0:0:0:
320,192,210060,1,0,0:0:0:0:
192,192,210145,1,0,0:0:0:0:
320,192,210231,1,0,0:0:0:0:
64,192,210317,1,0,0:0:0:0:
192,192,210488,1,0,0:0:0:0:
64,192,210488,1,0,0:0:0:0:
320,192,210660,1,0,0:0:0:0:
320,192,210831,1,0,0:0:0:0:
64,192,210831,1,0,0:0:0:0:
192,192,211003,1,0,0:0:0:0:
192,192,211174,1,0,0:0:0:0:
64,192,211174,1,0,0:0:0:0:
320,192,211260,1,0,0:0:0:0:
192,192,211345,1,0,0:0:0:0:
320,192,211431,1,0,0:0:0:0:
64,192,211517,1,0,0:0:0:0:
192,192,211603,1,0,0:0:0:0:
320,192,211688,1,0,0:0:0:0:
192,192,211860,1,0,0:0:0:0:
64,192,211860,1,0,0:0:0:0:
320,192,212031,1,0,0:0:0:0:
192,192,212203,1,0,0:0:0:0:
64,192,212203,128,0,212288:0:0:0:0:
320,192,212288,128,0,212374:0:0:0:0:
448,192,212374,128,0,212460:0:0:0:0:
192,192,212460,128,0,212545:0:0:0:0:
64,192,212545,128,0,212631:0:0:0:0:
192,192,212631,128,0,212717:0:0:0:0:
320,192,212717,128,0,212803:0:0:0:0:
448,192,212803,128,0,212888:0:0:0:0:
320,192,212888,128,0,212974:0:0:0:0:
192,192,212974,128,0,213060:0:0:0:0:
320,192,213060,128,0,213145:0:0:0:0:
64,192,213145,128,0,213231:0:0:0:0:
448,192,213231,128,0,213317:0:0:0:0:
320,192,213317,128,0,213403:0:0:0:0:
192,192,213403,128,0,213488:0:0:0:0:
64,192,213488,128,0,213574:0:0:0:0:
448,192,213574,1,0,0:0:0:0:
320,192,213574,128,0,213660:0:0:0:0:
192,192,213660,128,0,213745:0:0:0:0:
320,192,213745,128,0,213831:0:0:0:0:
64,192,213831,128,0,213917:0:0:0:0:
192,192,213917,128,0,214003:0:0:0:0:
320,192,214003,128,0,214088:0:0:0:0:
448,192,214088,128,0,214174:0:0:0:0:
320,192,214174,128,0,214260:0:0:0:0:
192,192,214260,128,0,214345:0:0:0:0:
64,192,214345,128,0,214431:0:0:0:0:
192,192,214431,128,0,214517:0:0:0:0:
320,192,214517,128,0,214603:0:0:0:0:
448,192,214603,128,0,214688:0:0:0:0:
192,192,214688,128,0,214774:0:0:0:0:
320,192,214774,128,0,214860:0:0:0:0:
64,192,214860,128,0,214945:0:0:0:0:
448,192,214945,128,0,217688:0:0:0:0:
320,192,214945,1,0,0:0:0:0:
192,192,215117,1,0,0:0:0:0:
320,192,215288,1,0,0:0:0:0:
64,192,215288,1,0,0:0:0:0:
192,192,215374,1,0,0:0:0:0:
64,192,215460,1,0,0:0:0:0:
320,192,215545,1,0,0:0:0:0:
192,192,215631,1,0,0:0:0:0:
320,192,215717,1,0,0:0:0:0:
64,192,215803,1,0,0:0:0:0:
192,192,215974,1,0,0:0:0:0:
64,192,215974,1,0,0:0:0:0:
320,192,216145,1,0,0:0:0:0:
320,192,216317,1,0,0:0:0:0:
64,192,216317,1,0,0:0:0:0:
192,192,216488,1,0,0:0:0:0:
192,192,216660,1,0,0:0:0:0:
64,192,216660,1,0,0:0:0:0:
320,192,216745,1,0,0:0:0:0:
192,192,216831,1,0,0:0:0:0:
320,192,216917,1,0,0:0:0:0:
64,192,217003,1,0,0:0:0:0:
192,192,217088,1,0,0:0:0:0:
320,192,217174,1,0,0:0:0:0:
192,192,217345,1,0,0:0:0:0:
64,192,217345,1,0,0:0:0:0:
320,192,217517,1,0,0:0:0:0:
192,192,217688,128,0,217774:0:0:0:0:
64,192,217688,1,0,0:0:0:0:
320,192,217774,128,0,217860:0:0:0:0:
448,192,217860,128,0,217945:0:0:0:0:
192,192,217945,128,0,218031:0:0:0:0:
320,192,218031,128,0,218117:0:0:0:0:
192,192,218117,128,0,218203:0:0:0:0:
64,192,218203,128,0,218288:0:0:0:0:
320,192,218288,128,0,218374:0:0:0:0:
192,192,218374,128,0,218460:0:0:0:0:
320,192,218460,128,0,218545:0:0:0:0:
448,192,218545,128,0,218631:0:0:0:0:
320,192,218631,128,0,218717:0:0:0:0:
64,192,218717,128,0,218803:0:0:0:0:
192,192,218803,128,0,218888:0:0:0:0:
64,192,218888,128,0,218974:0:0:0:0:
448,192,218974,128,0,219060:0:0:0:0:
320,192,219060,128,0,219574:0:0:0:0:
192,192,219060,1,0,0:0:0:0:
448,192,219403,1,0,0:0:0:0:
64,192,219403,1,0,0:0:0:0:
192,192,219574,128,0,219917:0:0:0:0:
64,192,219660,1,0,0:0:0:0:
448,192,219745,1,0,0:0:0:0:
64,192,219831,1,0,0:0:0:0:
320,192,219917,128,0,220088:0:0:0:0:
192,192,220088,1,0,0:0:0:0:
64,192,220088,128,0,220431:0:0:0:0:
448,192,220260,1,0,0:0:0:0:
448,192,220431,128,0,223174:0:0:0:0:
320,192,220431,1,0,0:0:0:0:
192,192,220603,1,0,0:0:0:0:
320,192,220774,1,0,0:0:0:0:
64,192,220774,1,0,0:0:0:0:
192,192,220860,1,0,0:0:0:0:
64,192,220945,1,0,0:0:0:0:
320,192,221031,1,0,0:0:0:0:
192,192,221117,1,0,0:0:0:0:
320,192,221203,1,0,0:0:0:0:
64,192,221288,1,0,0:0:0:0:
192,192,221460,1,0,0:0:0:0:
64,192,221460,1,0,0:0:0:0:
320,192,221631,1,0,0:0:0:0:
320,192,221803,1,0,0:0:0:0:
64,192,221803,1,0,0:0:0:0:
192,192,221974,1,0,0:0:0:0:
192,192,222145,1,0,0:0:0:0:
64,192,222145,1,0,0:0:0:0:
320,192,222231,1,0,0:0:0:0:
192,192,222317,1,0,0:0:0:0:
320,192,222403,1,0,0:0:0:0:
64,192,222488,1,0,0:0:0:0:
192,192,222574,1,0,0:0:0:0:
320,192,222660,1,0,0:0:0:0:
192,192,222831,1,0,0:0:0:0:
64,192,222831,1,0,0:0:0:0:
320,192,223003,1,0,0:0:0:0:
192,192,223174,1,0,0:0:0:0:
64,192,223174,128,0,223260:0:0:0:0:
320,192,223260,128,0,223345:0:0:0:0:
448,192,223345,128,0,223431:0:0:0:0:
192,192,223431,128,0,223517:0:0:0:0:
64,192,223517,128,0,223603:0:0:0:0:
192,192,223603,128,0,223688:0:0:0:0:
320,192,223688,128,0,223774:0:0:0:0:
448,192,223774,128,0,223860:0:0:0:0:
320,192,223860,128,0,223945:0:0:0:0:
192,192,223945,128,0,224031:0:0:0:0:
320,192,224031,128,0,224117:0:0:0:0:
64,192,224117,128,0,224203:0:0:0:0:
448,192,224203,128,0,224288:0:0:0:0:
320,192,224288,128,0,224374:0:0:0:0:
192,192,224374,128,0,224460:0:0:0:0:
64,192,224460,128,0,224545:0:0:0:0:
448,192,224545,1,0,0:0:0:0:
320,192,224545,128,0,224631:0:0:0:0:
192,192,224631,128,0,224717:0:0:0:0:
320,192,224717,128,0,224803:0:0:0:0:
64,192,224803,128,0,224888:0:0:0:0:
192,192,224888,128,0,224974:0:0:0:0:
320,192,224974,128,0,225060:0:0:0:0:
448,192,225060,128,0,225145:0:0:0:0:
320,192,225145,128,0,225231:0:0:0:0:
192,192,225231,128,0,225317:0:0:0:0:
64,192,225317,128,0,225403:0:0:0:0:
192,192,225403,128,0,225488:0:0:0:0:
320,192,225488,128,0,225574:0:0:0:0:
448,192,225574,128,0,225660:0:0:0:0:
192,192,225660,128,0,225745:0:0:0:0:
320,192,225745,128,0,225831:0:0:0:0:
64,192,225831,128,0,225917:0:0:0:0:
448,192,225917,1,0,0:0:0:0:
320,192,225917,1,0,0:0:0:0:
448,192,226088,1,0,0:0:0:0:
192,192,226260,1,0,0:0:0:0:
64,192,226260,1,0,0:0:0:0:
320,192,226345,1,0,0:0:0:0:
64,192,226431,1,0,0:0:0:0:
448,192,226603,1,0,0:0:0:0:
192,192,226603,1,0,0:0:0:0:
320,192,226688,1,0,0:0:0:0:
192,192,226774,1,0,0:0:0:0:
64,192,226860,1,0,0:0:0:0:
448,192,226945,1,0,0:0:0:0:
320,192,226945,1,0,0:0:0:0:
64,192,227117,1,0,0:0:0:0:
320,192,227288,1,0,0:0:0:0:
64,192,227288,1,0,0:0:0:0:
192,192,227460,1,0,0:0:0:0:
448,192,227631,1,0,0:0:0:0:
64,192,227631,1,0,0:0:0:0:
192,192,227717,1,0,0:0:0:0:
448,192,227803,1,0,0:0:0:0:
192,192,227974,1,0,0:0:0:0:
64,192,227974,1,0,0:0:0:0:
320,192,228060,1,0,0:0:0:0:
192,192,228145,1,0,0:0:0:0:
320,192,228231,1,0,0:0:0:0:
448,192,228317,1,0,0:0:0:0:
64,192,228317,1,0,0:0:0:0:
320,192,228488,1,0,0:0:0:0:
192,192,228660,1,0,0:0:0:0:
64,192,228660,128,0,228745:0:0:0:0:
320,192,228745,128,0,228831:0:0:0:0:
448,192,228831,128,0,228917:0:0:0:0:
64,192,228831,1,0,0:0:0:0:
192,192,228917,128,0,229003:0:0:0:0:
320,192,229003,1,0,0:0:0:0:
64,192,229003,128,0,229088:0:0:0:0:
448,192,229088,128,0,229174:0:0:0:0:
192,192,229174,128,0,229260:0:0:0:0:
64,192,229174,1,0,0:0:0:0:
448,192,229260,128,0,229345:0:0:0:0:
192,192,229345,1,0,0:0:0:0:
64,192,229345,1,0,0:0:0:0:
448,192,229431,1,0,0:0:0:0:
320,192,229431,1,0,0:0:0:0:
192,192,229517,1,0,0:0:0:0:
64,192,229517,1,0,0:0:0:0:
448,192,229603,1,0,0:0:0:0:
320,192,229603,1,0,0:0:0:0:
192,192,229688,1,0,0:0:0:0:
64,192,229688,1,0,0:0:0:0:
448,192,229774,1,0,0:0:0:0:
320,192,229774,1,0,0:0:0:0:
192,192,229860,1,0,0:0:0:0:
64,192,229860,1,0,0:0:0:0:
448,192,229945,1,0,0:0:0:0:
320,192,229945,1,0,0:0:0:0:
192,192,230031,128,0,230203:0:0:0:0:
64,192,230031,128,0,230203:0:0:0:0:
320,192,230288,128,0,230460:0:0:0:0:
64,192,230288,128,0,230460:0:0:0:0:
448,192,230545,128,0,230717:0:0:0:0:
192,192,230545,128,0,230717:0:0:0:0:
192,192,230803,128,0,230974:0:0:0:0:
64,192,230803,128,0,230974:0:0:0:0:
448,192,231060,1,0,0:0:0:0:
320,192,231060,1,0,0:0:0:0:
64,192,231231,1,0,0:0:0:0:
192,192,231403,128,0,231488:0:0:0:0:
64,192,231403,1,0,0:0:0:0:
320,192,231488,128,0,231574:0:0:0:0:
448,192,231574,128,0,231660:0:0:0:0:
192,192,231660,128,0,231745:0:0:0:0:
320,192,231745,128,0,231831:0:0:0:0:
64,192,231745,1,0,0:0:0:0:
192,192,231831,128,0,231917:0:0:0:0:
64,192,231917,128,0,232003:0:0:0:0:
320,192,232003,128,0,232088:0:0:0:0:
192,192,232088,128,0,232174:0:0:0:0:
448,192,232174,128,0,232260:0:0:0:0:
320,192,232260,128,0,232345:0:0:0:0:
192,192,232260,1,0,0:0:0:0:
64,192,232345,128,0,232431:0:0:0:0:
448,192,232431,1,0,0:0:0:0:
192,192,232431,128,0,232517:0:0:0:0:
320,192,232517,128,0,232603:0:0:0:0:
192,192,232603,128,0,232688:0:0:0:0:
64,192,232688,128,0,232774:0:0:0:0:
448,192,232774,1,0,0:0:0:0:
320,192,232774,128,0,232860:0:0:0:0:
192,192,232860,128,0,232945:0:0:0:0:
320,192,232945,128,0,233031:0:0:0:0:
448,192,233031,128,0,233117:0:0:0:0:
320,192,233117,128,0,233203:0:0:0:0:
64,192,233117,1,0,0:0:0:0:
192,192,233203,128,0,233288:0:0:0:0:
448,192,233288,128,0,233374:0:0:0:0:
192,192,233374,128,0,233460:0:0:0:0:
64,192,233460,128,0,233545:0:0:0:0:
320,192,233545,128,0,233631:0:0:0:0:
448,192,233631,1,0,0:0:0:0:
192,192,233631,128,0,233717:0:0:0:0:
320,192,233717,128,0,233974:0:0:0:0:
192,192,233803,1,0,0:0:0:0:
64,192,233803,128,0,233974:0:0:0:0:
448,192,233974,128,0,234831:0:0:0:0:
320,192,234145,1,0,0:0:0:0:
192,192,234145,1,0,0:0:0:0:
64,192,234317,1,0,0:0:0:0:
320,192,234488,1,0,0:0:0:0:
64,192,234488,1,0,0:0:0:0:
192,192,234660,1,0,0:0:0:0:
320,192,234745,1,0,0:0:0:0:
64,192,234831,128,0,235088:0:0:0:0:
192,192,234917,1,0,0:0:0:0:
448,192,235003,1,0,0:0:0:0:
320,192,235003,1,0,0:0:0:0:
192,192,235088,128,0,235345:0:0:0:0:
448,192,235174,1,0,0:0:0:0:
320,192,235174,1,0,0:0:0:0:
64,192,235345,128,0,235517:0:0:0:0:
448,192,235517,1,0,0:0:0:0:
192,192,235517,128,0,235774:0:0:0:0:
320,192,235774,128,0,236031:0:0:0:0:
448,192,235860,1,0,0:0:0:0:
64,192,235860,1,0,0:0:0:0:
192,192,236031,128,0,236203:0:0:0:0:
64,192,236117,1,0,0:0:0:0:
320,192,236203,128,0,236460:0:0:0:0:
448,192,236288,1,0,0:0:0:0:
192,192,236374,1,0,0:0:0:0:
64,192,236374,1,0,0:0:0:0:
448,192,236460,128,0,236717:0:0:0:0:
192,192,236545,1,0,0:0:0:0:
64,192,236545,1,0,0:0:0:0:
320,192,236717,128,0,236888:0:0:0:0:
192,192,236888,128,0,236974:0:0:0:0:
64,192,236888,1,0,0:0:0:0:
320,192,236974,128,0,237060:0:0:0:0:
448,192,237060,128,0,237145:0:0:0:0:
192,192,237145,128,0,237231:0:0:0:0:
320,192,237231,128,0,237317:0:0:0:0:
64,192,237231,1,0,0:0:0:0:
192,192,237317,128,0,237403:0:0:0:0:
64,192,237403,128,0,237488:0:0:0:0:
320,192,237488,128,0,237574:0:0:0:0:
192,192,237574,128,0,237660:0:0:0:0:
448,192,237660,128,0,237745:0:0:0:0:
320,192,237745,128,0,237831:0:0:0:0:
192,192,237745,1,0,0:0:0:0:
64,192,237831,128,0,237917:0:0:0:0:
448,192,237917,1,0,0:0:0:0:
192,192,237917,128,0,238003:0:0:0:0:
320,192,238003,128,0,238088:0:0:0:0:
192,192,238088,128,0,238174:0:0:0:0:
64,192,238174,128,0,238260:0:0:0:0:
448,192,238260,1,0,0:0:0:0:
320,192,238260,128,0,238345:0:0:0:0:
192,192,238345,128,0,238431:0:0:0:0:
320,192,238431,128,0,238517:0:0:0:0:
448,192,238517,128,0,238603:0:0:0:0:
320,192,238603,128,0,238688:0:0:0:0:
64,192,238603,1,0,0:0:0:0:
192,192,238688,128,0,238774:0:0:0:0:
448,192,238774,128,0,238860:0:0:0:0:
192,192,238860,128,0,238945:0:0:0:0:
64,192,238945,128,0,239031:0:0:0:0:
320,192,239031,128,0,239117:0:0:0:0:
448,192,239117,1,0,0:0:0:0:
192,192,239117,128,0,239203:0:0:0:0:
320,192,239203,128,0,239460:0:0:0:0:
192,192,239288,1,0,0:0:0:0:
64,192,239288,128,0,239460:0:0:0:0:
448,192,239460,128,0,240317:0:0:0:0:
320,192,239631,1,0,0:0:0:0:
192,192,239631,1,0,0:0:0:0:
64,192,239803,1,0,0:0:0:0:
320,192,239974,1,0,0:0:0:0:
64,192,239974,1,0,0:0:0:0:
192,192,240145,1,0,0:0:0:0:
320,192,240231,1,0,0:0:0:0:
64,192,240317,128,0,240574:0:0:0:0:
192,192,240403,1,0,0:0:0:0:
448,192,240488,1,0,0:0:0:0:
320,192,240488,1,0,0:0:0:0:
192,192,240574,128,0,240831:0:0:0:0:
448,192,240660,1,0,0:0:0:0:
320,192,240660,1,0,0:0:0:0:
320,192,240831,128,0,241003:0:0:0:0:
448,192,241003,1,0,0:0:0:0:
64,192,241003,128,0,241260:0:0:0:0:
320,192,241260,128,0,241517:0:0:0:0:
448,192,241345,1,0,0:0:0:0:
192,192,241345,1,0,0:0:0:0:
192,192,241517,128,0,241688:0:0:0:0:
64,192,241603,1,0,0:0:0:0:
448,192,241688,128,0,241945:0:0:0:0:
320,192,241774,1,0,0:0:0:0:
192,192,241860,1,0,0:0:0:0:
64,192,241860,1,0,0:0:0:0:
320,192,241945,128,0,242203:0:0:0:0:
192,192,242031,1,0,0:0:0:0:
64,192,242031,1,0,0:0:0:0:
64,192,242203,128,0,242374:0:0:0:0:
448,192,242374,1,0,0:0:0:0:
320,192,242374,128,0,242460:0:0:0:0:
192,192,242460,128,0,242545:0:0:0:0:
64,192,242545,128,0,242631:0:0:0:0:
320,192,242631,128,0,242717:0:0:0:0:
448,192,242717,1,0,0:0:0:0:
192,192,242717,128,0,242803:0:0:0:0:
320,192,242803,128,0,242888:0:0:0:0:
448,192,242888,128,0,242974:0:0:0:0:
192,192,242974,128,0,243060:0:0:0:0:
320,192,243060,128,0,243145:0:0:0:0:
64,192,243145,128,0,243231:0:0:0:0:
320,192,243231,1,0,0:0:0:0:
192,192,243231,128,0,243317:0:0:0:0:
448,192,243317,128,0,243403:0:0:0:0:
320,192,243403,128,0,243488:0:0:0:0:
64,192,243403,1,0,0:0:0:0:
192,192,243488,128,0,243574:0:0:0:0:
320,192,243574,128,0,243660:0:0:0:0:
448,192,243660,128,0,243745:0:0:0:0:
192,192,243745,128,0,243831:0:0:0:0:
64,192,243745,1,0,0:0:0:0:
320,192,243831,128,0,243917:0:0:0:0:
192,192,243917,128,0,244003:0:0:0:0:
64,192,244003,128,0,244088:0:0:0:0:
448,192,244088,1,0,0:0:0:0:
192,192,244088,128,0,244174:0:0:0:0:
320,192,244174,128,0,244260:0:0:0:0:
64,192,244260,128,0,244345:0:0:0:0:
320,192,244345,128,0,244431:0:0:0:0:
448,192,244431,128,0,244517:0:0:0:0:
192,192,244517,128,0,244603:0:0:0:0:
320,192,244603,128,0,244688:0:0:0:0:
64,192,244603,1,0,0:0:0:0:
192,192,244688,128,0,244945:0:0:0:0:
448,192,244774,128,0,244945:0:0:0:0:
320,192,244774,1,0,0:0:0:0:
64,192,244945,128,0,245803:0:0:0:0:
320,192,245117,1,0,0:0:0:0:
192,192,245117,1,0,0:0:0:0:
448,192,245288,1,0,0:0:0:0:
448,192,245460,1,0,0:0:0:0:
192,192,245460,1,0,0:0:0:0:
320,192,245631,1,0,0:0:0:0:
192,192,245717,1,0,0:0:0:0:
448,192,245803,128,0,246060:0:0:0:0:
320,192,245888,1,0,0:0:0:0:
192,192,245974,1,0,0:0:0:0:
64,192,245974,1,0,0:0:0:0:
320,192,246060,128,0,246317:0:0:0:0:
192,192,246145,1,0,0:0:0:0:
64,192,246145,1,0,0:0:0:0:
448,192,246317,128,0,246488:0:0:0:0:
320,192,246488,128,0,246745:0:0:0:0:
64,192,246488,1,0,0:0:0:0:
192,192,246745,128,0,247003:0:0:0:0:
448,192,246831,1,0,0:0:0:0:
64,192,246831,1,0,0:0:0:0:
320,192,247003,128,0,247174:0:0:0:0:
448,192,247088,1,0,0:0:0:0:
192,192,247174,128,0,247431:0:0:0:0:
64,192,247260,1,0,0:0:0:0:
448,192,247345,1,0,0:0:0:0:
320,192,247345,1,0,0:0:0:0:
64,192,247431,128,0,247688:0:0:0:0:
448,192,247517,1,0,0:0:0:0:
320,192,247517,1,0,0:0:0:0:
192,192,247688,128,0,247860:0:0:0:0:
448,192,247860,1,0,0:0:0:0:
320,192,247860,128,0,247945:0:0:0:0:
192,192,247945,128,0,248031:0:0:0:0:
64,192,248031,128,0,248117:0:0:0:0:
320,192,248117,128,0,248203:0:0:0:0:
448,192,248203,1,0,0:0:0:0:
192,192,248203,128,0,248288:0:0:0:0:
320,192,248288,128,0,248374:0:0:0:0:
448,192,248374,128,0,248460:0:0:0:0:
192,192,248460,128,0,248545:0:0:0:0:
320,192,248545,128,0,248631:0:0:0:0:
64,192,248631,128,0,248717:0:0:0:0:
320,192,248717,1,0,0:0:0:0:
192,192,248717,128,0,248803:0:0:0:0:
448,192,248803,128,0,248888:0:0:0:0:
320,192,248888,128,0,248974:0:0:0:0:
64,192,248888,1,0,0:0:0:0:
192,192,248974,128,0,249060:0:0:0:0:
320,192,249060,128,0,249145:0:0:0:0:
448,192,249145,128,0,249231:0:0:0:0:
192,192,249231,128,0,249317:0:0:0:0:
64,192,249231,1,0,0:0:0:0:
320,192,249317,128,0,249403:0:0:0:0:
192,192,249403,128,0,249488:0:0:0:0:
64,192,249488,128,0,249574:0:0:0:0:
448,192,249574,1,0,0:0:0:0:
192,192,249574,128,0,249660:0:0:0:0:
320,192,249660,128,0,249745:0:0:0:0:
64,192,249745,128,0,249831:0:0:0:0:
320,192,249831,128,0,249917:0:0:0:0:
448,192,249917,128,0,250003:0:0:0:0:
192,192,250003,128,0,250088:0:0:0:0:
320,192,250088,128,0,250174:0:0:0:0:
64,192,250088,1,0,0:0:0:0:
192,192,250174,128,0,250431:0:0:0:0:
448,192,250260,128,0,250431:0:0:0:0:
320,192,250260,1,0,0:0:0:0:
64,192,250431,128,0,251974:0:0:0:0:
320,192,250603,1,0,0:0:0:0:
192,192,250603,1,0,0:0:0:0:
448,192,250774,1,0,0:0:0:0:
448,192,250945,1,0,0:0:0:0:
192,192,250945,1,0,0:0:0:0:
320,192,251117,1,0,0:0:0:0:
192,192,251203,1,0,0:0:0:0:
448,192,251288,1,0,0:0:0:0:
320,192,251374,1,0,0:0:0:0:
448,192,251460,1,0,0:0:0:0:
192,192,251460,1,0,0:0:0:0:
320,192,251631,1,0,0:0:0:0:
192,192,251631,1,0,0:0:0:0:
448,192,251803,1,0,0:0:0:0:
448,192,251974,1,0,0:0:0:0:
192,192,251974,1,0,0:0:0:0:
320,192,252145,1,0,0:0:0:0:
320,192,252317,1,0,0:0:0:0:
192,192,252317,1,0,0:0:0:0:
448,192,252488,1,0,0:0:0:0:
192,192,252574,1,0,0:0:0:0:
448,192,252660,1,0,0:0:0:0:
320,192,252703,1,0,0:0:0:0:
192,192,252745,1,0,0:0:0:0:
64,192,252788,1,0,0:0:0:0:
448,192,252831,1,0,0:0:0:0:
320,192,252874,1,0,0:0:0:0:
192,192,252917,1,0,0:0:0:0:
64,192,252960,1,0,0:0:0:0:
448,192,253003,1,0,0:0:0:0:
320,192,253003,1,0,0:0:0:0:
192,192,253174,1,0,0:0:0:0:
64,192,253174,1,0,0:0:0:0:
448,192,253345,1,0,0:0:0:0:
320,192,253345,1,0,0:0:0:0:
192,192,253517,1,0,0:0:0:0:
64,192,253603,1,0,0:0:0:0:
320,192,253688,1,0,0:0:0:0:
192,192,253688,1,0,0:0:0:0:
448,192,253860,1,0,0:0:0:0:
192,192,253945,1,0,0:0:0:0:
64,192,253945,1,0,0:0:0:0:
448,192,254031,1,0,0:0:0:0:
320,192,254031,1,0,0:0:0:0:
192,192,254117,1,0,0:0:0:0:
320,192,254203,1,0,0:0:0:0:
64,192,254203,1,0,0:0:0:0:
192,192,254288,1,0,0:0:0:0:
448,192,254374,1,0,0:0:0:0:
64,192,254374,1,0,0:0:0:0:
192,192,254545,1,0,0:0:0:0:
320,192,254631,1,0,0:0:0:0:
448,192,254717,1,0,0:0:0:0:
192,192,254717,1,0,0:0:0:0:
320,192,254888,1,0,0:0:0:0:
448,192,254974,1,0,0:0:0:0:
320,192,255060,1,0,0:0:0:0:
192,192,255060,1,0,0:0:0:0:
448,192,255231,1,0,0:0:0:0:
192,192,255317,1,0,0:0:0:0:
64,192,255317,1,0,0:0:0:0:
448,192,255403,1,0,0:0:0:0:
320,192,255403,1,0,0:0:0:0:
192,192,255488,1,0,0:0:0:0:
448,192,255574,1,0,0:0:0:0:
320,192,255574,1,0,0:0:0:0:
192,192,255660,1,0,0:0:0:0:
448,192,255745,1,0,0:0:0:0:
64,192,255745,1,0,0:0:0:0:
192,192,255917,1,0,0:0:0:0:
320,192,256003,1,0,0:0:0:0:
448,192,256088,1,0,0:0:0:0:
192,192,256088,1,0,0:0:0:0:
320,192,256260,1,0,0:0:0:0:
448,192,256345,1,0,0:0:0:0:
320,192,256431,1,0,0:0:0:0:
192,192,256431,1,0,0:0:0:0:
448,192,256603,1,0,0:0:0:0:
192,192,256688,1,0,0:0:0:0:
64,192,256688,1,0,0:0:0:0:
448,192,256774,1,0,0:0:0:0:
320,192,256774,1,0,0:0:0:0:
192,192,256860,1,0,0:0:0:0:
320,192,256945,1,0,0:0:0:0:
64,192,256945,1,0,0:0:0:0:
192,192,257031,1,0,0:0:0:0:
448,192,257117,1,0,0:0:0:0:
64,192,257117,1,0,0:0:0:0:
192,192,257288,1,0,0:0:0:0:
320,192,257374,1,0,0:0:0:0:
448,192,257460,1,0,0:0:0:0:
192,192,257460,1,0,0:0:0:0:
320,192,257631,1,0,0:0:0:0:
448,192,257717,1,0,0:0:0:0:
320,192,257803,1,0,0:0:0:0:
192,192,257803,1,0,0:0:0:0:
448,192,257974,1,0,0:0:0:0:
192,192,258060,1,0,0:0:0:0:
64,192,258060,1,0,0:0:0:0:
448,192,258145,1,0,0:0:0:0:
320,192,258145,1,0,0:0:0:0:
192,192,258231,1,0,0:0:0:0:
320,192,258317,1,0,0:0:0:0:
64,192,258317,1,0,0:0:0:0:
192,192,258403,1,0,0:0:0:0:
448,192,258488,1,0,0:0:0:0:
64,192,258488,1,0,0:0:0:0:
320,192,258660,1,0,0:0:0:0:
192,192,258745,1,0,0:0:0:0:
320,192,258831,1,0,0:0:0:0:
64,192,258831,1,0,0:0:0:0:
192,192,259003,1,0,0:0:0:0:
64,192,259088,1,0,0:0:0:0:
320,192,259174,1,0,0:0:0:0:
192,192,259174,1,0,0:0:0:0:
448,192,259345,1,0,0:0:0:0:
192,192,259431,1,0,0:0:0:0:
64,192,259431,1,0,0:0:0:0:
448,192,259517,1,0,0:0:0:0:
320,192,259517,1,0,0:0:0:0:
192,192,259603,1,0,0:0:0:0:
448,192,259688,1,0,0:0:0:0:
320,192,259688,1,0,0:0:0:0:
192,192,259774,1,0,0:0:0:0:
448,192,259860,1,0,0:0:0:0:
64,192,259860,1,0,0:0:0:0:
192,192,260031,1,0,0:0:0:0:
320,192,260117,1,0,0:0:0:0:
448,192,260203,1,0,0:0:0:0:
192,192,260203,1,0,0:0:0:0:
320,192,260374,1,0,0:0:0:0:
448,192,260460,1,0,0:0:0:0:
320,192,260545,1,0,0:0:0:0:
192,192,260545,1,0,0:0:0:0:
448,192,260717,1,0,0:0:0:0:
192,192,260803,1,0,0:0:0:0:
64,192,260803,1,0,0:0:0:0:
448,192,260888,1,0,0:0:0:0:
320,192,260888,1,0,0:0:0:0:
192,192,260974,1,0,0:0:0:0:
448,192,261060,1,0,0:0:0:0:
320,192,261060,1,0,0:0:0:0:
192,192,261145,1,0,0:0:0:0:
448,192,261231,1,0,0:0:0:0:
64,192,261231,1,0,0:0:0:0:
192,192,261403,1,0,0:0:0:0:
320,192,261488,1,0,0:0:0:0:
448,192,261574,1,0,0:0:0:0:
192,192,261574,1,0,0:0:0:0:
320,192,261745,1,0,0:0:0:0:
448,192,261831,1,0,0:0:0:0:
320,192,261917,1,0,0:0:0:0:
192,192,261917,1,0,0:0:0:0:
448,192,262088,1,0,0:0:0:0:
192,192,262174,1,0,0:0:0:0:
64,192,262174,1,0,0:0:0:0:
448,192,262260,1,0,0:0:0:0:
320,192,262260,1,0,0:0:0:0:
192,192,262345,1,0,0:0:0:0:
320,192,262431,1,0,0:0:0:0:
64,192,262431,1,0,0:0:0:0:
192,192,262517,1,0,0:0:0:0:
448,192,262603,1,0,0:0:0:0:
64,192,262603,1,0,0:0:0:0:
320,192,262774,1,0,0:0:0:0:
192,192,262860,1,0,0:0:0:0:
320,192,262945,1,0,0:0:0:0:
64,192,262945,1,0,0:0:0:0:
192,192,263117,1,0,0:0:0:0:
64,192,263203,1,0,0:0:0:0:
320,192,263288,1,0,0:0:0:0:
192,192,263288,1,0,0:0:0:0:
448,192,263460,1,0,0:0:0:0:
192,192,263545,1,0,0:0:0:0:
64,192,263545,1,0,0:0:0:0:
448,192,263631,1,0,0:0:0:0:
320,192,263631,1,0,0:0:0:0:
192,192,263717,1,0,0:0:0:0:
448,192,263803,1,0,0:0:0:0:
320,192,263803,1,0,0:0:0:0:
192,192,263888,1,0,0:0:0:0:
448,192,263974,1,0,0:0:0:0:
64,192,263974,1,0,0:0:0:0:
192,192,264145,1,0,0:0:0:0:
320,192,264231,1,0,0:0:0:0:
448,192,264317,1,0,0:0:0:0:
192,192,264317,1,0,0:0:0:0:
320,192,264488,1,0,0:0:0:0:
448,192,264574,1,0,0:0:0:0:
320,192,264660,1,0,0:0:0:0:
192,192,264660,1,0,0:0:0:0:
448,192,264831,1,0,0:0:0:0:
192,192,264917,1,0,0:0:0:0:
64,192,264917,1,0,0:0:0:0:
448,192,265003,1,0,0:0:0:0:
320,192,265003,1,0,0:0:0:0:
192,192,265088,1,0,0:0:0:0:
320,192,265174,1,0,0:0:0:0:
64,192,265174,1,0,0:0:0:0:
192,192,265260,1,0,0:0:0:0:
448,192,265345,1,0,0:0:0:0:
64,192,265345,1,0,0:0:0:0:
192,192,265517,1,0,0:0:0:0:
320,192,265603,1,0,0:0:0:0:
448,192,265688,1,0,0:0:0:0:
192,192,265688,1,0,0:0:0:0:
320,192,265860,1,0,0:0:0:0:
448,192,265945,1,0,0:0:0:0:
320,192,266031,1,0,0:0:0:0:
192,192,266031,1,0,0:0:0:0:
448,192,266203,1,0,0:0:0:0:
192,192,266288,1,0,0:0:0:0:
64,192,266288,1,0,0:0:0:0:
448,192,266374,1,0,0:0:0:0:
320,192,266374,1,0,0:0:0:0:
192,192,266460,1,0,0:0:0:0:
448,192,266545,1,0,0:0:0:0:
320,192,266545,1,0,0:0:0:0:
192,192,266631,1,0,0:0:0:0:
448,192,266717,1,0,0:0:0:0:
64,192,266717,1,0,0:0:0:0:
192,192,266888,1,0,0:0:0:0:
320,192,266974,1,0,0:0:0:0:
448,192,267060,1,0,0:0:0:0:
192,192,267060,1,0,0:0:0:0:
320,192,267231,1,0,0:0:0:0:
448,192,267317,1,0,0:0:0:0:
320,192,267403,1,0,0:0:0:0:
192,192,267403,1,0,0:0:0:0:
448,192,267574,1,0,0:0:0:0:
192,192,267660,1,0,0:0:0:0:
64,192,267660,1,0,0:0:0:0:
448,192,267745,1,0,0:0:0:0:
320,192,267745,1,0,0:0:0:0:
192,192,267831,1,0,0:0:0:0:
320,192,267917,1,0,0:0:0:0:
64,192,267917,1,0,0:0:0:0:
192,192,268003,1,0,0:0:0:0:
448,192,268088,1,0,0:0:0:0:
64,192,268088,1,0,0:0:0:0:
192,192,268260,1,0,0:0:0:0:
320,192,268345,1,0,0:0:0:0:
448,192,268431,1,0,0:0:0:0:
192,192,268431,1,0,0:0:0:0:
320,192,268603,1,0,0:0:0:0:
448,192,268688,1,0,0:0:0:0:
320,192,268774,1,0,0:0:0:0:
192,192,268774,1,0,0:0:0:0:
448,192,268945,1,0,0:0:0:0:
192,192,269031,1,0,0:0:0:0:
64,192,269031,1,0,0:0:0:0:
448,192,269117,1,0,0:0:0:0:
320,192,269117,1,0,0:0:0:0:
192,192,269203,1,0,0:0:0:0:
320,192,269288,1,0,0:0:0:0:
64,192,269288,1,0,0:0:0:0:
192,192,269374,1,0,0:0:0:0:
448,192,269460,1,0,0:0:0:0:
64,192,269460,1,0,0:0:0:0:
320,192,269631,1,0,0:0:0:0:
192,192,269717,1,0,0:0:0:0:
320,192,269803,1,0,0:0:0:0:
64,192,269803,1,0,0:0:0:0:
192,192,269974,1,0,0:0:0:0:
64,192,270060,1,0,0:0:0:0:
320,192,270145,1,0,0:0:0:0:
192,192,270145,1,0,0:0:0:0:
448,192,270317,1,0,0:0:0:0:
192,192,270403,1,0,0:0:0:0:
64,192,270403,1,0,0:0:0:0:
448,192,270488,1,0,0:0:0:0:
320,192,270488,1,0,0:0:0:0:
192,192,270574,1,0,0:0:0:0:
448,192,270660,1,0,0:0:0:0:
320,192,270660,1,0,0:0:0:0:
192,192,270745,1,0,0:0:0:0:
448,192,270831,1,0,0:0:0:0:
64,192,270831,1,0,0:0:0:0:
192,192,271003,1,0,0:0:0:0:
320,192,271088,1,0,0:0:0:0:
448,192,271174,1,0,0:0:0:0:
192,192,271174,1,0,0:0:0:0:
320,192,271345,1,0,0:0:0:0:
448,192,271431,1,0,0:0:0:0:
320,192,271517,1,0,0:0:0:0:
192,192,271517,1,0,0:0:0:0:
448,192,271688,1,0,0:0:0:0:
192,192,271774,1,0,0:0:0:0:
64,192,271774,1,0,0:0:0:0:
448,192,271860,1,0,0:0:0:0:
320,192,271860,1,0,0:0:0:0:
192,192,271945,1,0,0:0:0:0:
448,192,272031,1,0,0:0:0:0:
320,192,272031,1,0,0:0:0:0:
192,192,272117,1,0,0:0:0:0:
448,192,272203,1,0,0:0:0:0:
64,192,272203,1,0,0:0:0:0:
192,192,272374,1,0,0:0:0:0:
320,192,272460,1,0,0:0:0:0:
448,192,272545,1,0,0:0:0:0:
192,192,272545,1,0,0:0:0:0:
320,192,272717,1,0,0:0:0:0:
448,192,272803,1,0,0:0:0:0:
320,192,272888,1,0,0:0:0:0:
192,192,272888,1,0,0:0:0:0:
448,192,273060,1,0,0:0:0:0:
192,192,273145,1,0,0:0:0:0:
64,192,273145,1,0,0:0:0:0:
448,192,273231,1,0,0:0:0:0:
320,192,273231,1,0,0:0:0:0:
192,192,273317,1,0,0:0:0:0:
320,192,273403,1,0,0:0:0:0:
64,192,273403,1,0,0:0:0:0:
192,192,273488,1,0,0:0:0:0:
448,192,273574,1,0,0:0:0:0:
64,192,273574,1,0,0:0:0:0:
320,192,273745,1,0,0:0:0:0:
192,192,273831,1,0,0:0:0:0:
320,192,273917,1,0,0:0:0:0:
64,192,273917,1,0,0:0:0:0:
192,192,274088,1,0,0:0:0:0:
320,192,274174,1,0,0:0:0:0:
448,192,274260,1,0,0:0:0:0:
320,192,274431,1,0,0:0:0:0:
64,192,274517,1,0,0:0:0:0:
448,192,274603,1,0,0:0:0:0:
192,192,274688,1,0,0:0:0:0:
320,192,274774,1,0,0:0:0:0:
192,192,274860,1,0,0:0:0:0:
448,192,274945,1,0,0:0:0:0:
64,192,274945,1,0,0:0:0:0:
320,192,275117,1,0,0:0:0:0:
192,192,275117,1,0,0:0:0:0:
448,192,275288,1,0,0:0:0:0:
64,192,275288,1,0,0:0:0:0:
320,192,275460,1,0,0:0:0:0:
64,192,275545,1,0,0:0:0:0:
320,192,275631,1,0,0:0:0:0:
192,192,275631,1,0,0:0:0:0:
448,192,275803,1,0,0:0:0:0:
64,192,275888,1,0,0:0:0:0:
448,192,275974,1,0,0:0:0:0:
192,192,276060,1,0,0:0:0:0:
448,192,276145,1,0,0:0:0:0:
320,192,276145,1,0,0:0:0:0:
192,192,276231,1,0,0:0:0:0:
448,192,276317,1,0,0:0:0:0:
64,192,276317,1,0,0:0:0:0:
192,192,276488,1,0,0:0:0:0:
320,192,276574,1,0,0:0:0:0:
448,192,276660,1,0,0:0:0:0:
192,192,276660,1,0,0:0:0:0:
320,192,276831,1,0,0:0:0:0:
448,192,276917,1,0,0:0:0:0:
320,192,277003,1,0,0:0:0:0:
192,192,277003,1,0,0:0:0:0:
448,192,277174,1,0,0:0:0:0:
64,192,277260,1,0,0:0:0:0:
448,192,277345,1,0,0:0:0:0:
192,192,277431,1,0,0:0:0:0:
448,192,277517,1,0,0:0:0:0:
320,192,277517,1,0,0:0:0:0:
192,192,277603,1,0,0:0:0:0:
448,192,277688,1,0,0:0:0:0:
64,192,277688,1,0,0:0:0:0:
192,192,277860,1,0,0:0:0:0:
320,192,277945,1,0,0:0:0:0:
448,192,278031,1,0,0:0:0:0:
192,192,278031,1,0,0:0:0:0:
320,192,278203,1,0,0:0:0:0:
448,192,278288,1,0,0:0:0:0:
320,192,278374,1,0,0:0:0:0:
192,192,278374,1,0,0:0:0:0:
448,192,278545,1,0,0:0:0:0:
64,192,278631,1,0,0:0:0:0:
448,192,278717,1,0,0:0:0:0:
192,192,278803,1,0,0:0:0:0:
448,192,278888,1,0,0:0:0:0:
320,192,278888,1,0,0:0:0:0:
192,192,278974,1,0,0:0:0:0:
448,192,279060,1,0,0:0:0:0:
64,192,279060,1,0,0:0:0:0:
192,192,279231,1,0,0:0:0:0:
320,192,279317,1,0,0:0:0:0:
448,192,279403,1,0,0:0:0:0:
192,192,279403,1,0,0:0:0:0:
320,192,279574,1,0,0:0:0:0:
448,192,279660,1,0,0:0:0:0:
320,192,279745,1,0,0:0:0:0:
192,192,279745,1,0,0:0:0:0:
448,192,279917,1,0,0:0:0:0:
64,192,280003,1,0,0:0:0:0:
448,192,280088,1,0,0:0:0:0:
192,192,280174,1,0,0:0:0:0:
320,192,280260,1,0,0:0:0:0:
64,192,280260,1,0,0:0:0:0:
192,192,280345,1,0,0:0:0:0:
448,192,280431,1,0,0:0:0:0:
64,192,280431,1,0,0:0:0:0:
320,192,280603,1,0,0:0:0:0:
192,192,280688,1,0,0:0:0:0:
320,192,280774,1,0,0:0:0:0:
64,192,280774,1,0,0:0:0:0:
192,192,280945,1,0,0:0:0:0:
64,192,281031,1,0,0:0:0:0:
320,192,281117,1,0,0:0:0:0:
192,192,281117,1,0,0:0:0:0:
448,192,281288,1,0,0:0:0:0:
64,192,281374,1,0,0:0:0:0:
448,192,281460,1,0,0:0:0:0:
192,192,281545,1,0,0:0:0:0:
448,192,281631,1,0,0:0:0:0:
320,192,281631,1,0,0:0:0:0:
192,192,281717,1,0,0:0:0:0:
448,192,281803,1,0,0:0:0:0:
64,192,281803,1,0,0:0:0:0:
192,192,281974,1,0,0:0:0:0:
320,192,282060,1,0,0:0:0:0:
448,192,282145,1,0,0:0:0:0:
192,192,282145,1,0,0:0:0:0:
320,192,282317,1,0,0:0:0:0:
448,192,282403,1,0,0:0:0:0:
320,192,282488,1,0,0:0:0:0:
192,192,282488,1,0,0:0:0:0:
448,192,282660,1,0,0:0:0:0:
64,192,282745,1,0,0:0:0:0:
448,192,282831,1,0,0:0:0:0:
192,192,282917,1,0,0:0:0:0:
448,192,283003,1,0,0:0:0:0:
320,192,283003,1,0,0:0:0:0:
192,192,283088,1,0,0:0:0:0:
448,192,283174,1,0,0:0:0:0:
64,192,283174,1,0,0:0:0:0:
192,192,283345,1,0,0:0:0:0:
320,192,283431,1,0,0:0:0:0:
448,192,283517,1,0,0:0:0:0:
192,192,283517,1,0,0:0:0:0:
320,192,283688,1,0,0:0:0:0:
448,192,283774,1,0,0:0:0:0:
320,192,283860,1,0,0:0:0:0:
192,192,283860,1,0,0:0:0:0:
448,192,284031,1,0,0:0:0:0:
64,192,284117,1,0,0:0:0:0:
448,192,284203,1,0,0:0:0:0:
192,192,284288,1,0,0:0:0:0:
448,192,284374,1,0,0:0:0:0:
320,192,284374,1,0,0:0:0:0:
192,192,284460,1,0,0:0:0:0:
448,192,284545,1,0,0:0:0:0:
64,192,284545,1,0,0:0:0:0:
320,192,284717,1,0,0:0:0:0:
192,192,284803,1,0,0:0:0:0:
320,192,284888,1,0,0:0:0:0:
64,192,284888,1,0,0:0:0:0:
192,192,285060,1,0,0:0:0:0:
64,192,285145,1,0,0:0:0:0:
320,192,285231,1,0,0:0:0:0:
192,192,285231,1,0,0:0:0:0:
448,192,285403,1,0,0:0:0:0:
64,192,285488,1,0,0:0:0:0:
448,192,285574,1,0,0:0:0:0:
192,192,285660,1,0,0:0:0:0:
320,192,285745,1,0,0:0:0:0:
64,192,285745,1,0,0:0:0:0:
192,192,285831,1,0,0:0:0:0:
448,192,285917,1,0,0:0:0:0:
64,192,285917,1,0,0:0:0:0:
192,192,286088,1,0,0:0:0:0:
320,192,286174,1,0,0:0:0:0:
448,192,286260,1,0,0:0:0:0:
192,192,286260,1,0,0:0:0:0:
320,192,286431,1,0,0:0:0:0:
448,192,286517,1,0,0:0:0:0:
320,192,286603,1,0,0:0:0:0:
192,192,286603,1,0,0:0:0:0:
448,192,286774,1,0,0:0:0:0:
64,192,286860,1,0,0:0:0:0:
448,192,286945,1,0,0:0:0:0:
192,192,287031,1,0,0:0:0:0:
448,192,287117,1,0,0:0:0:0:
320,192,287117,1,0,0:0:0:0:
192,192,287203,1,0,0:0:0:0:
448,192,287288,1,0,0:0:0:0:
64,192,287288,1,0,0:0:0:0:
192,192,287460,1,0,0:0:0:0:
320,192,287545,1,0,0:0:0:0:
448,192,287631,1,0,0:0:0:0:
192,192,287631,1,0,0:0:0:0:
320,192,287803,1,0,0:0:0:0:
448,192,287888,1,0,0:0:0:0:
320,192,287974,1,0,0:0:0:0:
192,192,287974,1,0,0:0:0:0:
448,192,288145,1,0,0:0:0:0:
64,192,288231,1,0,0:0:0:0:
448,192,288317,1,0,0:0:0:0:
192,192,288403,1,0,0:0:0:0:
448,192,288488,1,0,0:0:0:0:
320,192,288488,1,0,0:0:0:0:
192,192,288574,1,0,0:0:0:0:
448,192,288660,1,0,0:0:0:0:
64,192,288660,1,0,0:0:0:0:
192,192,288831,1,0,0:0:0:0:
320,192,288917,1,0,0:0:0:0:
448,192,289003,1,0,0:0:0:0:
192,192,289003,1,0,0:0:0:0:
320,192,289174,1,0,0:0:0:0:
448,192,289260,1,0,0:0:0:0:
320,192,289345,1,0,0:0:0:0:
192,192,289345,1,0,0:0:0:0:
448,192,289517,1,0,0:0:0:0:
64,192,289603,1,0,0:0:0:0:
448,192,289688,1,0,0:0:0:0:
192,192,289774,1,0,0:0:0:0:
448,192,289860,1,0,0:0:0:0:
320,192,289860,1,0,0:0:0:0:
192,192,289945,1,0,0:0:0:0:
448,192,290031,1,0,0:0:0:0:
64,192,290031,1,0,0:0:0:0:
192,192,290203,1,0,0:0:0:0:
320,192,290288,1,0,0:0:0:0:
448,192,290374,1,0,0:0:0:0:
192,192,290374,1,0,0:0:0:0:
320,192,290545,1,0,0:0:0:0:
448,192,290631,1,0,0:0:0:0:
320,192,290717,1,0,0:0:0:0:
192,192,290717,1,0,0:0:0:0:
448,192,290888,1,0,0:0:0:0:
64,192,290974,1,0,0:0:0:0:
448,192,291060,1,0,0:0:0:0:
192,192,291145,1,0,0:0:0:0:
320,192,291231,1,0,0:0:0:0:
64,192,291231,1,0,0:0:0:0:
192,192,291317,1,0,0:0:0:0:
448,192,291403,1,0,0:0:0:0:
64,192,291403,1,0,0:0:0:0:
320,192,291574,1,0,0:0:0:0:
192,192,291660,1,0,0:0:0:0:
320,192,291745,1,0,0:0:0:0:
64,192,291745,1,0,0:0:0:0:
192,192,291917,1,0,0:0:0:0:
320,192,292003,1,0,0:0:0:0:
448,192,292088,1,0,0:0:0:0:
192,192,292088,1,0,0:0:0:0:
320,192,292260,1,0,0:0:0:0:
192,192,292345,1,0,0:0:0:0:
320,192,292431,1,0,0:0:0:0:
64,192,292431,1,0,0:0:0:0:
192,192,292603,1,0,0:0:0:0:
320,192,292688,1,0,0:0:0:0:
448,192,292774,1,0,0:0:0:0:
192,192,292774,1,0,0:0:0:0:
320,192,292945,1,0,0:0:0:0:
192,192,293031,1,0,0:0:0:0:
320,192,293117,1,0,0:0:0:0:
64,192,293117,1,0,0:0:0:0:
192,192,293288,1,0,0:0:0:0:
320,192,293374,1,0,0:0:0:0:
448,192,293460,1,0,0:0:0:0:
192,192,293460,1,0,0:0:0:0:
320,192,293631,1,0,0:0:0:0:
192,192,293717,1,0,0:0:0:0:
320,192,293803,1,0,0:0:0:0:
64,192,293803,1,0,0:0:0:0:
192,192,293974,1,0,0:0:0:0:
320,192,294060,1,0,0:0:0:0:
448,192,294145,1,0,0:0:0:0:
192,192,294145,1,0,0:0:0:0:
320,192,294317,1,0,0:0:0:0:
192,192,294403,1,0,0:0:0:0:
448,192,294488,1,0,0:0:0:0:
64,192,294488,1,0,0:0:0:0:
320,192,294660,1,0,0:0:0:0:
192,192,294660,1,0,0:0:0:0:
320,192,294831,1,0,0:0:0:0:
192,192,294831,1,0,0:0:0:0:
448,192,295003,1,0,0:0:0:0:
64,192,295003,1,0,0:0:0:0:
448,192,295174,1,0,0:0:0:0:
320,192,295174,1,0,0:0:0:0:
192,192,295260,1,0,0:0:0:0:
64,192,295260,1,0,0:0:0:0:
448,192,295345,1,0,0:0:0:0:
320,192,295345,1,0,0:0:0:0:
192,192,295431,1,0,0:0:0:0:
64,192,295431,1,0,0:0:0:0:
448,192,295517,1,0,0:0:0:0:
320,192,295517,1,0,0:0:0:0:
192,192,295603,1,0,0:0:0:0:
64,192,295603,1,0,0:0:0:0:
448,192,295688,1,0,0:0:0:0:
320,192,295688,1,0,0:0:0:0:
192,192,295774,1,0,0:0:0:0:
64,192,295774,1,0,0:0:0:0:
448,192,295860,1,0,0:0:0:0:
320,192,295860,128,0,296888:0:0:0:0:
192,192,296888,1,0,0:0:0:0:
64,192,296888,1,0,0:0:0:0:
