osu file format v14

[General]
AudioFilename: audio.mp3
AudioLeadIn: 0
PreviewTime: 151784
Countdown: 0
SampleSet: Normal
StackLeniency: 0.7
Mode: 3
LetterboxInBreaks: 0
SpecialStyle: 0
WidescreenStoryboard: 0

[Editor]
Bookmarks: 10705,20810,41021,65968,66021,66073,66126,81442,121863,156915,156968,157021,157073,177126,177178,177231,177284,217547,217600,217652,217705
DistanceSpacing: 1.9
BeatDivisor: 4
GridSize: 4
TimelineZoom: 2.5

[Metadata]
Title:Cinderela - Kill Em All -
TitleUnicode:Cinderela - Kill Em All -
Artist:Srav3r
ArtistUnicode:Srav3r
Creator:BringoBrango
Version:Shards of Glass
Source:
Tags:
BeatmapID:1926577
BeatmapSetID:922552

[Difficulty]
HPDrainRate:8.5
CircleSize:4
OverallDifficulty:8
ApproachRate:5
SliderMultiplier:1.4
SliderTickRate:1

[Events]
//Background and Video events
0,0,"ShoutousToToaph.png",0,0
//Break Periods
//Storyboard Layer 0 (Background)
//Storyboard Layer 1 (Fail)
//Storyboard Layer 2 (Pass)
//Storyboard Layer 3 (Foreground)
//Storyboard Sound Samples

[TimingPoints]
600,315.789473684211,4,1,0,15,1,0
152178,-100,4,1,0,15,0,1
171126,-100,4,1,0,15,0,0
172389,-100,4,1,0,15,0,1
191336,-100,4,1,0,15,0,0
212810,-100,4,1,0,15,0,1
231757,-100,4,1,0,15,0,0

[HitObjects]
448,192,600,5,0,0:0:0:0:
320,192,600,1,0,0:0:0:0:
192,192,600,1,0,0:0:0:0:
192,192,757,1,0,0:0:0:0:
448,192,836,1,0,0:0:0:0:
320,192,915,1,0,0:0:0:0:
64,192,915,1,0,0:0:0:0:
448,192,1073,1,0,0:0:0:0:
320,192,1231,1,0,0:0:0:0:
64,192,1231,1,0,0:0:0:0:
448,192,1389,1,0,0:0:0:0:
320,192,1547,1,0,0:0:0:0:
64,192,1547,1,0,0:0:0:0:
448,192,1705,1,0,0:0:0:0:
448,192,1863,1,0,0:0:0:0:
192,192,1863,1,0,0:0:0:0:
320,192,2021,1,0,0:0:0:0:
448,192,2100,1,0,0:0:0:0:
64,192,2178,1,0,0:0:0:0:
192,192,2178,1,0,0:0:0:0:
448,192,2336,1,0,0:0:0:0:
64,192,2494,1,0,0:0:0:0:
192,192,2494,1,0,0:0:0:0:
448,192,2652,1,0,0:0:0:0:
64,192,2810,1,0,0:0:0:0:
192,192,2810,1,0,0:0:0:0:
448,192,2968,1,0,0:0:0:0:
448,192,3126,1,0,0:0:0:0:
320,192,3126,1,0,0:0:0:0:
64,192,3284,1,0,0:0:0:0:
448,192,3363,1,0,0:0:0:0:
192,192,3442,1,0,0:0:0:0:
320,192,3442,1,0,0:0:0:0:
448,192,3600,1,0,0:0:0:0:
192,192,3757,1,0,0:0:0:0:
320,192,3757,1,0,0:0:0:0:
448,192,3915,1,0,0:0:0:0:
192,192,4073,1,0,0:0:0:0:
320,192,4073,1,0,0:0:0:0:
448,192,4231,1,0,0:0:0:0:
448,192,4389,1,0,0:0:0:0:
64,192,4389,1,0,0:0:0:0:
320,192,4547,1,0,0:0:0:0:
448,192,4626,1,0,0:0:0:0:
64,192,4705,1,0,0:0:0:0:
192,192,4705,1,0,0:0:0:0:
448,192,4863,1,0,0:0:0:0:
64,192,5021,1,0,0:0:0:0:
192,192,5021,1,0,0:0:0:0:
448,192,5178,1,0,0:0:0:0:
192,192,5336,1,0,0:0:0:0:
64,192,5336,1,0,0:0:0:0:
448,192,5494,1,0,0:0:0:0:
448,192,5652,1,0,0:0:0:0:
320,192,5652,1,0,0:0:0:0:
192,192,5810,1,0,0:0:0:0:
448,192,5889,1,0,0:0:0:0:
320,192,5968,1,0,0:0:0:0:
64,192,5968,1,0,0:0:0:0:
448,192,6126,1,0,0:0:0:0:
320,192,6284,1,0,0:0:0:0:
64,192,6284,1,0,0:0:0:0:
448,192,6442,1,0,0:0:0:0:
320,192,6600,1,0,0:0:0:0:
64,192,6600,1,0,0:0:0:0:
448,192,6757,1,0,0:0:0:0:
448,192,6915,1,0,0:0:0:0:
192,192,6915,1,0,0:0:0:0:
320,192,7073,1,0,0:0:0:0:
448,192,7152,1,0,0:0:0:0:
64,192,7231,1,0,0:0:0:0:
192,192,7231,1,0,0:0:0:0:
448,192,7389,1,0,0:0:0:0:
192,192,7547,1,0,0:0:0:0:
64,192,7547,1,0,0:0:0:0:
448,192,7705,1,0,0:0:0:0:
192,192,7863,1,0,0:0:0:0:
64,192,7863,1,0,0:0:0:0:
448,192,8021,1,0,0:0:0:0:
448,192,8178,1,0,0:0:0:0:
320,192,8178,1,0,0:0:0:0:
64,192,8336,1,0,0:0:0:0:
448,192,8415,1,0,0:0:0:0:
320,192,8494,1,0,0:0:0:0:
192,192,8494,1,0,0:0:0:0:
448,192,8652,1,0,0:0:0:0:
192,192,8810,1,0,0:0:0:0:
320,192,8810,1,0,0:0:0:0:
448,192,8968,1,0,0:0:0:0:
192,192,9126,1,0,0:0:0:0:
320,192,9126,1,0,0:0:0:0:
448,192,9284,1,0,0:0:0:0:
448,192,9442,1,0,0:0:0:0:
192,192,9442,1,0,0:0:0:0:
64,192,9442,1,0,0:0:0:0:
448,192,9678,1,0,0:0:0:0:
320,192,9757,1,0,0:0:0:0:
192,192,9757,1,0,0:0:0:0:
64,192,9757,1,0,0:0:0:0:
448,192,9915,1,0,0:0:0:0:
320,192,10073,1,0,0:0:0:0:
64,192,10073,1,0,0:0:0:0:
192,192,10073,1,0,0:0:0:0:
448,192,10231,1,0,0:0:0:0:
320,192,10389,1,0,0:0:0:0:
192,192,10389,1,0,0:0:0:0:
64,192,10389,1,0,0:0:0:0:
448,192,10547,1,0,0:0:0:0:
192,192,10547,1,0,0:0:0:0:
320,192,10547,1,0,0:0:0:0:
448,192,10705,1,0,0:0:0:0:
64,192,10705,1,0,0:0:0:0:
192,192,10784,1,0,0:0:0:0:
320,192,10863,1,0,0:0:0:0:
64,192,10942,1,0,0:0:0:0:
448,192,11021,1,0,0:0:0:0:
192,192,11021,1,0,0:0:0:0:
320,192,11100,1,0,0:0:0:0:
64,192,11178,1,0,0:0:0:0:
192,192,11257,1,0,0:0:0:0:
448,192,11336,1,0,0:0:0:0:
320,192,11336,1,0,0:0:0:0:
64,192,11415,1,0,0:0:0:0:
192,192,11494,1,0,0:0:0:0:
320,192,11573,1,0,0:0:0:0:
448,192,11652,1,0,0:0:0:0:
64,192,11652,1,0,0:0:0:0:
192,192,11731,1,0,0:0:0:0:
320,192,11810,1,0,0:0:0:0:
64,192,11889,1,0,0:0:0:0:
448,192,11968,1,0,0:0:0:0:
192,192,11968,1,0,0:0:0:0:
320,192,12047,1,0,0:0:0:0:
64,192,12126,1,0,0:0:0:0:
192,192,12205,1,0,0:0:0:0:
448,192,12284,1,0,0:0:0:0:
320,192,12284,1,0,0:0:0:0:
64,192,12363,1,0,0:0:0:0:
192,192,12442,1,0,0:0:0:0:
320,192,12521,1,0,0:0:0:0:
448,192,12600,1,0,0:0:0:0:
64,192,12600,1,0,0:0:0:0:
192,192,12678,1,0,0:0:0:0:
320,192,12757,1,0,0:0:0:0:
64,192,12836,1,0,0:0:0:0:
448,192,12915,1,0,0:0:0:0:
192,192,12915,1,0,0:0:0:0:
320,192,12994,1,0,0:0:0:0:
64,192,13073,1,0,0:0:0:0:
192,192,13152,1,0,0:0:0:0:
320,192,13231,1,0,0:0:0:0:
448,192,13231,1,0,0:0:0:0:
64,192,13310,1,0,0:0:0:0:
192,192,13389,1,0,0:0:0:0:
448,192,13468,1,0,0:0:0:0:
64,192,13547,1,0,0:0:0:0:
320,192,13547,1,0,0:0:0:0:
192,192,13626,1,0,0:0:0:0:
448,192,13705,1,0,0:0:0:0:
64,192,13784,1,0,0:0:0:0:
192,192,13863,1,0,0:0:0:0:
320,192,13863,1,0,0:0:0:0:
448,192,13942,1,0,0:0:0:0:
64,192,14021,1,0,0:0:0:0:
192,192,14100,1,0,0:0:0:0:
448,192,14178,1,0,0:0:0:0:
320,192,14178,1,0,0:0:0:0:
64,192,14257,1,0,0:0:0:0:
192,192,14336,1,0,0:0:0:0:
448,192,14415,1,0,0:0:0:0:
64,192,14494,1,0,0:0:0:0:
320,192,14494,1,0,0:0:0:0:
192,192,14573,1,0,0:0:0:0:
448,192,14652,1,0,0:0:0:0:
64,192,14731,1,0,0:0:0:0:
192,192,14810,1,0,0:0:0:0:
320,192,14810,1,0,0:0:0:0:
448,192,14889,1,0,0:0:0:0:
64,192,14968,1,0,0:0:0:0:
192,192,15047,1,0,0:0:0:0:
448,192,15126,1,0,0:0:0:0:
320,192,15126,1,0,0:0:0:0:
64,192,15205,1,0,0:0:0:0:
192,192,15284,1,0,0:0:0:0:
448,192,15363,1,0,0:0:0:0:
64,192,15442,1,0,0:0:0:0:
320,192,15442,1,0,0:0:0:0:
192,192,15521,1,0,0:0:0:0:
448,192,15600,1,0,0:0:0:0:
64,192,15678,1,0,0:0:0:0:
320,192,15757,1,0,0:0:0:0:
192,192,15757,1,0,0:0:0:0:
448,192,15836,1,0,0:0:0:0:
64,192,15915,1,0,0:0:0:0:
320,192,15994,1,0,0:0:0:0:
448,192,16073,1,0,0:0:0:0:
192,192,16073,1,0,0:0:0:0:
64,192,16152,1,0,0:0:0:0:
320,192,16231,1,0,0:0:0:0:
448,192,16310,1,0,0:0:0:0:
64,192,16389,1,0,0:0:0:0:
192,192,16389,1,0,0:0:0:0:
320,192,16468,1,0,0:0:0:0:
448,192,16547,1,0,0:0:0:0:
64,192,16626,1,0,0:0:0:0:
320,192,16705,1,0,0:0:0:0:
192,192,16705,1,0,0:0:0:0:
448,192,16784,1,0,0:0:0:0:
64,192,16863,1,0,0:0:0:0:
320,192,16942,1,0,0:0:0:0:
448,192,17021,1,0,0:0:0:0:
64,192,17021,1,0,0:0:0:0:
192,192,17100,1,0,0:0:0:0:
320,192,17178,1,0,0:0:0:0:
448,192,17257,1,0,0:0:0:0:
192,192,17336,1,0,0:0:0:0:
64,192,17336,1,0,0:0:0:0:
320,192,17415,1,0,0:0:0:0:
448,192,17494,1,0,0:0:0:0:
192,192,17573,1,0,0:0:0:0:
320,192,17652,1,0,0:0:0:0:
64,192,17652,1,0,0:0:0:0:
448,192,17731,1,0,0:0:0:0:
192,192,17810,1,0,0:0:0:0:
320,192,17889,1,0,0:0:0:0:
448,192,17968,1,0,0:0:0:0:
64,192,17968,1,0,0:0:0:0:
192,192,18047,1,0,0:0:0:0:
320,192,18126,1,0,0:0:0:0:
448,192,18205,1,0,0:0:0:0:
64,192,18284,1,0,0:0:0:0:
192,192,18284,1,0,0:0:0:0:
320,192,18363,1,0,0:0:0:0:
64,192,18442,1,0,0:0:0:0:
448,192,18521,1,0,0:0:0:0:
320,192,18600,1,0,0:0:0:0:
64,192,18600,1,0,0:0:0:0:
192,192,18678,1,0,0:0:0:0:
320,192,18757,1,0,0:0:0:0:
448,192,18836,1,0,0:0:0:0:
192,192,18915,1,0,0:0:0:0:
64,192,18915,1,0,0:0:0:0:
448,192,18994,1,0,0:0:0:0:
192,192,19073,1,0,0:0:0:0:
320,192,19152,1,0,0:0:0:0:
192,192,19231,1,0,0:0:0:0:
448,192,19231,1,0,0:0:0:0:
64,192,19310,1,0,0:0:0:0:
448,192,19389,1,0,0:0:0:0:
320,192,19468,1,0,0:0:0:0:
192,192,19547,128,0,20178:0:0:0:0:
64,192,19863,128,0,20336:0:0:0:0:
320,192,20494,1,0,0:0:0:0:
320,192,20573,1,0,0:0:0:0:
192,192,20652,128,0,20731:0:0:0:0:
64,192,20810,1,0,0:0:0:0:
448,192,20810,1,0,0:0:0:0:
320,192,20810,1,0,0:0:0:0:
192,192,20968,1,0,0:0:0:0:
320,192,20968,1,0,0:0:0:0:
448,192,21047,1,0,0:0:0:0:
192,192,21126,1,0,0:0:0:0:
64,192,21126,1,0,0:0:0:0:
448,192,21284,1,0,0:0:0:0:
64,192,21284,1,0,0:0:0:0:
320,192,21442,1,0,0:0:0:0:
192,192,21442,1,0,0:0:0:0:
448,192,21600,1,0,0:0:0:0:
64,192,21600,1,0,0:0:0:0:
192,192,21757,1,0,0:0:0:0:
64,192,21757,1,0,0:0:0:0:
448,192,21915,1,0,0:0:0:0:
320,192,21915,1,0,0:0:0:0:
448,192,22073,1,0,0:0:0:0:
192,192,22073,1,0,0:0:0:0:
64,192,22231,1,0,0:0:0:0:
320,192,22231,1,0,0:0:0:0:
448,192,22310,1,0,0:0:0:0:
64,192,22389,1,0,0:0:0:0:
192,192,22389,1,0,0:0:0:0:
448,192,22547,1,0,0:0:0:0:
192,192,22547,1,0,0:0:0:0:
64,192,22705,1,0,0:0:0:0:
320,192,22705,1,0,0:0:0:0:
448,192,22863,1,0,0:0:0:0:
192,192,22863,1,0,0:0:0:0:
64,192,23021,1,0,0:0:0:0:
192,192,23021,1,0,0:0:0:0:
448,192,23178,1,0,0:0:0:0:
320,192,23178,1,0,0:0:0:0:
64,192,23336,1,0,0:0:0:0:
448,192,23336,1,0,0:0:0:0:
192,192,23494,1,0,0:0:0:0:
320,192,23494,1,0,0:0:0:0:
448,192,23573,1,0,0:0:0:0:
192,192,23652,1,0,0:0:0:0:
64,192,23652,1,0,0:0:0:0:
448,192,23810,1,0,0:0:0:0:
64,192,23810,1,0,0:0:0:0:
320,192,23968,1,0,0:0:0:0:
192,192,23968,1,0,0:0:0:0:
448,192,24126,1,0,0:0:0:0:
64,192,24126,1,0,0:0:0:0:
192,192,24284,1,0,0:0:0:0:
64,192,24284,1,0,0:0:0:0:
448,192,24442,1,0,0:0:0:0:
320,192,24442,1,0,0:0:0:0:
448,192,24600,1,0,0:0:0:0:
192,192,24600,1,0,0:0:0:0:
64,192,24757,1,0,0:0:0:0:
320,192,24757,1,0,0:0:0:0:
448,192,24836,1,0,0:0:0:0:
64,192,24915,1,0,0:0:0:0:
192,192,24915,1,0,0:0:0:0:
448,192,25073,1,0,0:0:0:0:
192,192,25073,1,0,0:0:0:0:
64,192,25231,1,0,0:0:0:0:
320,192,25231,1,0,0:0:0:0:
448,192,25389,1,0,0:0:0:0:
192,192,25389,1,0,0:0:0:0:
64,192,25547,1,0,0:0:0:0:
192,192,25547,1,0,0:0:0:0:
448,192,25705,1,0,0:0:0:0:
320,192,25705,1,0,0:0:0:0:
448,192,25863,1,0,0:0:0:0:
64,192,25863,1,0,0:0:0:0:
320,192,26021,1,0,0:0:0:0:
192,192,26021,1,0,0:0:0:0:
448,192,26100,1,0,0:0:0:0:
64,192,26178,1,0,0:0:0:0:
192,192,26178,1,0,0:0:0:0:
64,192,26336,1,0,0:0:0:0:
448,192,26336,1,0,0:0:0:0:
192,192,26494,1,0,0:0:0:0:
320,192,26494,1,0,0:0:0:0:
64,192,26652,1,0,0:0:0:0:
448,192,26652,1,0,0:0:0:0:
64,192,26810,1,0,0:0:0:0:
192,192,26810,1,0,0:0:0:0:
320,192,26968,1,0,0:0:0:0:
448,192,26968,1,0,0:0:0:0:
192,192,27126,1,0,0:0:0:0:
448,192,27126,1,0,0:0:0:0:
320,192,27284,1,0,0:0:0:0:
64,192,27284,1,0,0:0:0:0:
448,192,27363,1,0,0:0:0:0:
192,192,27442,1,0,0:0:0:0:
64,192,27442,1,0,0:0:0:0:
192,192,27600,1,0,0:0:0:0:
448,192,27600,1,0,0:0:0:0:
320,192,27757,1,0,0:0:0:0:
64,192,27757,1,0,0:0:0:0:
192,192,27915,1,0,0:0:0:0:
448,192,27915,1,0,0:0:0:0:
192,192,28073,1,0,0:0:0:0:
64,192,28073,1,0,0:0:0:0:
320,192,28231,1,0,0:0:0:0:
448,192,28231,1,0,0:0:0:0:
64,192,28389,1,0,0:0:0:0:
448,192,28389,1,0,0:0:0:0:
192,192,28547,1,0,0:0:0:0:
320,192,28547,1,0,0:0:0:0:
448,192,28626,1,0,0:0:0:0:
192,192,28705,1,0,0:0:0:0:
64,192,28705,1,0,0:0:0:0:
448,192,28863,1,0,0:0:0:0:
64,192,28863,1,0,0:0:0:0:
320,192,29021,1,0,0:0:0:0:
192,192,29021,1,0,0:0:0:0:
448,192,29178,1,0,0:0:0:0:
64,192,29178,1,0,0:0:0:0:
192,192,29336,1,0,0:0:0:0:
64,192,29336,1,0,0:0:0:0:
448,192,29494,1,0,0:0:0:0:
320,192,29494,1,0,0:0:0:0:
448,192,29652,1,0,0:0:0:0:
192,192,29652,1,0,0:0:0:0:
64,192,29810,1,0,0:0:0:0:
320,192,29810,1,0,0:0:0:0:
448,192,29889,1,0,0:0:0:0:
64,192,29968,1,0,0:0:0:0:
192,192,29968,1,0,0:0:0:0:
448,192,30126,1,0,0:0:0:0:
192,192,30126,1,0,0:0:0:0:
64,192,30284,1,0,0:0:0:0:
320,192,30284,1,0,0:0:0:0:
448,192,30442,1,0,0:0:0:0:
192,192,30442,1,0,0:0:0:0:
320,192,30600,1,0,0:0:0:0:
320,192,30678,1,0,0:0:0:0:
192,192,30757,128,0,30836:0:0:0:0:
64,192,30915,1,0,0:0:0:0:
448,192,30915,1,0,0:0:0:0:
320,192,31073,1,0,0:0:0:0:
192,192,31073,1,0,0:0:0:0:
448,192,31152,1,0,0:0:0:0:
192,192,31231,128,0,31310:0:0:0:0:
64,192,31231,1,0,0:0:0:0:
448,192,31389,1,0,0:0:0:0:
64,192,31389,1,0,0:0:0:0:
320,192,31547,1,0,0:0:0:0:
192,192,31547,1,0,0:0:0:0:
448,192,31705,1,0,0:0:0:0:
64,192,31705,1,0,0:0:0:0:
192,192,31863,128,0,31942:0:0:0:0:
64,192,31863,1,0,0:0:0:0:
448,192,32021,1,0,0:0:0:0:
320,192,32021,1,0,0:0:0:0:
448,192,32178,1,0,0:0:0:0:
192,192,32178,1,0,0:0:0:0:
320,192,32336,1,0,0:0:0:0:
64,192,32336,1,0,0:0:0:0:
448,192,32415,1,0,0:0:0:0:
192,192,32494,128,0,32573:0:0:0:0:
64,192,32494,1,0,0:0:0:0:
448,192,32652,1,0,0:0:0:0:
192,192,32652,1,0,0:0:0:0:
64,192,32810,1,0,0:0:0:0:
320,192,32810,1,0,0:0:0:0:
448,192,32968,1,0,0:0:0:0:
320,192,32968,1,0,0:0:0:0:
192,192,33126,128,0,33205:0:0:0:0:
64,192,33126,1,0,0:0:0:0:
448,192,33284,1,0,0:0:0:0:
192,192,33284,128,0,33363:0:0:0:0:
448,192,33442,1,0,0:0:0:0:
64,192,33442,1,0,0:0:0:0:
192,192,33600,1,0,0:0:0:0:
320,192,33600,1,0,0:0:0:0:
448,192,33678,1,0,0:0:0:0:
192,192,33757,128,0,33836:0:0:0:0:
64,192,33757,1,0,0:0:0:0:
448,192,33915,1,0,0:0:0:0:
64,192,33915,1,0,0:0:0:0:
320,192,34073,1,0,0:0:0:0:
192,192,34073,1,0,0:0:0:0:
448,192,34231,1,0,0:0:0:0:
64,192,34231,1,0,0:0:0:0:
192,192,34389,128,0,34468:0:0:0:0:
64,192,34389,1,0,0:0:0:0:
448,192,34547,1,0,0:0:0:0:
320,192,34547,1,0,0:0:0:0:
448,192,34705,1,0,0:0:0:0:
192,192,34705,128,0,34784:0:0:0:0:
320,192,34863,1,0,0:0:0:0:
64,192,34863,1,0,0:0:0:0:
192,192,34942,128,0,35021:0:0:0:0:
448,192,35021,1,0,0:0:0:0:
64,192,35021,1,0,0:0:0:0:
448,192,35178,1,0,0:0:0:0:
192,192,35178,128,0,35257:0:0:0:0:
320,192,35336,1,0,0:0:0:0:
64,192,35336,1,0,0:0:0:0:
448,192,35494,1,0,0:0:0:0:
192,192,35494,128,0,35573:0:0:0:0:
320,192,35652,1,0,0:0:0:0:
64,192,35652,1,0,0:0:0:0:
320,192,35731,1,0,0:0:0:0:
448,192,35810,1,0,0:0:0:0:
192,192,35810,128,0,35889:0:0:0:0:
448,192,35968,1,0,0:0:0:0:
64,192,35968,1,0,0:0:0:0:
320,192,36126,1,0,0:0:0:0:
64,192,36126,1,0,0:0:0:0:
448,192,36205,1,0,0:0:0:0:
192,192,36284,128,0,36363:0:0:0:0:
64,192,36284,1,0,0:0:0:0:
448,192,36442,1,0,0:0:0:0:
192,192,36442,1,0,0:0:0:0:
320,192,36600,1,0,0:0:0:0:
192,192,36600,1,0,0:0:0:0:
448,192,36757,1,0,0:0:0:0:
320,192,36757,1,0,0:0:0:0:
192,192,36915,128,0,36994:0:0:0:0:
320,192,36915,1,0,0:0:0:0:
448,192,37073,1,0,0:0:0:0:
64,192,37073,1,0,0:0:0:0:
448,192,37231,1,0,0:0:0:0:
192,192,37231,1,0,0:0:0:0:
320,192,37389,1,0,0:0:0:0:
192,192,37389,1,0,0:0:0:0:
448,192,37468,1,0,0:0:0:0:
192,192,37547,128,0,37626:0:0:0:0:
64,192,37547,1,0,0:0:0:0:
448,192,37705,1,0,0:0:0:0:
64,192,37705,1,0,0:0:0:0:
320,192,37863,1,0,0:0:0:0:
64,192,37863,1,0,0:0:0:0:
448,192,38021,1,0,0:0:0:0:
320,192,38021,1,0,0:0:0:0:
192,192,38178,128,0,38257:0:0:0:0:
320,192,38178,1,0,0:0:0:0:
448,192,38336,1,0,0:0:0:0:
192,192,38336,128,0,38415:0:0:0:0:
448,192,38494,1,0,0:0:0:0:
64,192,38494,1,0,0:0:0:0:
320,192,38494,1,0,0:0:0:0:
320,192,38652,1,0,0:0:0:0:
64,192,38652,1,0,0:0:0:0:
448,192,38731,1,0,0:0:0:0:
192,192,38810,128,0,38889:0:0:0:0:
64,192,38810,1,0,0:0:0:0:
320,192,38810,1,0,0:0:0:0:
448,192,38968,1,0,0:0:0:0:
64,192,38968,1,0,0:0:0:0:
64,192,39126,1,0,0:0:0:0:
320,192,39126,1,0,0:0:0:0:
192,192,39126,1,0,0:0:0:0:
448,192,39284,1,0,0:0:0:0:
320,192,39284,1,0,0:0:0:0:
192,192,39442,128,0,39521:0:0:0:0:
320,192,39442,1,0,0:0:0:0:
64,192,39442,1,0,0:0:0:0:
448,192,39600,1,0,0:0:0:0:
320,192,39600,1,0,0:0:0:0:
64,192,39757,1,0,0:0:0:0:
64,192,39836,1,0,0:0:0:0:
320,192,39915,1,0,0:0:0:0:
320,192,39994,1,0,0:0:0:0:
64,192,40073,1,0,0:0:0:0:
64,192,40231,1,0,0:0:0:0:
64,192,40389,1,0,0:0:0:0:
320,192,40547,1,0,0:0:0:0:
192,192,40705,128,0,40863:0:0:0:0:
64,192,41021,128,0,41178:0:0:0:0:
448,192,41021,1,0,0:0:0:0:
320,192,41100,1,0,0:0:0:0:
192,192,41178,1,0,0:0:0:0:
64,192,41336,128,0,41494:0:0:0:0:
448,192,41336,1,0,0:0:0:0:
320,192,41415,1,0,0:0:0:0:
192,192,41494,1,0,0:0:0:0:
64,192,41652,128,0,41731:0:0:0:0:
448,192,41652,1,0,0:0:0:0:
320,192,41731,1,0,0:0:0:0:
64,192,41810,128,0,41968:0:0:0:0:
320,192,41889,1,0,0:0:0:0:
192,192,41968,1,0,0:0:0:0:
448,192,41968,1,0,0:0:0:0:
64,192,42126,128,0,42284:0:0:0:0:
320,192,42205,1,0,0:0:0:0:
448,192,42284,1,0,0:0:0:0:
192,192,42284,1,0,0:0:0:0:
64,192,42442,128,0,42600:0:0:0:0:
320,192,42521,1,0,0:0:0:0:
192,192,42600,1,0,0:0:0:0:
448,192,42600,1,0,0:0:0:0:
64,192,42757,128,0,42915:0:0:0:0:
320,192,42836,1,0,0:0:0:0:
448,192,42915,1,0,0:0:0:0:
192,192,42915,128,0,43021:0:0:0:0:
320,192,43073,128,0,43152:0:0:0:0:
192,192,43152,1,0,0:0:0:0:
448,192,43152,1,0,0:0:0:0:
64,192,43231,128,0,43389:0:0:0:0:
320,192,43231,1,0,0:0:0:0:
192,192,43389,1,0,0:0:0:0:
448,192,43389,1,0,0:0:0:0:
320,192,43468,1,0,0:0:0:0:
192,192,43547,1,0,0:0:0:0:
448,192,43547,1,0,0:0:0:0:
64,192,43705,128,0,43784:0:0:0:0:
448,192,43784,1,0,0:0:0:0:
64,192,43863,128,0,43942:0:0:0:0:
192,192,43863,1,0,0:0:0:0:
320,192,43942,1,0,0:0:0:0:
64,192,44021,128,0,44100:0:0:0:0:
448,192,44100,1,0,0:0:0:0:
64,192,44178,128,0,44257:0:0:0:0:
192,192,44178,1,0,0:0:0:0:
320,192,44257,1,0,0:0:0:0:
64,192,44336,128,0,44494:0:0:0:0:
448,192,44415,1,0,0:0:0:0:
320,192,44494,1,0,0:0:0:0:
192,192,44494,1,0,0:0:0:0:
64,192,44652,128,0,44731:0:0:0:0:
448,192,44731,1,0,0:0:0:0:
64,192,44810,128,0,44889:0:0:0:0:
192,192,44810,1,0,0:0:0:0:
320,192,44889,1,0,0:0:0:0:
64,192,44968,128,0,45047:0:0:0:0:
192,192,44968,1,0,0:0:0:0:
448,192,45047,1,0,0:0:0:0:
64,192,45126,128,0,45205:0:0:0:0:
320,192,45126,1,0,0:0:0:0:
192,192,45205,1,0,0:0:0:0:
64,192,45284,128,0,45363:0:0:0:0:
448,192,45363,1,0,0:0:0:0:
320,192,45442,128,0,45600:0:0:0:0:
192,192,45442,1,0,0:0:0:0:
64,192,45521,1,0,0:0:0:0:
448,192,45600,1,0,0:0:0:0:
64,192,45757,128,0,45915:0:0:0:0:
192,192,45757,1,0,0:0:0:0:
448,192,46073,128,0,46113:0:0:0:0:
192,192,46073,128,0,46113:0:0:0:0:
192,192,46231,1,0,0:0:0:0:
448,192,46231,1,0,0:0:0:0:
64,192,46389,128,0,46547:0:0:0:0:
320,192,46389,1,0,0:0:0:0:
448,192,46468,1,0,0:0:0:0:
192,192,46547,1,0,0:0:0:0:
64,192,46705,128,0,46784:0:0:0:0:
320,192,46705,1,0,0:0:0:0:
448,192,46784,1,0,0:0:0:0:
64,192,46863,128,0,47021:0:0:0:0:
448,192,46942,1,0,0:0:0:0:
320,192,47021,1,0,0:0:0:0:
192,192,47021,1,0,0:0:0:0:
64,192,47178,128,0,47336:0:0:0:0:
448,192,47257,1,0,0:0:0:0:
320,192,47336,1,0,0:0:0:0:
192,192,47336,1,0,0:0:0:0:
64,192,47494,128,0,47652:0:0:0:0:
448,192,47573,1,0,0:0:0:0:
320,192,47652,1,0,0:0:0:0:
192,192,47652,1,0,0:0:0:0:
64,192,47810,128,0,47968:0:0:0:0:
448,192,47889,1,0,0:0:0:0:
320,192,47968,1,0,0:0:0:0:
192,192,47968,128,0,48073:0:0:0:0:
320,192,48126,128,0,48205:0:0:0:0:
192,192,48205,1,0,0:0:0:0:
448,192,48205,1,0,0:0:0:0:
64,192,48284,128,0,48442:0:0:0:0:
320,192,48284,1,0,0:0:0:0:
192,192,48442,1,0,0:0:0:0:
448,192,48442,1,0,0:0:0:0:
320,192,48521,1,0,0:0:0:0:
192,192,48600,1,0,0:0:0:0:
448,192,48600,1,0,0:0:0:0:
64,192,48757,128,0,48836:0:0:0:0:
320,192,48836,1,0,0:0:0:0:
64,192,48915,128,0,48994:0:0:0:0:
448,192,48915,1,0,0:0:0:0:
192,192,48994,1,0,0:0:0:0:
64,192,49073,128,0,49152:0:0:0:0:
320,192,49152,1,0,0:0:0:0:
64,192,49231,128,0,49310:0:0:0:0:
448,192,49231,1,0,0:0:0:0:
192,192,49310,1,0,0:0:0:0:
64,192,49389,128,0,49547:0:0:0:0:
448,192,49468,1,0,0:0:0:0:
320,192,49547,1,0,0:0:0:0:
192,192,49547,1,0,0:0:0:0:
64,192,49705,128,0,49863:0:0:0:0:
448,192,49784,1,0,0:0:0:0:
320,192,49863,128,0,50494:0:0:0:0:
448,192,50178,128,0,50652:0:0:0:0:
64,192,50810,1,0,0:0:0:0:
64,192,50889,1,0,0:0:0:0:
192,192,50968,128,0,51047:0:0:0:0:
448,192,51126,128,0,51284:0:0:0:0:
320,192,51126,1,0,0:0:0:0:
64,192,51205,1,0,0:0:0:0:
192,192,51284,128,0,51336:0:0:0:0:
448,192,51442,128,0,51600:0:0:0:0:
320,192,51442,1,0,0:0:0:0:
64,192,51521,1,0,0:0:0:0:
192,192,51600,128,0,51652:0:0:0:0:
448,192,51757,128,0,51836:0:0:0:0:
320,192,51757,1,0,0:0:0:0:
64,192,51836,1,0,0:0:0:0:
448,192,51915,128,0,52073:0:0:0:0:
192,192,51915,128,0,51994:0:0:0:0:
64,192,52073,1,0,0:0:0:0:
320,192,52073,1,0,0:0:0:0:
448,192,52231,128,0,52389:0:0:0:0:
192,192,52231,128,0,52284:0:0:0:0:
192,192,52389,128,0,52468:0:0:0:0:
64,192,52389,1,0,0:0:0:0:
448,192,52547,128,0,52705:0:0:0:0:
192,192,52626,128,0,52705:0:0:0:0:
320,192,52705,1,0,0:0:0:0:
64,192,52705,1,0,0:0:0:0:
448,192,52863,128,0,53021:0:0:0:0:
192,192,52863,128,0,52915:0:0:0:0:
64,192,53021,1,0,0:0:0:0:
320,192,53021,1,0,0:0:0:0:
64,192,53100,1,0,0:0:0:0:
320,192,53178,1,0,0:0:0:0:
320,192,53257,1,0,0:0:0:0:
64,192,53257,1,0,0:0:0:0:
192,192,53336,128,0,53415:0:0:0:0:
448,192,53336,128,0,53494:0:0:0:0:
64,192,53494,1,0,0:0:0:0:
320,192,53494,1,0,0:0:0:0:
192,192,53573,1,0,0:0:0:0:
64,192,53652,1,0,0:0:0:0:
320,192,53652,1,0,0:0:0:0:
64,192,53731,1,0,0:0:0:0:
192,192,53810,128,0,53889:0:0:0:0:
448,192,53810,128,0,53889:0:0:0:0:
448,192,53968,128,0,54047:0:0:0:0:
320,192,53968,1,0,0:0:0:0:
64,192,54047,1,0,0:0:0:0:
448,192,54126,128,0,54205:0:0:0:0:
192,192,54126,128,0,54178:0:0:0:0:
448,192,54284,128,0,54363:0:0:0:0:
320,192,54284,1,0,0:0:0:0:
64,192,54363,1,0,0:0:0:0:
448,192,54442,128,0,54600:0:0:0:0:
192,192,54442,128,0,54521:0:0:0:0:
320,192,54600,1,0,0:0:0:0:
64,192,54600,1,0,0:0:0:0:
448,192,54757,128,0,54836:0:0:0:0:
192,192,54757,128,0,54810:0:0:0:0:
448,192,54915,128,0,54994:0:0:0:0:
192,192,54915,128,0,54994:0:0:0:0:
64,192,54994,1,0,0:0:0:0:
448,192,55073,128,0,55152:0:0:0:0:
320,192,55073,1,0,0:0:0:0:
192,192,55152,128,0,55231:0:0:0:0:
448,192,55231,128,0,55310:0:0:0:0:
64,192,55231,1,0,0:0:0:0:
448,192,55389,128,0,55468:0:0:0:0:
192,192,55389,128,0,55442:0:0:0:0:
320,192,55547,128,0,55705:0:0:0:0:
192,192,55547,128,0,55600:0:0:0:0:
192,192,55705,128,0,55757:0:0:0:0:
448,192,55863,128,0,56021:0:0:0:0:
64,192,55863,1,0,0:0:0:0:
64,192,55942,1,0,0:0:0:0:
192,192,56021,128,0,56100:0:0:0:0:
320,192,56178,128,0,56218:0:0:0:0:
64,192,56178,128,0,56218:0:0:0:0:
320,192,56336,1,0,0:0:0:0:
64,192,56336,1,0,0:0:0:0:
448,192,56494,128,0,56652:0:0:0:0:
320,192,56494,1,0,0:0:0:0:
64,192,56573,1,0,0:0:0:0:
192,192,56652,128,0,56705:0:0:0:0:
448,192,56810,128,0,56889:0:0:0:0:
320,192,56810,1,0,0:0:0:0:
64,192,56889,1,0,0:0:0:0:
448,192,56968,128,0,57126:0:0:0:0:
192,192,56968,128,0,57047:0:0:0:0:
320,192,57126,1,0,0:0:0:0:
64,192,57126,1,0,0:0:0:0:
448,192,57284,128,0,57442:0:0:0:0:
192,192,57284,128,0,57336:0:0:0:0:
192,192,57442,128,0,57521:0:0:0:0:
64,192,57442,1,0,0:0:0:0:
448,192,57600,128,0,57757:0:0:0:0:
192,192,57678,128,0,57757:0:0:0:0:
320,192,57757,1,0,0:0:0:0:
64,192,57757,1,0,0:0:0:0:
448,192,57915,128,0,58073:0:0:0:0:
192,192,57915,128,0,57968:0:0:0:0:
64,192,58073,1,0,0:0:0:0:
320,192,58073,1,0,0:0:0:0:
64,192,58152,1,0,0:0:0:0:
320,192,58231,1,0,0:0:0:0:
320,192,58310,1,0,0:0:0:0:
64,192,58310,1,0,0:0:0:0:
448,192,58389,128,0,58547:0:0:0:0:
192,192,58389,128,0,58468:0:0:0:0:
64,192,58547,1,0,0:0:0:0:
320,192,58547,1,0,0:0:0:0:
192,192,58626,1,0,0:0:0:0:
448,192,58705,128,0,58784:0:0:0:0:
64,192,58705,1,0,0:0:0:0:
64,192,58784,1,0,0:0:0:0:
448,192,58863,128,0,58942:0:0:0:0:
192,192,58863,128,0,58942:0:0:0:0:
448,192,59021,128,0,59100:0:0:0:0:
320,192,59021,1,0,0:0:0:0:
64,192,59100,1,0,0:0:0:0:
448,192,59178,128,0,59257:0:0:0:0:
192,192,59178,128,0,59231:0:0:0:0:
448,192,59336,128,0,59415:0:0:0:0:
320,192,59336,1,0,0:0:0:0:
64,192,59415,1,0,0:0:0:0:
448,192,59494,128,0,59573:0:0:0:0:
192,192,59494,128,0,59573:0:0:0:0:
320,192,59573,1,0,0:0:0:0:
64,192,59573,1,0,0:0:0:0:
448,192,59652,128,0,59810:0:0:0:0:
192,192,59652,1,0,0:0:0:0:
64,192,59810,1,0,0:0:0:0:
192,192,59810,128,0,59863:0:0:0:0:
320,192,59889,1,0,0:0:0:0:
448,192,59968,128,0,60047:0:0:0:0:
320,192,60126,128,0,60205:0:0:0:0:
192,192,60284,128,0,60363:0:0:0:0:
64,192,60442,128,0,60521:0:0:0:0:
448,192,60600,1,0,0:0:0:0:
320,192,60600,1,0,0:0:0:0:
192,192,60678,1,0,0:0:0:0:
448,192,60757,1,0,0:0:0:0:
64,192,60757,1,0,0:0:0:0:
320,192,60836,1,0,0:0:0:0:
192,192,60915,1,0,0:0:0:0:
64,192,60915,1,0,0:0:0:0:
448,192,60994,1,0,0:0:0:0:
320,192,61073,1,0,0:0:0:0:
192,192,61073,1,0,0:0:0:0:
320,192,61152,1,0,0:0:0:0:
192,192,61231,1,0,0:0:0:0:
64,192,61231,1,0,0:0:0:0:
64,192,61389,128,0,61547:0:0:0:0:
320,192,61468,128,0,61547:0:0:0:0:
192,192,61547,1,0,0:0:0:0:
448,192,61547,1,0,0:0:0:0:
64,192,61705,128,0,61863:0:0:0:0:
192,192,61784,128,0,61863:0:0:0:0:
320,192,61863,1,0,0:0:0:0:
448,192,61863,1,0,0:0:0:0:
192,192,62021,128,0,62178:0:0:0:0:
320,192,62100,128,0,62178:0:0:0:0:
64,192,62178,1,0,0:0:0:0:
448,192,62178,1,0,0:0:0:0:
320,192,62336,128,0,62494:0:0:0:0:
448,192,62415,128,0,62494:0:0:0:0:
192,192,62494,1,0,0:0:0:0:
64,192,62494,1,0,0:0:0:0:
448,192,62652,128,0,62810:0:0:0:0:
192,192,62731,128,0,62810:0:0:0:0:
64,192,62810,1,0,0:0:0:0:
320,192,62810,1,0,0:0:0:0:
192,192,62968,128,0,63126:0:0:0:0:
64,192,63047,128,0,63126:0:0:0:0:
448,192,63126,1,0,0:0:0:0:
320,192,63126,1,0,0:0:0:0:
320,192,63284,128,0,63442:0:0:0:0:
192,192,63363,128,0,63442:0:0:0:0:
64,192,63442,1,0,0:0:0:0:
448,192,63442,1,0,0:0:0:0:
448,192,63600,128,0,63757:0:0:0:0:
320,192,63678,128,0,63757:0:0:0:0:
192,192,63757,1,0,0:0:0:0:
64,192,63757,1,0,0:0:0:0:
448,192,63915,128,0,64073:0:0:0:0:
192,192,63994,128,0,64073:0:0:0:0:
320,192,64073,1,0,0:0:0:0:
64,192,64073,1,0,0:0:0:0:
192,192,64231,128,0,64389:0:0:0:0:
64,192,64310,128,0,64389:0:0:0:0:
320,192,64389,1,0,0:0:0:0:
448,192,64389,1,0,0:0:0:0:
320,192,64547,128,0,64705:0:0:0:0:
192,192,64626,128,0,64705:0:0:0:0:
64,192,64705,1,0,0:0:0:0:
448,192,64705,1,0,0:0:0:0:
448,192,64863,128,0,65021:0:0:0:0:
320,192,64942,128,0,65021:0:0:0:0:
192,192,65021,1,0,0:0:0:0:
64,192,65021,1,0,0:0:0:0:
448,192,65178,128,0,65336:0:0:0:0:
192,192,65257,128,0,65336:0:0:0:0:
320,192,65336,1,0,0:0:0:0:
64,192,65336,1,0,0:0:0:0:
192,192,65494,128,0,65652:0:0:0:0:
64,192,65573,128,0,65652:0:0:0:0:
320,192,65652,1,0,0:0:0:0:
448,192,65652,1,0,0:0:0:0:
448,192,65810,128,0,65968:0:0:0:0:
64,192,65889,128,0,65968:0:0:0:0:
320,192,65968,128,0,66126:0:0:0:0:
192,192,65968,128,0,66126:0:0:0:0:
192,192,66284,1,0,0:0:0:0:
64,192,66284,1,0,0:0:0:0:
192,192,66442,1,0,0:0:0:0:
448,192,66600,1,0,0:0:0:0:
64,192,66600,1,0,0:0:0:0:
320,192,66678,1,0,0:0:0:0:
192,192,66757,1,0,0:0:0:0:
64,192,66836,1,0,0:0:0:0:
320,192,66915,1,0,0:0:0:0:
448,192,66915,1,0,0:0:0:0:
192,192,67073,1,0,0:0:0:0:
320,192,67100,1,0,0:0:0:0:
448,192,67231,1,0,0:0:0:0:
64,192,67231,1,0,0:0:0:0:
448,192,67389,1,0,0:0:0:0:
320,192,67468,1,0,0:0:0:0:
64,192,67547,1,0,0:0:0:0:
192,192,67547,1,0,0:0:0:0:
320,192,67705,1,0,0:0:0:0:
192,192,67784,1,0,0:0:0:0:
448,192,67863,1,0,0:0:0:0:
64,192,67863,1,0,0:0:0:0:
192,192,68021,1,0,0:0:0:0:
448,192,68100,1,0,0:0:0:0:
64,192,68178,1,0,0:0:0:0:
192,192,68178,1,0,0:0:0:0:
192,192,68336,1,0,0:0:0:0:
320,192,68363,1,0,0:0:0:0:
448,192,68494,1,0,0:0:0:0:
64,192,68494,1,0,0:0:0:0:
320,192,68573,1,0,0:0:0:0:
192,192,68652,1,0,0:0:0:0:
64,192,68731,1,0,0:0:0:0:
320,192,68810,1,0,0:0:0:0:
448,192,68810,1,0,0:0:0:0:
64,192,68968,1,0,0:0:0:0:
192,192,68994,1,0,0:0:0:0:
448,192,69126,1,0,0:0:0:0:
64,192,69126,1,0,0:0:0:0:
192,192,69152,1,0,0:0:0:0:
192,192,69284,1,0,0:0:0:0:
64,192,69310,1,0,0:0:0:0:
320,192,69442,1,0,0:0:0:0:
448,192,69442,1,0,0:0:0:0:
64,192,69521,1,0,0:0:0:0:
192,192,69600,1,0,0:0:0:0:
448,192,69626,1,0,0:0:0:0:
320,192,69678,1,0,0:0:0:0:
64,192,69757,1,0,0:0:0:0:
448,192,69757,1,0,0:0:0:0:
192,192,69784,1,0,0:0:0:0:
320,192,69915,1,0,0:0:0:0:
64,192,69994,1,0,0:0:0:0:
448,192,70073,128,0,70310:0:0:0:0:
320,192,70073,128,0,70310:0:0:0:0:
320,192,70389,128,0,70626:0:0:0:0:
448,192,70389,128,0,70626:0:0:0:0:
448,192,70705,1,0,0:0:0:0:
320,192,70725,128,0,70863:0:0:0:0:
448,192,70863,128,0,71021:0:0:0:0:
64,192,71021,1,0,0:0:0:0:
64,192,71100,1,0,0:0:0:0:
192,192,71178,128,0,71257:0:0:0:0:
320,192,71336,128,0,71376:0:0:0:0:
448,192,71336,128,0,71376:0:0:0:0:
192,192,71415,1,0,0:0:0:0:
320,192,71494,1,0,0:0:0:0:
448,192,71494,1,0,0:0:0:0:
192,192,71573,1,0,0:0:0:0:
64,192,71652,1,0,0:0:0:0:
448,192,71652,1,0,0:0:0:0:
320,192,71731,1,0,0:0:0:0:
192,192,71810,1,0,0:0:0:0:
64,192,71889,1,0,0:0:0:0:
320,192,71968,1,0,0:0:0:0:
448,192,71968,1,0,0:0:0:0:
192,192,72126,1,0,0:0:0:0:
320,192,72152,1,0,0:0:0:0:
448,192,72284,1,0,0:0:0:0:
64,192,72284,1,0,0:0:0:0:
448,192,72442,1,0,0:0:0:0:
320,192,72521,1,0,0:0:0:0:
192,192,72600,1,0,0:0:0:0:
64,192,72600,1,0,0:0:0:0:
320,192,72757,1,0,0:0:0:0:
192,192,72836,1,0,0:0:0:0:
64,192,72915,1,0,0:0:0:0:
448,192,72915,1,0,0:0:0:0:
192,192,73073,1,0,0:0:0:0:
448,192,73152,1,0,0:0:0:0:
192,192,73231,1,0,0:0:0:0:
64,192,73231,1,0,0:0:0:0:
64,192,73389,1,0,0:0:0:0:
448,192,73415,1,0,0:0:0:0:
192,192,73468,1,0,0:0:0:0:
320,192,73468,1,0,0:0:0:0:
64,192,73547,1,0,0:0:0:0:
448,192,73547,1,0,0:0:0:0:
320,192,73626,1,0,0:0:0:0:
192,192,73705,1,0,0:0:0:0:
64,192,73705,1,0,0:0:0:0:
192,192,73863,1,0,0:0:0:0:
64,192,73863,1,0,0:0:0:0:
448,192,74021,1,0,0:0:0:0:
320,192,74047,1,0,0:0:0:0:
448,192,74178,1,0,0:0:0:0:
64,192,74178,1,0,0:0:0:0:
320,192,74205,1,0,0:0:0:0:
320,192,74336,1,0,0:0:0:0:
448,192,74363,1,0,0:0:0:0:
192,192,74494,1,0,0:0:0:0:
64,192,74494,1,0,0:0:0:0:
448,192,74573,1,0,0:0:0:0:
320,192,74652,1,0,0:0:0:0:
192,192,74678,1,0,0:0:0:0:
64,192,74810,1,0,0:0:0:0:
448,192,74810,1,0,0:0:0:0:
448,192,74968,1,0,0:0:0:0:
320,192,75047,1,0,0:0:0:0:
192,192,75126,1,0,0:0:0:0:
64,192,75126,1,0,0:0:0:0:
64,192,75284,1,0,0:0:0:0:
192,192,75284,1,0,0:0:0:0:
320,192,75363,1,0,0:0:0:0:
448,192,75442,1,0,0:0:0:0:
64,192,75442,1,0,0:0:0:0:
192,192,75521,1,0,0:0:0:0:
448,192,75600,1,0,0:0:0:0:
320,192,75678,1,0,0:0:0:0:
448,192,75757,1,0,0:0:0:0:
64,192,75757,1,0,0:0:0:0:
192,192,75915,1,0,0:0:0:0:
64,192,75915,1,0,0:0:0:0:
448,192,76073,1,0,0:0:0:0:
320,192,76073,1,0,0:0:0:0:
192,192,76152,1,0,0:0:0:0:
320,192,76231,1,0,0:0:0:0:
448,192,76231,1,0,0:0:0:0:
192,192,76310,1,0,0:0:0:0:
320,192,76389,1,0,0:0:0:0:
64,192,76389,1,0,0:0:0:0:
448,192,76468,1,0,0:0:0:0:
192,192,76547,1,0,0:0:0:0:
448,192,76705,1,0,0:0:0:0:
64,192,76705,1,0,0:0:0:0:
192,192,76784,1,0,0:0:0:0:
448,192,76863,1,0,0:0:0:0:
192,192,77021,1,0,0:0:0:0:
64,192,77021,1,0,0:0:0:0:
320,192,77178,1,0,0:0:0:0:
192,192,77205,1,0,0:0:0:0:
448,192,77336,1,0,0:0:0:0:
64,192,77336,1,0,0:0:0:0:
64,192,77494,1,0,0:0:0:0:
192,192,77573,1,0,0:0:0:0:
320,192,77652,1,0,0:0:0:0:
448,192,77652,1,0,0:0:0:0:
192,192,77810,1,0,0:0:0:0:
320,192,77889,1,0,0:0:0:0:
448,192,77968,1,0,0:0:0:0:
64,192,77968,1,0,0:0:0:0:
192,192,78126,1,0,0:0:0:0:
448,192,78205,1,0,0:0:0:0:
192,192,78284,1,0,0:0:0:0:
64,192,78284,1,0,0:0:0:0:
448,192,78442,1,0,0:0:0:0:
192,192,78468,1,0,0:0:0:0:
448,192,78600,1,0,0:0:0:0:
64,192,78600,1,0,0:0:0:0:
320,192,78678,1,0,0:0:0:0:
192,192,78757,1,0,0:0:0:0:
448,192,78836,1,0,0:0:0:0:
192,192,78915,1,0,0:0:0:0:
64,192,78915,1,0,0:0:0:0:
64,192,79073,1,0,0:0:0:0:
320,192,79073,1,0,0:0:0:0:
64,192,79231,1,0,0:0:0:0:
320,192,79231,1,0,0:0:0:0:
64,192,79389,1,0,0:0:0:0:
448,192,79389,1,0,0:0:0:0:
320,192,79547,1,0,0:0:0:0:
448,192,79547,1,0,0:0:0:0:
192,192,79626,1,0,0:0:0:0:
448,192,79705,1,0,0:0:0:0:
64,192,79705,1,0,0:0:0:0:
320,192,79784,1,0,0:0:0:0:
192,192,79863,1,0,0:0:0:0:
64,192,79863,1,0,0:0:0:0:
320,192,79942,1,0,0:0:0:0:
64,192,80021,1,0,0:0:0:0:
448,192,80021,1,0,0:0:0:0:
320,192,80100,1,0,0:0:0:0:
192,192,80178,128,0,80810:0:0:0:0:
64,192,80494,128,0,80968:0:0:0:0:
448,192,81126,128,0,81165:0:0:0:0:
320,192,81442,1,0,0:0:0:0:
64,192,81757,128,0,81797:0:0:0:0:
320,192,82073,1,0,0:0:0:0:
448,192,82389,128,0,82428:0:0:0:0:
320,192,82705,1,0,0:0:0:0:
64,192,83021,128,0,83060:0:0:0:0:
320,192,83336,1,0,0:0:0:0:
448,192,83652,128,0,83692:0:0:0:0:
64,192,83810,1,0,0:0:0:0:
320,192,83968,1,0,0:0:0:0:
64,192,84284,128,0,84323:0:0:0:0:
448,192,84442,1,0,0:0:0:0:
320,192,84600,1,0,0:0:0:0:
448,192,84915,1,0,0:0:0:0:
320,192,85231,1,0,0:0:0:0:
192,192,85389,1,0,0:0:0:0:
64,192,85547,1,0,0:0:0:0:
192,192,85705,1,0,0:0:0:0:
320,192,85863,1,0,0:0:0:0:
192,192,86178,1,0,0:0:0:0:
448,192,86494,1,0,0:0:0:0:
448,192,86810,1,0,0:0:0:0:
192,192,87126,1,0,0:0:0:0:
320,192,87442,1,0,0:0:0:0:
448,192,87757,1,0,0:0:0:0:
448,192,88073,1,0,0:0:0:0:
192,192,88389,1,0,0:0:0:0:
320,192,88705,1,0,0:0:0:0:
64,192,88863,1,0,0:0:0:0:
448,192,89021,1,0,0:0:0:0:
448,192,89336,1,0,0:0:0:0:
64,192,89494,1,0,0:0:0:0:
320,192,89652,1,0,0:0:0:0:
448,192,89968,1,0,0:0:0:0:
448,192,90284,1,0,0:0:0:0:
192,192,90442,1,0,0:0:0:0:
448,192,90600,1,0,0:0:0:0:
64,192,90757,1,0,0:0:0:0:
192,192,90915,1,0,0:0:0:0:
320,192,91073,1,0,0:0:0:0:
192,192,91231,1,0,0:0:0:0:
64,192,91389,1,0,0:0:0:0:
448,192,91547,128,0,91626:0:0:0:0:
448,192,91863,1,0,0:0:0:0:
192,192,92178,1,0,0:0:0:0:
320,192,92494,128,0,92573:0:0:0:0:
448,192,92810,128,0,92889:0:0:0:0:
448,192,93126,1,0,0:0:0:0:
192,192,93442,1,0,0:0:0:0:
320,192,93757,128,0,93836:0:0:0:0:
64,192,93915,1,0,0:0:0:0:
448,192,94073,128,0,94152:0:0:0:0:
448,192,94389,1,0,0:0:0:0:
64,192,94547,1,0,0:0:0:0:
320,192,94705,1,0,0:0:0:0:
448,192,95021,128,0,95100:0:0:0:0:
448,192,95336,128,0,95415:0:0:0:0:
192,192,95494,1,0,0:0:0:0:
448,192,95652,1,0,0:0:0:0:
64,192,95810,1,0,0:0:0:0:
192,192,95968,128,0,96126:0:0:0:0:
320,192,96126,1,0,0:0:0:0:
192,192,96284,128,0,96363:0:0:0:0:
64,192,96442,1,0,0:0:0:0:
448,192,96600,128,0,96678:0:0:0:0:
448,192,96915,1,0,0:0:0:0:
192,192,97231,1,0,0:0:0:0:
320,192,97547,128,0,97626:0:0:0:0:
448,192,97863,128,0,97942:0:0:0:0:
448,192,98178,1,0,0:0:0:0:
192,192,98494,1,0,0:0:0:0:
320,192,98810,128,0,98889:0:0:0:0:
64,192,98968,1,0,0:0:0:0:
448,192,99126,128,0,99205:0:0:0:0:
448,192,99442,1,0,0:0:0:0:
64,192,99600,1,0,0:0:0:0:
320,192,99757,1,0,0:0:0:0:
448,192,100073,128,0,100152:0:0:0:0:
448,192,100389,128,0,100468:0:0:0:0:
192,192,100547,1,0,0:0:0:0:
448,192,100705,1,0,0:0:0:0:
64,192,100863,1,0,0:0:0:0:
320,192,101021,128,0,101178:0:0:0:0:
192,192,101178,1,0,0:0:0:0:
320,192,101336,128,0,101415:0:0:0:0:
448,192,101494,1,0,0:0:0:0:
320,192,101573,1,0,0:0:0:0:
64,192,101652,128,0,101889:0:0:0:0:
192,192,101652,128,0,102521:0:0:0:0:
64,192,101968,128,0,102836:0:0:0:0:
448,192,102284,1,0,0:0:0:0:
320,192,102600,1,0,0:0:0:0:
192,192,102600,128,0,103468:0:0:0:0:
64,192,102915,128,0,103152:0:0:0:0:
320,192,102915,1,0,0:0:0:0:
64,192,103231,128,0,104100:0:0:0:0:
192,192,103547,128,0,103942:0:0:0:0:
320,192,103863,1,0,0:0:0:0:
448,192,103863,1,0,0:0:0:0:
192,192,104021,128,0,104178:0:0:0:0:
64,192,104178,128,0,104415:0:0:0:0:
320,192,104178,128,0,104731:0:0:0:0:
64,192,104494,128,0,105047:0:0:0:0:
192,192,104652,1,0,0:0:0:0:
320,192,104810,128,0,105994:0:0:0:0:
64,192,105126,128,0,105363:0:0:0:0:
192,192,105126,1,0,0:0:0:0:
64,192,105442,128,0,105678:0:0:0:0:
192,192,105442,1,0,0:0:0:0:
448,192,105600,1,0,0:0:0:0:
64,192,105757,128,0,106626:0:0:0:0:
192,192,105915,1,0,0:0:0:0:
320,192,106073,128,0,106310:0:0:0:0:
448,192,106073,1,0,0:0:0:0:
320,192,106389,128,0,106705:0:0:0:0:
192,192,106389,1,0,0:0:0:0:
448,192,106626,1,0,0:0:0:0:
64,192,106705,128,0,106942:0:0:0:0:
192,192,106705,128,0,107573:0:0:0:0:
64,192,107021,128,0,107889:0:0:0:0:
448,192,107336,1,0,0:0:0:0:
320,192,107652,1,0,0:0:0:0:
192,192,107652,128,0,108600:0:0:0:0:
64,192,107968,128,0,108205:0:0:0:0:
320,192,107968,1,0,0:0:0:0:
64,192,108284,128,0,109152:0:0:0:0:
448,192,108600,128,0,108994:0:0:0:0:
320,192,108915,1,0,0:0:0:0:
192,192,108915,1,0,0:0:0:0:
448,192,109073,128,0,109231:0:0:0:0:
64,192,109231,128,0,109468:0:0:0:0:
320,192,109231,128,0,109784:0:0:0:0:
64,192,109547,128,0,110100:0:0:0:0:
448,192,109705,1,0,0:0:0:0:
320,192,109863,128,0,111047:0:0:0:0:
448,192,110178,1,0,0:0:0:0:
64,192,110178,128,0,110415:0:0:0:0:
448,192,110494,1,0,0:0:0:0:
64,192,110494,128,0,110731:0:0:0:0:
192,192,110652,1,0,0:0:0:0:
64,192,110810,128,0,111757:0:0:0:0:
448,192,110968,1,0,0:0:0:0:
320,192,111126,128,0,111363:0:0:0:0:
192,192,111126,1,0,0:0:0:0:
448,192,111284,1,0,0:0:0:0:
320,192,111442,128,0,112310:0:0:0:0:
192,192,111600,1,0,0:0:0:0:
448,192,111757,128,0,111994:0:0:0:0:
192,192,111757,128,0,112626:0:0:0:0:
448,192,112073,128,0,112942:0:0:0:0:
320,192,112389,128,0,113573:0:0:0:0:
192,192,112705,128,0,112942:0:0:0:0:
64,192,112705,1,0,0:0:0:0:
448,192,113021,128,0,113257:0:0:0:0:
192,192,113021,128,0,113889:0:0:0:0:
448,192,113336,128,0,114205:0:0:0:0:
320,192,113652,128,0,114047:0:0:0:0:
192,192,113968,128,0,114836:0:0:0:0:
64,192,113968,1,0,0:0:0:0:
320,192,114126,128,0,114284:0:0:0:0:
448,192,114284,128,0,114521:0:0:0:0:
64,192,114284,128,0,115152:0:0:0:0:
448,192,114600,128,0,115152:0:0:0:0:
320,192,114757,1,0,0:0:0:0:
192,192,114915,128,0,115942:0:0:0:0:
448,192,115231,128,0,115468:0:0:0:0:
64,192,115231,128,0,115468:0:0:0:0:
448,192,115547,128,0,115784:0:0:0:0:
64,192,115547,128,0,116100:0:0:0:0:
320,192,115705,1,0,0:0:0:0:
448,192,115863,128,0,116731:0:0:0:0:
192,192,116021,128,0,116178:0:0:0:0:
320,192,116178,128,0,116415:0:0:0:0:
64,192,116178,128,0,116810:0:0:0:0:
192,192,116336,1,0,0:0:0:0:
320,192,116494,128,0,117363:0:0:0:0:
192,192,116652,1,0,0:0:0:0:
448,192,116810,128,0,117047:0:0:0:0:
192,192,116810,128,0,117678:0:0:0:0:
448,192,117126,128,0,117994:0:0:0:0:
320,192,117442,128,0,118626:0:0:0:0:
192,192,117757,128,0,117994:0:0:0:0:
64,192,117757,1,0,0:0:0:0:
448,192,118073,128,0,118310:0:0:0:0:
192,192,118073,128,0,118705:0:0:0:0:
448,192,118389,128,0,119257:0:0:0:0:
320,192,118705,128,0,119100:0:0:0:0:
64,192,118705,128,0,118942:0:0:0:0:
192,192,119021,1,0,0:0:0:0:
64,192,119021,128,0,120205:0:0:0:0:
320,192,119178,128,0,119336:0:0:0:0:
448,192,119336,128,0,119573:0:0:0:0:
192,192,119336,128,0,119889:0:0:0:0:
448,192,119652,128,0,120205:0:0:0:0:
320,192,119810,1,0,0:0:0:0:
192,192,119968,128,0,120757:0:0:0:0:
448,192,120284,128,0,120521:0:0:0:0:
64,192,120284,128,0,120521:0:0:0:0:
448,192,120600,128,0,120836:0:0:0:0:
64,192,120600,128,0,120915:0:0:0:0:
320,192,120757,128,0,121073:0:0:0:0:
192,192,120915,128,0,121073:0:0:0:0:
448,192,120915,128,0,121231:0:0:0:0:
64,192,121073,128,0,121389:0:0:0:0:
192,192,121231,128,0,121547:0:0:0:0:
320,192,121231,128,0,121389:0:0:0:0:
448,192,121389,128,0,121705:0:0:0:0:
320,192,121547,128,0,121863:0:0:0:0:
64,192,121547,128,0,121705:0:0:0:0:
192,192,121705,128,0,121863:0:0:0:0:
64,192,121863,128,0,122178:0:0:0:0:
448,192,121863,1,0,0:0:0:0:
192,192,122178,128,0,122494:0:0:0:0:
320,192,122494,128,0,122652:0:0:0:0:
64,192,122810,128,0,122968:0:0:0:0:
192,192,122968,128,0,123126:0:0:0:0:
448,192,123126,128,0,123442:0:0:0:0:
64,192,123442,128,0,123600:0:0:0:0:
448,192,123600,1,0,0:0:0:0:
320,192,123678,1,0,0:0:0:0:
192,192,123757,128,0,123836:0:0:0:0:
64,192,123915,128,0,124073:0:0:0:0:
448,192,124073,128,0,124152:0:0:0:0:
192,192,124231,128,0,124389:0:0:0:0:
320,192,124389,128,0,124705:0:0:0:0:
64,192,124705,128,0,124863:0:0:0:0:
192,192,124863,128,0,125021:0:0:0:0:
320,192,125021,128,0,125336:0:0:0:0:
448,192,125336,128,0,125652:0:0:0:0:
192,192,125652,128,0,125810:0:0:0:0:
64,192,125810,128,0,125968:0:0:0:0:
320,192,125968,128,0,126126:0:0:0:0:
192,192,126126,128,0,126284:0:0:0:0:
64,192,126284,128,0,126442:0:0:0:0:
192,192,126442,128,0,126600:0:0:0:0:
320,192,126600,128,0,126757:0:0:0:0:
64,192,126757,128,0,126915:0:0:0:0:
448,192,126915,1,0,0:0:0:0:
192,192,126994,128,0,127231:0:0:0:0:
64,192,127231,1,0,0:0:0:0:
320,192,127310,128,0,127547:0:0:0:0:
192,192,127547,1,0,0:0:0:0:
448,192,127626,128,0,127784:0:0:0:0:
64,192,127863,128,0,128021:0:0:0:0:
192,192,128021,128,0,128178:0:0:0:0:
320,192,128178,1,0,0:0:0:0:
448,192,128257,128,0,128494:0:0:0:0:
64,192,128494,128,0,128810:0:0:0:0:
448,192,128810,1,0,0:0:0:0:
320,192,128889,1,0,0:0:0:0:
64,192,128968,128,0,129126:0:0:0:0:
320,192,129126,128,0,129284:0:0:0:0:
192,192,129284,128,0,129442:0:0:0:0:
320,192,129442,128,0,129757:0:0:0:0:
64,192,129915,128,0,130073:0:0:0:0:
320,192,130073,128,0,130389:0:0:0:0:
448,192,130389,128,0,130705:0:0:0:0:
192,192,130705,1,0,0:0:0:0:
64,192,130784,128,0,131021:0:0:0:0:
192,192,131178,128,0,131257:0:0:0:0:
320,192,131336,128,0,131494:0:0:0:0:
448,192,131494,128,0,131573:0:0:0:0:
448,192,131652,128,0,131968:0:0:0:0:
64,192,131968,128,0,132284:0:0:0:0:
320,192,131968,1,0,0:0:0:0:
192,192,132284,128,0,132600:0:0:0:0:
320,192,132284,1,0,0:0:0:0:
320,192,132600,128,0,132757:0:0:0:0:
448,192,132600,1,0,0:0:0:0:
64,192,132915,128,0,133073:0:0:0:0:
448,192,132915,1,0,0:0:0:0:
192,192,133073,128,0,133231:0:0:0:0:
448,192,133231,128,0,133547:0:0:0:0:
320,192,133231,1,0,0:0:0:0:
64,192,133547,128,0,133705:0:0:0:0:
320,192,133547,1,0,0:0:0:0:
448,192,133705,1,0,0:0:0:0:
320,192,133784,1,0,0:0:0:0:
192,192,133863,128,0,133942:0:0:0:0:
64,192,133863,1,0,0:0:0:0:
64,192,134021,128,0,134178:0:0:0:0:
448,192,134178,128,0,134257:0:0:0:0:
192,192,134178,1,0,0:0:0:0:
192,192,134336,128,0,134494:0:0:0:0:
320,192,134494,128,0,134810:0:0:0:0:
448,192,134494,1,0,0:0:0:0:
64,192,134810,128,0,134968:0:0:0:0:
448,192,134810,1,0,0:0:0:0:
192,192,134968,128,0,135126:0:0:0:0:
320,192,135126,128,0,135442:0:0:0:0:
64,192,135126,1,0,0:0:0:0:
448,192,135442,128,0,135757:0:0:0:0:
64,192,135442,1,0,0:0:0:0:
192,192,135757,128,0,135915:0:0:0:0:
320,192,135757,1,0,0:0:0:0:
64,192,135915,128,0,136073:0:0:0:0:
320,192,136073,128,0,136231:0:0:0:0:
448,192,136073,1,0,0:0:0:0:
192,192,136231,128,0,136389:0:0:0:0:
64,192,136389,128,0,136547:0:0:0:0:
320,192,136389,1,0,0:0:0:0:
192,192,136547,128,0,136705:0:0:0:0:
320,192,136705,128,0,136863:0:0:0:0:
448,192,136705,1,0,0:0:0:0:
64,192,136863,128,0,137021:0:0:0:0:
448,192,137021,1,0,0:0:0:0:
320,192,137021,1,0,0:0:0:0:
192,192,137100,128,0,137336:0:0:0:0:
64,192,137336,1,0,0:0:0:0:
448,192,137336,1,0,0:0:0:0:
320,192,137415,128,0,137652:0:0:0:0:
192,192,137652,1,0,0:0:0:0:
64,192,137652,1,0,0:0:0:0:
448,192,137731,128,0,137889:0:0:0:0:
64,192,137968,128,0,138126:0:0:0:0:
320,192,137968,1,0,0:0:0:0:
192,192,138126,128,0,138284:0:0:0:0:
320,192,138284,1,0,0:0:0:0:
64,192,138284,1,0,0:0:0:0:
448,192,138363,128,0,138600:0:0:0:0:
64,192,138600,128,0,138915:0:0:0:0:
192,192,138600,1,0,0:0:0:0:
448,192,138915,1,0,0:0:0:0:
192,192,138915,1,0,0:0:0:0:
320,192,138994,1,0,0:0:0:0:
64,192,139073,128,0,139231:0:0:0:0:
320,192,139231,128,0,139389:0:0:0:0:
448,192,139231,1,0,0:0:0:0:
192,192,139389,128,0,139547:0:0:0:0:
320,192,139547,128,0,139863:0:0:0:0:
64,192,139547,1,0,0:0:0:0:
192,192,139863,1,0,0:0:0:0:
448,192,139863,1,0,0:0:0:0:
64,192,140021,128,0,140178:0:0:0:0:
320,192,140178,128,0,140494:0:0:0:0:
192,192,140178,1,0,0:0:0:0:
448,192,140494,128,0,140810:0:0:0:0:
64,192,140494,1,0,0:0:0:0:
320,192,140810,128,0,141284:0:0:0:0:
64,192,141442,128,0,141915:0:0:0:0:
192,192,142073,128,0,142152:0:0:0:0:
64,192,142073,1,0,0:0:0:0:
320,192,142073,1,0,0:0:0:0:
64,192,142231,1,0,0:0:0:0:
448,192,142231,1,0,0:0:0:0:
192,192,142389,128,0,142468:0:0:0:0:
320,192,142389,1,0,0:0:0:0:
64,192,142389,1,0,0:0:0:0:
448,192,142547,1,0,0:0:0:0:
320,192,142547,1,0,0:0:0:0:
192,192,142705,128,0,142784:0:0:0:0:
64,192,142705,1,0,0:0:0:0:
320,192,142705,1,0,0:0:0:0:
448,192,142863,1,0,0:0:0:0:
64,192,142863,1,0,0:0:0:0:
192,192,143021,128,0,143100:0:0:0:0:
320,192,143021,1,0,0:0:0:0:
64,192,143021,1,0,0:0:0:0:
448,192,143178,1,0,0:0:0:0:
320,192,143178,1,0,0:0:0:0:
192,192,143336,128,0,143415:0:0:0:0:
64,192,143336,1,0,0:0:0:0:
320,192,143336,1,0,0:0:0:0:
448,192,143494,1,0,0:0:0:0:
64,192,143494,1,0,0:0:0:0:
192,192,143652,128,0,143731:0:0:0:0:
320,192,143652,1,0,0:0:0:0:
64,192,143652,1,0,0:0:0:0:
448,192,143810,1,0,0:0:0:0:
320,192,143810,1,0,0:0:0:0:
192,192,143968,128,0,144047:0:0:0:0:
64,192,143968,1,0,0:0:0:0:
320,192,143968,1,0,0:0:0:0:
448,192,144126,1,0,0:0:0:0:
64,192,144126,1,0,0:0:0:0:
448,192,144284,1,0,0:0:0:0:
320,192,144284,1,0,0:0:0:0:
192,192,144284,1,0,0:0:0:0:
320,192,144442,1,0,0:0:0:0:
64,192,144442,1,0,0:0:0:0:
192,192,144600,128,0,144678:0:0:0:0:
64,192,144600,1,0,0:0:0:0:
448,192,144600,1,0,0:0:0:0:
448,192,144757,1,0,0:0:0:0:
320,192,144757,1,0,0:0:0:0:
192,192,144915,128,0,144994:0:0:0:0:
64,192,144915,1,0,0:0:0:0:
448,192,144915,1,0,0:0:0:0:
64,192,145073,1,0,0:0:0:0:
320,192,145073,1,0,0:0:0:0:
192,192,145231,128,0,145310:0:0:0:0:
64,192,145231,1,0,0:0:0:0:
448,192,145231,1,0,0:0:0:0:
448,192,145389,1,0,0:0:0:0:
320,192,145389,1,0,0:0:0:0:
192,192,145547,128,0,145626:0:0:0:0:
64,192,145547,1,0,0:0:0:0:
448,192,145547,1,0,0:0:0:0:
64,192,145705,1,0,0:0:0:0:
320,192,145705,1,0,0:0:0:0:
192,192,145863,128,0,145942:0:0:0:0:
64,192,145863,1,0,0:0:0:0:
448,192,145863,1,0,0:0:0:0:
320,192,146021,1,0,0:0:0:0:
448,192,146021,1,0,0:0:0:0:
192,192,146178,128,0,146257:0:0:0:0:
64,192,146178,1,0,0:0:0:0:
448,192,146178,1,0,0:0:0:0:
64,192,146336,1,0,0:0:0:0:
320,192,146336,1,0,0:0:0:0:
320,192,146494,1,0,0:0:0:0:
448,192,146494,1,0,0:0:0:0:
192,192,146494,1,0,0:0:0:0:
448,192,146652,1,0,0:0:0:0:
64,192,146652,1,0,0:0:0:0:
448,192,146810,1,0,0:0:0:0:
192,192,146810,1,0,0:0:0:0:
320,192,146810,1,0,0:0:0:0:
448,192,146968,1,0,0:0:0:0:
64,192,146968,1,0,0:0:0:0:
192,192,147126,1,0,0:0:0:0:
64,192,147126,1,0,0:0:0:0:
320,192,147205,1,0,0:0:0:0:
192,192,147284,1,0,0:0:0:0:
320,192,147363,1,0,0:0:0:0:
64,192,147442,1,0,0:0:0:0:
448,192,147442,1,0,0:0:0:0:
192,192,147521,1,0,0:0:0:0:
448,192,147600,1,0,0:0:0:0:
192,192,147678,1,0,0:0:0:0:
320,192,147757,1,0,0:0:0:0:
64,192,147757,1,0,0:0:0:0:
448,192,147836,1,0,0:0:0:0:
64,192,147915,1,0,0:0:0:0:
448,192,147994,1,0,0:0:0:0:
320,192,148073,1,0,0:0:0:0:
192,192,148073,1,0,0:0:0:0:
64,192,148152,1,0,0:0:0:0:
320,192,148231,1,0,0:0:0:0:
64,192,148310,1,0,0:0:0:0:
192,192,148389,1,0,0:0:0:0:
448,192,148389,1,0,0:0:0:0:
320,192,148468,1,0,0:0:0:0:
192,192,148547,1,0,0:0:0:0:
320,192,148626,1,0,0:0:0:0:
192,192,148705,1,0,0:0:0:0:
448,192,148705,1,0,0:0:0:0:
64,192,148784,1,0,0:0:0:0:
448,192,148863,1,0,0:0:0:0:
64,192,148942,1,0,0:0:0:0:
448,192,149021,1,0,0:0:0:0:
320,192,149021,1,0,0:0:0:0:
192,192,149100,1,0,0:0:0:0:
320,192,149178,1,0,0:0:0:0:
64,192,149257,1,0,0:0:0:0:
320,192,149336,1,0,0:0:0:0:
192,192,149336,1,0,0:0:0:0:
448,192,149415,1,0,0:0:0:0:
192,192,149494,1,0,0:0:0:0:
320,192,149573,1,0,0:0:0:0:
192,192,149652,1,0,0:0:0:0:
64,192,149652,1,0,0:0:0:0:
448,192,149731,1,0,0:0:0:0:
320,192,149810,1,0,0:0:0:0:
64,192,149810,1,0,0:0:0:0:
192,192,149889,1,0,0:0:0:0:
448,192,149968,1,0,0:0:0:0:
64,192,149968,1,0,0:0:0:0:
320,192,150047,1,0,0:0:0:0:
192,192,150126,1,0,0:0:0:0:
448,192,150126,1,0,0:0:0:0:
64,192,150205,1,0,0:0:0:0:
320,192,150284,1,0,0:0:0:0:
448,192,150284,1,0,0:0:0:0:
192,192,150363,1,0,0:0:0:0:
64,192,150442,1,0,0:0:0:0:
320,192,150442,1,0,0:0:0:0:
448,192,150521,1,0,0:0:0:0:
320,192,150600,1,0,0:0:0:0:
192,192,150600,1,0,0:0:0:0:
64,192,150678,1,0,0:0:0:0:
192,192,150757,1,0,0:0:0:0:
448,192,150757,1,0,0:0:0:0:
320,192,150836,5,0,0:0:0:0:
64,192,150915,128,0,151547:0:0:0:0:
448,192,151231,128,0,151705:0:0:0:0:
320,192,151863,1,0,0:0:0:0:
320,192,151942,1,0,0:0:0:0:
192,192,152021,128,0,152178:0:0:0:0:
448,192,152178,1,0,0:0:0:0:
64,192,152178,1,0,0:0:0:0:
320,192,152257,1,0,0:0:0:0:
192,192,152336,1,0,0:0:0:0:
64,192,152415,1,0,0:0:0:0:
448,192,152494,1,0,0:0:0:0:
320,192,152494,1,0,0:0:0:0:
64,192,152573,1,0,0:0:0:0:
192,192,152652,1,0,0:0:0:0:
320,192,152731,1,0,0:0:0:0:
448,192,152810,1,0,0:0:0:0:
64,192,152810,1,0,0:0:0:0:
320,192,152889,1,0,0:0:0:0:
192,192,152968,1,0,0:0:0:0:
448,192,153047,1,0,0:0:0:0:
320,192,153126,1,0,0:0:0:0:
64,192,153126,1,0,0:0:0:0:
448,192,153205,1,0,0:0:0:0:
64,192,153284,1,0,0:0:0:0:
320,192,153363,1,0,0:0:0:0:
64,192,153442,1,0,0:0:0:0:
448,192,153442,1,0,0:0:0:0:
192,192,153521,1,0,0:0:0:0:
320,192,153600,1,0,0:0:0:0:
448,192,153678,1,0,0:0:0:0:
192,192,153757,1,0,0:0:0:0:
64,192,153757,1,0,0:0:0:0:
320,192,153836,1,0,0:0:0:0:
448,192,153915,1,0,0:0:0:0:
320,192,153994,1,0,0:0:0:0:
64,192,154073,1,0,0:0:0:0:
192,192,154073,1,0,0:0:0:0:
448,192,154152,1,0,0:0:0:0:
192,192,154231,1,0,0:0:0:0:
320,192,154310,1,0,0:0:0:0:
192,192,154389,1,0,0:0:0:0:
448,192,154389,1,0,0:0:0:0:
64,192,154468,1,0,0:0:0:0:
448,192,154547,1,0,0:0:0:0:
192,192,154626,1,0,0:0:0:0:
448,192,154705,1,0,0:0:0:0:
320,192,154705,1,0,0:0:0:0:
64,192,154784,1,0,0:0:0:0:
192,192,154863,1,0,0:0:0:0:
320,192,154942,1,0,0:0:0:0:
448,192,155021,1,0,0:0:0:0:
64,192,155021,1,0,0:0:0:0:
192,192,155100,1,0,0:0:0:0:
448,192,155178,1,0,0:0:0:0:
64,192,155257,1,0,0:0:0:0:
448,192,155336,1,0,0:0:0:0:
320,192,155336,1,0,0:0:0:0:
192,192,155415,1,0,0:0:0:0:
64,192,155494,1,0,0:0:0:0:
448,192,155573,1,0,0:0:0:0:
320,192,155652,1,0,0:0:0:0:
192,192,155652,1,0,0:0:0:0:
448,192,155731,1,0,0:0:0:0:
64,192,155810,1,0,0:0:0:0:
192,192,155889,1,0,0:0:0:0:
320,192,155968,1,0,0:0:0:0:
448,192,155968,1,0,0:0:0:0:
64,192,156047,1,0,0:0:0:0:
320,192,156126,1,0,0:0:0:0:
192,192,156205,1,0,0:0:0:0:
320,192,156284,1,0,0:0:0:0:
64,192,156284,1,0,0:0:0:0:
448,192,156363,1,0,0:0:0:0:
64,192,156442,1,0,0:0:0:0:
320,192,156521,1,0,0:0:0:0:
64,192,156600,1,0,0:0:0:0:
448,192,156600,1,0,0:0:0:0:
192,192,156678,1,0,0:0:0:0:
448,192,156757,1,0,0:0:0:0:
64,192,156836,1,0,0:0:0:0:
320,192,156915,128,0,157073:0:0:0:0:
192,192,156915,128,0,157073:0:0:0:0:
192,192,157231,1,0,0:0:0:0:
448,192,157231,1,0,0:0:0:0:
64,192,157310,1,0,0:0:0:0:
320,192,157389,1,0,0:0:0:0:
192,192,157468,1,0,0:0:0:0:
448,192,157547,1,0,0:0:0:0:
64,192,157547,1,0,0:0:0:0:
192,192,157626,1,0,0:0:0:0:
320,192,157705,1,0,0:0:0:0:
448,192,157784,1,0,0:0:0:0:
64,192,157863,1,0,0:0:0:0:
192,192,157863,1,0,0:0:0:0:
448,192,157942,1,0,0:0:0:0:
320,192,158021,1,0,0:0:0:0:
192,192,158100,1,0,0:0:0:0:
64,192,158178,1,0,0:0:0:0:
448,192,158178,1,0,0:0:0:0:
320,192,158257,1,0,0:0:0:0:
64,192,158336,1,0,0:0:0:0:
448,192,158415,1,0,0:0:0:0:
64,192,158494,1,0,0:0:0:0:
192,192,158494,1,0,0:0:0:0:
320,192,158573,1,0,0:0:0:0:
448,192,158652,1,0,0:0:0:0:
64,192,158731,1,0,0:0:0:0:
320,192,158810,1,0,0:0:0:0:
192,192,158810,1,0,0:0:0:0:
64,192,158889,1,0,0:0:0:0:
448,192,158968,1,0,0:0:0:0:
320,192,159047,1,0,0:0:0:0:
64,192,159126,1,0,0:0:0:0:
192,192,159126,1,0,0:0:0:0:
448,192,159205,1,0,0:0:0:0:
320,192,159284,1,0,0:0:0:0:
448,192,159363,1,0,0:0:0:0:
192,192,159442,1,0,0:0:0:0:
64,192,159442,1,0,0:0:0:0:
320,192,159521,1,0,0:0:0:0:
192,192,159600,1,0,0:0:0:0:
448,192,159678,1,0,0:0:0:0:
320,192,159757,1,0,0:0:0:0:
192,192,159757,1,0,0:0:0:0:
448,192,159836,1,0,0:0:0:0:
64,192,159915,1,0,0:0:0:0:
320,192,159994,1,0,0:0:0:0:
448,192,160073,1,0,0:0:0:0:
192,192,160073,1,0,0:0:0:0:
64,192,160152,1,0,0:0:0:0:
448,192,160231,1,0,0:0:0:0:
320,192,160310,1,0,0:0:0:0:
192,192,160389,1,0,0:0:0:0:
64,192,160389,1,0,0:0:0:0:
320,192,160468,1,0,0:0:0:0:
448,192,160547,1,0,0:0:0:0:
64,192,160626,1,0,0:0:0:0:
192,192,160626,1,0,0:0:0:0:
320,192,160705,1,0,0:0:0:0:
448,192,160705,1,0,0:0:0:0:
64,192,160784,1,0,0:0:0:0:
320,192,160863,1,0,0:0:0:0:
448,192,160863,1,0,0:0:0:0:
64,192,160942,1,0,0:0:0:0:
320,192,161021,128,0,161257:0:0:0:0:
448,192,161021,128,0,161257:0:0:0:0:
448,192,161336,128,0,161494:0:0:0:0:
320,192,161336,128,0,161494:0:0:0:0:
64,192,161494,1,0,0:0:0:0:
192,192,161652,1,0,0:0:0:0:
320,192,161810,1,0,0:0:0:0:
320,192,161968,1,0,0:0:0:0:
320,192,162047,1,0,0:0:0:0:
192,192,162126,128,0,162205:0:0:0:0:
448,192,162284,1,0,0:0:0:0:
320,192,162284,1,0,0:0:0:0:
192,192,162363,1,0,0:0:0:0:
320,192,162442,1,0,0:0:0:0:
448,192,162442,1,0,0:0:0:0:
192,192,162521,1,0,0:0:0:0:
64,192,162600,1,0,0:0:0:0:
448,192,162600,1,0,0:0:0:0:
320,192,162678,1,0,0:0:0:0:
192,192,162757,1,0,0:0:0:0:
64,192,162836,1,0,0:0:0:0:
320,192,162915,1,0,0:0:0:0:
448,192,162915,1,0,0:0:0:0:
64,192,162994,1,0,0:0:0:0:
192,192,163073,1,0,0:0:0:0:
320,192,163152,1,0,0:0:0:0:
64,192,163231,1,0,0:0:0:0:
448,192,163231,1,0,0:0:0:0:
192,192,163310,1,0,0:0:0:0:
448,192,163389,1,0,0:0:0:0:
64,192,163468,1,0,0:0:0:0:
448,192,163547,1,0,0:0:0:0:
320,192,163547,1,0,0:0:0:0:
192,192,163626,1,0,0:0:0:0:
64,192,163705,1,0,0:0:0:0:
448,192,163784,1,0,0:0:0:0:
64,192,163863,1,0,0:0:0:0:
192,192,163863,1,0,0:0:0:0:
320,192,163942,1,0,0:0:0:0:
448,192,164021,1,0,0:0:0:0:
320,192,164100,1,0,0:0:0:0:
64,192,164178,1,0,0:0:0:0:
192,192,164178,1,0,0:0:0:0:
448,192,164257,1,0,0:0:0:0:
192,192,164336,1,0,0:0:0:0:
64,192,164415,1,0,0:0:0:0:
448,192,164415,1,0,0:0:0:0:
320,192,164494,1,0,0:0:0:0:
192,192,164494,1,0,0:0:0:0:
64,192,164573,1,0,0:0:0:0:
320,192,164652,1,0,0:0:0:0:
448,192,164652,1,0,0:0:0:0:
192,192,164731,1,0,0:0:0:0:
320,192,164810,1,0,0:0:0:0:
448,192,164810,1,0,0:0:0:0:
64,192,164889,1,0,0:0:0:0:
192,192,164968,1,0,0:0:0:0:
320,192,165047,1,0,0:0:0:0:
64,192,165126,1,0,0:0:0:0:
448,192,165126,1,0,0:0:0:0:
320,192,165205,1,0,0:0:0:0:
64,192,165284,1,0,0:0:0:0:
448,192,165363,1,0,0:0:0:0:
64,192,165442,1,0,0:0:0:0:
192,192,165442,1,0,0:0:0:0:
320,192,165521,1,0,0:0:0:0:
448,192,165600,1,0,0:0:0:0:
64,192,165678,1,0,0:0:0:0:
320,192,165757,1,0,0:0:0:0:
192,192,165757,1,0,0:0:0:0:
64,192,165836,1,0,0:0:0:0:
448,192,165915,1,0,0:0:0:0:
320,192,165994,1,0,0:0:0:0:
64,192,166073,1,0,0:0:0:0:
192,192,166073,1,0,0:0:0:0:
448,192,166152,1,0,0:0:0:0:
64,192,166231,1,0,0:0:0:0:
192,192,166231,1,0,0:0:0:0:
448,192,166310,1,0,0:0:0:0:
64,192,166389,1,0,0:0:0:0:
320,192,166389,1,0,0:0:0:0:
192,192,166468,1,0,0:0:0:0:
320,192,166547,1,0,0:0:0:0:
448,192,166547,1,0,0:0:0:0:
192,192,166626,1,0,0:0:0:0:
64,192,166705,1,0,0:0:0:0:
192,192,166784,1,0,0:0:0:0:
448,192,166863,1,0,0:0:0:0:
320,192,166863,1,0,0:0:0:0:
192,192,167021,1,0,0:0:0:0:
448,192,167021,1,0,0:0:0:0:
64,192,167100,1,0,0:0:0:0:
448,192,167178,1,0,0:0:0:0:
320,192,167178,1,0,0:0:0:0:
64,192,167257,1,0,0:0:0:0:
192,192,167336,1,0,0:0:0:0:
448,192,167336,1,0,0:0:0:0:
320,192,167415,1,0,0:0:0:0:
64,192,167494,1,0,0:0:0:0:
448,192,167573,1,0,0:0:0:0:
320,192,167652,1,0,0:0:0:0:
64,192,167652,1,0,0:0:0:0:
192,192,167731,1,0,0:0:0:0:
448,192,167810,1,0,0:0:0:0:
64,192,167889,1,0,0:0:0:0:
320,192,167968,1,0,0:0:0:0:
192,192,167968,1,0,0:0:0:0:
64,192,168047,1,0,0:0:0:0:
448,192,168126,1,0,0:0:0:0:
320,192,168205,1,0,0:0:0:0:
64,192,168284,1,0,0:0:0:0:
192,192,168284,1,0,0:0:0:0:
448,192,168363,1,0,0:0:0:0:
64,192,168442,1,0,0:0:0:0:
320,192,168521,1,0,0:0:0:0:
448,192,168600,1,0,0:0:0:0:
64,192,168600,1,0,0:0:0:0:
192,192,168678,1,0,0:0:0:0:
320,192,168757,1,0,0:0:0:0:
448,192,168836,1,0,0:0:0:0:
64,192,168915,1,0,0:0:0:0:
192,192,168915,1,0,0:0:0:0:
320,192,168994,1,0,0:0:0:0:
192,192,169073,1,0,0:0:0:0:
64,192,169152,1,0,0:0:0:0:
320,192,169231,1,0,0:0:0:0:
448,192,169231,1,0,0:0:0:0:
192,192,169310,1,0,0:0:0:0:
64,192,169389,1,0,0:0:0:0:
192,192,169468,1,0,0:0:0:0:
320,192,169547,1,0,0:0:0:0:
448,192,169547,1,0,0:0:0:0:
64,192,169626,1,0,0:0:0:0:
448,192,169705,1,0,0:0:0:0:
320,192,169705,1,0,0:0:0:0:
192,192,169784,1,0,0:0:0:0:
448,192,169863,1,0,0:0:0:0:
64,192,169863,1,0,0:0:0:0:
320,192,169942,1,0,0:0:0:0:
64,192,170021,1,0,0:0:0:0:
448,192,170100,1,0,0:0:0:0:
192,192,170178,1,0,0:0:0:0:
64,192,170178,1,0,0:0:0:0:
320,192,170257,1,0,0:0:0:0:
64,192,170336,1,0,0:0:0:0:
448,192,170415,1,0,0:0:0:0:
192,192,170494,1,0,0:0:0:0:
64,192,170494,1,0,0:0:0:0:
320,192,170573,1,0,0:0:0:0:
448,192,170652,1,0,0:0:0:0:
192,192,170652,1,0,0:0:0:0:
64,192,170731,1,0,0:0:0:0:
320,192,170810,1,0,0:0:0:0:
448,192,170810,1,0,0:0:0:0:
64,192,170889,1,0,0:0:0:0:
192,192,170968,1,0,0:0:0:0:
448,192,170968,1,0,0:0:0:0:
320,192,171047,1,0,0:0:0:0:
64,192,171126,1,0,0:0:0:0:
448,192,171126,1,0,0:0:0:0:
64,192,171205,1,0,0:0:0:0:
320,192,171284,1,0,0:0:0:0:
320,192,171363,1,0,0:0:0:0:
64,192,171442,1,0,0:0:0:0:
64,192,171600,1,0,0:0:0:0:
320,192,171600,1,0,0:0:0:0:
64,192,171757,1,0,0:0:0:0:
448,192,171757,1,0,0:0:0:0:
320,192,171915,1,0,0:0:0:0:
64,192,171915,1,0,0:0:0:0:
192,192,172073,128,0,172231:0:0:0:0:
320,192,172073,1,0,0:0:0:0:
320,192,172231,1,0,0:0:0:0:
64,192,172389,128,0,172468:0:0:0:0:
448,192,172389,1,0,0:0:0:0:
320,192,172468,1,0,0:0:0:0:
192,192,172547,1,0,0:0:0:0:
64,192,172626,1,0,0:0:0:0:
320,192,172705,128,0,172784:0:0:0:0:
448,192,172705,1,0,0:0:0:0:
64,192,172784,1,0,0:0:0:0:
192,192,172863,1,0,0:0:0:0:
320,192,172942,1,0,0:0:0:0:
448,192,173021,128,0,173100:0:0:0:0:
64,192,173021,1,0,0:0:0:0:
320,192,173100,1,0,0:0:0:0:
192,192,173178,1,0,0:0:0:0:
448,192,173257,1,0,0:0:0:0:
320,192,173336,1,0,0:0:0:0:
64,192,173336,128,0,173415:0:0:0:0:
192,192,173415,1,0,0:0:0:0:
320,192,173494,128,0,173573:0:0:0:0:
64,192,173573,1,0,0:0:0:0:
320,192,173652,1,0,0:0:0:0:
448,192,173652,128,0,173731:0:0:0:0:
192,192,173731,1,0,0:0:0:0:
64,192,173810,1,0,0:0:0:0:
320,192,173889,1,0,0:0:0:0:
192,192,173968,128,0,174047:0:0:0:0:
64,192,173968,1,0,0:0:0:0:
448,192,174047,1,0,0:0:0:0:
320,192,174126,1,0,0:0:0:0:
448,192,174205,1,0,0:0:0:0:
64,192,174284,128,0,174363:0:0:0:0:
192,192,174284,1,0,0:0:0:0:
320,192,174363,1,0,0:0:0:0:
192,192,174442,128,0,174521:0:0:0:0:
448,192,174521,1,0,0:0:0:0:
320,192,174600,128,0,174678:0:0:0:0:
192,192,174600,1,0,0:0:0:0:
64,192,174678,1,0,0:0:0:0:
320,192,174757,128,0,174836:0:0:0:0:
192,192,174836,1,0,0:0:0:0:
320,192,174915,1,0,0:0:0:0:
64,192,174915,128,0,174994:0:0:0:0:
448,192,174994,1,0,0:0:0:0:
192,192,175073,1,0,0:0:0:0:
320,192,175152,1,0,0:0:0:0:
64,192,175231,1,0,0:0:0:0:
448,192,175231,128,0,175310:0:0:0:0:
320,192,175310,1,0,0:0:0:0:
64,192,175389,128,0,175468:0:0:0:0:
448,192,175468,1,0,0:0:0:0:
320,192,175547,128,0,175626:0:0:0:0:
64,192,175547,1,0,0:0:0:0:
192,192,175626,1,0,0:0:0:0:
448,192,175705,1,0,0:0:0:0:
64,192,175784,1,0,0:0:0:0:
320,192,175863,1,0,0:0:0:0:
192,192,175863,128,0,175942:0:0:0:0:
64,192,175942,1,0,0:0:0:0:
448,192,176021,1,0,0:0:0:0:
320,192,176100,1,0,0:0:0:0:
64,192,176178,128,0,176257:0:0:0:0:
192,192,176178,1,0,0:0:0:0:
320,192,176257,1,0,0:0:0:0:
64,192,176336,128,0,176415:0:0:0:0:
448,192,176415,1,0,0:0:0:0:
64,192,176494,1,0,0:0:0:0:
320,192,176494,128,0,176573:0:0:0:0:
192,192,176573,1,0,0:0:0:0:
320,192,176652,128,0,176731:0:0:0:0:
64,192,176731,1,0,0:0:0:0:
448,192,176810,128,0,176889:0:0:0:0:
320,192,176810,1,0,0:0:0:0:
192,192,176889,1,0,0:0:0:0:
448,192,176968,128,0,177047:0:0:0:0:
64,192,177047,1,0,0:0:0:0:
192,192,177126,128,0,177284:0:0:0:0:
320,192,177126,128,0,177284:0:0:0:0:
192,192,177442,1,0,0:0:0:0:
64,192,177442,128,0,177521:0:0:0:0:
448,192,177521,1,0,0:0:0:0:
320,192,177600,1,0,0:0:0:0:
192,192,177678,1,0,0:0:0:0:
64,192,177757,1,0,0:0:0:0:
448,192,177757,128,0,177836:0:0:0:0:
192,192,177836,1,0,0:0:0:0:
320,192,177915,1,0,0:0:0:0:
64,192,177994,1,0,0:0:0:0:
448,192,178073,1,0,0:0:0:0:
192,192,178073,128,0,178152:0:0:0:0:
320,192,178152,1,0,0:0:0:0:
64,192,178231,1,0,0:0:0:0:
448,192,178310,1,0,0:0:0:0:
320,192,178389,1,0,0:0:0:0:
64,192,178389,128,0,178468:0:0:0:0:
192,192,178468,1,0,0:0:0:0:
320,192,178547,128,0,178626:0:0:0:0:
64,192,178626,1,0,0:0:0:0:
320,192,178705,1,0,0:0:0:0:
448,192,178705,128,0,178784:0:0:0:0:
64,192,178784,1,0,0:0:0:0:
192,192,178863,1,0,0:0:0:0:
320,192,178942,1,0,0:0:0:0:
64,192,179021,128,0,179100:0:0:0:0:
448,192,179021,1,0,0:0:0:0:
320,192,179100,1,0,0:0:0:0:
192,192,179178,1,0,0:0:0:0:
64,192,179257,1,0,0:0:0:0:
320,192,179336,1,0,0:0:0:0:
448,192,179336,128,0,179415:0:0:0:0:
192,192,179415,1,0,0:0:0:0:
64,192,179494,1,0,0:0:0:0:
192,192,179573,1,0,0:0:0:0:
320,192,179652,128,0,179731:0:0:0:0:
448,192,179652,1,0,0:0:0:0:
64,192,179731,1,0,0:0:0:0:
448,192,179810,128,0,179889:0:0:0:0:
192,192,179889,1,0,0:0:0:0:
448,192,179968,1,0,0:0:0:0:
64,192,179968,128,0,180047:0:0:0:0:
320,192,180047,1,0,0:0:0:0:
192,192,180126,1,0,0:0:0:0:
64,192,180205,1,0,0:0:0:0:
320,192,180284,128,0,180363:0:0:0:0:
448,192,180284,1,0,0:0:0:0:
192,192,180363,1,0,0:0:0:0:
64,192,180442,1,0,0:0:0:0:
448,192,180521,1,0,0:0:0:0:
64,192,180600,1,0,0:0:0:0:
192,192,180600,128,0,180678:0:0:0:0:
320,192,180678,1,0,0:0:0:0:
448,192,180757,1,0,0:0:0:0:
192,192,180836,1,0,0:0:0:0:
64,192,180836,1,0,0:0:0:0:
320,192,180915,1,0,0:0:0:0:
448,192,180915,1,0,0:0:0:0:
192,192,180994,1,0,0:0:0:0:
320,192,181073,1,0,0:0:0:0:
448,192,181073,1,0,0:0:0:0:
64,192,181152,1,0,0:0:0:0:
192,192,181231,128,0,181468:0:0:0:0:
448,192,181231,128,0,181468:0:0:0:0:
192,192,181547,128,0,181705:0:0:0:0:
448,192,181547,128,0,181705:0:0:0:0:
64,192,181705,1,0,0:0:0:0:
192,192,181863,1,0,0:0:0:0:
320,192,182021,1,0,0:0:0:0:
320,192,182178,1,0,0:0:0:0:
320,192,182257,1,0,0:0:0:0:
192,192,182336,128,0,182415:0:0:0:0:
448,192,182494,1,0,0:0:0:0:
320,192,182494,1,0,0:0:0:0:
192,192,182573,1,0,0:0:0:0:
320,192,182652,1,0,0:0:0:0:
448,192,182652,1,0,0:0:0:0:
192,192,182731,1,0,0:0:0:0:
448,192,182810,1,0,0:0:0:0:
64,192,182810,128,0,182889:0:0:0:0:
320,192,182889,1,0,0:0:0:0:
192,192,182968,1,0,0:0:0:0:
448,192,183047,1,0,0:0:0:0:
64,192,183126,1,0,0:0:0:0:
320,192,183126,128,0,183205:0:0:0:0:
192,192,183205,1,0,0:0:0:0:
448,192,183284,1,0,0:0:0:0:
64,192,183363,1,0,0:0:0:0:
192,192,183442,128,0,183521:0:0:0:0:
320,192,183442,1,0,0:0:0:0:
64,192,183521,1,0,0:0:0:0:
320,192,183600,128,0,183678:0:0:0:0:
192,192,183678,1,0,0:0:0:0:
320,192,183757,1,0,0:0:0:0:
448,192,183757,128,0,183836:0:0:0:0:
64,192,183836,1,0,0:0:0:0:
192,192,183915,1,0,0:0:0:0:
320,192,183994,1,0,0:0:0:0:
192,192,184073,128,0,184152:0:0:0:0:
64,192,184073,1,0,0:0:0:0:
448,192,184152,1,0,0:0:0:0:
320,192,184231,1,0,0:0:0:0:
448,192,184310,1,0,0:0:0:0:
64,192,184389,128,0,184468:0:0:0:0:
192,192,184389,1,0,0:0:0:0:
320,192,184468,1,0,0:0:0:0:
192,192,184547,1,0,0:0:0:0:
64,192,184626,1,0,0:0:0:0:
448,192,184626,1,0,0:0:0:0:
320,192,184705,1,0,0:0:0:0:
192,192,184705,128,0,184784:0:0:0:0:
448,192,184784,1,0,0:0:0:0:
64,192,184863,1,0,0:0:0:0:
320,192,184863,128,0,184942:0:0:0:0:
192,192,184942,1,0,0:0:0:0:
320,192,185021,1,0,0:0:0:0:
64,192,185021,128,0,185100:0:0:0:0:
448,192,185100,1,0,0:0:0:0:
192,192,185178,1,0,0:0:0:0:
320,192,185257,1,0,0:0:0:0:
448,192,185336,1,0,0:0:0:0:
64,192,185336,128,0,185415:0:0:0:0:
192,192,185415,1,0,0:0:0:0:
448,192,185494,128,0,185573:0:0:0:0:
64,192,185573,1,0,0:0:0:0:
448,192,185652,1,0,0:0:0:0:
320,192,185652,128,0,185731:0:0:0:0:
192,192,185731,1,0,0:0:0:0:
64,192,185810,1,0,0:0:0:0:
448,192,185889,1,0,0:0:0:0:
320,192,185968,1,0,0:0:0:0:
192,192,185968,128,0,186047:0:0:0:0:
448,192,186047,1,0,0:0:0:0:
64,192,186126,1,0,0:0:0:0:
192,192,186205,1,0,0:0:0:0:
320,192,186284,1,0,0:0:0:0:
448,192,186284,128,0,186363:0:0:0:0:
64,192,186363,1,0,0:0:0:0:
448,192,186442,1,0,0:0:0:0:
320,192,186442,128,0,186521:0:0:0:0:
64,192,186521,1,0,0:0:0:0:
448,192,186600,1,0,0:0:0:0:
192,192,186600,128,0,186678:0:0:0:0:
320,192,186678,1,0,0:0:0:0:
64,192,186757,128,0,186836:0:0:0:0:
192,192,186757,1,0,0:0:0:0:
320,192,186836,1,0,0:0:0:0:
448,192,186915,128,0,186994:0:0:0:0:
320,192,186994,1,0,0:0:0:0:
64,192,187073,128,0,187152:0:0:0:0:
192,192,187073,1,0,0:0:0:0:
192,192,187231,1,0,0:0:0:0:
448,192,187231,1,0,0:0:0:0:
64,192,187310,1,0,0:0:0:0:
320,192,187389,1,0,0:0:0:0:
448,192,187389,1,0,0:0:0:0:
64,192,187468,1,0,0:0:0:0:
448,192,187547,1,0,0:0:0:0:
192,192,187547,128,0,187626:0:0:0:0:
320,192,187626,1,0,0:0:0:0:
64,192,187705,1,0,0:0:0:0:
448,192,187784,1,0,0:0:0:0:
320,192,187863,128,0,187942:0:0:0:0:
64,192,187863,1,0,0:0:0:0:
192,192,187942,1,0,0:0:0:0:
448,192,188021,1,0,0:0:0:0:
64,192,188100,1,0,0:0:0:0:
192,192,188178,1,0,0:0:0:0:
448,192,188178,128,0,188257:0:0:0:0:
320,192,188257,1,0,0:0:0:0:
64,192,188336,1,0,0:0:0:0:
448,192,188415,1,0,0:0:0:0:
320,192,188494,1,0,0:0:0:0:
192,192,188494,128,0,188573:0:0:0:0:
64,192,188573,1,0,0:0:0:0:
320,192,188652,128,0,188731:0:0:0:0:
192,192,188731,1,0,0:0:0:0:
64,192,188810,128,0,188889:0:0:0:0:
320,192,188810,1,0,0:0:0:0:
448,192,188889,1,0,0:0:0:0:
192,192,188968,1,0,0:0:0:0:
320,192,189047,1,0,0:0:0:0:
448,192,189126,128,0,189205:0:0:0:0:
64,192,189126,1,0,0:0:0:0:
320,192,189205,1,0,0:0:0:0:
192,192,189284,1,0,0:0:0:0:
64,192,189363,1,0,0:0:0:0:
320,192,189442,128,0,189521:0:0:0:0:
448,192,189442,1,0,0:0:0:0:
192,192,189521,1,0,0:0:0:0:
64,192,189600,1,0,0:0:0:0:
192,192,189678,1,0,0:0:0:0:
448,192,189757,128,0,189836:0:0:0:0:
320,192,189757,1,0,0:0:0:0:
64,192,189836,1,0,0:0:0:0:
320,192,189915,1,0,0:0:0:0:
448,192,189915,1,0,0:0:0:0:
192,192,189994,1,0,0:0:0:0:
320,192,190073,1,0,0:0:0:0:
64,192,190073,1,0,0:0:0:0:
448,192,190152,1,0,0:0:0:0:
64,192,190231,1,0,0:0:0:0:
320,192,190310,1,0,0:0:0:0:
64,192,190389,1,0,0:0:0:0:
192,192,190389,1,0,0:0:0:0:
448,192,190468,1,0,0:0:0:0:
64,192,190547,1,0,0:0:0:0:
320,192,190626,1,0,0:0:0:0:
64,192,190705,1,0,0:0:0:0:
192,192,190705,1,0,0:0:0:0:
448,192,190784,1,0,0:0:0:0:
192,192,190863,1,0,0:0:0:0:
320,192,190863,1,0,0:0:0:0:
64,192,190942,1,0,0:0:0:0:
320,192,191021,1,0,0:0:0:0:
448,192,191021,1,0,0:0:0:0:
64,192,191100,1,0,0:0:0:0:
192,192,191178,1,0,0:0:0:0:
320,192,191178,1,0,0:0:0:0:
448,192,191257,1,0,0:0:0:0:
192,192,191336,1,0,0:0:0:0:
64,192,191336,1,0,0:0:0:0:
64,192,191810,1,0,0:0:0:0:
192,192,191968,1,0,0:0:0:0:
320,192,192126,1,0,0:0:0:0:
320,192,192284,1,0,0:0:0:0:
448,192,192284,1,0,0:0:0:0:
320,192,192363,1,0,0:0:0:0:
64,192,192442,1,0,0:0:0:0:
192,192,192442,128,0,192521:0:0:0:0:
448,192,192521,1,0,0:0:0:0:
64,192,192600,128,0,192757:0:0:0:0:
320,192,192600,1,0,0:0:0:0:
192,192,192678,1,0,0:0:0:0:
448,192,192757,1,0,0:0:0:0:
64,192,192915,128,0,193073:0:0:0:0:
320,192,192915,1,0,0:0:0:0:
192,192,192994,1,0,0:0:0:0:
448,192,193073,1,0,0:0:0:0:
64,192,193231,128,0,193310:0:0:0:0:
192,192,193231,1,0,0:0:0:0:
448,192,193310,1,0,0:0:0:0:
64,192,193389,128,0,193547:0:0:0:0:
448,192,193468,1,0,0:0:0:0:
320,192,193547,1,0,0:0:0:0:
192,192,193547,1,0,0:0:0:0:
64,192,193705,128,0,193863:0:0:0:0:
320,192,193784,1,0,0:0:0:0:
192,192,193863,1,0,0:0:0:0:
448,192,193863,1,0,0:0:0:0:
64,192,194021,128,0,194178:0:0:0:0:
320,192,194100,1,0,0:0:0:0:
448,192,194178,1,0,0:0:0:0:
192,192,194178,1,0,0:0:0:0:
64,192,194336,128,0,194494:0:0:0:0:
448,192,194415,1,0,0:0:0:0:
192,192,194494,128,0,194600:0:0:0:0:
320,192,194494,1,0,0:0:0:0:
448,192,194652,128,0,194731:0:0:0:0:
320,192,194731,1,0,0:0:0:0:
192,192,194731,1,0,0:0:0:0:
64,192,194810,128,0,194968:0:0:0:0:
448,192,194810,1,0,0:0:0:0:
320,192,194968,1,0,0:0:0:0:
192,192,195047,1,0,0:0:0:0:
320,192,195126,1,0,0:0:0:0:
64,192,195126,1,0,0:0:0:0:
64,192,195284,128,0,195363:0:0:0:0:
448,192,195363,1,0,0:0:0:0:
64,192,195442,128,0,195521:0:0:0:0:
320,192,195442,1,0,0:0:0:0:
448,192,195521,1,0,0:0:0:0:
64,192,195600,128,0,195678:0:0:0:0:
320,192,195678,1,0,0:0:0:0:
64,192,195757,128,0,195836:0:0:0:0:
192,192,195757,1,0,0:0:0:0:
448,192,195836,1,0,0:0:0:0:
64,192,195915,128,0,196073:0:0:0:0:
320,192,195994,1,0,0:0:0:0:
448,192,196073,1,0,0:0:0:0:
192,192,196073,1,0,0:0:0:0:
64,192,196231,128,0,196310:0:0:0:0:
448,192,196310,1,0,0:0:0:0:
64,192,196389,128,0,196468:0:0:0:0:
320,192,196389,1,0,0:0:0:0:
448,192,196468,1,0,0:0:0:0:
64,192,196547,128,0,196626:0:0:0:0:
192,192,196547,1,0,0:0:0:0:
448,192,196626,1,0,0:0:0:0:
64,192,196705,128,0,196784:0:0:0:0:
320,192,196705,1,0,0:0:0:0:
192,192,196784,1,0,0:0:0:0:
64,192,196863,128,0,196942:0:0:0:0:
448,192,196942,1,0,0:0:0:0:
320,192,197021,128,0,197178:0:0:0:0:
192,192,197021,1,0,0:0:0:0:
64,192,197100,1,0,0:0:0:0:
448,192,197178,1,0,0:0:0:0:
64,192,197336,128,0,197494:0:0:0:0:
192,192,197336,1,0,0:0:0:0:
448,192,197652,128,0,197692:0:0:0:0:
64,192,197652,128,0,197692:0:0:0:0:
192,192,197810,1,0,0:0:0:0:
448,192,197810,1,0,0:0:0:0:
448,192,197968,1,0,0:0:0:0:
64,192,197968,128,0,198126:0:0:0:0:
320,192,198047,1,0,0:0:0:0:
192,192,198126,1,0,0:0:0:0:
64,192,198284,128,0,198363:0:0:0:0:
192,192,198284,1,0,0:0:0:0:
320,192,198363,1,0,0:0:0:0:
64,192,198442,128,0,198600:0:0:0:0:
448,192,198521,1,0,0:0:0:0:
320,192,198600,1,0,0:0:0:0:
192,192,198600,1,0,0:0:0:0:
64,192,198757,128,0,198915:0:0:0:0:
320,192,198836,1,0,0:0:0:0:
192,192,198915,1,0,0:0:0:0:
448,192,198915,1,0,0:0:0:0:
64,192,199073,128,0,199231:0:0:0:0:
320,192,199152,1,0,0:0:0:0:
192,192,199231,1,0,0:0:0:0:
448,192,199231,1,0,0:0:0:0:
64,192,199389,128,0,199547:0:0:0:0:
448,192,199468,1,0,0:0:0:0:
192,192,199547,1,0,0:0:0:0:
320,192,199547,128,0,199652:0:0:0:0:
192,192,199705,128,0,199784:0:0:0:0:
320,192,199784,1,0,0:0:0:0:
448,192,199784,1,0,0:0:0:0:
64,192,199863,128,0,200021:0:0:0:0:
192,192,199863,1,0,0:0:0:0:
448,192,200021,1,0,0:0:0:0:
320,192,200021,1,0,0:0:0:0:
192,192,200100,1,0,0:0:0:0:
448,192,200178,1,0,0:0:0:0:
64,192,200178,1,0,0:0:0:0:
64,192,200336,128,0,200415:0:0:0:0:
320,192,200415,1,0,0:0:0:0:
448,192,200494,1,0,0:0:0:0:
64,192,200494,128,0,200573:0:0:0:0:
192,192,200573,1,0,0:0:0:0:
64,192,200652,128,0,200731:0:0:0:0:
320,192,200731,1,0,0:0:0:0:
64,192,200810,128,0,200889:0:0:0:0:
192,192,200810,1,0,0:0:0:0:
448,192,200889,1,0,0:0:0:0:
64,192,200968,128,0,201126:0:0:0:0:
320,192,201047,1,0,0:0:0:0:
192,192,201126,1,0,0:0:0:0:
448,192,201126,1,0,0:0:0:0:
64,192,201284,128,0,201442:0:0:0:0:
320,192,201363,1,0,0:0:0:0:
192,192,201442,1,0,0:0:0:0:
448,192,201442,128,0,201678:0:0:0:0:
448,192,201757,128,0,202073:0:0:0:0:
192,192,201757,128,0,202231:0:0:0:0:
320,192,202389,1,0,0:0:0:0:
320,192,202468,1,0,0:0:0:0:
192,192,202547,128,0,202626:0:0:0:0:
448,192,202705,128,0,202863:0:0:0:0:
64,192,202705,1,0,0:0:0:0:
320,192,202784,1,0,0:0:0:0:
192,192,202863,128,0,202915:0:0:0:0:
448,192,203021,128,0,203178:0:0:0:0:
64,192,203021,1,0,0:0:0:0:
320,192,203100,1,0,0:0:0:0:
192,192,203178,128,0,203231:0:0:0:0:
448,192,203336,128,0,203415:0:0:0:0:
320,192,203336,1,0,0:0:0:0:
64,192,203415,1,0,0:0:0:0:
448,192,203494,128,0,203652:0:0:0:0:
192,192,203494,128,0,203573:0:0:0:0:
320,192,203652,1,0,0:0:0:0:
64,192,203652,1,0,0:0:0:0:
192,192,203810,128,0,203863:0:0:0:0:
448,192,203810,128,0,203968:0:0:0:0:
192,192,203968,128,0,204047:0:0:0:0:
64,192,203968,1,0,0:0:0:0:
448,192,204126,128,0,204284:0:0:0:0:
192,192,204205,128,0,204284:0:0:0:0:
320,192,204284,1,0,0:0:0:0:
64,192,204284,1,0,0:0:0:0:
192,192,204442,128,0,204521:0:0:0:0:
448,192,204442,128,0,204600:0:0:0:0:
192,192,204600,1,0,0:0:0:0:
64,192,204600,1,0,0:0:0:0:
64,192,204678,1,0,0:0:0:0:
320,192,204757,1,0,0:0:0:0:
320,192,204836,1,0,0:0:0:0:
64,192,204836,1,0,0:0:0:0:
192,192,204915,128,0,204994:0:0:0:0:
448,192,204915,128,0,205073:0:0:0:0:
320,192,205073,1,0,0:0:0:0:
64,192,205073,1,0,0:0:0:0:
192,192,205152,1,0,0:0:0:0:
64,192,205231,1,0,0:0:0:0:
320,192,205231,1,0,0:0:0:0:
64,192,205310,1,0,0:0:0:0:
192,192,205389,128,0,205468:0:0:0:0:
448,192,205389,128,0,205468:0:0:0:0:
448,192,205547,128,0,205626:0:0:0:0:
64,192,205547,1,0,0:0:0:0:
320,192,205626,1,0,0:0:0:0:
448,192,205705,128,0,205784:0:0:0:0:
192,192,205705,128,0,205757:0:0:0:0:
448,192,205863,128,0,205942:0:0:0:0:
64,192,205863,1,0,0:0:0:0:
320,192,205942,1,0,0:0:0:0:
448,192,206021,128,0,206178:0:0:0:0:
192,192,206021,128,0,206100:0:0:0:0:
320,192,206178,1,0,0:0:0:0:
64,192,206178,1,0,0:0:0:0:
192,192,206336,128,0,206389:0:0:0:0:
448,192,206336,128,0,206415:0:0:0:0:
192,192,206494,128,0,206573:0:0:0:0:
448,192,206494,128,0,206573:0:0:0:0:
448,192,206652,128,0,206731:0:0:0:0:
320,192,206652,1,0,0:0:0:0:
192,192,206731,128,0,206810:0:0:0:0:
448,192,206810,128,0,206889:0:0:0:0:
64,192,206810,1,0,0:0:0:0:
192,192,206968,128,0,207021:0:0:0:0:
448,192,206968,128,0,207047:0:0:0:0:
192,192,207126,128,0,207178:0:0:0:0:
320,192,207126,128,0,207284:0:0:0:0:
192,192,207284,128,0,207336:0:0:0:0:
448,192,207442,128,0,207600:0:0:0:0:
64,192,207442,1,0,0:0:0:0:
64,192,207521,1,0,0:0:0:0:
192,192,207600,128,0,207678:0:0:0:0:
448,192,207757,1,0,0:0:0:0:
64,192,207757,1,0,0:0:0:0:
64,192,207915,1,0,0:0:0:0:
320,192,207915,1,0,0:0:0:0:
448,192,208073,128,0,208231:0:0:0:0:
64,192,208073,1,0,0:0:0:0:
320,192,208152,1,0,0:0:0:0:
192,192,208231,128,0,208284:0:0:0:0:
448,192,208389,128,0,208468:0:0:0:0:
320,192,208389,1,0,0:0:0:0:
64,192,208468,1,0,0:0:0:0:
448,192,208547,128,0,208705:0:0:0:0:
192,192,208547,128,0,208626:0:0:0:0:
320,192,208705,1,0,0:0:0:0:
64,192,208705,1,0,0:0:0:0:
448,192,208863,128,0,209021:0:0:0:0:
192,192,208863,128,0,208915:0:0:0:0:
192,192,209021,128,0,209100:0:0:0:0:
320,192,209021,1,0,0:0:0:0:
448,192,209178,128,0,209336:0:0:0:0:
192,192,209257,128,0,209336:0:0:0:0:
320,192,209336,1,0,0:0:0:0:
64,192,209336,1,0,0:0:0:0:
192,192,209494,128,0,209547:0:0:0:0:
448,192,209494,128,0,209652:0:0:0:0:
64,192,209652,1,0,0:0:0:0:
320,192,209652,1,0,0:0:0:0:
64,192,209731,1,0,0:0:0:0:
320,192,209810,1,0,0:0:0:0:
64,192,209889,1,0,0:0:0:0:
320,192,209889,1,0,0:0:0:0:
448,192,209968,128,0,210126:0:0:0:0:
192,192,209968,128,0,210047:0:0:0:0:
192,192,210126,1,0,0:0:0:0:
64,192,210126,1,0,0:0:0:0:
320,192,210205,1,0,0:0:0:0:
448,192,210284,128,0,210363:0:0:0:0:
64,192,210284,1,0,0:0:0:0:
64,192,210363,1,0,0:0:0:0:
448,192,210442,128,0,210521:0:0:0:0:
192,192,210442,128,0,210521:0:0:0:0:
448,192,210600,128,0,210678:0:0:0:0:
64,192,210600,1,0,0:0:0:0:
320,192,210678,1,0,0:0:0:0:
448,192,210757,128,0,210836:0:0:0:0:
192,192,210757,128,0,210810:0:0:0:0:
448,192,210915,128,0,210994:0:0:0:0:
320,192,210915,1,0,0:0:0:0:
64,192,210994,1,0,0:0:0:0:
448,192,211073,128,0,211152:0:0:0:0:
192,192,211073,128,0,211152:0:0:0:0:
320,192,211152,1,0,0:0:0:0:
448,192,211231,128,0,211389:0:0:0:0:
64,192,211231,1,0,0:0:0:0:
64,192,211389,1,0,0:0:0:0:
192,192,211389,1,0,0:0:0:0:
320,192,211468,1,0,0:0:0:0:
448,192,211547,1,0,0:0:0:0:
64,192,211547,1,0,0:0:0:0:
64,192,211863,1,0,0:0:0:0:
192,192,212178,1,0,0:0:0:0:
64,192,212178,1,0,0:0:0:0:
320,192,212257,1,0,0:0:0:0:
448,192,212336,1,0,0:0:0:0:
192,192,212336,1,0,0:0:0:0:
64,192,212415,1,0,0:0:0:0:
320,192,212494,1,0,0:0:0:0:
448,192,212494,1,0,0:0:0:0:
320,192,212573,1,0,0:0:0:0:
192,192,212652,128,0,212731:0:0:0:0:
64,192,212652,1,0,0:0:0:0:
448,192,212731,1,0,0:0:0:0:
320,192,212810,1,0,0:0:0:0:
64,192,212810,128,0,212889:0:0:0:0:
192,192,212889,1,0,0:0:0:0:
448,192,212968,1,0,0:0:0:0:
192,192,213047,1,0,0:0:0:0:
320,192,213126,1,0,0:0:0:0:
64,192,213126,128,0,213205:0:0:0:0:
448,192,213205,1,0,0:0:0:0:
192,192,213284,1,0,0:0:0:0:
448,192,213363,1,0,0:0:0:0:
192,192,213442,1,0,0:0:0:0:
320,192,213442,128,0,213521:0:0:0:0:
64,192,213521,1,0,0:0:0:0:
448,192,213600,1,0,0:0:0:0:
64,192,213678,1,0,0:0:0:0:
320,192,213757,1,0,0:0:0:0:
192,192,213757,128,0,213836:0:0:0:0:
448,192,213836,1,0,0:0:0:0:
64,192,213915,1,0,0:0:0:0:
448,192,213994,1,0,0:0:0:0:
320,192,214073,1,0,0:0:0:0:
64,192,214073,128,0,214152:0:0:0:0:
192,192,214152,1,0,0:0:0:0:
448,192,214231,1,0,0:0:0:0:
192,192,214310,1,0,0:0:0:0:
320,192,214389,1,0,0:0:0:0:
64,192,214389,128,0,214468:0:0:0:0:
448,192,214468,1,0,0:0:0:0:
192,192,214547,1,0,0:0:0:0:
448,192,214626,1,0,0:0:0:0:
320,192,214705,1,0,0:0:0:0:
192,192,214705,128,0,214784:0:0:0:0:
64,192,214784,1,0,0:0:0:0:
448,192,214863,1,0,0:0:0:0:
64,192,214942,1,0,0:0:0:0:
192,192,215021,1,0,0:0:0:0:
320,192,215021,128,0,215100:0:0:0:0:
448,192,215100,1,0,0:0:0:0:
64,192,215178,1,0,0:0:0:0:
320,192,215257,1,0,0:0:0:0:
448,192,215336,1,0,0:0:0:0:
192,192,215336,128,0,215415:0:0:0:0:
64,192,215415,1,0,0:0:0:0:
320,192,215494,1,0,0:0:0:0:
64,192,215573,1,0,0:0:0:0:
448,192,215652,1,0,0:0:0:0:
192,192,215652,128,0,215731:0:0:0:0:
320,192,215731,1,0,0:0:0:0:
64,192,215810,1,0,0:0:0:0:
320,192,215889,1,0,0:0:0:0:
448,192,215968,1,0,0:0:0:0:
64,192,215968,128,0,216047:0:0:0:0:
192,192,216047,1,0,0:0:0:0:
320,192,216126,1,0,0:0:0:0:
64,192,216205,1,0,0:0:0:0:
448,192,216284,1,0,0:0:0:0:
192,192,216284,128,0,216363:0:0:0:0:
320,192,216363,1,0,0:0:0:0:
64,192,216442,1,0,0:0:0:0:
320,192,216521,1,0,0:0:0:0:
448,192,216600,1,0,0:0:0:0:
192,192,216600,128,0,216678:0:0:0:0:
64,192,216678,1,0,0:0:0:0:
320,192,216757,1,0,0:0:0:0:
64,192,216836,1,0,0:0:0:0:
448,192,216915,1,0,0:0:0:0:
192,192,216915,128,0,216994:0:0:0:0:
320,192,216994,1,0,0:0:0:0:
64,192,217073,1,0,0:0:0:0:
448,192,217152,1,0,0:0:0:0:
192,192,217231,1,0,0:0:0:0:
320,192,217231,128,0,217310:0:0:0:0:
64,192,217310,1,0,0:0:0:0:
448,192,217389,1,0,0:0:0:0:
64,192,217468,1,0,0:0:0:0:
192,192,217547,128,0,217705:0:0:0:0:
320,192,217547,128,0,217705:0:0:0:0:
64,192,217863,128,0,217942:0:0:0:0:
320,192,217863,1,0,0:0:0:0:
192,192,217942,1,0,0:0:0:0:
448,192,218021,1,0,0:0:0:0:
192,192,218100,1,0,0:0:0:0:
64,192,218178,128,0,218257:0:0:0:0:
320,192,218178,1,0,0:0:0:0:
448,192,218257,1,0,0:0:0:0:
192,192,218336,1,0,0:0:0:0:
448,192,218415,1,0,0:0:0:0:
320,192,218494,128,0,218573:0:0:0:0:
192,192,218494,1,0,0:0:0:0:
64,192,218573,1,0,0:0:0:0:
448,192,218652,1,0,0:0:0:0:
64,192,218731,1,0,0:0:0:0:
192,192,218810,128,0,218889:0:0:0:0:
320,192,218810,1,0,0:0:0:0:
448,192,218889,1,0,0:0:0:0:
64,192,218968,1,0,0:0:0:0:
448,192,219047,1,0,0:0:0:0:
64,192,219126,128,0,219205:0:0:0:0:
320,192,219126,1,0,0:0:0:0:
192,192,219205,1,0,0:0:0:0:
448,192,219284,1,0,0:0:0:0:
192,192,219363,1,0,0:0:0:0:
64,192,219442,128,0,219521:0:0:0:0:
320,192,219442,1,0,0:0:0:0:
448,192,219521,1,0,0:0:0:0:
192,192,219600,1,0,0:0:0:0:
448,192,219678,1,0,0:0:0:0:
192,192,219757,128,0,219836:0:0:0:0:
320,192,219757,1,0,0:0:0:0:
64,192,219836,1,0,0:0:0:0:
448,192,219915,1,0,0:0:0:0:
64,192,219994,1,0,0:0:0:0:
320,192,220073,128,0,220152:0:0:0:0:
192,192,220073,1,0,0:0:0:0:
448,192,220152,1,0,0:0:0:0:
64,192,220231,1,0,0:0:0:0:
320,192,220310,1,0,0:0:0:0:
192,192,220389,128,0,220468:0:0:0:0:
448,192,220389,1,0,0:0:0:0:
64,192,220468,1,0,0:0:0:0:
320,192,220547,1,0,0:0:0:0:
64,192,220626,1,0,0:0:0:0:
192,192,220705,128,0,220784:0:0:0:0:
448,192,220705,1,0,0:0:0:0:
320,192,220784,1,0,0:0:0:0:
64,192,220863,1,0,0:0:0:0:
320,192,220942,1,0,0:0:0:0:
64,192,221021,128,0,221100:0:0:0:0:
448,192,221021,1,0,0:0:0:0:
192,192,221100,1,0,0:0:0:0:
320,192,221178,1,0,0:0:0:0:
64,192,221257,1,0,0:0:0:0:
192,192,221257,1,0,0:0:0:0:
448,192,221336,1,0,0:0:0:0:
320,192,221336,128,0,221415:0:0:0:0:
64,192,221415,1,0,0:0:0:0:
448,192,221494,1,0,0:0:0:0:
192,192,221494,1,0,0:0:0:0:
64,192,221573,1,0,0:0:0:0:
320,192,221652,128,0,221889:0:0:0:0:
448,192,221652,128,0,221889:0:0:0:0:
448,192,221968,128,0,222205:0:0:0:0:
320,192,221968,128,0,222205:0:0:0:0:
448,192,222284,1,0,0:0:0:0:
320,192,222310,128,0,222442:0:0:0:0:
448,192,222442,128,0,222600:0:0:0:0:
64,192,222600,1,0,0:0:0:0:
64,192,222678,1,0,0:0:0:0:
192,192,222757,128,0,222836:0:0:0:0:
320,192,222915,1,0,0:0:0:0:
448,192,222915,128,0,222994:0:0:0:0:
64,192,222994,1,0,0:0:0:0:
192,192,223073,1,0,0:0:0:0:
320,192,223073,1,0,0:0:0:0:
64,192,223152,1,0,0:0:0:0:
320,192,223231,1,0,0:0:0:0:
448,192,223231,128,0,223310:0:0:0:0:
192,192,223310,1,0,0:0:0:0:
64,192,223389,1,0,0:0:0:0:
448,192,223468,1,0,0:0:0:0:
320,192,223547,1,0,0:0:0:0:
192,192,223547,128,0,223626:0:0:0:0:
64,192,223626,1,0,0:0:0:0:
448,192,223705,1,0,0:0:0:0:
64,192,223784,1,0,0:0:0:0:
320,192,223863,128,0,223942:0:0:0:0:
192,192,223863,1,0,0:0:0:0:
448,192,223942,1,0,0:0:0:0:
192,192,224021,1,0,0:0:0:0:
64,192,224100,1,0,0:0:0:0:
448,192,224178,128,0,224257:0:0:0:0:
320,192,224178,1,0,0:0:0:0:
192,192,224257,1,0,0:0:0:0:
64,192,224336,1,0,0:0:0:0:
192,192,224415,1,0,0:0:0:0:
448,192,224494,128,0,224573:0:0:0:0:
320,192,224494,1,0,0:0:0:0:
64,192,224573,1,0,0:0:0:0:
192,192,224652,1,0,0:0:0:0:
448,192,224731,1,0,0:0:0:0:
320,192,224810,1,0,0:0:0:0:
64,192,224810,128,0,224889:0:0:0:0:
192,192,224889,1,0,0:0:0:0:
320,192,224968,1,0,0:0:0:0:
448,192,225047,1,0,0:0:0:0:
192,192,225047,1,0,0:0:0:0:
320,192,225126,128,0,225205:0:0:0:0:
64,192,225126,1,0,0:0:0:0:
448,192,225205,1,0,0:0:0:0:
192,192,225284,1,0,0:0:0:0:
64,192,225284,1,0,0:0:0:0:
320,192,225363,1,0,0:0:0:0:
448,192,225442,128,0,225521:0:0:0:0:
64,192,225442,1,0,0:0:0:0:
192,192,225521,1,0,0:0:0:0:
320,192,225600,1,0,0:0:0:0:
192,192,225678,1,0,0:0:0:0:
448,192,225757,128,0,225836:0:0:0:0:
64,192,225757,1,0,0:0:0:0:
320,192,225836,1,0,0:0:0:0:
192,192,225915,1,0,0:0:0:0:
320,192,225994,1,0,0:0:0:0:
448,192,226073,1,0,0:0:0:0:
192,192,226073,128,0,226152:0:0:0:0:
64,192,226152,1,0,0:0:0:0:
320,192,226231,1,0,0:0:0:0:
64,192,226310,1,0,0:0:0:0:
192,192,226389,1,0,0:0:0:0:
448,192,226389,128,0,226468:0:0:0:0:
320,192,226468,1,0,0:0:0:0:
64,192,226547,1,0,0:0:0:0:
320,192,226626,1,0,0:0:0:0:
192,192,226705,1,0,0:0:0:0:
448,192,226705,128,0,226784:0:0:0:0:
64,192,226784,1,0,0:0:0:0:
448,192,226863,1,0,0:0:0:0:
320,192,226863,1,0,0:0:0:0:
64,192,226942,1,0,0:0:0:0:
192,192,227021,1,0,0:0:0:0:
448,192,227021,128,0,227100:0:0:0:0:
320,192,227100,1,0,0:0:0:0:
192,192,227178,1,0,0:0:0:0:
64,192,227178,1,0,0:0:0:0:
448,192,227257,1,0,0:0:0:0:
320,192,227336,128,0,227415:0:0:0:0:
448,192,227415,1,0,0:0:0:0:
192,192,227494,1,0,0:0:0:0:
64,192,227494,1,0,0:0:0:0:
320,192,227652,128,0,227731:0:0:0:0:
448,192,227652,1,0,0:0:0:0:
192,192,227731,1,0,0:0:0:0:
320,192,227810,1,0,0:0:0:0:
448,192,227810,1,0,0:0:0:0:
192,192,227889,1,0,0:0:0:0:
448,192,227968,128,0,228047:0:0:0:0:
64,192,227968,1,0,0:0:0:0:
320,192,228047,1,0,0:0:0:0:
192,192,228126,1,0,0:0:0:0:
320,192,228205,1,0,0:0:0:0:
448,192,228284,128,0,228363:0:0:0:0:
64,192,228284,1,0,0:0:0:0:
192,192,228363,1,0,0:0:0:0:
320,192,228442,1,0,0:0:0:0:
192,192,228521,1,0,0:0:0:0:
320,192,228600,1,0,0:0:0:0:
64,192,228600,128,0,228678:0:0:0:0:
448,192,228678,1,0,0:0:0:0:
192,192,228757,1,0,0:0:0:0:
448,192,228836,1,0,0:0:0:0:
320,192,228915,128,0,228994:0:0:0:0:
64,192,228915,1,0,0:0:0:0:
192,192,228994,1,0,0:0:0:0:
448,192,229073,1,0,0:0:0:0:
192,192,229152,1,0,0:0:0:0:
448,192,229231,128,0,229310:0:0:0:0:
320,192,229231,1,0,0:0:0:0:
64,192,229310,1,0,0:0:0:0:
192,192,229389,1,0,0:0:0:0:
64,192,229468,1,0,0:0:0:0:
448,192,229547,128,0,229626:0:0:0:0:
320,192,229547,1,0,0:0:0:0:
192,192,229626,1,0,0:0:0:0:
64,192,229705,1,0,0:0:0:0:
448,192,229784,1,0,0:0:0:0:
192,192,229863,128,0,229942:0:0:0:0:
320,192,229863,1,0,0:0:0:0:
64,192,229942,1,0,0:0:0:0:
448,192,230021,1,0,0:0:0:0:
64,192,230100,1,0,0:0:0:0:
320,192,230178,128,0,230257:0:0:0:0:
192,192,230178,1,0,0:0:0:0:
448,192,230257,1,0,0:0:0:0:
64,192,230336,1,0,0:0:0:0:
192,192,230336,1,0,0:0:0:0:
448,192,230415,1,0,0:0:0:0:
192,192,230494,1,0,0:0:0:0:
64,192,230494,1,0,0:0:0:0:
320,192,230494,1,0,0:0:0:0:
320,192,230652,1,0,0:0:0:0:
64,192,230652,1,0,0:0:0:0:
192,192,230810,1,0,0:0:0:0:
320,192,230810,1,0,0:0:0:0:
448,192,230810,1,0,0:0:0:0:
64,192,230968,1,0,0:0:0:0:
320,192,230968,1,0,0:0:0:0:
448,192,231126,1,0,0:0:0:0:
320,192,231126,1,0,0:0:0:0:
64,192,231205,1,0,0:0:0:0:
192,192,231284,1,0,0:0:0:0:
448,192,231284,1,0,0:0:0:0:
64,192,231363,1,0,0:0:0:0:
320,192,231442,1,0,0:0:0:0:
192,192,231442,1,0,0:0:0:0:
448,192,231521,1,0,0:0:0:0:
320,192,231600,1,0,0:0:0:0:
64,192,231600,1,0,0:0:0:0:
448,192,231678,1,0,0:0:0:0:
320,192,231757,1,0,0:0:0:0:
192,192,231757,1,0,0:0:0:0:
64,192,231915,1,0,0:0:0:0:
192,192,232073,1,0,0:0:0:0:
320,192,232231,1,0,0:0:0:0:
64,192,232389,1,0,0:0:0:0:
64,192,232547,1,0,0:0:0:0:
448,192,232705,1,0,0:0:0:0:
448,192,232863,1,0,0:0:0:0:
64,192,233021,128,0,235547:0:0:0:0:
192,192,233021,1,0,0:0:0:0:
320,192,233336,1,0,0:0:0:0:
192,192,233652,1,0,0:0:0:0:
448,192,233968,1,0,0:0:0:0:
192,192,234284,1,0,0:0:0:0:
320,192,234600,1,0,0:0:0:0:
192,192,234915,1,0,0:0:0:0:
448,192,235231,1,0,0:0:0:0:
320,192,235389,1,0,0:0:0:0:
448,192,235547,128,0,238073:0:0:0:0:
192,192,235863,1,0,0:0:0:0:
64,192,236021,1,0,0:0:0:0:
320,192,236178,1,0,0:0:0:0:
192,192,236494,1,0,0:0:0:0:
320,192,236810,1,0,0:0:0:0:
192,192,236968,1,0,0:0:0:0:
64,192,237126,1,0,0:0:0:0:
192,192,237284,1,0,0:0:0:0:
320,192,237442,1,0,0:0:0:0:
192,192,237757,1,0,0:0:0:0:
64,192,238073,128,0,240600:0:0:0:0:
320,192,238389,1,0,0:0:0:0:
192,192,238705,1,0,0:0:0:0:
448,192,239021,1,0,0:0:0:0:
192,192,239336,1,0,0:0:0:0:
320,192,239652,1,0,0:0:0:0:
192,192,239968,1,0,0:0:0:0:
448,192,240284,1,0,0:0:0:0:
192,192,240442,1,0,0:0:0:0:
448,192,240600,128,0,243126:0:0:0:0:
192,192,240915,1,0,0:0:0:0:
64,192,241073,1,0,0:0:0:0:
320,192,241231,1,0,0:0:0:0:
192,192,241547,1,0,0:0:0:0:
320,192,241863,1,0,0:0:0:0:
64,192,242021,1,0,0:0:0:0:
192,192,242178,1,0,0:0:0:0:
64,192,242336,1,0,0:0:0:0:
320,192,242494,1,0,0:0:0:0:
64,192,242652,1,0,0:0:0:0:
320,192,242810,1,0,0:0:0:0:
192,192,242968,1,0,0:0:0:0:
64,192,243126,128,0,245652:0:0:0:0:
320,192,243442,1,0,0:0:0:0:
192,192,243757,1,0,0:0:0:0:
448,192,244073,1,0,0:0:0:0:
192,192,244389,1,0,0:0:0:0:
320,192,244705,1,0,0:0:0:0:
192,192,245021,1,0,0:0:0:0:
448,192,245336,1,0,0:0:0:0:
320,192,245494,1,0,0:0:0:0:
448,192,245652,128,0,248178:0:0:0:0:
192,192,245968,1,0,0:0:0:0:
64,192,246126,1,0,0:0:0:0:
320,192,246284,1,0,0:0:0:0:
64,192,246600,1,0,0:0:0:0:
320,192,246915,1,0,0:0:0:0:
192,192,247073,1,0,0:0:0:0:
64,192,247231,1,0,0:0:0:0:
192,192,247389,1,0,0:0:0:0:
320,192,247547,1,0,0:0:0:0:
64,192,247705,1,0,0:0:0:0:
192,192,247863,1,0,0:0:0:0:
320,192,248021,1,0,0:0:0:0:
64,192,248178,128,0,250705:0:0:0:0:
320,192,248494,1,0,0:0:0:0:
192,192,248810,1,0,0:0:0:0:
448,192,249126,1,0,0:0:0:0:
192,192,249442,1,0,0:0:0:0:
320,192,249757,1,0,0:0:0:0:
192,192,250073,1,0,0:0:0:0:
448,192,250389,1,0,0:0:0:0:
320,192,250547,1,0,0:0:0:0:
448,192,250705,128,0,253231:0:0:0:0:
192,192,251021,1,0,0:0:0:0:
64,192,251178,1,0,0:0:0:0:
320,192,251336,1,0,0:0:0:0:
64,192,251652,1,0,0:0:0:0:
320,192,251968,1,0,0:0:0:0:
192,192,252126,1,0,0:0:0:0:
64,192,252284,1,0,0:0:0:0:
192,192,252442,1,0,0:0:0:0:
320,192,252600,1,0,0:0:0:0:
64,192,252757,1,0,0:0:0:0:
320,192,252915,1,0,0:0:0:0:
192,192,253073,1,0,0:0:0:0:
64,192,253231,128,0,255757:0:0:0:0:
320,192,253231,128,0,253271:0:0:0:0:
448,192,253547,1,0,0:0:0:0:
192,192,253863,128,0,253902:0:0:0:0:
448,192,254178,1,0,0:0:0:0:
320,192,254494,128,0,254534:0:0:0:0:
448,192,254810,1,0,0:0:0:0:
192,192,255126,128,0,255165:0:0:0:0:
320,192,255442,1,0,0:0:0:0:
448,192,255757,128,0,258284:0:0:0:0:
64,192,256073,1,0,0:0:0:0:
320,192,256389,1,0,0:0:0:0:
192,192,256705,1,0,0:0:0:0:
320,192,257021,1,0,0:0:0:0:
64,192,257336,1,0,0:0:0:0:
320,192,257652,1,0,0:0:0:0:
192,192,257968,1,0,0:0:0:0:
64,192,258284,128,0,260810:0:0:0:0:
320,192,258600,1,0,0:0:0:0:
192,192,258915,1,0,0:0:0:0:
320,192,259231,1,0,0:0:0:0:
192,192,259547,1,0,0:0:0:0:
448,192,259863,1,0,0:0:0:0:
192,192,260178,1,0,0:0:0:0:
320,192,260494,1,0,0:0:0:0:
448,192,260810,128,0,264600:0:0:0:0:
192,192,261205,1,0,0:0:0:0:
320,192,261600,1,0,0:0:0:0:
64,192,262073,1,0,0:0:0:0:
192,192,262626,1,0,0:0:0:0:
320,192,262705,1,0,0:0:0:0:
64,192,263178,1,0,0:0:0:0:
192,192,263968,1,0,0:0:0:0:
320,192,264600,1,0,0:0:0:0:
448,192,266178,1,0,0:0:0:0:
