osu file format v14

[General]
AudioFilename: audio.mp3
AudioLeadIn: 0
PreviewTime: 112935
Countdown: 0
SampleSet: Normal
StackLeniency: 0.7
Mode: 1
LetterboxInBreaks: 0
WidescreenStoryboard: 0

[Editor]
DistanceSpacing: 0.5
BeatDivisor: 8
GridSize: 32
TimelineZoom: 3.399999

[Metadata]
Title:DUAL BREAKER XX
TitleUnicode:DUAL BREAKER XX
Artist:Srav3R vs. Getty
ArtistUnicode:Srav3R vs. Getty
Creator:Grape_Tea
Version:Inner Oni
Source:WACCA Lily R
Tags:electronic video game instrumental jcore j-core happy uk hardcore tanoc tano*c techno future bass dubstep rotaeno yuzu__rinrin 6_4 uranosu1030 yassu- tamakagi2000
BeatmapID:3342743
BeatmapSetID:1637689

[Difficulty]
HPDrainRate:5
CircleSize:5
OverallDifficulty:7
ApproachRate:5
SliderMultiplier:1.4
SliderTickRate:1

[Events]
//Background and Video events
0,0,"background.png",0,70
//Break Periods
2,64085,65085
2,113285,116685
//Storyboard Layer 0 (Background)
//Storyboard Layer 1 (Fail)
//Storyboard Layer 2 (Pass)
//Storyboard Layer 3 (Foreground)
//Storyboard Layer 4 (Overlay)
//Storyboard Sound Samples

[TimingPoints]
-3315,300,4,1,0,70,1,0
-3315,-178.571428571429,4,1,0,70,0,0
2685,-160,4,1,0,70,0,0
3885,-145.454545454545,4,1,0,70,0,0
4485,-139.130434782609,4,1,0,70,0,0
4785,-136.170212765957,4,1,0,70,0,0
4935,-134.736842105263,4,1,0,70,0,0
5085,-133.333333333333,4,1,0,70,0,0
5535,-129.292929292929,4,1,0,70,0,0
5985,-125.490196078431,4,1,0,70,0,0
6285,-123.076923076923,4,1,0,70,0,0
6585,-120.754716981132,4,1,0,70,0,0
7035,-117.43119266055,4,1,0,70,0,0
7185,-116.363636363636,4,1,0,70,0,0
7335,-115.315315315315,4,1,0,70,0,0
7635,-113.274336283186,4,1,0,70,0,0
7785,-112.280701754386,4,1,0,70,0,0
8085,-110.344827586207,4,1,0,70,0,0
8235,-109.401709401709,4,1,0,70,0,0
8385,-108.474576271186,4,1,0,70,0,0
8685,-106.666666666667,4,1,0,70,0,0
8760,-106.224066390042,4,1,0,70,0,0
8835,-105.785123966942,4,1,0,70,0,0
8985,-104.918032786885,4,1,0,70,0,0
9135,-104.065040650407,4,1,0,70,0,0
9285,-103.225806451613,4,1,0,70,0,0
9435,-102.4,4,1,0,70,0,0
9585,-101.587301587302,4,1,0,70,0,0
9735,-100.787401574803,4,1,0,70,0,0
9885,-100,4,1,0,70,0,0
10785,-66.666666666667,4,1,0,70,0,0
11085,-133.333333333333,4,1,0,80,0,0
11235,-131.764705882353,4,1,0,80,0,0
11310,-130.994152046784,4,1,0,80,0,0
11385,-130.232558139535,4,1,0,80,0,0
11535,-128.735632183908,4,1,0,80,0,0
11835,-125.842696629213,4,1,0,80,0,0
11985,-124.444444444444,4,1,0,80,0,0
12285,-121.739130434783,4,1,0,80,0,0
12435,-120.430107526882,4,1,0,80,0,0
12510,-119.786096256684,4,1,0,80,0,0
12585,-119.148936170213,4,1,0,80,0,0
12735,-117.894736842105,4,1,0,80,0,0
13035,-115.463917525773,4,1,0,80,0,0
13185,-114.285714285714,4,1,0,80,0,0
13335,-113.131313131313,4,1,0,80,0,0
13485,-112,4,1,0,80,0,0
13635,-110.891089108911,4,1,0,80,0,0
13710,-110.344827586207,4,1,0,80,0,0
13785,-109.803921568627,4,1,0,80,0,0
13935,-108.73786407767,4,1,0,80,0,0
14235,-106.666666666667,4,1,0,80,0,0
14385,-105.660377358491,4,1,0,80,0,0
14685,-103.703703703704,4,1,0,80,0,0
14835,-102.752293577982,4,1,0,80,0,0
14910,-102.283105022831,4,1,0,80,0,0
14985,-101.818181818182,4,1,0,80,0,0
15135,-100.900900900901,4,1,0,80,0,0
15285,-100,4,1,0,80,0,0
15585,-80,4,1,0,80,0,0
15885,-133.333333333333,4,1,0,80,0,0
16035,-129.72972972973,4,1,0,80,0,0
16110,-128,4,1,0,80,0,0
16185,-126.315789473684,4,1,0,80,0,0
16335,-123.076923076923,4,1,0,80,0,0
16485,-120,4,1,0,80,0,0
16560,-118.518518518519,4,1,0,80,0,0
16710,-115.66265060241,4,1,0,80,0,0
16785,-114.285714285714,4,1,0,80,0,0
16935,-111.627906976744,4,1,0,80,0,0
17010,-110.344827586207,4,1,0,80,0,0
17085,-109.090909090909,4,1,0,80,0,0
17160,-107.865168539326,4,1,0,80,0,0
17310,-105.494505494506,4,1,0,80,0,0
17385,-104.347826086957,4,1,0,80,0,0
17535,-102.127659574468,4,1,0,80,0,0
17685,-100,4,1,0,80,0,0
17760,-98.969072164948,4,1,0,80,0,0
17910,-96.969696969697,4,1,0,80,0,0
17985,-96,4,1,0,80,0,0
18060,-95.049504950495,4,1,0,80,0,0
18135,-94.117647058824,4,1,0,80,0,0
18285,-92.307692307692,4,1,0,80,0,0
18360,-91.428571428571,4,1,0,80,0,0
18435,-90.566037735849,4,1,0,80,0,0
18510,-89.719626168224,4,1,0,80,0,0
18585,-88.888888888889,4,1,0,80,0,0
18660,-88.073394495413,4,1,0,80,0,0
18735,-87.272727272727,4,1,0,80,0,0
18810,-86.486486486486,4,1,0,80,0,0
18885,-85.714285714286,4,1,0,80,0,0
18960,-84.955752212389,4,1,0,80,0,0
19035,-84.210526315789,4,1,0,80,0,0
19110,-83.478260869565,4,1,0,80,0,0
19185,-82.758620689655,4,1,0,80,0,0
19260,-82.051282051282,4,1,0,80,0,0
19335,-81.35593220339,4,1,0,80,0,0
19410,-80.672268907563,4,1,0,80,0,0
19485,-80,4,1,0,80,0,0
20085,-57.142857142857,4,1,0,80,0,0
20685,-100,4,1,0,90,0,1
27885,-100,4,1,0,70,0,0
30885,-133.333333333333,4,1,0,80,0,1
32985,-133.333333333333,4,1,0,80,0,1
33135,-130.232558139535,4,1,0,80,0,1
33285,-127.272727272727,4,1,0,80,0,1
33435,-124.444444444444,4,1,0,80,0,1
33585,-121.739130434783,4,1,0,80,0,1
33735,-119.148936170213,4,1,0,80,0,1
33885,-116.666666666667,4,1,0,80,0,1
34035,-114.285714285714,4,1,0,80,0,1
34185,-112,4,1,0,80,0,1
34335,-109.803921568628,4,1,0,80,0,1
34410,-108.73786407767,4,1,0,80,0,1
34635,-105.660377358491,4,1,0,80,0,1
34785,-103.703703703704,4,1,0,80,0,1
34935,-101.818181818182,4,1,0,80,0,1
35010,-100.900900900901,4,1,0,80,0,1
35085,-100,4,1,0,80,0,0
37485,-100,4,1,0,80,0,0
37560,-98.461538461538,4,1,0,80,0,0
37635,-96.969696969697,4,1,0,80,0,0
37710,-95.522388059701,4,1,0,80,0,0
37785,-94.117647058823,4,1,0,80,0,0
37860,-92.753623188406,4,1,0,80,0,0
37935,-91.428571428571,4,1,0,80,0,0
38010,-90.140845070423,4,1,0,80,0,0
38085,-88.888888888889,4,1,0,80,0,0
38160,-87.671232876712,4,1,0,80,0,0
38235,-86.486486486486,4,1,0,80,0,0
38310,-85.333333333333,4,1,0,80,0,0
38385,-84.210526315789,4,1,0,80,0,0
38460,-83.116883116883,4,1,0,80,0,0
38535,-82.051282051282,4,1,0,80,0,0
38610,-81.012658227848,4,1,0,80,0,0
38685,-80,4,1,0,80,0,0
39585,-57.142857142857,4,1,0,80,0,0
39885,-80,4,1,0,90,0,1
40035,-82.352941176471,4,1,0,90,0,1
40485,-90.322580645161,4,1,0,90,0,1
40522,-91.047040971168,4,1,0,90,0,1
40635,-93.333333333333,4,1,0,90,0,1
40672,-94.107102845619,4,1,0,90,0,1
40785,-96.551724137931,4,1,0,90,0,1
40822,-97.380013911431,4,1,0,90,0,1
40935,-100,4,1,0,90,0,1
40972,-100.888782128273,4,1,0,90,0,1
41085,-103.703703703704,4,1,0,90,0,1
41122,-104.659855469723,4,1,0,90,0,1
41235,-107.692307692308,4,1,0,90,0,1
41272,-108.723789800673,4,1,0,90,0,1
41385,-112,4,1,0,90,0,1
41422,-113.116078642607,4,1,0,90,0,1
41535,-116.666666666667,4,1,0,90,0,1
41572,-117.878192534381,4,1,0,90,0,1
41647,-117.878192534381,4,1,0,50,0,1
41685,-121.739130434783,4,1,0,50,0,0
41760,-124.444444444444,4,1,0,50,0,0
41835,-127.272727272727,4,1,0,50,0,0
41910,-130.232558139535,4,1,0,50,0,0
41985,-133.333333333333,4,1,0,50,0,0
42247,-133.333333333333,4,1,0,90,0,0
42285,-200,4,1,0,90,0,1
42585,-186.666666666667,4,1,0,90,0,1
42885,-175,4,1,0,90,0,1
43185,-164.705882352941,4,1,0,90,0,1
43485,-155.555555555556,4,1,0,90,0,1
43785,-147.368421052632,4,1,0,90,0,1
44085,-140,4,1,0,90,0,1
44385,-133.333333333333,4,1,0,90,0,1
44460,-131.764705882353,4,1,0,90,0,1
44535,-130.232558139535,4,1,0,90,0,1
44685,-127.272727272727,4,1,0,90,0,1
44760,-125.842696629214,4,1,0,90,0,1
44835,-124.444444444444,4,1,0,90,0,1
44985,-121.739130434783,4,1,0,90,0,1
45060,-120.430107526882,4,1,0,90,0,1
45135,-119.148936170213,4,1,0,90,0,1
45285,-116.666666666667,4,1,0,90,0,1
45360,-115.463917525773,4,1,0,90,0,1
45435,-114.285714285714,4,1,0,90,0,1
45510,-113.131313131313,4,1,0,90,0,1
45585,-112,4,1,0,90,0,1
45735,-109.803921568628,4,1,0,90,0,1
45810,-108.73786407767,4,1,0,90,0,1
45885,-107.692307692308,4,1,0,90,0,1
45960,-106.666666666667,4,1,0,90,0,1
46035,-105.660377358491,4,1,0,90,0,1
46185,-103.703703703704,4,1,0,90,0,1
46260,-102.752293577982,4,1,0,90,0,1
46335,-101.818181818182,4,1,0,90,0,1
46410,-100.900900900901,4,1,0,90,0,1
46485,-100,4,1,0,90,0,1
46747,-100,4,1,0,70,0,1
47085,-95.238095238095,4,1,0,70,0,0
49485,-90.909090909091,4,1,0,70,0,0
51585,-90.09009009009,4,1,0,70,0,0
51660,-89.52551477171,4,1,0,70,0,0
51735,-88.967971530249,4,1,0,70,0,0
51810,-88.41732979664,4,1,0,70,0,0
51847,-88.41732979664,4,1,0,80,0,0
51885,-87.873462214411,4,1,0,90,0,0
51985,-87.158628704242,4,1,0,90,0,0
52085,-86.455331412104,4,1,0,90,0,0
52185,-85.763293310463,4,1,0,90,0,0
52285,-85.082246171299,4,1,0,90,0,0
52385,-84.411930219471,4,1,0,90,0,0
52485,-83.752093802345,4,1,0,90,0,0
52585,-83.102493074792,4,1,0,90,0,0
52685,-82.462891698736,4,1,0,90,0,0
52785,-81.833060556465,4,1,0,90,0,0
52885,-81.21277747699,4,1,0,90,0,0
52985,-80.601826974745,4,1,0,90,0,0
53085,-80,4,1,0,90,0,0
53160,-80,4,1,0,20,0,0
53235,-80,4,1,0,25,0,0
53310,-80,4,1,0,30,0,0
53385,-80,4,1,0,35,0,0
53460,-80,4,1,0,40,0,0
53535,-80,4,1,0,45,0,0
53610,-80,4,1,0,50,0,0
53685,-80,4,1,0,55,0,0
53760,-80,4,1,0,60,0,0
53835,-80,4,1,0,65,0,0
53910,-80,4,1,0,70,0,0
53985,-80,4,1,0,75,0,0
54060,-80,4,1,0,80,0,0
54135,-80,4,1,0,85,0,0
54210,-80,4,1,0,90,0,0
54285,-97.087378640777,4,1,0,90,0,1
58785,-96.153846153846,4,1,0,90,0,1
58860,-95.238095238095,4,1,0,90,0,1
58935,-94.339622641509,4,1,0,90,0,1
59010,-93.457943925234,4,1,0,90,0,1
59085,-92.592592592593,4,1,0,90,0,1
63885,-94.339622641509,4,1,0,90,0,0
63960,-94.339622641509,4,1,0,5,0,0
65085,-200,4,1,0,70,0,0
66247,-200,4,1,0,70,0,0
66285,-200,4,1,0,70,0,0
66885,-184.615384615385,4,1,0,70,0,0
67185,-177.777777777778,4,1,0,70,0,0
67335,-174.545454545455,4,1,0,70,0,0
67485,-171.428571428571,4,1,0,70,0,0
67935,-162.71186440678,4,1,0,70,0,0
68385,-154.838709677419,4,1,0,70,0,0
68685,-150,4,1,0,70,0,0
68985,-145.454545454545,4,1,0,70,0,0
69285,-141.176470588235,4,1,0,70,0,0
69585,-137.142857142857,4,1,0,70,0,0
69885,-133.333333333333,4,1,0,70,0,0
70185,-129.72972972973,4,1,0,70,0,0
70485,-126.315789473684,4,1,0,70,0,0
70785,-123.076923076923,4,1,0,70,0,0
70935,-123.076923076923,4,1,0,80,0,0
71085,-120,4,1,0,80,0,0
71235,-118.518518518519,4,1,0,80,0,0
71385,-117.073170731707,4,1,0,80,0,0
71535,-115.66265060241,4,1,0,80,0,0
71685,-114.285714285714,4,1,0,80,0,0
71835,-112.941176470588,4,1,0,80,0,0
71985,-111.627906976744,4,1,0,80,0,0
72060,-110.982658959538,4,1,0,80,0,0
72135,-110.344827586207,4,1,0,80,0,0
72210,-109.714285714286,4,1,0,80,0,0
72285,-109.090909090909,4,1,0,80,0,0
72435,-107.865168539326,4,1,0,80,0,0
72510,-107.262569832402,4,1,0,80,0,0
72585,-106.666666666667,4,1,0,80,0,0
72635,-106.273062730627,4,1,0,80,0,0
72685,-105.882352941177,4,1,0,80,0,0
72735,-105.494505494506,4,1,0,80,0,0
72885,-104.347826086957,4,1,0,80,0,0
72960,-103.783783783784,4,1,0,80,0,0
73035,-103.225806451613,4,1,0,80,0,0
73085,-102.857142857143,4,1,0,80,0,0
73135,-102.491103202847,4,1,0,80,0,0
73185,-102.127659574468,4,1,0,80,0,0
73335,-101.052631578947,4,1,0,80,0,0
73410,-101.052631578947,4,1,0,90,0,0
73485,-66.666666666667,4,1,0,90,0,0
74085,-100,4,1,0,90,0,0
74385,-66.666666666667,4,1,0,90,0,0
75135,-100,4,1,0,90,0,0
75735,-66.666666666667,4,1,0,90,0,0
76335,-100,4,1,0,90,0,0
77085,-66.666666666667,4,1,0,90,0,0
77985,-100,4,1,0,90,0,0
78060,-99.464422341239,4,1,0,90,0,0
78135,-98.934550989345,4,1,0,90,0,0
78210,-98.410295230886,4,1,0,90,0,0
78285,-97.89156626506,4,1,0,90,0,0
78435,-96.870342771982,4,1,0,90,0,0
78510,-96.367679762787,4,1,0,90,0,0
78585,-95.870206489675,4,1,0,90,0,0
78735,-94.890510948905,4,1,0,90,0,0
78885,-93.93063583815,4,1,0,90,0,0
78960,-93.457943925234,4,1,0,90,0,0
79035,-92.989985693848,4,1,0,90,0,0
79110,-92.526690391459,4,1,0,90,0,0
79185,-92.067988668555,4,1,0,90,0,0
79335,-91.164095371669,4,1,0,90,0,0
79410,-90.718771807397,4,1,0,90,0,0
79485,-90.277777777778,4,1,0,90,0,0
79635,-89.408528198074,4,1,0,90,0,0
79785,-88.555858310627,4,1,0,90,0,0
79935,-87.719298245614,4,1,0,90,0,0
80010,-87.306917394224,4,1,0,90,0,0
80085,-86.898395721925,4,1,0,90,0,0
80160,-86.493679308051,4,1,0,90,0,0
80235,-86.092715231788,4,1,0,90,0,0
80310,-85.69545154911,4,1,0,90,0,0
80385,-85.301837270341,4,1,0,90,0,0
80535,-84.525357607282,4,1,0,90,0,0
80610,-84.142394822006,4,1,0,90,0,0
80685,-83.762886597938,4,1,0,90,0,0
80760,-83.386786401539,4,1,0,90,0,0
80835,-83.01404853129,4,1,0,90,0,0
80910,-82.644628099174,4,1,0,90,0,0
80985,-82.278481012658,4,1,0,90,0,0
81060,-81.915563957152,4,1,0,90,0,0
81135,-81.555834378921,4,1,0,90,0,0
81210,-81.199250468457,4,1,0,90,0,0
81285,-80.845771144279,4,1,0,90,0,0
81360,-80.495356037152,4,1,0,90,0,0
81435,-80.147965474723,4,1,0,90,0,0
81510,-79.803560466544,4,1,0,90,0,0
81585,-79.462102689486,4,1,0,90,0,0
81660,-79.123554473524,4,1,0,90,0,0
81735,-78.787878787879,4,1,0,90,0,0
81810,-78.45503922752,4,1,0,90,0,0
81885,-78.125,4,1,0,90,0,0
82785,-57.142857142857,4,1,0,90,0,0
82935,-57.142857142857,4,1,0,70,0,0
83085,-133.333333333333,4,1,0,70,0,0
83385,-125,4,1,0,70,0,0
83535,-121.212121212121,4,1,0,70,0,0
83685,-117.647058823529,4,1,0,70,0,0
83835,-114.285714285714,4,1,0,70,0,0
83985,-111.111111111111,4,1,0,70,0,0
84135,-108.108108108108,4,1,0,70,0,0
84285,-105.263157894737,4,1,0,70,0,0
84435,-102.564102564103,4,1,0,70,0,0
84585,-100,4,1,0,70,0,0
84660,-98.765432098765,4,1,0,70,0,0
84735,-97.560975609756,4,1,0,70,0,0
84810,-96.385542168675,4,1,0,70,0,0
84885,-95.238095238095,4,1,0,70,0,0
85035,-93.023255813953,4,1,0,70,0,0
85185,-90.909090909091,4,1,0,70,0,0
85335,-90.909090909091,4,1,0,80,0,0
85485,-100,4,1,0,80,0,0
85710,-95.890410958904,4,1,0,80,0,0
85935,-92.105263157895,4,1,0,80,0,0
86160,-88.607594936709,4,1,0,80,0,0
86385,-85.365853658537,4,1,0,80,0,0
86610,-82.352941176471,4,1,0,80,0,0
86685,-81.30081300813,4,1,0,80,0,0
86835,-79.545454545455,4,1,0,80,0,0
87060,-76.923076923077,4,1,0,80,0,0
87285,-74.468085106383,4,1,0,80,0,0
87385,-73.426573426573,4,1,0,80,0,0
87485,-72.413793103448,4,1,0,80,0,0
87585,-71.428571428571,4,1,0,80,0,0
87735,-71.428571428571,4,1,0,90,0,0
87885,-100,4,1,0,90,0,0
87960,-98.461538461538,4,1,0,90,0,0
88035,-96.969696969697,4,1,0,90,0,0
88110,-95.522388059701,4,1,0,90,0,0
88185,-94.117647058823,4,1,0,90,0,0
88260,-92.753623188406,4,1,0,90,0,0
88335,-91.428571428571,4,1,0,90,0,0
88410,-90.140845070423,4,1,0,90,0,0
88485,-88.888888888889,4,1,0,90,0,0
88560,-87.671232876712,4,1,0,90,0,0
88635,-86.486486486486,4,1,0,90,0,0
88710,-85.333333333333,4,1,0,90,0,0
88785,-84.210526315789,4,1,0,90,0,0
88860,-83.116883116883,4,1,0,90,0,0
88935,-82.051282051282,4,1,0,90,0,0
89010,-81.012658227848,4,1,0,90,0,0
89085,-80,4,1,0,90,0,0
89160,-79.012345679012,4,1,0,90,0,0
89235,-78.048780487805,4,1,0,90,0,0
89310,-77.10843373494,4,1,0,90,0,0
89385,-76.190476190476,4,1,0,90,0,0
89460,-75.294117647059,4,1,0,90,0,0
89535,-74.418604651163,4,1,0,90,0,0
89610,-73.563218390805,4,1,0,90,0,0
89685,-72.727272727273,4,1,0,90,0,0
89760,-71.910112359551,4,1,0,90,0,0
89835,-71.111111111111,4,1,0,90,0,0
89910,-70.32967032967,4,1,0,90,0,0
89985,-69.565217391304,4,1,0,90,0,0
90060,-68.817204301075,4,1,0,90,0,0
90135,-68.085106382979,4,1,0,90,0,0
90210,-67.368421052632,4,1,0,90,0,0
90285,-66.666666666667,4,1,0,90,0,0
91485,-133.333333333333,4,1,0,90,0,0
91635,-129.764801297648,4,1,0,90,0,0
91710,-128.051220488195,4,1,0,90,0,0
91785,-126.382306477093,4,1,0,90,0,0
91935,-123.171670515781,4,1,0,90,0,0
92010,-121.626757886735,4,1,0,90,0,0
92085,-120.12012012012,4,1,0,90,0,0
92160,-118.650352243233,4,1,0,90,0,0
92310,-115.816141874774,4,1,0,90,0,0
92385,-114.44921316166,4,1,0,90,0,0
92535,-111.809923130678,4,1,0,90,0,0
92685,-109.289617486339,4,1,0,90,0,0
92760,-108.0715974333,4,1,0,90,0,0
92835,-106.88042752171,4,1,0,90,0,0
92910,-105.715229600264,4,1,0,90,0,0
92985,-104.575163398693,4,1,0,90,0,0
93060,-103.459424506951,4,1,0,90,0,0
93135,-102.367242482406,4,1,0,90,0,0
93210,-101.297879075657,4,1,0,90,0,0
93285,-100.250626566416,4,1,0,90,0,0
93585,-100,4,1,0,90,0,0
93660,-98.039215686275,4,1,0,90,0,0
93735,-96.153846153846,4,1,0,90,0,0
93810,-94.339622641509,4,1,0,90,0,0
93847,-94.339622641509,4,1,0,95,0,0
93885,-92.592592592593,4,1,0,95,0,1
100485,-93.457943925234,4,1,0,95,0,1
100560,-94.339622641509,4,1,0,95,0,1
100635,-95.238095238095,4,1,0,95,0,1
100710,-96.153846153846,4,1,0,95,0,1
100785,-97.087378640777,4,1,0,95,0,1
100860,-98.039215686275,4,1,0,95,0,1
100935,-99.009900990099,4,1,0,95,0,1
101085,-80,4,1,0,95,0,0
101385,-104.347826086957,4,1,0,95,0,0
101685,-80,4,1,0,95,0,0
101985,-114.285714285714,4,1,0,95,0,0
102135,-117.647058823529,4,1,0,95,0,0
102285,-120,4,1,0,95,0,0
102435,-123.076923076923,4,1,0,95,0,0
102585,-126.315789473684,4,1,0,95,0,0
102735,-129.87012987013,4,1,0,95,0,0
102885,-133.333333333333,4,1,0,95,0,0
103185,-111.111111111111,4,1,0,95,0,0
103260,-105.820105820106,4,1,0,95,0,0
103335,-101.010101010101,4,1,0,95,0,0
103410,-96.618357487923,4,1,0,95,0,0
103485,-92.592592592593,4,1,0,95,0,1
107085,-66.666666666667,4,1,0,95,0,1
107385,-92.592592592593,4,1,0,95,0,1
107535,-66.666666666667,4,1,0,95,0,1
107835,-66.666666666667,4,1,0,95,0,1
107985,-92.592592592593,4,1,0,95,0,1
111885,-92.592592592593,4,1,0,95,0,1
112035,-95.238095238095,4,1,0,95,0,1
112185,-98.039215686275,4,1,0,95,0,1
112335,-101.010101010101,4,1,0,95,0,1
112485,-104.166666666667,4,1,0,95,0,1
112635,-107.52688172043,4,1,0,95,0,1
112785,-111.111111111111,4,1,0,95,0,1
113085,-133.333333333333,4,1,0,95,0,0
113160,-133.333333333333,4,1,0,5,0,0
117585,-133.333333333333,4,1,0,70,0,0
120285,-92.592592592593,4,1,0,70,0,0
120360,-94.658553076403,4,1,0,70,0,0
120435,-96.818810511757,4,1,0,70,0,0
120510,-99.079971691437,4,1,0,70,0,0
120585,-101.449275362319,4,1,0,70,0,0
120660,-103.934669636229,4,1,0,70,0,0
120735,-106.544901065449,4,1,0,70,0,0
120810,-109.289617486339,4,1,0,70,0,0
120885,-112.179487179487,4,1,0,70,0,0
120960,-115.22633744856,4,1,0,70,0,0
121035,-118.44331641286,4,1,0,70,0,0
121110,-121.845082680592,4,1,0,70,0,0
121185,-125.448028673835,4,1,0,70,0,0
121260,-129.27054478301,4,1,0,70,0,0
121335,-133.333333333333,4,1,0,70,0,0
121485,-100,4,1,0,70,0,0
121635,-98.522167487685,4,1,0,70,0,0
121935,-95.693779904306,4,1,0,70,0,0
122235,-93.023255813953,4,1,0,70,0,0
122385,-91.743119266055,4,1,0,70,0,0
122460,-91.116173120729,4,1,0,70,0,0
122535,-90.497737556561,4,1,0,70,0,0
122610,-89.887640449438,4,1,0,70,0,0
122647,-89.887640449438,4,1,0,95,0,0
122685,-89.285714285714,4,1,0,95,0,1
125085,-66.666666666667,4,1,0,95,0,1
125385,-89.285714285714,4,1,0,95,0,1
125685,-66.666666666667,4,1,0,95,0,1
125985,-80,4,1,0,95,0,1
126060,-80.418174507439,4,1,0,95,0,1
126135,-80.840743734842,4,1,0,95,0,1
126210,-81.26777732629,4,1,0,95,0,1
126285,-81.699346405229,4,1,0,95,0,1
126360,-82.135523613963,4,1,0,95,0,1
126435,-82.576383154418,4,1,0,95,0,1
126510,-83.02200083022,4,1,0,95,0,1
126585,-83.47245409015,4,1,0,95,0,1
126660,-83.927822073017,4,1,0,95,0,1
126735,-84.388185654008,4,1,0,95,0,1
126810,-84.853627492575,4,1,0,95,0,1
126885,-85.324232081911,4,1,0,95,0,1
127035,-86.281276962899,4,1,0,95,0,1
127110,-86.767895878525,4,1,0,95,0,1
127185,-87.260034904014,4,1,0,95,0,1
127260,-87.75778850373,4,1,0,95,0,1
127335,-88.261253309797,4,1,0,95,0,1
127410,-88.770528184643,4,1,0,95,0,1
127485,-89.285714285714,4,1,0,95,0,1
128685,-89.285714285714,4,1,0,95,0,1
128835,-89.887640449438,4,1,0,95,0,1
128910,-90.191657271702,4,1,0,95,0,1
128985,-90.497737556561,4,1,0,95,0,1
129060,-90.805902383655,4,1,0,95,0,1
129135,-91.116173120729,4,1,0,95,0,1
129285,-91.743119266055,4,1,0,95,0,1
129360,-92.059838895282,4,1,0,95,0,1
129510,-92.699884125145,4,1,0,95,0,1
129585,-93.023255813953,4,1,0,95,0,1
129660,-93.348891481914,4,1,0,95,0,1
129810,-94.00705052879,4,1,0,95,0,1
129885,-94.339622641509,4,1,0,95,0,1
130035,-95.011876484561,4,1,0,95,0,1
130110,-95.351609058403,4,1,0,95,0,1
130185,-95.693779904306,4,1,0,95,0,1
130335,-96.385542168675,4,1,0,95,0,1
130410,-96.735187424426,4,1,0,95,0,1
130485,-97.087378640777,4,1,0,95,0,1
130635,-97.799511002445,4,1,0,95,0,1
130710,-98.159509202454,4,1,0,95,0,1
130785,-98.522167487685,4,1,0,95,0,1
130860,-98.887515451174,4,1,0,95,0,1
130935,-99.255583126551,4,1,0,95,0,1
131085,-100,4,1,0,95,0,1
131835,-57.142857142857,4,1,0,95,0,1
132210,-57.142857142857,4,1,0,70,0,1
132285,-100,4,1,0,70,0,0
137085,-100,4,1,0,70,0,0
137235,-97.959183673469,4,1,0,70,0,0
137310,-96.969696969697,4,1,0,70,0,0
137385,-96,4,1,0,70,0,0
137460,-95.049504950495,4,1,0,70,0,0
137535,-94.117647058823,4,1,0,70,0,0
137610,-93.203883495146,4,1,0,70,0,0
137685,-92.307692307692,4,1,0,70,0,0
137760,-91.428571428571,4,1,0,70,0,0
137835,-90.566037735849,4,1,0,70,0,0
137910,-89.719626168224,4,1,0,70,0,0
137985,-88.888888888889,4,1,0,70,0,0
138060,-88.073394495413,4,1,0,70,0,0
138135,-87.272727272727,4,1,0,70,0,0
138210,-86.486486486486,4,1,0,70,0,0
138285,-85.714285714286,4,1,0,70,0,0
138360,-84.955752212389,4,1,0,70,0,0
138435,-84.210526315789,4,1,0,70,0,0
138510,-83.478260869565,4,1,0,70,0,0
138585,-82.758620689655,4,1,0,70,0,0
138660,-82.051282051282,4,1,0,70,0,0
138735,-81.35593220339,4,1,0,70,0,0
138810,-80.672268907563,4,1,0,70,0,0
138885,-80,4,1,0,70,0,0
138960,-79.338842975207,4,1,0,70,0,0
139035,-78.688524590164,4,1,0,70,0,0
139110,-78.048780487805,4,1,0,70,0,0
139185,-77.41935483871,4,1,0,70,0,0
139260,-76.8,4,1,0,70,0,0
139335,-76.190476190476,4,1,0,70,0,0
139410,-75.590551181102,4,1,0,70,0,0
139485,-75,4,1,0,70,0,0
139560,-74.418604651163,4,1,0,70,0,0
139635,-73.846153846154,4,1,0,70,0,0
139710,-73.282442748092,4,1,0,70,0,0
139785,-72.727272727273,4,1,0,70,0,0
139860,-72.18045112782,4,1,0,70,0,0
139935,-71.641791044776,4,1,0,70,0,0
140010,-71.111111111111,4,1,0,70,0,0
140085,-70.588235294118,4,1,0,70,0,0
140160,-70.07299270073,4,1,0,70,0,0
140235,-69.565217391304,4,1,0,70,0,0
140310,-69.064748201439,4,1,0,70,0,0
140385,-68.571428571429,4,1,0,70,0,0
140460,-68.085106382979,4,1,0,70,0,0
140535,-67.605633802817,4,1,0,70,0,0
140610,-67.132867132867,4,1,0,70,0,0
140685,-66.666666666667,4,1,0,70,0,0
141585,-57.142857142857,4,1,0,70,0,0
141885,-100,4,1,0,70,0,0

[HitObjects]
256,192,1485,5,4,0:0:0:0:
256,192,2685,1,2,0:0:0:0:
256,192,3885,1,2,0:0:0:0:
256,192,4485,1,0,0:0:0:0:
256,192,4785,1,2,0:0:0:0:
256,192,4935,1,2,0:0:0:0:
256,192,5085,1,2,0:0:0:0:
256,192,5535,1,2,0:0:0:0:
256,192,5985,1,2,0:0:0:0:
256,192,6285,1,4,0:0:0:0:
256,192,6585,1,2,0:0:0:0:
256,192,7035,1,0,0:0:0:0:
256,192,7185,1,2,0:0:0:0:
256,192,7335,1,0,0:0:0:0:
256,192,7635,1,0,0:0:0:0:
256,192,7785,1,2,0:0:0:0:
256,192,8085,1,0,0:0:0:0:
256,192,8235,1,0,0:0:0:0:
256,192,8385,1,2,0:0:0:0:
256,192,8685,1,0,0:0:0:0:
256,192,8760,1,0,0:0:0:0:
256,192,8835,1,0,0:0:0:0:
256,192,8985,1,2,0:0:0:0:
256,192,9135,1,0,0:0:0:0:
256,192,9285,1,0,0:0:0:0:
256,192,9435,1,2,0:0:0:0:
256,192,9585,1,2,0:0:0:0:
256,192,9735,1,2,0:0:0:0:
256,192,9885,1,4,0:0:0:0:
256,192,10785,1,6,0:0:0:0:
256,192,11085,1,0,0:0:0:0:
256,192,11235,1,2,0:0:0:0:
256,192,11310,1,2,0:0:0:0:
256,192,11385,1,2,0:0:0:0:
256,192,11535,1,0,0:0:0:0:
256,192,11835,1,0,0:0:0:0:
256,192,11985,1,2,0:0:0:0:
256,192,12285,1,0,0:0:0:0:
256,192,12435,1,2,0:0:0:0:
256,192,12510,1,2,0:0:0:0:
256,192,12585,1,2,0:0:0:0:
256,192,12735,1,0,0:0:0:0:
256,192,13035,1,0,0:0:0:0:
256,192,13185,1,2,0:0:0:0:
256,192,13335,1,2,0:0:0:0:
256,192,13485,1,0,0:0:0:0:
256,192,13635,1,0,0:0:0:0:
256,192,13710,1,0,0:0:0:0:
256,192,13785,1,2,0:0:0:0:
256,192,13935,1,0,0:0:0:0:
256,192,14235,1,0,0:0:0:0:
256,192,14385,1,2,0:0:0:0:
256,192,14685,1,0,0:0:0:0:
256,192,14835,1,0,0:0:0:0:
256,192,14910,1,0,0:0:0:0:
256,192,14985,1,2,0:0:0:0:
256,192,15135,1,0,0:0:0:0:
256,192,15285,1,0,0:0:0:0:
256,192,15585,1,6,0:0:0:0:
256,192,15885,1,0,0:0:0:0:
256,192,16035,1,2,0:0:0:0:
256,192,16110,1,2,0:0:0:0:
256,192,16185,1,0,0:0:0:0:
256,192,16335,1,2,0:0:0:0:
256,192,16485,1,0,0:0:0:0:
256,192,16560,1,2,0:0:0:0:
256,192,16710,1,2,0:0:0:0:
256,192,16785,1,0,0:0:0:0:
256,192,16935,1,2,0:0:0:0:
256,192,17010,1,2,0:0:0:0:
256,192,17085,1,0,0:0:0:0:
256,192,17160,1,2,0:0:0:0:
256,192,17310,1,2,0:0:0:0:
256,192,17385,1,0,0:0:0:0:
256,192,17535,1,2,0:0:0:0:
256,192,17685,1,0,0:0:0:0:
256,192,17760,1,2,0:0:0:0:
256,192,17910,1,2,0:0:0:0:
256,192,17985,1,0,0:0:0:0:
256,192,18060,1,2,0:0:0:0:
256,192,18135,1,2,0:0:0:0:
256,192,18285,1,0,0:0:0:0:
256,192,18360,1,2,0:0:0:0:
256,192,18435,1,2,0:0:0:0:
256,192,18510,1,0,0:0:0:0:
256,192,18585,1,2,0:0:0:0:
256,192,18660,1,2,0:0:0:0:
256,192,18735,1,0,0:0:0:0:
256,192,18810,1,2,0:0:0:0:
256,192,18885,1,0,0:0:0:0:
256,192,18960,1,0,0:0:0:0:
256,192,19035,1,2,0:0:0:0:
256,192,19110,1,0,0:0:0:0:
256,192,19185,1,2,0:0:0:0:
256,192,19260,1,2,0:0:0:0:
256,192,19335,1,0,0:0:0:0:
256,192,19410,1,2,0:0:0:0:
256,192,19485,1,0,0:0:0:0:
256,192,20385,1,6,0:0:0:0:
256,192,20685,1,0,0:0:0:0:
256,192,20985,1,0,0:0:0:0:
256,192,21135,1,2,0:0:0:0:
256,192,21285,1,0,0:0:0:0:
256,192,21435,1,2,0:0:0:0:
256,192,21510,1,2,0:0:0:0:
256,192,21585,1,0,0:0:0:0:
256,192,21735,1,2,0:0:0:0:
256,192,21885,1,0,0:0:0:0:
256,192,22035,1,2,0:0:0:0:
256,192,22085,1,2,0:0:0:0:
256,192,22135,1,2,0:0:0:0:
256,192,22185,1,0,0:0:0:0:
256,192,22335,1,0,0:0:0:0:
256,192,22485,1,0,0:0:0:0:
256,192,22560,1,0,0:0:0:0:
256,192,22635,1,2,0:0:0:0:
256,192,22710,1,2,0:0:0:0:
256,192,22785,1,0,0:0:0:0:
256,192,22935,1,2,0:0:0:0:
256,192,23010,1,2,0:0:0:0:
256,192,23085,1,0,0:0:0:0:
256,192,23160,1,0,0:0:0:0:
256,192,23235,1,2,0:0:0:0:
256,192,23385,1,0,0:0:0:0:
256,192,23535,1,2,0:0:0:0:
256,192,23685,1,0,0:0:0:0:
256,192,23760,1,0,0:0:0:0:
256,192,23835,1,2,0:0:0:0:
256,192,23985,1,0,0:0:0:0:
256,192,24060,1,2,0:0:0:0:
256,192,24135,1,2,0:0:0:0:
256,192,24285,1,4,0:0:0:0:
256,192,24585,1,4,0:0:0:0:
256,192,24735,1,2,0:0:0:0:
256,192,24885,1,0,0:0:0:0:
256,192,25035,1,2,0:0:0:0:
256,192,25185,1,2,0:0:0:0:
256,192,25335,1,2,0:0:0:0:
256,192,25485,1,4,0:0:0:0:
256,192,25635,1,4,0:0:0:0:
256,192,25785,1,4,0:0:0:0:
256,192,26085,1,0,0:0:0:0:
256,192,26235,1,2,0:0:0:0:
256,192,26310,1,2,0:0:0:0:
256,192,26385,1,0,0:0:0:0:
256,192,26535,1,0,0:0:0:0:
256,192,26685,1,0,0:0:0:0:
256,192,26835,1,2,0:0:0:0:
256,192,26910,1,2,0:0:0:0:
256,192,26985,1,0,0:0:0:0:
256,192,27135,1,2,0:0:0:0:
256,192,27285,1,0,0:0:0:0:
256,192,27360,1,0,0:0:0:0:
256,192,27435,1,2,0:0:0:0:
256,192,27510,1,2,0:0:0:0:
256,192,27585,1,0,0:0:0:0:
256,192,27735,1,0,0:0:0:0:
256,192,27885,1,0,0:0:0:0:
256,192,28185,1,2,0:0:0:0:
256,192,28335,1,0,0:0:0:0:
256,192,28485,1,0,0:0:0:0:
256,192,28635,1,2,0:0:0:0:
256,192,28785,1,2,0:0:0:0:
256,192,28860,1,2,0:0:0:0:
256,192,28935,1,0,0:0:0:0:
256,192,29010,1,2,0:0:0:0:
256,192,29085,1,2,0:0:0:0:
256,192,29235,1,2,0:0:0:0:
256,192,29310,1,0,0:0:0:0:
256,192,29460,1,0,0:0:0:0:
256,192,29535,1,2,0:0:0:0:
256,192,29610,1,2,0:0:0:0:
256,192,29685,1,0,0:0:0:0:
256,192,29835,1,0,0:0:0:0:
256,192,29985,1,2,0:0:0:0:
256,192,30285,1,4,0:0:0:0:
256,192,30885,1,0,0:0:0:0:
256,192,31035,1,2,0:0:0:0:
256,192,31185,1,2,0:0:0:0:
256,192,31335,1,0,0:0:0:0:
256,192,31485,1,0,0:0:0:0:
256,192,31635,1,2,0:0:0:0:
256,192,31785,1,2,0:0:0:0:
256,192,31935,1,2,0:0:0:0:
256,192,32085,1,0,0:0:0:0:
256,192,32235,1,0,0:0:0:0:
256,192,32385,1,2,0:0:0:0:
256,192,32460,1,0,0:0:0:0:
256,192,32535,1,2,0:0:0:0:
256,192,32610,1,2,0:0:0:0:
256,192,32685,1,0,0:0:0:0:
256,192,32985,1,2,0:0:0:0:
256,192,33135,1,0,0:0:0:0:
256,192,33285,1,0,0:0:0:0:
256,192,33435,1,2,0:0:0:0:
256,192,33585,1,2,0:0:0:0:
256,192,33735,1,2,0:0:0:0:
256,192,33885,1,0,0:0:0:0:
256,192,34035,1,0,0:0:0:0:
256,192,34185,1,2,0:0:0:0:
256,192,34335,1,0,0:0:0:0:
256,192,34410,1,2,0:0:0:0:
256,192,34635,1,0,0:0:0:0:
256,192,34785,1,2,0:0:0:0:
256,192,34935,1,2,0:0:0:0:
256,192,35010,1,0,0:0:0:0:
256,192,35085,1,0,0:0:0:0:
256,192,35385,1,2,0:0:0:0:
256,192,35535,1,2,0:0:0:0:
256,192,35610,1,2,0:0:0:0:
256,192,35685,1,0,0:0:0:0:
256,192,35835,1,0,0:0:0:0:
256,192,35985,1,2,0:0:0:0:
256,192,36135,1,2,0:0:0:0:
256,192,36285,1,0,0:0:0:0:
256,192,36435,1,2,0:0:0:0:
256,192,36585,1,0,0:0:0:0:
256,192,36885,1,2,0:0:0:0:
256,192,36960,1,0,0:0:0:0:
256,192,37035,1,2,0:0:0:0:
256,192,37185,1,2,0:0:0:0:
256,192,37335,1,0,0:0:0:0:
256,192,37485,1,0,0:0:0:0:
256,192,37560,1,0,0:0:0:0:
256,192,37635,1,2,0:0:0:0:
256,192,37710,1,0,0:0:0:0:
256,192,37785,1,2,0:0:0:0:
256,192,37860,1,2,0:0:0:0:
256,192,37935,1,0,0:0:0:0:
256,192,38010,1,2,0:0:0:0:
256,192,38085,1,0,0:0:0:0:
256,192,38160,1,2,0:0:0:0:
256,192,38235,1,2,0:0:0:0:
256,192,38310,1,2,0:0:0:0:
256,192,38385,1,0,0:0:0:0:
256,192,38460,1,0,0:0:0:0:
256,192,38535,1,0,0:0:0:0:
256,192,38610,1,2,0:0:0:0:
256,192,38685,1,0,0:0:0:0:
256,192,38985,1,0,0:0:0:0:
256,192,39285,1,0,0:0:0:0:
256,192,39585,1,6,0:0:0:0:
256,192,39885,1,0,0:0:0:0:
256,192,40035,2,0,L|309:192,4,42.4999988419669
256,192,40485,1,2,0:0:0:0:
256,192,40522,1,2,0:0:0:0:
256,192,40635,1,2,0:0:0:0:
256,192,40672,1,2,0:0:0:0:
256,192,40785,1,2,0:0:0:0:
256,192,40822,1,2,0:0:0:0:
256,192,40935,1,2,0:0:0:0:
256,192,40972,1,2,0:0:0:0:
256,192,41085,1,2,0:0:0:0:
256,192,41122,1,2,0:0:0:0:
256,192,41235,1,2,0:0:0:0:
256,192,41272,1,2,0:0:0:0:
256,192,41385,1,2,0:0:0:0:
256,192,41422,1,2,0:0:0:0:
256,192,41535,1,2,0:0:0:0:
256,192,41572,1,2,0:0:0:0:
256,192,41685,1,2,0:0:0:0:
256,192,41760,1,2,0:0:0:0:
256,192,41835,1,2,0:0:0:0:
256,192,41910,1,2,0:0:0:0:
256,192,41985,1,2,0:0:0:0:
256,192,42285,1,0,0:0:0:0:
256,192,42585,1,0,0:0:0:0:
256,192,42885,1,2,0:0:0:0:
256,192,43185,1,2,0:0:0:0:
256,192,43485,1,0,0:0:0:0:
256,192,43785,1,2,0:0:0:0:
256,192,44085,1,2,0:0:0:0:
256,192,44385,1,2,0:0:0:0:
256,192,44460,1,0,0:0:0:0:
256,192,44535,1,0,0:0:0:0:
256,192,44685,1,0,0:0:0:0:
256,192,44760,1,2,0:0:0:0:
256,192,44835,1,2,0:0:0:0:
256,192,44985,1,2,0:0:0:0:
256,192,45060,1,0,0:0:0:0:
256,192,45135,1,0,0:0:0:0:
256,192,45285,1,2,0:0:0:0:
256,192,45360,1,0,0:0:0:0:
256,192,45435,1,0,0:0:0:0:
256,192,45510,1,2,0:0:0:0:
256,192,45585,1,0,0:0:0:0:
256,192,45735,1,0,0:0:0:0:
256,192,45810,1,2,0:0:0:0:
256,192,45885,1,2,0:0:0:0:
256,192,45960,1,0,0:0:0:0:
256,192,46035,1,2,0:0:0:0:
256,192,46185,1,2,0:0:0:0:
256,192,46260,1,0,0:0:0:0:
256,192,46335,1,2,0:0:0:0:
256,192,46410,1,2,0:0:0:0:
256,192,46485,1,0,0:0:0:0:
256,192,46785,1,2,0:0:0:0:
256,192,46935,1,0,0:0:0:0:
256,192,47085,1,4,0:0:0:0:
256,192,47235,1,4,0:0:0:0:
256,192,47535,1,4,0:0:0:0:
256,192,47760,1,4,0:0:0:0:
256,192,47985,1,4,0:0:0:0:
256,192,48210,1,4,0:0:0:0:
256,192,48435,1,4,0:0:0:0:
256,192,48585,1,4,0:0:0:0:
256,192,48735,1,4,0:0:0:0:
256,192,48885,1,6,0:0:0:0:
256,192,49485,1,4,0:0:0:0:
256,192,49710,1,4,0:0:0:0:
256,192,49935,1,4,0:0:0:0:
256,192,50085,1,6,0:0:0:0:
256,192,50385,1,4,0:0:0:0:
256,192,50610,1,4,0:0:0:0:
256,192,50835,1,4,0:0:0:0:
256,192,51060,1,4,0:0:0:0:
256,192,51285,1,6,0:0:0:0:
256,192,51585,1,0,0:0:0:0:
256,192,51660,1,0,0:0:0:0:
256,192,51735,1,0,0:0:0:0:
256,192,51810,1,0,0:0:0:0:
256,192,51885,1,2,0:0:0:0:
256,192,51985,1,0,0:0:0:0:
256,192,52085,1,0,0:0:0:0:
256,192,52185,1,2,0:0:0:0:
256,192,52285,1,2,0:0:0:0:
256,192,52385,1,0,0:0:0:0:
256,192,52485,1,0,0:0:0:0:
256,192,52585,1,2,0:0:0:0:
256,192,52685,1,0,0:0:0:0:
256,192,52785,1,2,0:0:0:0:
256,192,52885,1,2,0:0:0:0:
256,192,52985,1,2,0:0:0:0:
256,192,53085,1,0,0:0:0:0:
256,192,54285,1,0,0:0:0:0:
256,192,54435,1,0,0:0:0:0:
256,192,54510,1,0,0:0:0:0:
256,192,54585,1,2,0:0:0:0:
256,192,54735,1,0,0:0:0:0:
256,192,54810,1,0,0:0:0:0:
256,192,54885,1,0,0:0:0:0:
256,192,55035,1,0,0:0:0:0:
256,192,55185,1,2,0:0:0:0:
256,192,55260,1,0,0:0:0:0:
256,192,55335,1,2,0:0:0:0:
256,192,55410,1,2,0:0:0:0:
256,192,55485,1,0,0:0:0:0:
256,192,55560,1,2,0:0:0:0:
256,192,55710,1,2,0:0:0:0:
256,192,55785,1,0,0:0:0:0:
256,192,55935,1,2,0:0:0:0:
256,192,56085,1,0,0:0:0:0:
256,192,56235,1,0,0:0:0:0:
256,192,56385,1,2,0:0:0:0:
256,192,56460,1,2,0:0:0:0:
256,192,56535,1,0,0:0:0:0:
256,192,56685,1,0,0:0:0:0:
256,192,56835,1,0,0:0:0:0:
256,192,56910,1,0,0:0:0:0:
256,192,56985,1,2,0:0:0:0:
256,192,57135,1,0,0:0:0:0:
256,192,57210,1,2,0:0:0:0:
256,192,57285,1,0,0:0:0:0:
256,192,57360,1,0,0:0:0:0:
256,192,57435,1,2,0:0:0:0:
256,192,57585,1,2,0:0:0:0:
256,192,57660,1,0,0:0:0:0:
256,192,57735,1,2,0:0:0:0:
256,192,57810,1,2,0:0:0:0:
256,192,57885,1,0,0:0:0:0:
256,192,57960,1,2,0:0:0:0:
256,192,58035,1,2,0:0:0:0:
256,192,58185,1,0,0:0:0:0:
256,192,58260,1,0,0:0:0:0:
256,192,58335,1,2,0:0:0:0:
256,192,58410,1,0,0:0:0:0:
256,192,58485,1,2,0:0:0:0:
256,192,58560,1,2,0:0:0:0:
256,192,58635,1,0,0:0:0:0:
256,192,58785,1,0,0:0:0:0:
256,192,58860,1,0,0:0:0:0:
256,192,58935,1,0,0:0:0:0:
256,192,59010,1,0,0:0:0:0:
256,192,59085,1,2,0:0:0:0:
256,192,59235,1,2,0:0:0:0:
256,192,59310,1,0,0:0:0:0:
256,192,59385,1,2,0:0:0:0:
256,192,59535,1,2,0:0:0:0:
256,192,59610,1,0,0:0:0:0:
256,192,59685,1,2,0:0:0:0:
256,192,59760,1,2,0:0:0:0:
256,192,59835,1,2,0:0:0:0:
256,192,59985,1,0,0:0:0:0:
256,192,60060,1,0,0:0:0:0:
256,192,60135,1,2,0:0:0:0:
256,192,60285,1,0,0:0:0:0:
256,192,60360,1,0,0:0:0:0:
256,192,60435,1,2,0:0:0:0:
256,192,60510,1,0,0:0:0:0:
256,192,60585,1,2,0:0:0:0:
256,192,60735,1,2,0:0:0:0:
256,192,60810,1,0,0:0:0:0:
256,192,60885,1,2,0:0:0:0:
256,192,60960,1,2,0:0:0:0:
256,192,61035,1,0,0:0:0:0:
256,192,61185,1,2,0:0:0:0:
256,192,61260,1,2,0:0:0:0:
256,192,61335,1,0,0:0:0:0:
256,192,61485,1,0,0:0:0:0:
256,192,61635,1,0,0:0:0:0:
256,192,61785,1,2,0:0:0:0:
256,192,61935,1,0,0:0:0:0:
256,192,62235,1,0,0:0:0:0:
256,192,62385,1,2,0:0:0:0:
256,192,62685,1,0,0:0:0:0:
256,192,62835,1,0,0:0:0:0:
256,192,62985,1,0,0:0:0:0:
256,192,63060,1,0,0:0:0:0:
256,192,63135,1,0,0:0:0:0:
256,192,63285,1,0,0:0:0:0:
256,192,63360,1,0,0:0:0:0:
256,192,63435,1,0,0:0:0:0:
256,192,63510,1,0,0:0:0:0:
256,192,63585,1,2,0:0:0:0:
256,192,63885,1,4,0:0:0:0:
256,192,66285,5,2,0:0:0:0:
256,192,66885,1,0,0:0:0:0:
256,192,67185,1,2,0:0:0:0:
256,192,67335,1,2,0:0:0:0:
256,192,67485,1,2,0:0:0:0:
256,192,67935,1,2,0:0:0:0:
256,192,68385,1,2,0:0:0:0:
256,192,68685,1,4,0:0:0:0:
256,192,68985,1,2,0:0:0:0:
256,192,69285,1,2,0:0:0:0:
256,192,69585,1,2,0:0:0:0:
256,192,69885,1,2,0:0:0:0:
256,192,70185,1,2,0:0:0:0:
256,192,70485,1,2,0:0:0:0:
256,192,70785,1,2,0:0:0:0:
256,192,71085,1,0,0:0:0:0:
256,192,71235,1,0,0:0:0:0:
256,192,71385,1,0,0:0:0:0:
256,192,71535,1,0,0:0:0:0:
256,192,71685,1,0,0:0:0:0:
256,192,71835,1,0,0:0:0:0:
256,192,71985,1,0,0:0:0:0:
256,192,72060,1,2,0:0:0:0:
256,192,72135,1,2,0:0:0:0:
256,192,72210,1,2,0:0:0:0:
256,192,72285,1,0,0:0:0:0:
256,192,72435,1,2,0:0:0:0:
256,192,72510,1,0,0:0:0:0:
256,192,72585,1,2,0:0:0:0:
256,192,72635,1,2,0:0:0:0:
256,192,72685,1,2,0:0:0:0:
256,192,72735,1,0,0:0:0:0:
256,192,72885,1,2,0:0:0:0:
256,192,72960,1,0,0:0:0:0:
256,192,73035,1,2,0:0:0:0:
256,192,73085,1,0,0:0:0:0:
256,192,73135,1,0,0:0:0:0:
256,192,73185,1,2,0:0:0:0:
256,192,73335,1,0,0:0:0:0:
256,192,73485,1,4,0:0:0:0:
256,192,73785,1,4,0:0:0:0:
256,192,74085,1,2,0:0:0:0:
256,192,74235,1,2,0:0:0:0:
256,192,74385,1,4,0:0:0:0:
256,192,74535,1,4,0:0:0:0:
256,192,74835,1,4,0:0:0:0:
256,192,75135,1,0,0:0:0:0:
256,192,75285,1,2,0:0:0:0:
256,192,75435,1,2,0:0:0:0:
256,192,75585,1,2,0:0:0:0:
256,192,75735,1,4,0:0:0:0:
256,192,76035,1,4,0:0:0:0:
256,192,76335,1,2,0:0:0:0:
256,192,76485,1,0,0:0:0:0:
256,192,76635,1,0,0:0:0:0:
256,192,76785,1,2,0:0:0:0:
256,192,76935,1,2,0:0:0:0:
256,192,77085,1,4,0:0:0:0:
256,192,77385,1,4,0:0:0:0:
256,192,77535,1,4,0:0:0:0:
256,192,77835,1,4,0:0:0:0:
256,192,77985,1,0,0:0:0:0:
256,192,78060,1,0,0:0:0:0:
256,192,78135,1,2,0:0:0:0:
256,192,78210,1,2,0:0:0:0:
256,192,78285,1,0,0:0:0:0:
256,192,78435,1,2,0:0:0:0:
256,192,78510,1,2,0:0:0:0:
256,192,78585,1,0,0:0:0:0:
256,192,78735,1,2,0:0:0:0:
256,192,78885,1,0,0:0:0:0:
256,192,78960,1,0,0:0:0:0:
256,192,79035,1,0,0:0:0:0:
256,192,79110,1,0,0:0:0:0:
256,192,79185,1,2,0:0:0:0:
256,192,79335,1,2,0:0:0:0:
256,192,79410,1,2,0:0:0:0:
256,192,79485,1,0,0:0:0:0:
256,192,79635,1,0,0:0:0:0:
256,192,79785,1,0,0:0:0:0:
256,192,79935,1,2,0:0:0:0:
256,192,80010,1,2,0:0:0:0:
256,192,80085,1,0,0:0:0:0:
256,192,80160,1,2,0:0:0:0:
256,192,80235,1,2,0:0:0:0:
256,192,80310,1,0,0:0:0:0:
256,192,80385,1,0,0:0:0:0:
256,192,80535,1,0,0:0:0:0:
256,192,80610,1,0,0:0:0:0:
256,192,80685,1,2,0:0:0:0:
256,192,80760,1,0,0:0:0:0:
256,192,80835,1,0,0:0:0:0:
256,192,80910,1,0,0:0:0:0:
256,192,80985,1,2,0:0:0:0:
256,192,81060,1,2,0:0:0:0:
256,192,81135,1,0,0:0:0:0:
256,192,81210,1,0,0:0:0:0:
256,192,81285,1,2,0:0:0:0:
256,192,81360,1,0,0:0:0:0:
256,192,81435,1,0,0:0:0:0:
256,192,81510,1,0,0:0:0:0:
256,192,81585,1,2,0:0:0:0:
256,192,81660,1,2,0:0:0:0:
256,192,81735,1,0,0:0:0:0:
256,192,81810,1,2,0:0:0:0:
256,192,81885,1,0,0:0:0:0:
256,192,82785,1,6,0:0:0:0:
256,192,83085,1,4,0:0:0:0:
256,192,83385,1,2,0:0:0:0:
256,192,83535,1,2,0:0:0:0:
256,192,83685,1,2,0:0:0:0:
256,192,83835,1,0,0:0:0:0:
256,192,83985,1,2,0:0:0:0:
256,192,84135,1,4,0:0:0:0:
256,192,84435,1,4,0:0:0:0:
256,192,84585,1,2,0:0:0:0:
256,192,84660,1,0,0:0:0:0:
256,192,84735,1,2,0:0:0:0:
256,192,84810,1,2,0:0:0:0:
256,192,84885,1,0,0:0:0:0:
256,192,85035,1,0,0:0:0:0:
256,192,85185,1,6,0:0:0:0:
256,192,85485,1,4,0:0:0:0:
256,192,85710,1,4,0:0:0:0:
256,192,85935,1,4,0:0:0:0:
256,192,86160,1,4,0:0:0:0:
256,192,86385,1,4,0:0:0:0:
256,192,86610,1,4,0:0:0:0:
256,192,86835,1,4,0:0:0:0:
256,192,87060,1,4,0:0:0:0:
256,192,87285,1,4,0:0:0:0:
256,192,87385,1,4,0:0:0:0:
256,192,87485,1,4,0:0:0:0:
256,192,87585,1,6,0:0:0:0:
256,192,87885,1,2,0:0:0:0:
256,192,87960,1,0,0:0:0:0:
256,192,88035,1,2,0:0:0:0:
256,192,88110,1,0,0:0:0:0:
256,192,88185,1,2,0:0:0:0:
256,192,88260,1,2,0:0:0:0:
256,192,88335,1,0,0:0:0:0:
256,192,88410,1,0,0:0:0:0:
256,192,88485,1,2,0:0:0:0:
256,192,88560,1,0,0:0:0:0:
256,192,88635,1,2,0:0:0:0:
256,192,88710,1,0,0:0:0:0:
256,192,88785,1,2,0:0:0:0:
256,192,88860,1,2,0:0:0:0:
256,192,88935,1,0,0:0:0:0:
256,192,89010,1,0,0:0:0:0:
256,192,89085,1,2,0:0:0:0:
256,192,89160,1,0,0:0:0:0:
256,192,89235,1,2,0:0:0:0:
256,192,89310,1,0,0:0:0:0:
256,192,89385,1,2,0:0:0:0:
256,192,89460,1,0,0:0:0:0:
256,192,89535,1,2,0:0:0:0:
256,192,89610,1,0,0:0:0:0:
256,192,89685,1,2,0:0:0:0:
256,192,89760,1,2,0:0:0:0:
256,192,89835,1,2,0:0:0:0:
256,192,89910,1,2,0:0:0:0:
256,192,89985,1,2,0:0:0:0:
256,192,90060,1,2,0:0:0:0:
256,192,90135,1,2,0:0:0:0:
256,192,90210,1,2,0:0:0:0:
256,192,90285,1,0,0:0:0:0:
256,192,91485,1,0,0:0:0:0:
256,192,91635,1,0,0:0:0:0:
256,192,91710,1,0,0:0:0:0:
256,192,91785,1,2,0:0:0:0:
256,192,91935,1,2,0:0:0:0:
256,192,92010,1,2,0:0:0:0:
256,192,92085,1,0,0:0:0:0:
256,192,92160,1,2,0:0:0:0:
256,192,92310,1,2,0:0:0:0:
256,192,92385,1,0,0:0:0:0:
256,192,92535,1,2,0:0:0:0:
256,192,92685,1,0,0:0:0:0:
256,192,92760,1,0,0:0:0:0:
256,192,92835,1,2,0:0:0:0:
256,192,92910,1,2,0:0:0:0:
256,192,92985,1,0,0:0:0:0:
256,192,93060,1,0,0:0:0:0:
256,192,93135,1,0,0:0:0:0:
256,192,93210,1,0,0:0:0:0:
256,192,93285,1,2,0:0:0:0:
256,192,93585,1,0,0:0:0:0:
256,192,93660,1,0,0:0:0:0:
256,192,93735,1,2,0:0:0:0:
256,192,93810,1,2,0:0:0:0:
256,192,93885,1,0,0:0:0:0:
256,192,94035,1,0,0:0:0:0:
256,192,94185,1,2,0:0:0:0:
256,192,94335,1,0,0:0:0:0:
256,192,94410,1,2,0:0:0:0:
256,192,94485,1,0,0:0:0:0:
256,192,94635,1,0,0:0:0:0:
256,192,94785,1,2,0:0:0:0:
256,192,94935,1,2,0:0:0:0:
256,192,95010,1,0,0:0:0:0:
256,192,95085,1,0,0:0:0:0:
256,192,95235,1,0,0:0:0:0:
256,192,95310,1,0,0:0:0:0:
256,192,95385,1,2,0:0:0:0:
256,192,95535,1,0,0:0:0:0:
256,192,95610,1,0,0:0:0:0:
256,192,95685,1,2,0:0:0:0:
256,192,95760,1,0,0:0:0:0:
256,192,95910,1,2,0:0:0:0:
256,192,95985,1,0,0:0:0:0:
256,192,96135,1,2,0:0:0:0:
256,192,96210,1,2,0:0:0:0:
256,192,96285,1,0,0:0:0:0:
256,192,96435,1,2,0:0:0:0:
256,192,96510,1,0,0:0:0:0:
256,192,96585,1,2,0:0:0:0:
256,192,96735,1,0,0:0:0:0:
256,192,96810,1,2,0:0:0:0:
256,192,96885,1,0,0:0:0:0:
256,192,97035,1,2,0:0:0:0:
256,192,97110,1,0,0:0:0:0:
256,192,97185,1,2,0:0:0:0:
256,192,97260,1,2,0:0:0:0:
256,192,97335,1,0,0:0:0:0:
256,192,97410,1,2,0:0:0:0:
256,192,97485,1,0,0:0:0:0:
256,192,97635,1,0,0:0:0:0:
256,192,97710,1,0,0:0:0:0:
256,192,97785,1,2,0:0:0:0:
256,192,97935,1,0,0:0:0:0:
256,192,98010,1,2,0:0:0:0:
256,192,98160,1,2,0:0:0:0:
256,192,98235,1,0,0:0:0:0:
256,192,98385,1,0,0:0:0:0:
256,192,98460,1,0,0:0:0:0:
256,192,98535,1,2,0:0:0:0:
256,192,98610,1,2,0:0:0:0:
256,192,98685,1,0,0:0:0:0:
256,192,98910,1,0,0:0:0:0:
256,192,98985,1,2,0:0:0:0:
256,192,99135,1,0,0:0:0:0:
256,192,99285,1,2,0:0:0:0:
256,192,99360,1,0,0:0:0:0:
256,192,99435,1,0,0:0:0:0:
256,192,99510,1,2,0:0:0:0:
256,192,99585,1,2,0:0:0:0:
256,192,99735,1,0,0:0:0:0:
256,192,99810,1,0,0:0:0:0:
256,192,99885,1,2,0:0:0:0:
256,192,100035,1,0,0:0:0:0:
256,192,100110,1,2,0:0:0:0:
256,192,100260,1,2,0:0:0:0:
256,192,100335,1,0,0:0:0:0:
256,192,100485,1,2,0:0:0:0:
256,192,100560,1,0,0:0:0:0:
256,192,100635,1,2,0:0:0:0:
256,192,100710,1,2,0:0:0:0:
256,192,100785,1,0,0:0:0:0:
256,192,100860,1,0,0:0:0:0:
256,192,100935,1,2,0:0:0:0:
256,192,101085,1,4,0:0:0:0:
256,192,101385,1,2,0:0:0:0:
256,192,101685,1,4,0:0:0:0:
256,192,101985,1,2,0:0:0:0:
256,192,102135,1,4,0:0:0:0:
256,192,102285,1,2,0:0:0:0:
256,192,102435,1,2,0:0:0:0:
256,192,102585,1,2,0:0:0:0:
256,192,102735,1,4,0:0:0:0:
256,192,102885,1,2,0:0:0:0:
256,192,103185,1,0,0:0:0:0:
256,192,103260,1,0,0:0:0:0:
256,192,103335,1,2,0:0:0:0:
256,192,103410,1,2,0:0:0:0:
256,192,103485,1,0,0:0:0:0:
256,192,103635,1,0,0:0:0:0:
256,192,103785,1,2,0:0:0:0:
256,192,103935,1,2,0:0:0:0:
256,192,104010,1,2,0:0:0:0:
256,192,104085,1,0,0:0:0:0:
256,192,104160,1,2,0:0:0:0:
256,192,104235,1,2,0:0:0:0:
256,192,104385,1,0,0:0:0:0:
256,192,104460,1,2,0:0:0:0:
256,192,104535,1,2,0:0:0:0:
256,192,104610,1,2,0:0:0:0:
256,192,104685,1,0,0:0:0:0:
256,192,104835,1,0,0:0:0:0:
256,192,104910,1,2,0:0:0:0:
256,192,105060,1,2,0:0:0:0:
256,192,105135,1,0,0:0:0:0:
256,192,105285,1,0,0:0:0:0:
256,192,105435,1,2,0:0:0:0:
256,192,105510,1,2,0:0:0:0:
256,192,105585,1,0,0:0:0:0:
256,192,105735,1,2,0:0:0:0:
288,160,105810,1,2,0:0:0:0:
256,192,105885,1,0,0:0:0:0:
256,192,105960,1,2,0:0:0:0:
256,192,106035,1,2,0:0:0:0:
256,192,106185,1,0,0:0:0:0:
256,192,106260,1,2,0:0:0:0:
256,192,106410,1,2,0:0:0:0:
256,192,106485,1,0,0:0:0:0:
256,192,106635,1,2,0:0:0:0:
256,192,106710,1,2,0:0:0:0:
256,192,106785,1,0,0:0:0:0:
256,192,106860,1,0,0:0:0:0:
256,192,106935,1,2,0:0:0:0:
256,192,107085,1,4,0:0:0:0:
256,192,107385,1,2,0:0:0:0:
256,192,107535,1,4,0:0:0:0:
256,192,107835,1,4,0:0:0:0:
256,192,107985,1,0,0:0:0:0:
256,192,108060,1,0,0:0:0:0:
256,192,108135,1,2,0:0:0:0:
256,192,108210,1,2,0:0:0:0:
256,192,108285,1,0,0:0:0:0:
256,192,108435,1,0,0:0:0:0:
256,192,108585,1,2,0:0:0:0:
256,192,108735,1,0,0:0:0:0:
256,192,108810,1,2,0:0:0:0:
256,192,108960,1,2,0:0:0:0:
256,192,109035,1,0,0:0:0:0:
256,192,109185,1,2,0:0:0:0:
256,192,109260,1,0,0:0:0:0:
256,192,109335,1,2,0:0:0:0:
256,192,109485,1,0,0:0:0:0:
256,192,109560,1,0,0:0:0:0:
256,192,109635,1,2,0:0:0:0:
256,192,109710,1,0,0:0:0:0:
256,192,109785,1,2,0:0:0:0:
256,192,109860,1,2,0:0:0:0:
256,192,109935,1,0,0:0:0:0:
256,192,110085,1,2,0:0:0:0:
256,192,110160,1,2,0:0:0:0:
256,192,110235,1,0,0:0:0:0:
256,192,110310,1,2,0:0:0:0:
256,192,110385,1,0,0:0:0:0:
256,192,110460,1,0,0:0:0:0:
256,192,110535,1,2,0:0:0:0:
256,192,110685,1,0,0:0:0:0:
256,192,110760,1,0,0:0:0:0:
256,192,110835,1,2,0:0:0:0:
256,192,110910,1,2,0:0:0:0:
256,192,110985,1,0,0:0:0:0:
256,192,111060,1,0,0:0:0:0:
256,192,111135,1,2,0:0:0:0:
256,192,111285,1,2,0:0:0:0:
256,192,111335,1,2,0:0:0:0:
256,192,111385,1,2,0:0:0:0:
256,192,111435,1,0,0:0:0:0:
256,192,111585,1,2,0:0:0:0:
256,192,111635,1,2,0:0:0:0:
256,192,111685,1,2,0:0:0:0:
256,192,111735,1,0,0:0:0:0:
256,192,111885,1,0,0:0:0:0:
256,192,112035,1,2,0:0:0:0:
256,192,112185,1,2,0:0:0:0:
256,192,112335,1,0,0:0:0:0:
256,192,112485,1,2,0:0:0:0:
256,192,112635,1,2,0:0:0:0:
256,192,112785,1,0,0:0:0:0:
256,192,113085,1,4,0:0:0:0:
256,192,117885,5,4,0:0:0:0:
256,192,118185,1,2,0:0:0:0:
256,192,118635,1,0,0:0:0:0:
256,192,118785,1,2,0:0:0:0:
256,192,118935,1,0,0:0:0:0:
256,192,119235,1,0,0:0:0:0:
256,192,119385,1,2,0:0:0:0:
256,192,119685,1,0,0:0:0:0:
256,192,119835,1,0,0:0:0:0:
256,192,119985,1,2,0:0:0:0:
256,192,120285,1,2,0:0:0:0:
256,192,120360,1,2,0:0:0:0:
256,192,120435,1,0,0:0:0:0:
256,192,120510,1,2,0:0:0:0:
256,192,120585,1,0,0:0:0:0:
256,192,120660,1,0,0:0:0:0:
256,192,120735,1,2,0:0:0:0:
256,192,120810,1,0,0:0:0:0:
256,192,120885,1,2,0:0:0:0:
256,192,120960,1,2,0:0:0:0:
256,192,121035,1,0,0:0:0:0:
256,192,121110,1,0,0:0:0:0:
256,192,121185,1,2,0:0:0:0:
256,192,121260,1,2,0:0:0:0:
256,192,121335,1,0,0:0:0:0:
256,192,121485,1,4,0:0:0:0:
256,192,121635,1,4,0:0:0:0:
256,192,121935,1,4,0:0:0:0:
256,192,122235,1,4,0:0:0:0:
256,192,122385,1,0,0:0:0:0:
256,192,122460,1,0,0:0:0:0:
256,192,122535,1,2,0:0:0:0:
256,192,122610,1,2,0:0:0:0:
256,192,122685,1,0,0:0:0:0:
256,192,122835,1,0,0:0:0:0:
256,192,122910,1,0,0:0:0:0:
256,192,122985,1,2,0:0:0:0:
256,192,123060,1,0,0:0:0:0:
256,192,123135,1,2,0:0:0:0:
256,192,123285,1,2,0:0:0:0:
256,192,123360,1,0,0:0:0:0:
256,192,123435,1,2,0:0:0:0:
256,192,123510,1,2,0:0:0:0:
256,192,123585,1,0,0:0:0:0:
256,192,123660,1,0,0:0:0:0:
256,192,123735,1,2,0:0:0:0:
256,192,123885,1,0,0:0:0:0:
256,192,123960,1,0,0:0:0:0:
256,192,124035,1,2,0:0:0:0:
256,192,124110,1,2,0:0:0:0:
256,192,124185,1,0,0:0:0:0:
256,192,124335,1,2,0:0:0:0:
256,192,124410,1,0,0:0:0:0:
256,192,124560,1,0,0:0:0:0:
256,192,124635,1,2,0:0:0:0:
256,192,124785,1,2,0:0:0:0:
256,192,124860,1,0,0:0:0:0:
256,192,124935,1,2,0:0:0:0:
256,192,125085,1,4,0:0:0:0:
256,192,125385,1,2,0:0:0:0:
256,192,125460,1,0,0:0:0:0:
256,192,125535,1,2,0:0:0:0:
256,192,125685,1,4,0:0:0:0:
256,192,125985,1,2,0:0:0:0:
256,192,126060,1,2,0:0:0:0:
256,192,126135,1,0,0:0:0:0:
256,192,126210,1,2,0:0:0:0:
256,192,126285,1,0,0:0:0:0:
256,192,126360,1,0,0:0:0:0:
256,192,126435,1,2,0:0:0:0:
256,192,126510,1,0,0:0:0:0:
256,192,126585,1,2,0:0:0:0:
256,192,126660,1,2,0:0:0:0:
256,192,126735,1,0,0:0:0:0:
256,192,126810,1,2,0:0:0:0:
256,192,126885,1,0,0:0:0:0:
256,192,127035,1,2,0:0:0:0:
256,192,127110,1,0,0:0:0:0:
256,192,127185,1,2,0:0:0:0:
256,192,127260,1,2,0:0:0:0:
256,192,127335,1,0,0:0:0:0:
256,192,127410,1,2,0:0:0:0:
256,192,127485,1,0,0:0:0:0:
256,192,127635,1,0,0:0:0:0:
256,192,127710,1,0,0:0:0:0:
256,192,127785,1,2,0:0:0:0:
256,192,127935,1,2,0:0:0:0:
256,192,128010,1,2,0:0:0:0:
256,192,128085,1,0,0:0:0:0:
256,192,128160,1,2,0:0:0:0:
256,192,128235,1,0,0:0:0:0:
256,192,128385,1,2,0:0:0:0:
256,192,128460,1,0,0:0:0:0:
256,192,128535,1,2,0:0:0:0:
256,192,128610,1,2,0:0:0:0:
256,192,128685,1,0,0:0:0:0:
256,192,128835,1,0,0:0:0:0:
256,192,128910,1,0,0:0:0:0:
256,192,128985,1,2,0:0:0:0:
256,192,129060,1,0,0:0:0:0:
256,192,129135,1,0,0:0:0:0:
256,192,129285,1,2,0:0:0:0:
256,192,129360,1,0,0:0:0:0:
256,192,129510,1,0,0:0:0:0:
256,192,129585,1,2,0:0:0:0:
256,192,129660,1,0,0:0:0:0:
256,192,129810,1,0,0:0:0:0:
256,192,129885,1,0,0:0:0:0:
256,192,130035,1,0,0:0:0:0:
256,192,130110,1,2,0:0:0:0:
256,192,130185,1,2,0:0:0:0:
256,192,130335,1,0,0:0:0:0:
256,192,130410,1,2,0:0:0:0:
256,192,130485,1,0,0:0:0:0:
256,192,130635,1,0,0:0:0:0:
256,192,130710,1,2,0:0:0:0:
256,192,130785,1,0,0:0:0:0:
256,192,130860,1,2,0:0:0:0:
256,192,130935,1,0,0:0:0:0:
256,192,131085,1,0,0:0:0:0:
256,192,131835,1,6,0:0:0:0:
256,192,131985,1,4,0:0:0:0:
256,192,132285,1,0,0:0:0:0:
256,192,132435,1,2,0:0:0:0:
256,192,132510,1,2,0:0:0:0:
256,192,132585,1,0,0:0:0:0:
256,192,132735,1,2,0:0:0:0:
256,192,132885,1,0,0:0:0:0:
256,192,132960,1,2,0:0:0:0:
256,192,133035,1,2,0:0:0:0:
256,192,133110,1,0,0:0:0:0:
256,192,133185,1,0,0:0:0:0:
256,192,133335,1,0,0:0:0:0:
256,192,133410,1,2,0:0:0:0:
256,192,133485,1,0,0:0:0:0:
256,192,133635,1,2,0:0:0:0:
256,192,133685,1,2,0:0:0:0:
256,192,133735,1,2,0:0:0:0:
256,192,133785,1,0,0:0:0:0:
256,192,133935,1,2,0:0:0:0:
256,192,134010,1,2,0:0:0:0:
256,192,134085,1,0,0:0:0:0:
256,192,134235,1,2,0:0:0:0:
256,192,134310,1,0,0:0:0:0:
256,192,134385,1,2,0:0:0:0:
256,192,134460,1,2,0:0:0:0:
256,192,134535,1,0,0:0:0:0:
256,192,134685,1,4,0:0:0:0:
256,192,134985,1,4,0:0:0:0:
256,192,135135,1,2,0:0:0:0:
256,192,135285,1,0,0:0:0:0:
256,192,135435,1,2,0:0:0:0:
256,192,135585,1,0,0:0:0:0:
256,192,135735,1,2,0:0:0:0:
256,192,135885,1,2,0:0:0:0:
256,192,135960,1,0,0:0:0:0:
256,192,136035,1,0,0:0:0:0:
256,192,136110,1,0,0:0:0:0:
256,192,136185,1,2,0:0:0:0:
256,192,136260,1,2,0:0:0:0:
256,192,136335,1,2,0:0:0:0:
256,192,136410,1,0,0:0:0:0:
256,192,136485,1,2,0:0:0:0:
256,192,136560,1,2,0:0:0:0:
256,192,136635,1,0,0:0:0:0:
256,192,136785,1,2,0:0:0:0:
256,192,136835,1,2,0:0:0:0:
256,192,136885,1,0,0:0:0:0:
256,192,136935,1,0,0:0:0:0:
256,192,137085,1,6,0:0:0:0:
256,192,137235,1,0,0:0:0:0:
256,192,137310,1,0,0:0:0:0:
256,192,137385,1,0,0:0:0:0:
256,192,137460,1,0,0:0:0:0:
256,192,137535,1,2,0:0:0:0:
256,192,137610,1,2,0:0:0:0:
256,192,137685,1,0,0:0:0:0:
256,192,137760,1,0,0:0:0:0:
256,192,137835,1,0,0:0:0:0:
256,192,137910,1,2,0:0:0:0:
256,192,137985,1,2,0:0:0:0:
256,192,138060,1,2,0:0:0:0:
256,192,138135,1,0,0:0:0:0:
256,192,138210,1,0,0:0:0:0:
256,192,138285,1,2,0:0:0:0:
256,192,138360,1,2,0:0:0:0:
256,192,138435,1,2,0:0:0:0:
256,192,138510,1,0,0:0:0:0:
256,192,138585,1,0,0:0:0:0:
256,192,138660,1,0,0:0:0:0:
256,192,138735,1,2,0:0:0:0:
256,192,138810,1,2,0:0:0:0:
256,192,138885,1,0,0:0:0:0:
256,192,138960,1,0,0:0:0:0:
256,192,139035,1,2,0:0:0:0:
256,192,139110,1,2,0:0:0:0:
256,192,139185,1,2,0:0:0:0:
256,192,139260,1,2,0:0:0:0:
256,192,139335,1,0,0:0:0:0:
256,192,139410,1,0,0:0:0:0:
256,192,139485,1,2,0:0:0:0:
256,192,139560,1,2,0:0:0:0:
256,192,139635,1,0,0:0:0:0:
256,192,139710,1,0,0:0:0:0:
256,192,139785,1,2,0:0:0:0:
256,192,139860,1,0,0:0:0:0:
256,192,139935,1,0,0:0:0:0:
256,192,140010,1,0,0:0:0:0:
256,192,140085,1,2,0:0:0:0:
256,192,140160,1,2,0:0:0:0:
256,192,140235,1,0,0:0:0:0:
256,192,140310,1,0,0:0:0:0:
256,192,140385,1,2,0:0:0:0:
256,192,140460,1,2,0:0:0:0:
256,192,140535,1,0,0:0:0:0:
256,192,140610,1,2,0:0:0:0:
256,192,140685,1,0,0:0:0:0:
256,192,140985,1,0,0:0:0:0:
256,192,141285,1,0,0:0:0:0:
256,192,141585,1,6,0:0:0:0:
256,192,141885,1,0,0:0:0:0:
