osu file format v14

[General]
AudioFilename: 03 Shades.mp3
AudioLeadIn: 0
PreviewTime: 42339
Countdown: 0
SampleSet: None
StackLeniency: 0.2
Mode: 3
LetterboxInBreaks: 0
SpecialStyle: 0
WidescreenStoryboard: 0

[Editor]
DistanceSpacing: 1
BeatDivisor: 4
GridSize: 4
TimelineZoom: 2.5

[Metadata]
Title:Kamuy EP
TitleUnicode:Kamuy EP
Artist:Srav3R
ArtistUnicode:Srav3R
Creator:dionzz99
Version:Shades
Source:NBDCD-008
Tags:
BeatmapID:3597661
BeatmapSetID:1757986

[Difficulty]
HPDrainRate:6
CircleSize:4
OverallDifficulty:6
ApproachRate:5
SliderMultiplier:1.4
SliderTickRate:1

[Events]
//Background and Video events
0,0,"srav3r768.jpg",0,0
//Break Periods
2,89981,110906
//Storyboard Layer 0 (Background)
//Storyboard Layer 1 (Fail)
//Storyboard Layer 2 (Pass)
//Storyboard Layer 3 (Foreground)
//Storyboard Layer 4 (Overlay)
//Storyboard Sound Samples

[TimingPoints]
479,348.837209302326,4,1,0,25,1,0
11249,-33.3333333333333,4,1,0,25,0,0
11292,-1000,4,1,0,25,0,0
11423,-33.3333333333333,4,1,0,25,0,0
11467,-1000,4,1,0,25,0,0
11641,-100,4,1,0,25,0,0
22455,-1000,4,1,0,25,0,0
22717,-66.6666666666667,4,1,0,25,0,0
22804,-133.333333333333,4,1,0,25,0,0
33618,-1000,4,1,0,25,0,0
33662,-50,4,1,0,25,0,0
33705,-1000,4,1,0,25,0,0
33749,-50,4,1,0,25,0,0
33792,-1000,4,1,0,25,0,0
33836,-50,4,1,0,25,0,0
33880,-1000,4,1,0,25,0,0
33923,-50,4,1,0,25,0,0
33967,-100,4,1,0,25,0,0
42339,600000000,4,1,0,25,1,0
44737,348.837209302326,4,1,0,25,1,0
44737,-33.3333333333333,4,1,0,25,0,0
44781,-1000,4,1,0,25,0,0
44912,-33.3333333333333,4,1,0,25,0,0
44955,-1000,4,1,0,25,0,0
45130,348.837209302326,4,1,0,25,1,0
45130,-100,4,1,0,25,0,1
50319,-33.3333333333333,4,1,0,25,0,0
50362,-1000,4,1,0,25,0,0
50493,-33.3333333333333,4,1,0,25,0,0
50537,-1000,4,1,0,25,0,0
50711,-100,4,1,0,25,0,1
55944,-1000,4,1,0,25,0,0
56205,-66.6666666666667,4,1,0,25,0,0
56293,-100,4,1,0,25,0,1
61481,-33.3333333333333,4,1,0,25,0,0
61525,-1000,4,1,0,25,0,0
61656,-33.3333333333333,4,1,0,25,0,0
61700,-1000,4,1,0,25,0,0
61874,-100,4,1,0,25,0,1
64664,-100,4,1,0,25,0,0
78269,-1000,4,1,0,25,0,0
78531,-66.6666666666667,4,1,0,25,0,0
78618,-100,4,1,0,25,0,0
89388,-33.3333333333333,4,1,0,25,0,0
89432,-1000,4,1,0,25,0,0
89563,-33.3333333333333,4,1,0,25,0,0
89606,-1000,4,1,0,25,0,0
89781,-1000,4,1,0,25,0,0
95013,-400,4,1,0,25,0,0
95100,-200,4,1,0,25,0,0
95188,-133.333333333333,4,1,0,25,0,0
95275,-100,4,1,0,25,0,0
95362,-1000,4,1,0,25,0,0
100595,-400,4,1,0,25,0,0
100682,-200,4,1,0,25,0,0
100769,-133.333333333333,4,1,0,25,0,0
100856,-100,4,1,0,25,0,0
100943,-1000,4,1,0,25,0,0
106176,-400,4,1,0,25,0,0
106263,-200,4,1,0,25,0,0
106350,-133.333333333333,4,1,0,25,0,0
106438,-100,4,1,0,25,0,0
106525,-1000,4,1,0,25,0,0
112106,-133.333333333333,4,1,0,25,0,0
123269,-100,4,1,0,25,0,0
133734,348.837209302326,4,1,0,25,1,0
133778,348.837209302326,4,1,0,25,1,0
133822,348.837209302326,4,1,0,25,1,0
133865,348.837209302326,4,1,0,25,1,0
133909,348.837209302326,4,1,0,25,1,0
133952,348.837209302326,4,1,0,25,1,0
133996,348.837209302326,4,1,0,25,1,0
134040,348.837209302326,4,1,0,25,1,0
134083,348.837209302326,4,1,0,25,1,0
134127,348.837209302326,4,1,0,25,1,0
134170,348.837209302326,4,1,0,25,1,0
134214,348.837209302326,4,1,0,25,1,0
134258,348.837209302326,4,1,0,25,1,0
134301,348.837209302326,4,1,0,25,1,0
134345,348.837209302326,4,1,0,25,1,0
134388,348.837209302326,4,1,0,25,1,0
134432,348.837209302326,4,1,0,25,1,0
134432,-50,4,1,0,25,0,0
134519,-100,4,1,0,25,0,0
134606,-200,4,1,0,25,0,0
134694,-1000,4,1,0,25,0,0
134781,-33.3333333333333,4,1,0,25,0,0
134868,-400,4,1,0,25,0,0
135130,-33.3333333333333,4,1,0,25,0,0
135217,-1000,4,1,0,25,0,0
135304,-200,4,1,0,25,0,0
135479,-133.333333333333,4,1,0,25,0,0
136525,-33.3333333333333,4,1,0,25,0,0
136612,-1000,4,1,0,25,0,0
136699,-200,4,1,0,25,0,0
136874,-100,4,1,0,25,0,0
137048,-133.333333333333,4,1,0,25,0,0
137179,-33.3333333333333,4,1,0,25,0,0
137223,-133.333333333333,4,1,0,25,0,0
137528,-33.3333333333333,4,1,0,25,0,0
137572,-133.333333333333,4,1,0,25,0,0
137702,-33.3333333333333,4,1,0,25,0,0
137746,-133.333333333333,4,1,0,25,0,0
137877,-33.3333333333333,4,1,0,25,0,0
137920,-33.3333333333333,4,1,0,25,0,0
138008,-1000,4,1,0,25,0,0
138095,-200,4,1,0,25,0,0
138269,-133.333333333333,4,1,0,25,0,0
138574,-33.3333333333333,4,1,0,25,0,0
138618,-133.333333333333,4,1,0,25,0,0
138749,-33.3333333333333,4,1,0,25,0,0
138792,-133.333333333333,4,1,0,25,0,0
138923,-33.3333333333333,4,1,0,25,0,0
138967,-133.333333333333,4,1,0,25,0,0
139098,-33.3333333333333,4,1,0,25,0,0
139141,-133.333333333333,4,1,0,25,0,0
139272,-33.3333333333333,4,1,0,25,0,0
139316,-33.3333333333333,4,1,0,25,0,0
139403,-1000,4,1,0,25,0,0
139490,-200,4,1,0,25,0,0
139665,-50,4,1,0,25,0,0
139752,-1000,4,1,0,25,0,0
139839,-200,4,1,0,25,0,0
139883,-100,4,1,0,25,0,0
139926,-66.6666666666667,4,1,0,25,0,0
139970,-50,4,1,0,25,0,0
140013,-133.333333333333,4,1,0,25,0,0
140711,-33.3333333333333,4,1,0,25,0,0
140798,-1000,4,1,0,25,0,0
140885,-200,4,1,0,25,0,0
141060,-133.333333333333,4,1,0,25,0,0
142106,-33.3333333333333,4,1,0,25,0,0
142194,-1000,4,1,0,25,0,0
142281,-200,4,1,0,25,0,0
142455,-100,4,1,0,25,0,0
142630,-133.333333333333,4,1,0,25,0,0
142760,-33.3333333333333,4,1,0,25,0,0
142804,-133.333333333333,4,1,0,25,0,0
143109,-33.3333333333333,4,1,0,25,0,0
143153,-133.333333333333,4,1,0,25,0,0
143284,-33.3333333333333,4,1,0,25,0,0
143327,-133.333333333333,4,1,0,25,0,0
143458,-33.3333333333333,4,1,0,25,0,0
143502,-33.3333333333333,4,1,0,25,0,0
143589,-1000,4,1,0,25,0,0
143676,-200,4,1,0,25,0,0
143851,-133.333333333333,4,1,0,25,0,0
144156,-33.3333333333333,4,1,0,25,0,0
144199,-133.333333333333,4,1,0,25,0,0
144330,-33.3333333333333,4,1,0,25,0,0
144374,-133.333333333333,4,1,0,25,0,0
144505,-33.3333333333333,4,1,0,25,0,0
144548,-133.333333333333,4,1,0,25,0,0
144679,-33.3333333333333,4,1,0,25,0,0
144723,-133.333333333333,4,1,0,25,0,0
144854,-33.3333333333333,4,1,0,25,0,0
144897,-33.3333333333333,4,1,0,25,0,0
144941,-1000,4,1,0,25,0,0
145072,-200,4,1,0,25,0,0
145420,-66.6666666666667,4,1,0,25,0,0
145595,-66.6666666666667,4,1,0,25,0,0
145682,-100,4,1,0,25,0,0
145769,-200,4,1,0,25,0,0
145856,-400,4,1,0,25,0,0
145944,-100,4,1,0,25,0,0
146031,-200,4,1,0,25,0,0
146118,-100,4,1,0,25,0,0
146205,-200,4,1,0,25,0,0
146292,-66.6666666666667,4,1,0,25,0,0
146380,-200,4,1,0,25,0,0
146467,-100,4,1,0,25,0,0
146554,-200,4,1,0,25,0,0
146641,-133.333333333333,4,1,0,25,0,0
147688,-33.3333333333333,4,1,0,25,0,0
147775,-1000,4,1,0,25,0,0
147862,-200,4,1,0,25,0,0
148037,-100,4,1,0,25,0,0
148211,-133.333333333333,4,1,0,25,0,0
148342,-100,4,1,0,25,0,0
148385,-133.333333333333,4,1,0,25,0,0
148691,-33.3333333333333,4,1,0,25,0,0
148734,-133.333333333333,4,1,0,25,0,0
148865,-33.3333333333333,4,1,0,25,0,0
148909,-133.333333333333,4,1,0,25,0,0
149040,-33.3333333333333,4,1,0,25,0,0
149083,-33.3333333333333,4,1,0,25,0,0
149170,-1000,4,1,0,25,0,0
149258,-200,4,1,0,25,0,0
149432,-133.333333333333,4,1,0,25,0,0
149737,-33.3333333333333,4,1,0,25,0,0
149781,-133.333333333333,4,1,0,25,0,0
149912,-33.3333333333333,4,1,0,25,0,0
149955,-133.333333333333,4,1,0,25,0,0
150086,-33.3333333333333,4,1,0,25,0,0
150130,-133.333333333333,4,1,0,25,0,0
150260,-33.3333333333333,4,1,0,25,0,0
150304,-133.333333333333,4,1,0,25,0,0
150435,-33.3333333333333,4,1,0,25,0,0
150479,-33.3333333333333,4,1,0,25,0,0
150566,-1000,4,1,0,25,0,0
150653,-200,4,1,0,25,0,0
150827,-1000,4,1,0,25,0,0
150915,-400,4,1,0,25,0,0
151002,-200,4,1,0,25,0,0
151045,-100,4,1,0,25,0,0
151089,-66.6666666666667,4,1,0,25,0,0
151133,-50,4,1,0,25,0,0
151176,-133.333333333333,4,1,0,25,0,0
151874,-33.3333333333333,4,1,0,25,0,0
151961,-1000,4,1,0,25,0,0
152048,-200,4,1,0,25,0,0
152223,-133.333333333333,4,1,0,25,0,0
153269,-33.3333333333333,4,1,0,25,0,0
153356,-1000,4,1,0,25,0,0
153444,-200,4,1,0,25,0,0
153618,-100,4,1,0,25,0,0
153792,-133.333333333333,4,1,0,25,0,0
153923,-33.3333333333333,4,1,0,25,0,0
153967,-133.333333333333,4,1,0,25,0,0
154272,-33.3333333333333,4,1,0,25,0,0
154316,-133.333333333333,4,1,0,25,0,0
154447,-33.3333333333333,4,1,0,25,0,0
154490,-133.333333333333,4,1,0,25,0,0
154621,-33.3333333333333,4,1,0,25,0,0
154665,-33.3333333333333,4,1,0,25,0,0
154752,-1000,4,1,0,25,0,0
154839,-200,4,1,0,25,0,0
155013,-133.333333333333,4,1,0,25,0,0
155319,-33.3333333333333,4,1,0,25,0,0
155362,-133.333333333333,4,1,0,25,0,0
155493,-33.3333333333333,4,1,0,25,0,0
155537,-133.333333333333,4,1,0,25,0,0
155667,-33.3333333333333,4,1,0,25,0,0
155711,-133.333333333333,4,1,0,25,0,0
155842,-33.3333333333333,4,1,0,25,0,0
155885,-133.333333333333,4,1,0,25,0,0
156060,348.837209302326,4,1,0,25,1,0
156104,348.837209302326,4,1,0,25,1,0
156148,348.837209302326,4,1,0,25,1,0
156191,348.837209302326,4,1,0,25,1,0
156235,348.837209302326,4,1,0,25,1,0
156278,348.837209302326,4,1,0,25,1,0
156322,348.837209302326,4,1,0,25,1,0
156366,348.837209302326,4,1,0,25,1,0
156409,348.837209302326,4,1,0,25,1,0
156453,348.837209302326,4,1,0,25,1,0
156496,348.837209302326,4,1,0,25,1,0
156540,348.837209302326,4,1,0,25,1,0
156584,348.837209302326,4,1,0,25,1,0
156627,348.837209302326,4,1,0,25,1,0
156671,348.837209302326,4,1,0,25,1,0
156714,348.837209302326,4,1,0,25,1,0
156757,348.837209302326,4,1,0,25,1,0
156758,-50,4,1,0,25,0,0
156845,-100,4,1,0,25,0,0
156932,-200,4,1,0,25,0,0
157020,-1000,4,1,0,25,0,0
157107,-33.3333333333333,4,1,0,25,0,0
157194,-400,4,1,0,25,0,0
157456,-33.3333333333333,4,1,0,25,0,0
157543,-1000,4,1,0,25,0,0
157630,-200,4,1,0,25,0,0
157805,-133.333333333333,4,1,0,25,0,0
158851,-33.3333333333333,4,1,0,25,0,0
158938,-1000,4,1,0,25,0,0
159025,-200,4,1,0,25,0,0
159200,-100,4,1,0,25,0,0
159374,-133.333333333333,4,1,0,25,0,0
159505,-33.3333333333333,4,1,0,25,0,0
159549,-133.333333333333,4,1,0,25,0,0
159854,-33.3333333333333,4,1,0,25,0,0
159898,-133.333333333333,4,1,0,25,0,0
160028,-33.3333333333333,4,1,0,25,0,0
160072,-133.333333333333,4,1,0,25,0,0
160203,-33.3333333333333,4,1,0,25,0,0
160246,-33.3333333333333,4,1,0,25,0,0
160334,-1000,4,1,0,25,0,0
160421,-200,4,1,0,25,0,0
160595,-133.333333333333,4,1,0,25,0,0
160900,-33.3333333333333,4,1,0,25,0,0
160944,-133.333333333333,4,1,0,25,0,0
161075,-33.3333333333333,4,1,0,25,0,0
161118,-133.333333333333,4,1,0,25,0,0
161249,-33.3333333333333,4,1,0,25,0,0
161293,-133.333333333333,4,1,0,25,0,0
161424,-33.3333333333333,4,1,0,25,0,0
161467,-133.333333333333,4,1,0,25,0,0
161598,-33.3333333333333,4,1,0,25,0,0
161642,-33.3333333333333,4,1,0,25,0,0
161729,-1000,4,1,0,25,0,0
161816,-200,4,1,0,25,0,0
161990,-100,4,1,0,25,0,0
162339,-133.333333333333,4,1,0,25,0,0
163037,-33.3333333333333,4,1,0,25,0,0
163124,-1000,4,1,0,25,0,0
163211,-200,4,1,0,25,0,0
163386,-399.999999999997,4,1,0,25,0,0
163560,-285.714285714284,4,1,0,25,0,0
163734,-222.222222222221,4,1,0,25,0,0
163909,-181.818181818181,4,1,0,25,0,0
164083,-153.846153846153,4,1,0,25,0,0
164258,-133.333333333333,4,1,0,25,0,0
164432,-33.3333333333333,4,1,0,25,0,0
164520,-1000,4,1,0,25,0,0
164607,-200,4,1,0,25,0,0
164781,-100,4,1,0,25,0,0
164956,-133.333333333333,4,1,0,25,0,0
165086,-33.3333333333333,4,1,0,25,0,0
165130,-133.333333333333,4,1,0,25,0,0
165435,-33.3333333333333,4,1,0,25,0,0
165479,-133.333333333333,4,1,0,25,0,0
165610,-33.3333333333333,4,1,0,25,0,0
165653,-133.333333333333,4,1,0,25,0,0
165784,-33.3333333333333,4,1,0,25,0,0
165828,-33.3333333333333,4,1,0,25,0,0
165915,-1000,4,1,0,25,0,0
166002,-200,4,1,0,25,0,0
166177,-133.333333333333,4,1,0,25,0,0
166482,-33.3333333333333,4,1,0,25,0,0
166525,-133.333333333333,4,1,0,25,0,0
166656,-33.3333333333333,4,1,0,25,0,0
166700,-133.333333333333,4,1,0,25,0,0
166831,-33.3333333333333,4,1,0,25,0,0
166874,-133.333333333333,4,1,0,25,0,0
167005,-33.3333333333333,4,1,0,25,0,0
167049,-133.333333333333,4,1,0,25,0,0
167180,-33.3333333333333,4,1,0,25,0,0
167223,-33.3333333333333,4,1,0,25,0,0
167267,-1000,4,1,0,25,0,0
167398,-200,4,1,0,25,0,0
167746,-66.6666666666667,4,1,0,25,0,0
167921,-66.6666666666667,4,1,0,25,0,0
168008,-100,4,1,0,25,0,0
168095,-200,4,1,0,25,0,0
168182,-400,4,1,0,25,0,0
168270,-100,4,1,0,25,0,0
168357,-200,4,1,0,25,0,0
168444,-100,4,1,0,25,0,0
168531,-200,4,1,0,25,0,0
168618,-66.6666666666667,4,1,0,25,0,0
168706,-200,4,1,0,25,0,0
168793,-100,4,1,0,25,0,0
168880,-200,4,1,0,25,0,0
168967,-133.333333333333,4,1,0,25,0,0
169839,-200,4,1,0,25,0,0
169926,-399.999999999997,4,1,0,25,0,0
170014,-33.3333333333333,4,1,0,25,0,0
170101,-1000,4,1,0,25,0,0
170188,-200,4,1,0,25,0,0
170363,-100,4,1,0,25,0,0
170537,-133.333333333333,4,1,0,25,0,0
170668,-100,4,1,0,25,0,0
170711,-133.333333333333,4,1,0,25,0,0
171017,-33.3333333333333,4,1,0,25,0,0
171060,-133.333333333333,4,1,0,25,0,0
171191,-33.3333333333333,4,1,0,25,0,0
171235,-133.333333333333,4,1,0,25,0,0
171366,-33.3333333333333,4,1,0,25,0,0
171409,-33.3333333333333,4,1,0,25,0,0
171496,-1000,4,1,0,25,0,0
171584,-200,4,1,0,25,0,0
171758,-133.333333333333,4,1,0,25,0,0
172063,-33.3333333333333,4,1,0,25,0,0
172107,-133.333333333333,4,1,0,25,0,0
172238,-33.3333333333333,4,1,0,25,0,0
172281,-133.333333333333,4,1,0,25,0,0
172412,-33.3333333333333,4,1,0,25,0,0
172456,-133.333333333333,4,1,0,25,0,0
172586,-33.3333333333333,4,1,0,25,0,0
172630,-133.333333333333,4,1,0,25,0,0
172761,-33.3333333333333,4,1,0,25,0,0
172805,-33.3333333333333,4,1,0,25,0,0
172848,-1000,4,1,0,25,0,0
172979,-200,4,1,0,25,0,0
173153,-1000,4,1,0,25,0,0
173241,-400,4,1,0,25,0,0
173328,-200,4,1,0,25,0,0
173371,-100,4,1,0,25,0,0
173415,-66.6666666666667,4,1,0,25,0,0
173459,-50,4,1,0,25,0,0
173502,-133.333333333333,4,1,0,25,0,0
174200,-33.3333333333333,4,1,0,25,0,0
174287,-1000,4,1,0,25,0,0
174374,-200,4,1,0,25,0,0
174549,-399.999999999997,4,1,0,25,0,0
174723,-285.714285714284,4,1,0,25,0,0
174897,-222.222222222221,4,1,0,25,0,0
175072,-181.818181818181,4,1,0,25,0,0
175246,-153.846153846153,4,1,0,25,0,0
175420,-133.333333333333,4,1,0,25,0,0
175595,-33.3333333333333,4,1,0,25,0,0
175682,-1000,4,1,0,25,0,0
175770,-200,4,1,0,25,0,0
175944,-100,4,1,0,25,0,0
176118,-133.333333333333,4,1,0,25,0,0
176249,-33.3333333333333,4,1,0,25,0,0
176293,-133.333333333333,4,1,0,25,0,0
176598,-33.3333333333333,4,1,0,25,0,0
176642,-133.333333333333,4,1,0,25,0,0
176773,-33.3333333333333,4,1,0,25,0,0
176816,-133.333333333333,4,1,0,25,0,0
176947,-33.3333333333333,4,1,0,25,0,0
176991,-33.3333333333333,4,1,0,25,0,0
177078,-1000,4,1,0,25,0,0
177165,-200,4,1,0,25,0,0
177339,-133.333333333333,4,1,0,25,0,0
177645,-33.3333333333333,4,1,0,25,0,0
177688,-133.333333333333,4,1,0,25,0,0
177819,-33.3333333333333,4,1,0,25,0,0
177863,-133.333333333333,4,1,0,25,0,0
177993,-33.3333333333333,4,1,0,25,0,0
178037,-133.333333333333,4,1,0,25,0,0
178168,-33.3333333333333,4,1,0,25,0,0
178211,-133.333333333333,4,1,0,25,0,0
178734,-100,4,1,0,25,0,0
179083,-133.333333333333,4,1,0,25,0,0
189897,-1000,4,1,0,25,0,0
189941,-50,4,1,0,25,0,0
189984,-1000,4,1,0,25,0,0
190028,-50,4,1,0,25,0,0
190072,-1000,4,1,0,25,0,0
190115,-50,4,1,0,25,0,0
190159,-1000,4,1,0,25,0,0
190202,-50,4,1,0,25,0,0
190246,-100,4,1,0,25,0,0
198618,600000000,4,1,0,25,1,0
201016,348.837209302326,4,1,0,25,1,0
201016,-33.3333333333333,4,1,0,25,0,0
201060,-1000,4,1,0,25,0,0
201191,-33.3333333333333,4,1,0,25,0,0
201234,-1000,4,1,0,25,0,0
201409,348.837209302326,4,1,0,25,1,0
201409,-100,4,1,0,25,0,1
206598,-33.3333333333333,4,1,0,25,0,0
206641,-1000,4,1,0,25,0,0
206772,-33.3333333333333,4,1,0,25,0,0
206816,-1000,4,1,0,25,0,0
206990,-100,4,1,0,25,0,1
212223,-1000,4,1,0,25,0,0
212484,-66.6666666666667,4,1,0,25,0,0
212572,-100,4,1,0,25,0,1
217760,-33.3333333333333,4,1,0,25,0,0
217804,-1000,4,1,0,25,0,0
217935,-33.3333333333333,4,1,0,25,0,0
217979,-1000,4,1,0,25,0,0
218153,-100,4,1,0,25,0,1
220943,-100,4,1,0,25,0,0
234548,-1000,4,1,0,25,0,0
234810,-66.6666666666667,4,1,0,25,0,0
234897,-100,4,1,0,25,0,0
245667,-33.3333333333333,4,1,0,25,0,0
245711,-1000,4,1,0,25,0,0
245842,-33.3333333333333,4,1,0,25,0,0
245885,-1000,4,1,0,25,0,0
246060,-100,4,1,0,25,0,0
256830,-33.3333333333333,4,1,0,25,0,0
256874,-1000,4,1,0,25,0,0
257005,-33.3333333333333,4,1,0,25,0,0
257048,-1000,4,1,0,25,0,0
257223,-100,4,1,0,25,0,0
266990,-133.333333333333,4,1,0,25,0,0
268385,-100,4,1,0,25,0,0

[HitObjects]
448,192,479,5,0,0:0:0:0:
192,192,479,1,0,0:0:0:0:
64,192,479,1,0,0:0:0:0:
192,192,827,1,0,0:0:0:0:
320,192,827,1,0,0:0:0:0:
448,192,827,1,0,0:0:0:0:
64,192,1176,1,0,0:0:0:0:
192,192,1176,1,0,0:0:0:0:
320,192,1176,1,0,0:0:0:0:
320,192,1525,1,0,0:0:0:0:
448,192,1525,1,0,0:0:0:0:
64,192,1525,1,0,0:0:0:0:
64,192,1874,1,0,0:0:0:0:
192,192,1874,1,0,0:0:0:0:
448,192,1874,1,0,0:0:0:0:
192,192,2223,1,0,0:0:0:0:
320,192,2223,1,0,0:0:0:0:
448,192,2223,1,0,0:0:0:0:
320,192,2572,1,0,0:0:0:0:
64,192,2572,1,0,0:0:0:0:
448,192,2572,1,0,0:0:0:0:
64,192,2920,1,0,0:0:0:0:
320,192,2920,1,0,0:0:0:0:
192,192,2920,1,0,0:0:0:0:
64,192,3269,1,0,0:0:0:0:
192,192,3269,1,0,0:0:0:0:
448,192,3269,1,0,0:0:0:0:
192,192,3618,1,0,0:0:0:0:
320,192,3618,1,0,0:0:0:0:
448,192,3618,1,0,0:0:0:0:
64,192,3967,1,0,0:0:0:0:
192,192,3967,1,0,0:0:0:0:
320,192,3967,1,0,0:0:0:0:
64,192,4316,1,0,0:0:0:0:
192,192,4316,1,0,0:0:0:0:
448,192,4316,1,0,0:0:0:0:
64,192,4665,1,0,0:0:0:0:
320,192,4665,1,0,0:0:0:0:
448,192,4665,1,0,0:0:0:0:
192,192,5013,1,0,0:0:0:0:
320,192,5013,1,0,0:0:0:0:
448,192,5013,1,0,0:0:0:0:
64,192,5362,1,0,0:0:0:0:
192,192,5362,1,0,0:0:0:0:
448,192,5362,1,0,0:0:0:0:
64,192,5711,1,0,0:0:0:0:
320,192,5711,1,0,0:0:0:0:
448,192,5711,1,0,0:0:0:0:
64,192,6060,1,0,0:0:0:0:
320,192,6060,1,0,0:0:0:0:
192,192,6060,1,0,0:0:0:0:
192,192,6409,1,0,0:0:0:0:
448,192,6409,1,0,0:0:0:0:
320,192,6409,1,0,0:0:0:0:
64,192,6758,1,0,0:0:0:0:
320,192,6758,1,0,0:0:0:0:
448,192,6758,1,0,0:0:0:0:
192,192,7106,1,0,0:0:0:0:
64,192,7106,1,0,0:0:0:0:
448,192,7106,1,0,0:0:0:0:
64,192,7455,1,0,0:0:0:0:
192,192,7455,1,0,0:0:0:0:
320,192,7455,1,0,0:0:0:0:
64,192,7804,1,0,0:0:0:0:
320,192,7804,1,0,0:0:0:0:
448,192,7804,1,0,0:0:0:0:
192,192,8153,1,0,0:0:0:0:
448,192,8153,1,0,0:0:0:0:
64,192,8153,1,0,0:0:0:0:
192,192,8502,1,0,0:0:0:0:
448,192,8502,1,0,0:0:0:0:
320,192,8502,1,0,0:0:0:0:
64,192,8851,1,0,0:0:0:0:
192,192,8851,1,0,0:0:0:0:
320,192,8851,1,0,0:0:0:0:
64,192,9199,1,0,0:0:0:0:
192,192,9199,1,0,0:0:0:0:
448,192,9199,1,0,0:0:0:0:
192,192,9548,1,0,0:0:0:0:
320,192,9548,1,0,0:0:0:0:
448,192,9548,1,0,0:0:0:0:
64,192,9897,1,0,0:0:0:0:
320,192,9897,1,0,0:0:0:0:
448,192,9897,1,0,0:0:0:0:
192,192,10246,1,0,0:0:0:0:
320,192,10246,1,0,0:0:0:0:
64,192,10246,1,0,0:0:0:0:
64,192,10595,1,0,0:0:0:0:
192,192,10595,1,0,0:0:0:0:
448,192,10595,1,0,0:0:0:0:
192,192,10944,1,0,0:0:0:0:
320,192,10944,1,0,0:0:0:0:
448,192,10944,1,0,0:0:0:0:
320,192,11641,1,0,0:0:0:0:
192,192,11641,1,0,0:0:0:0:
64,192,11641,1,0,0:0:0:0:
192,192,11903,1,0,0:0:0:0:
64,192,11990,1,0,0:0:0:0:
320,192,11990,1,0,0:0:0:0:
448,192,11990,1,0,0:0:0:0:
192,192,12165,1,0,0:0:0:0:
64,192,12339,1,0,0:0:0:0:
192,192,12339,1,0,0:0:0:0:
448,192,12339,1,0,0:0:0:0:
320,192,12513,1,0,0:0:0:0:
192,192,12688,1,0,0:0:0:0:
320,192,12688,1,0,0:0:0:0:
64,192,12688,1,0,0:0:0:0:
192,192,13037,1,0,0:0:0:0:
320,192,13037,1,0,0:0:0:0:
448,192,13037,1,0,0:0:0:0:
192,192,13211,1,0,0:0:0:0:
320,192,13298,1,0,0:0:0:0:
64,192,13385,1,0,0:0:0:0:
192,192,13385,1,0,0:0:0:0:
448,192,13385,1,0,0:0:0:0:
64,192,13560,1,0,0:0:0:0:
192,192,13734,1,0,0:0:0:0:
320,192,13734,1,0,0:0:0:0:
448,192,13734,1,0,0:0:0:0:
448,192,13909,1,0,0:0:0:0:
64,192,14083,1,0,0:0:0:0:
192,192,14083,1,0,0:0:0:0:
320,192,14083,1,0,0:0:0:0:
64,192,14258,1,0,0:0:0:0:
192,192,14301,1,0,0:0:0:0:
320,192,14345,1,0,0:0:0:0:
448,192,14388,1,0,0:0:0:0:
64,192,14432,1,0,0:0:0:0:
192,192,14432,1,0,0:0:0:0:
320,192,14432,1,0,0:0:0:0:
64,192,14694,1,0,0:0:0:0:
192,192,14781,1,0,0:0:0:0:
320,192,14781,1,0,0:0:0:0:
448,192,14781,1,0,0:0:0:0:
192,192,14955,1,0,0:0:0:0:
64,192,15130,1,0,0:0:0:0:
320,192,15130,1,0,0:0:0:0:
448,192,15130,1,0,0:0:0:0:
448,192,15304,1,0,0:0:0:0:
64,192,15479,1,0,0:0:0:0:
192,192,15479,1,0,0:0:0:0:
320,192,15479,1,0,0:0:0:0:
64,192,15827,1,0,0:0:0:0:
320,192,15827,1,0,0:0:0:0:
448,192,15827,1,0,0:0:0:0:
192,192,16002,1,0,0:0:0:0:
320,192,16089,1,0,0:0:0:0:
64,192,16176,1,0,0:0:0:0:
192,192,16176,1,0,0:0:0:0:
448,192,16176,1,0,0:0:0:0:
64,192,16351,1,0,0:0:0:0:
192,192,16525,1,0,0:0:0:0:
320,192,16525,1,0,0:0:0:0:
448,192,16525,1,0,0:0:0:0:
64,192,16569,1,0,0:0:0:0:
192,192,16612,1,0,0:0:0:0:
320,192,16656,1,0,0:0:0:0:
448,192,16699,1,0,0:0:0:0:
192,192,16787,1,0,0:0:0:0:
448,192,16874,1,0,0:0:0:0:
64,192,16874,1,0,0:0:0:0:
320,192,16874,1,0,0:0:0:0:
192,192,16990,1,0,0:0:0:0:
64,192,17106,1,0,0:0:0:0:
320,192,17223,1,0,0:0:0:0:
448,192,17223,1,0,0:0:0:0:
192,192,17223,1,0,0:0:0:0:
64,192,17484,1,0,0:0:0:0:
192,192,17572,1,0,0:0:0:0:
320,192,17572,1,0,0:0:0:0:
448,192,17572,1,0,0:0:0:0:
448,192,17746,1,0,0:0:0:0:
64,192,17920,1,0,0:0:0:0:
192,192,17920,1,0,0:0:0:0:
320,192,17920,1,0,0:0:0:0:
192,192,18095,1,0,0:0:0:0:
64,192,18269,1,0,0:0:0:0:
320,192,18269,1,0,0:0:0:0:
448,192,18269,1,0,0:0:0:0:
64,192,18618,1,0,0:0:0:0:
192,192,18618,1,0,0:0:0:0:
448,192,18618,1,0,0:0:0:0:
320,192,18792,1,0,0:0:0:0:
448,192,18880,1,0,0:0:0:0:
64,192,18967,1,0,0:0:0:0:
192,192,18967,1,0,0:0:0:0:
320,192,18967,1,0,0:0:0:0:
64,192,19141,1,0,0:0:0:0:
192,192,19316,1,0,0:0:0:0:
320,192,19316,1,0,0:0:0:0:
448,192,19316,1,0,0:0:0:0:
64,192,19403,1,0,0:0:0:0:
192,192,19490,1,0,0:0:0:0:
64,192,19665,1,0,0:0:0:0:
320,192,19665,1,0,0:0:0:0:
448,192,19665,1,0,0:0:0:0:
192,192,19708,1,0,0:0:0:0:
320,192,19752,1,0,0:0:0:0:
64,192,19839,1,0,0:0:0:0:
192,192,19883,1,0,0:0:0:0:
320,192,19926,1,0,0:0:0:0:
64,192,20013,1,0,0:0:0:0:
192,192,20013,1,0,0:0:0:0:
448,192,20013,1,0,0:0:0:0:
448,192,20275,1,0,0:0:0:0:
64,192,20362,1,0,0:0:0:0:
192,192,20362,1,0,0:0:0:0:
320,192,20362,1,0,0:0:0:0:
64,192,20537,1,0,0:0:0:0:
448,192,20711,1,0,0:0:0:0:
320,192,20711,1,0,0:0:0:0:
192,192,20711,1,0,0:0:0:0:
192,192,20885,1,0,0:0:0:0:
64,192,21060,1,0,0:0:0:0:
320,192,21060,1,0,0:0:0:0:
448,192,21060,1,0,0:0:0:0:
64,192,21409,1,0,0:0:0:0:
192,192,21409,1,0,0:0:0:0:
320,192,21583,1,0,0:0:0:0:
448,192,21758,1,0,0:0:0:0:
64,192,21758,1,0,0:0:0:0:
320,192,21932,1,0,0:0:0:0:
192,192,22019,1,0,0:0:0:0:
64,192,22106,1,0,0:0:0:0:
448,192,22106,1,0,0:0:0:0:
192,192,22194,1,0,0:0:0:0:
320,192,22281,1,0,0:0:0:0:
448,192,22455,1,0,0:0:0:0:
64,192,22455,1,0,0:0:0:0:
448,192,22804,1,0,0:0:0:0:
192,192,22804,1,0,0:0:0:0:
448,192,23153,1,0,0:0:0:0:
448,192,23502,1,0,0:0:0:0:
448,192,23851,1,0,0:0:0:0:
448,192,24199,1,0,0:0:0:0:
448,192,24548,1,0,0:0:0:0:
448,192,24897,1,0,0:0:0:0:
448,192,25246,1,0,0:0:0:0:
64,192,25595,1,0,0:0:0:0:
64,192,25944,1,0,0:0:0:0:
64,192,26292,1,0,0:0:0:0:
64,192,26641,1,0,0:0:0:0:
64,192,26990,1,0,0:0:0:0:
64,192,27339,1,0,0:0:0:0:
64,192,27688,1,0,0:0:0:0:
64,192,28037,1,0,0:0:0:0:
320,192,28385,1,0,0:0:0:0:
320,192,28734,1,0,0:0:0:0:
320,192,29083,1,0,0:0:0:0:
320,192,29432,1,0,0:0:0:0:
320,192,29781,1,0,0:0:0:0:
320,192,30130,1,0,0:0:0:0:
320,192,30479,1,0,0:0:0:0:
320,192,30827,1,0,0:0:0:0:
192,192,31176,1,0,0:0:0:0:
192,192,31525,1,0,0:0:0:0:
192,192,31874,1,0,0:0:0:0:
192,192,32223,1,0,0:0:0:0:
192,192,32572,1,0,0:0:0:0:
192,192,32920,1,0,0:0:0:0:
192,192,33269,1,0,0:0:0:0:
192,192,33618,1,0,0:0:0:0:
320,192,33705,1,0,0:0:0:0:
192,192,33792,1,0,0:0:0:0:
320,192,33880,1,0,0:0:0:0:
192,192,33967,1,0,0:0:0:0:
448,192,33967,1,0,0:0:0:0:
64,192,33967,1,0,0:0:0:0:
192,192,34229,1,0,0:0:0:0:
448,192,34316,1,0,0:0:0:0:
320,192,34316,1,0,0:0:0:0:
192,192,34490,1,0,0:0:0:0:
320,192,34665,1,0,0:0:0:0:
64,192,34665,1,0,0:0:0:0:
192,192,34839,1,0,0:0:0:0:
448,192,35013,1,0,0:0:0:0:
64,192,35013,1,0,0:0:0:0:
320,192,35188,1,0,0:0:0:0:
192,192,35362,1,0,0:0:0:0:
448,192,35362,1,0,0:0:0:0:
64,192,35624,1,0,0:0:0:0:
320,192,35711,1,0,0:0:0:0:
192,192,35711,1,0,0:0:0:0:
448,192,35885,1,0,0:0:0:0:
320,192,36060,1,0,0:0:0:0:
64,192,36060,1,0,0:0:0:0:
192,192,36234,1,0,0:0:0:0:
448,192,36409,1,0,0:0:0:0:
64,192,36409,1,0,0:0:0:0:
320,192,36583,1,0,0:0:0:0:
192,192,36583,1,0,0:0:0:0:
64,192,36758,1,0,0:0:0:0:
320,192,36758,1,0,0:0:0:0:
448,192,36758,1,0,0:0:0:0:
192,192,37019,1,0,0:0:0:0:
64,192,37106,1,0,0:0:0:0:
320,192,37106,1,0,0:0:0:0:
192,192,37281,1,0,0:0:0:0:
448,192,37455,1,0,0:0:0:0:
64,192,37455,1,0,0:0:0:0:
192,192,37630,1,0,0:0:0:0:
320,192,37804,1,0,0:0:0:0:
448,192,37804,1,0,0:0:0:0:
64,192,37979,1,0,0:0:0:0:
192,192,38153,1,0,0:0:0:0:
320,192,38153,1,0,0:0:0:0:
448,192,38415,1,0,0:0:0:0:
64,192,38502,1,0,0:0:0:0:
320,192,38502,1,0,0:0:0:0:
192,192,38676,1,0,0:0:0:0:
448,192,38851,1,0,0:0:0:0:
64,192,38851,1,0,0:0:0:0:
192,192,39025,1,0,0:0:0:0:
320,192,39199,1,0,0:0:0:0:
448,192,39199,1,0,0:0:0:0:
64,192,39374,1,0,0:0:0:0:
448,192,39548,1,0,0:0:0:0:
192,192,39548,1,0,0:0:0:0:
320,192,39723,1,0,0:0:0:0:
192,192,39723,1,0,0:0:0:0:
64,192,39897,1,0,0:0:0:0:
448,192,39897,1,0,0:0:0:0:
320,192,40072,1,0,0:0:0:0:
448,192,40072,1,0,0:0:0:0:
320,192,40246,1,0,0:0:0:0:
192,192,40246,1,0,0:0:0:0:
64,192,40420,1,0,0:0:0:0:
448,192,40420,1,0,0:0:0:0:
192,192,40595,1,0,0:0:0:0:
320,192,40595,1,0,0:0:0:0:
64,192,40769,1,0,0:0:0:0:
192,192,40769,1,0,0:0:0:0:
320,192,40944,1,0,0:0:0:0:
448,192,40944,1,0,0:0:0:0:
192,192,41031,1,0,0:0:0:0:
64,192,41031,1,0,0:0:0:0:
320,192,41118,1,0,0:0:0:0:
448,192,41118,1,0,0:0:0:0:
192,192,41205,1,0,0:0:0:0:
64,192,41205,1,0,0:0:0:0:
320,192,41292,1,0,0:0:0:0:
448,192,41292,1,0,0:0:0:0:
192,192,41380,1,0,0:0:0:0:
64,192,41380,1,0,0:0:0:0:
320,192,41467,1,0,0:0:0:0:
448,192,41467,1,0,0:0:0:0:
192,192,41554,1,0,0:0:0:0:
64,192,41554,1,0,0:0:0:0:
320,192,41641,1,0,0:0:0:0:
448,192,41641,1,0,0:0:0:0:
64,192,41729,1,0,0:0:0:0:
192,192,41729,1,0,0:0:0:0:
320,192,41816,1,0,0:0:0:0:
448,192,41816,1,0,0:0:0:0:
64,192,41903,1,0,0:0:0:0:
192,192,41903,1,0,0:0:0:0:
320,192,41990,1,0,0:0:0:0:
448,192,41990,1,0,0:0:0:0:
64,192,42077,1,0,0:0:0:0:
192,192,42077,1,0,0:0:0:0:
320,192,42165,1,0,0:0:0:0:
448,192,42165,1,0,0:0:0:0:
64,192,42252,1,0,0:0:0:0:
192,192,42252,1,0,0:0:0:0:
320,192,42339,1,0,0:0:0:0:
448,192,42339,1,0,0:0:0:0:
64,192,45130,1,0,0:0:0:0:
192,192,45130,1,0,0:0:0:0:
448,192,45173,1,0,0:0:0:0:
320,192,45217,1,0,0:0:0:0:
64,192,45260,1,0,0:0:0:0:
192,192,45304,1,0,0:0:0:0:
320,192,45348,1,0,0:0:0:0:
448,192,45391,1,0,0:0:0:0:
192,192,45435,1,0,0:0:0:0:
64,192,45479,1,0,0:0:0:0:
320,192,45479,1,0,0:0:0:0:
320,192,45566,1,0,0:0:0:0:
320,192,45653,1,0,0:0:0:0:
320,192,45740,1,0,0:0:0:0:
448,192,45827,1,0,0:0:0:0:
64,192,45827,1,0,0:0:0:0:
448,192,46002,1,0,0:0:0:0:
192,192,46089,1,0,0:0:0:0:
320,192,46089,1,0,0:0:0:0:
448,192,46176,1,0,0:0:0:0:
64,192,46176,1,0,0:0:0:0:
448,192,46351,1,0,0:0:0:0:
192,192,46351,1,0,0:0:0:0:
64,192,46525,1,0,0:0:0:0:
320,192,46525,1,0,0:0:0:0:
64,192,46699,1,0,0:0:0:0:
64,192,46874,1,0,0:0:0:0:
448,192,46874,1,0,0:0:0:0:
64,192,47223,1,0,0:0:0:0:
320,192,47223,1,0,0:0:0:0:
192,192,47572,1,0,0:0:0:0:
192,192,47659,1,0,0:0:0:0:
192,192,47746,1,0,0:0:0:0:
192,192,47833,1,0,0:0:0:0:
448,192,47920,1,0,0:0:0:0:
320,192,47920,1,0,0:0:0:0:
192,192,47964,1,0,0:0:0:0:
64,192,48008,1,0,0:0:0:0:
448,192,48051,1,0,0:0:0:0:
320,192,48095,1,0,0:0:0:0:
192,192,48138,1,0,0:0:0:0:
64,192,48182,1,0,0:0:0:0:
320,192,48226,1,0,0:0:0:0:
448,192,48269,1,0,0:0:0:0:
64,192,48313,1,0,0:0:0:0:
192,192,48356,1,0,0:0:0:0:
320,192,48400,1,0,0:0:0:0:
448,192,48444,1,0,0:0:0:0:
448,192,48531,1,0,0:0:0:0:
320,192,48618,1,0,0:0:0:0:
192,192,48618,1,0,0:0:0:0:
64,192,48705,1,0,0:0:0:0:
64,192,48792,1,0,0:0:0:0:
192,192,48880,1,0,0:0:0:0:
320,192,48880,1,0,0:0:0:0:
448,192,48967,1,0,0:0:0:0:
64,192,48967,1,0,0:0:0:0:
320,192,49141,1,0,0:0:0:0:
64,192,49141,1,0,0:0:0:0:
192,192,49316,1,0,0:0:0:0:
448,192,49316,1,0,0:0:0:0:
192,192,49490,1,0,0:0:0:0:
448,192,49665,1,0,0:0:0:0:
320,192,49665,1,0,0:0:0:0:
448,192,49839,1,0,0:0:0:0:
64,192,50013,1,0,0:0:0:0:
192,192,50013,1,0,0:0:0:0:
448,192,50711,1,0,0:0:0:0:
320,192,50711,1,0,0:0:0:0:
192,192,50755,1,0,0:0:0:0:
64,192,50798,1,0,0:0:0:0:
448,192,50842,1,0,0:0:0:0:
320,192,50885,1,0,0:0:0:0:
192,192,50929,1,0,0:0:0:0:
64,192,50973,1,0,0:0:0:0:
448,192,51016,1,0,0:0:0:0:
320,192,51060,1,0,0:0:0:0:
192,192,51060,1,0,0:0:0:0:
192,192,51147,1,0,0:0:0:0:
192,192,51234,1,0,0:0:0:0:
192,192,51322,1,0,0:0:0:0:
448,192,51409,1,0,0:0:0:0:
320,192,51409,1,0,0:0:0:0:
448,192,51583,1,0,0:0:0:0:
320,192,51670,1,0,0:0:0:0:
64,192,51670,1,0,0:0:0:0:
192,192,51758,1,0,0:0:0:0:
448,192,51758,1,0,0:0:0:0:
64,192,51932,1,0,0:0:0:0:
448,192,51932,1,0,0:0:0:0:
320,192,52106,1,0,0:0:0:0:
192,192,52106,1,0,0:0:0:0:
320,192,52281,1,0,0:0:0:0:
192,192,52455,1,0,0:0:0:0:
448,192,52455,1,0,0:0:0:0:
64,192,52804,1,0,0:0:0:0:
320,192,52804,1,0,0:0:0:0:
192,192,53153,1,0,0:0:0:0:
448,192,53153,1,0,0:0:0:0:
320,192,53327,1,0,0:0:0:0:
64,192,53502,1,0,0:0:0:0:
192,192,53545,1,0,0:0:0:0:
320,192,53589,1,0,0:0:0:0:
448,192,53633,1,0,0:0:0:0:
64,192,53676,1,0,0:0:0:0:
192,192,53720,1,0,0:0:0:0:
320,192,53763,1,0,0:0:0:0:
448,192,53807,1,0,0:0:0:0:
64,192,53851,1,0,0:0:0:0:
192,192,53872,1,0,0:0:0:0:
320,192,53894,1,0,0:0:0:0:
448,192,53916,1,0,0:0:0:0:
448,192,54025,1,0,0:0:0:0:
320,192,54047,1,0,0:0:0:0:
192,192,54069,1,0,0:0:0:0:
64,192,54090,1,0,0:0:0:0:
448,192,54199,1,0,0:0:0:0:
192,192,54221,1,0,0:0:0:0:
320,192,54243,1,0,0:0:0:0:
64,192,54265,1,0,0:0:0:0:
64,192,54374,1,0,0:0:0:0:
192,192,54396,1,0,0:0:0:0:
320,192,54417,1,0,0:0:0:0:
448,192,54439,1,0,0:0:0:0:
448,192,54548,1,0,0:0:0:0:
320,192,54570,1,0,0:0:0:0:
192,192,54592,1,0,0:0:0:0:
64,192,54614,1,0,0:0:0:0:
448,192,54635,1,0,0:0:0:0:
320,192,54657,1,0,0:0:0:0:
192,192,54679,1,0,0:0:0:0:
64,192,54701,1,0,0:0:0:0:
448,192,54723,1,0,0:0:0:0:
320,192,54744,1,0,0:0:0:0:
192,192,54766,1,0,0:0:0:0:
64,192,54788,1,0,0:0:0:0:
448,192,54810,1,0,0:0:0:0:
320,192,54832,1,0,0:0:0:0:
192,192,54854,1,0,0:0:0:0:
64,192,54875,1,0,0:0:0:0:
320,192,54897,1,0,0:0:0:0:
448,192,54897,1,0,0:0:0:0:
192,192,55072,1,0,0:0:0:0:
64,192,55159,1,0,0:0:0:0:
448,192,55246,1,0,0:0:0:0:
448,192,55333,1,0,0:0:0:0:
448,192,55420,1,0,0:0:0:0:
448,192,55508,1,0,0:0:0:0:
448,192,55595,1,0,0:0:0:0:
192,192,55856,1,0,0:0:0:0:
448,192,56292,1,0,0:0:0:0:
320,192,56292,1,0,0:0:0:0:
192,192,56336,1,0,0:0:0:0:
64,192,56380,1,0,0:0:0:0:
448,192,56423,1,0,0:0:0:0:
320,192,56467,1,0,0:0:0:0:
64,192,56510,1,0,0:0:0:0:
192,192,56554,1,0,0:0:0:0:
320,192,56598,1,0,0:0:0:0:
448,192,56641,1,0,0:0:0:0:
64,192,56641,1,0,0:0:0:0:
64,192,56729,1,0,0:0:0:0:
64,192,56816,1,0,0:0:0:0:
64,192,56903,1,0,0:0:0:0:
320,192,56990,1,0,0:0:0:0:
448,192,56990,1,0,0:0:0:0:
320,192,57165,1,0,0:0:0:0:
192,192,57252,1,0,0:0:0:0:
448,192,57252,1,0,0:0:0:0:
64,192,57339,1,0,0:0:0:0:
320,192,57339,1,0,0:0:0:0:
64,192,57513,1,0,0:0:0:0:
320,192,57513,1,0,0:0:0:0:
448,192,57688,1,0,0:0:0:0:
192,192,57688,1,0,0:0:0:0:
448,192,57862,1,0,0:0:0:0:
192,192,58037,1,0,0:0:0:0:
64,192,58037,1,0,0:0:0:0:
192,192,58385,1,0,0:0:0:0:
448,192,58385,1,0,0:0:0:0:
320,192,58734,1,0,0:0:0:0:
320,192,58822,1,0,0:0:0:0:
320,192,58909,1,0,0:0:0:0:
320,192,58996,1,0,0:0:0:0:
320,192,59083,1,0,0:0:0:0:
192,192,59127,1,0,0:0:0:0:
64,192,59170,1,0,0:0:0:0:
192,192,59214,1,0,0:0:0:0:
320,192,59258,1,0,0:0:0:0:
448,192,59301,1,0,0:0:0:0:
320,192,59345,1,0,0:0:0:0:
192,192,59388,1,0,0:0:0:0:
64,192,59432,1,0,0:0:0:0:
192,192,59476,1,0,0:0:0:0:
320,192,59519,1,0,0:0:0:0:
448,192,59563,1,0,0:0:0:0:
64,192,59606,1,0,0:0:0:0:
64,192,59694,1,0,0:0:0:0:
192,192,59781,1,0,0:0:0:0:
320,192,59781,1,0,0:0:0:0:
448,192,59868,1,0,0:0:0:0:
448,192,59955,1,0,0:0:0:0:
192,192,60042,1,0,0:0:0:0:
64,192,60042,1,0,0:0:0:0:
320,192,60130,1,0,0:0:0:0:
448,192,60130,1,0,0:0:0:0:
192,192,60304,1,0,0:0:0:0:
320,192,60304,1,0,0:0:0:0:
192,192,60479,1,0,0:0:0:0:
64,192,60479,1,0,0:0:0:0:
64,192,60653,1,0,0:0:0:0:
320,192,60827,1,0,0:0:0:0:
192,192,60827,1,0,0:0:0:0:
448,192,61002,1,0,0:0:0:0:
192,192,61176,1,0,0:0:0:0:
64,192,61176,1,0,0:0:0:0:
64,192,61874,1,0,0:0:0:0:
192,192,61874,1,0,0:0:0:0:
448,192,61917,1,0,0:0:0:0:
320,192,61961,1,0,0:0:0:0:
192,192,62005,1,0,0:0:0:0:
64,192,62048,1,0,0:0:0:0:
320,192,62092,1,0,0:0:0:0:
448,192,62135,1,0,0:0:0:0:
64,192,62179,1,0,0:0:0:0:
192,192,62223,1,0,0:0:0:0:
320,192,62223,1,0,0:0:0:0:
320,192,62310,1,0,0:0:0:0:
192,192,62397,1,0,0:0:0:0:
64,192,62397,1,0,0:0:0:0:
192,192,62484,1,0,0:0:0:0:
320,192,62572,1,0,0:0:0:0:
448,192,62572,1,0,0:0:0:0:
64,192,62746,1,0,0:0:0:0:
320,192,62833,1,0,0:0:0:0:
448,192,62833,1,0,0:0:0:0:
192,192,62920,1,0,0:0:0:0:
64,192,62920,1,0,0:0:0:0:
192,192,63095,1,0,0:0:0:0:
448,192,63269,1,0,0:0:0:0:
64,192,63269,1,0,0:0:0:0:
448,192,63444,1,0,0:0:0:0:
192,192,63531,1,0,0:0:0:0:
64,192,63531,1,0,0:0:0:0:
320,192,63618,1,0,0:0:0:0:
448,192,63618,1,0,0:0:0:0:
64,192,63792,1,0,0:0:0:0:
192,192,63792,1,0,0:0:0:0:
192,192,63967,1,0,0:0:0:0:
320,192,63967,1,0,0:0:0:0:
448,192,64229,1,0,0:0:0:0:
64,192,64229,1,0,0:0:0:0:
192,192,64316,1,0,0:0:0:0:
320,192,64316,1,0,0:0:0:0:
64,192,64490,1,0,0:0:0:0:
448,192,64665,1,0,0:0:0:0:
448,192,64897,1,0,0:0:0:0:
448,192,65130,1,0,0:0:0:0:
448,192,65362,1,0,0:0:0:0:
448,192,65595,1,0,0:0:0:0:
448,192,65827,1,0,0:0:0:0:
448,192,66060,1,0,0:0:0:0:
320,192,66089,1,0,0:0:0:0:
192,192,66118,1,0,0:0:0:0:
64,192,66147,1,0,0:0:0:0:
448,192,66176,1,0,0:0:0:0:
320,192,66205,1,0,0:0:0:0:
192,192,66234,1,0,0:0:0:0:
64,192,66263,1,0,0:0:0:0:
448,192,66322,1,0,0:0:0:0:
320,192,66409,1,0,0:0:0:0:
192,192,66641,1,0,0:0:0:0:
64,192,66758,1,0,0:0:0:0:
448,192,66874,1,0,0:0:0:0:
320,192,66990,1,0,0:0:0:0:
192,192,67106,1,0,0:0:0:0:
64,192,67223,1,0,0:0:0:0:
320,192,67339,1,0,0:0:0:0:
64,192,67455,1,0,0:0:0:0:
448,192,67455,1,0,0:0:0:0:
192,192,67499,1,0,0:0:0:0:
320,192,67542,1,0,0:0:0:0:
64,192,67586,1,0,0:0:0:0:
448,192,67630,1,0,0:0:0:0:
320,192,67673,1,0,0:0:0:0:
192,192,67717,1,0,0:0:0:0:
448,192,67760,1,0,0:0:0:0:
64,192,67804,128,0,67891:0:0:0:0:
448,192,68153,128,0,68240:0:0:0:0:
192,192,68153,1,0,0:0:0:0:
64,192,68153,1,0,0:0:0:0:
320,192,68327,128,0,68415:0:0:0:0:
64,192,68502,128,0,68589:0:0:0:0:
448,192,68502,1,0,0:0:0:0:
192,192,68851,1,0,0:0:0:0:
192,192,68938,1,0,0:0:0:0:
192,192,69025,1,0,0:0:0:0:
448,192,69025,1,0,0:0:0:0:
64,192,69199,128,0,69287:0:0:0:0:
320,192,69199,1,0,0:0:0:0:
320,192,69374,128,0,69461:0:0:0:0:
192,192,69548,128,0,69635:0:0:0:0:
448,192,69548,1,0,0:0:0:0:
64,192,69548,1,0,0:0:0:0:
448,192,69723,128,0,69810:0:0:0:0:
64,192,69897,128,0,69984:0:0:0:0:
192,192,70072,1,0,0:0:0:0:
320,192,70072,1,0,0:0:0:0:
448,192,70246,1,0,0:0:0:0:
64,192,70246,1,0,0:0:0:0:
448,192,70333,1,0,0:0:0:0:
448,192,70420,1,0,0:0:0:0:
448,192,70508,1,0,0:0:0:0:
64,192,70595,128,0,70682:0:0:0:0:
192,192,70769,128,0,70856:0:0:0:0:
448,192,70944,128,0,71031:0:0:0:0:
320,192,70944,1,0,0:0:0:0:
64,192,70944,1,0,0:0:0:0:
320,192,71118,128,0,71205:0:0:0:0:
192,192,71118,1,0,0:0:0:0:
64,192,71292,128,0,71380:0:0:0:0:
448,192,71467,1,0,0:0:0:0:
320,192,71467,1,0,0:0:0:0:
64,192,71641,1,0,0:0:0:0:
192,192,71670,1,0,0:0:0:0:
320,192,71699,1,0,0:0:0:0:
448,192,71729,1,0,0:0:0:0:
448,192,71816,1,0,0:0:0:0:
320,192,71845,1,0,0:0:0:0:
192,192,71874,1,0,0:0:0:0:
64,192,71903,1,0,0:0:0:0:
64,192,71990,1,0,0:0:0:0:
192,192,72019,1,0,0:0:0:0:
320,192,72048,1,0,0:0:0:0:
448,192,72077,1,0,0:0:0:0:
64,192,72106,1,0,0:0:0:0:
192,192,72135,1,0,0:0:0:0:
320,192,72165,1,0,0:0:0:0:
448,192,72194,1,0,0:0:0:0:
64,192,72223,1,0,0:0:0:0:
192,192,72252,1,0,0:0:0:0:
320,192,72281,1,0,0:0:0:0:
448,192,72310,1,0,0:0:0:0:
320,192,72339,1,0,0:0:0:0:
192,192,72339,1,0,0:0:0:0:
64,192,72339,1,0,0:0:0:0:
448,192,72601,1,0,0:0:0:0:
320,192,72630,1,0,0:0:0:0:
192,192,72659,1,0,0:0:0:0:
64,192,72688,1,0,0:0:0:0:
448,192,72717,1,0,0:0:0:0:
320,192,72746,1,0,0:0:0:0:
192,192,72775,1,0,0:0:0:0:
64,192,72804,1,0,0:0:0:0:
448,192,72862,1,0,0:0:0:0:
320,192,72891,1,0,0:0:0:0:
192,192,72920,1,0,0:0:0:0:
64,192,72949,1,0,0:0:0:0:
448,192,73037,1,0,0:0:0:0:
320,192,73058,1,0,0:0:0:0:
192,192,73080,1,0,0:0:0:0:
64,192,73102,1,0,0:0:0:0:
448,192,73124,1,0,0:0:0:0:
320,192,73146,1,0,0:0:0:0:
192,192,73167,1,0,0:0:0:0:
64,192,73189,1,0,0:0:0:0:
448,192,73211,1,0,0:0:0:0:
320,192,73233,1,0,0:0:0:0:
192,192,73255,1,0,0:0:0:0:
64,192,73276,1,0,0:0:0:0:
64,192,73385,1,0,0:0:0:0:
192,192,73415,1,0,0:0:0:0:
320,192,73444,1,0,0:0:0:0:
448,192,73473,1,0,0:0:0:0:
448,192,73560,1,0,0:0:0:0:
320,192,73589,1,0,0:0:0:0:
192,192,73618,1,0,0:0:0:0:
64,192,73647,1,0,0:0:0:0:
448,192,73734,128,0,74083:0:0:0:0:
192,192,73734,1,0,0:0:0:0:
320,192,73734,1,0,0:0:0:0:
320,192,74083,128,0,74432:0:0:0:0:
64,192,74083,1,0,0:0:0:0:
64,192,74432,1,0,0:0:0:0:
64,192,74519,1,0,0:0:0:0:
64,192,74606,1,0,0:0:0:0:
192,192,74781,128,0,74868:0:0:0:0:
320,192,74781,1,0,0:0:0:0:
448,192,74955,128,0,75042:0:0:0:0:
64,192,75130,128,0,75217:0:0:0:0:
320,192,75130,1,0,0:0:0:0:
192,192,75130,1,0,0:0:0:0:
320,192,75304,128,0,75391:0:0:0:0:
192,192,75479,128,0,75566:0:0:0:0:
320,192,75653,1,0,0:0:0:0:
64,192,75653,1,0,0:0:0:0:
448,192,75827,1,0,0:0:0:0:
192,192,75827,1,0,0:0:0:0:
448,192,75915,1,0,0:0:0:0:
448,192,76002,1,0,0:0:0:0:
448,192,76089,1,0,0:0:0:0:
192,192,76176,128,0,76263:0:0:0:0:
64,192,76351,128,0,76438:0:0:0:0:
448,192,76525,128,0,76612:0:0:0:0:
320,192,76525,1,0,0:0:0:0:
192,192,76525,1,0,0:0:0:0:
192,192,76699,128,0,76787:0:0:0:0:
64,192,76699,1,0,0:0:0:0:
320,192,76874,128,0,76961:0:0:0:0:
448,192,76874,1,0,0:0:0:0:
448,192,77223,1,0,0:0:0:0:
320,192,77397,1,0,0:0:0:0:
192,192,77484,1,0,0:0:0:0:
64,192,77572,1,0,0:0:0:0:
64,192,77659,1,0,0:0:0:0:
64,192,77746,1,0,0:0:0:0:
64,192,77833,1,0,0:0:0:0:
64,192,77920,1,0,0:0:0:0:
320,192,78182,1,0,0:0:0:0:
64,192,78618,1,0,0:0:0:0:
192,192,78618,1,0,0:0:0:0:
320,192,78662,1,0,0:0:0:0:
448,192,78705,1,0,0:0:0:0:
64,192,78749,1,0,0:0:0:0:
192,192,78792,1,0,0:0:0:0:
448,192,78836,1,0,0:0:0:0:
320,192,78880,1,0,0:0:0:0:
192,192,78923,1,0,0:0:0:0:
64,192,78967,1,0,0:0:0:0:
64,192,79054,1,0,0:0:0:0:
64,192,79141,1,0,0:0:0:0:
64,192,79229,1,0,0:0:0:0:
192,192,79316,1,0,0:0:0:0:
320,192,79316,1,0,0:0:0:0:
448,192,79316,1,0,0:0:0:0:
448,192,79403,1,0,0:0:0:0:
448,192,79490,1,0,0:0:0:0:
448,192,79577,1,0,0:0:0:0:
64,192,79665,1,0,0:0:0:0:
320,192,79665,1,0,0:0:0:0:
192,192,79752,1,0,0:0:0:0:
192,192,79839,1,0,0:0:0:0:
192,192,79926,1,0,0:0:0:0:
448,192,80013,1,0,0:0:0:0:
320,192,80188,1,0,0:0:0:0:
64,192,80188,1,0,0:0:0:0:
64,192,80275,1,0,0:0:0:0:
320,192,80362,1,0,0:0:0:0:
448,192,80362,1,0,0:0:0:0:
192,192,80537,1,0,0:0:0:0:
192,192,80624,1,0,0:0:0:0:
320,192,80711,1,0,0:0:0:0:
64,192,80711,1,0,0:0:0:0:
448,192,80711,128,0,80798:0:0:0:0:
448,192,80885,128,0,80973:0:0:0:0:
448,192,81060,128,0,81147:0:0:0:0:
192,192,81234,1,0,0:0:0:0:
64,192,81234,1,0,0:0:0:0:
320,192,81409,1,0,0:0:0:0:
448,192,81409,128,0,81496:0:0:0:0:
64,192,81758,128,0,81845:0:0:0:0:
448,192,81932,128,0,82019:0:0:0:0:
192,192,82106,128,0,82194:0:0:0:0:
64,192,82106,1,0,0:0:0:0:
320,192,82106,1,0,0:0:0:0:
320,192,82281,128,0,82368:0:0:0:0:
448,192,82281,1,0,0:0:0:0:
64,192,82455,128,0,82542:0:0:0:0:
448,192,82630,1,0,0:0:0:0:
320,192,82630,1,0,0:0:0:0:
192,192,82804,1,0,0:0:0:0:
64,192,82804,1,0,0:0:0:0:
64,192,82891,1,0,0:0:0:0:
64,192,82979,128,0,83066:0:0:0:0:
192,192,83153,128,0,83240:0:0:0:0:
320,192,83327,128,0,83415:0:0:0:0:
448,192,83502,128,0,83589:0:0:0:0:
192,192,83502,1,0,0:0:0:0:
64,192,83502,1,0,0:0:0:0:
320,192,83676,128,0,83763:0:0:0:0:
192,192,83676,1,0,0:0:0:0:
192,192,83851,128,0,83938:0:0:0:0:
448,192,84025,1,0,0:0:0:0:
320,192,84025,1,0,0:0:0:0:
192,192,84112,1,0,0:0:0:0:
64,192,84112,1,0,0:0:0:0:
448,192,84199,1,0,0:0:0:0:
320,192,84229,1,0,0:0:0:0:
192,192,84258,1,0,0:0:0:0:
64,192,84287,1,0,0:0:0:0:
448,192,84316,1,0,0:0:0:0:
320,192,84345,1,0,0:0:0:0:
192,192,84374,1,0,0:0:0:0:
64,192,84403,1,0,0:0:0:0:
64,192,84548,1,0,0:0:0:0:
192,192,84577,1,0,0:0:0:0:
320,192,84606,1,0,0:0:0:0:
448,192,84635,1,0,0:0:0:0:
448,192,84723,1,0,0:0:0:0:
320,192,84752,1,0,0:0:0:0:
192,192,84781,1,0,0:0:0:0:
64,192,84810,1,0,0:0:0:0:
192,192,84897,1,0,0:0:0:0:
320,192,84897,1,0,0:0:0:0:
448,192,84897,128,0,85072:0:0:0:0:
320,192,85159,1,0,0:0:0:0:
448,192,85159,1,0,0:0:0:0:
64,192,85246,128,0,85333:0:0:0:0:
192,192,85246,1,0,0:0:0:0:
192,192,85420,128,0,85508:0:0:0:0:
448,192,85595,1,0,0:0:0:0:
448,192,85682,1,0,0:0:0:0:
448,192,85769,1,0,0:0:0:0:
448,192,85856,1,0,0:0:0:0:
320,192,85944,1,0,0:0:0:0:
192,192,85944,1,0,0:0:0:0:
64,192,86031,1,0,0:0:0:0:
64,192,86118,1,0,0:0:0:0:
64,192,86205,1,0,0:0:0:0:
192,192,86292,1,0,0:0:0:0:
320,192,86292,1,0,0:0:0:0:
448,192,86292,128,0,86380:0:0:0:0:
448,192,86467,128,0,86554:0:0:0:0:
64,192,86641,128,0,86729:0:0:0:0:
320,192,86816,1,0,0:0:0:0:
192,192,86816,1,0,0:0:0:0:
448,192,86990,128,0,87077:0:0:0:0:
64,192,86990,1,0,0:0:0:0:
64,192,87339,128,0,87426:0:0:0:0:
448,192,87513,128,0,87601:0:0:0:0:
320,192,87513,1,0,0:0:0:0:
192,192,87688,128,0,87775:0:0:0:0:
320,192,87688,1,0,0:0:0:0:
64,192,87688,1,0,0:0:0:0:
320,192,87862,128,0,87949:0:0:0:0:
64,192,88037,128,0,88124:0:0:0:0:
192,192,88037,1,0,0:0:0:0:
448,192,88385,1,0,0:0:0:0:
192,192,88385,1,0,0:0:0:0:
320,192,88560,1,0,0:0:0:0:
192,192,88647,1,0,0:0:0:0:
64,192,88734,1,0,0:0:0:0:
448,192,88734,1,0,0:0:0:0:
64,192,88822,1,0,0:0:0:0:
64,192,88909,1,0,0:0:0:0:
64,192,88996,1,0,0:0:0:0:
64,192,89083,1,0,0:0:0:0:
320,192,89083,1,0,0:0:0:0:
192,192,89258,1,0,0:0:0:0:
320,192,89258,1,0,0:0:0:0:
320,192,89781,1,0,0:0:0:0:
192,192,89781,1,0,0:0:0:0:
64,192,112106,5,0,0:0:0:0:
320,192,112281,1,0,0:0:0:0:
448,192,112455,1,0,0:0:0:0:
192,192,112455,1,0,0:0:0:0:
64,192,112630,1,0,0:0:0:0:
448,192,112804,1,0,0:0:0:0:
192,192,112979,1,0,0:0:0:0:
320,192,113153,1,0,0:0:0:0:
448,192,113153,1,0,0:0:0:0:
64,192,113327,1,0,0:0:0:0:
320,192,113502,1,0,0:0:0:0:
448,192,113589,1,0,0:0:0:0:
192,192,113676,1,0,0:0:0:0:
64,192,113851,1,0,0:0:0:0:
448,192,113851,1,0,0:0:0:0:
320,192,114025,1,0,0:0:0:0:
64,192,114199,1,0,0:0:0:0:
320,192,114374,1,0,0:0:0:0:
448,192,114548,1,0,0:0:0:0:
192,192,114548,1,0,0:0:0:0:
64,192,114635,1,0,0:0:0:0:
320,192,114723,1,0,0:0:0:0:
192,192,114897,1,0,0:0:0:0:
64,192,115072,1,0,0:0:0:0:
448,192,115246,1,0,0:0:0:0:
320,192,115246,1,0,0:0:0:0:
64,192,115420,1,0,0:0:0:0:
448,192,115595,1,0,0:0:0:0:
192,192,115769,1,0,0:0:0:0:
64,192,115944,1,0,0:0:0:0:
320,192,115944,1,0,0:0:0:0:
448,192,116118,1,0,0:0:0:0:
64,192,116292,1,0,0:0:0:0:
192,192,116380,1,0,0:0:0:0:
320,192,116467,1,0,0:0:0:0:
448,192,116641,1,0,0:0:0:0:
64,192,116641,1,0,0:0:0:0:
192,192,116816,1,0,0:0:0:0:
448,192,116990,1,0,0:0:0:0:
192,192,117165,1,0,0:0:0:0:
64,192,117165,1,0,0:0:0:0:
320,192,117339,1,0,0:0:0:0:
448,192,117339,1,0,0:0:0:0:
192,192,117426,1,0,0:0:0:0:
64,192,117513,1,0,0:0:0:0:
448,192,117688,1,0,0:0:0:0:
192,192,117862,1,0,0:0:0:0:
64,192,118037,1,0,0:0:0:0:
320,192,118037,1,0,0:0:0:0:
448,192,118211,1,0,0:0:0:0:
192,192,118385,1,0,0:0:0:0:
64,192,118560,1,0,0:0:0:0:
448,192,118734,1,0,0:0:0:0:
320,192,118734,1,0,0:0:0:0:
192,192,118909,1,0,0:0:0:0:
64,192,119083,1,0,0:0:0:0:
192,192,119170,1,0,0:0:0:0:
320,192,119258,1,0,0:0:0:0:
192,192,119432,1,0,0:0:0:0:
64,192,119432,1,0,0:0:0:0:
448,192,119606,1,0,0:0:0:0:
320,192,119781,1,0,0:0:0:0:
64,192,119955,1,0,0:0:0:0:
320,192,120130,1,0,0:0:0:0:
448,192,120130,1,0,0:0:0:0:
192,192,120217,1,0,0:0:0:0:
64,192,120304,1,0,0:0:0:0:
448,192,120479,1,0,0:0:0:0:
320,192,120653,1,0,0:0:0:0:
64,192,120827,1,0,0:0:0:0:
192,192,120827,1,0,0:0:0:0:
448,192,121002,1,0,0:0:0:0:
64,192,121176,1,0,0:0:0:0:
64,192,121263,1,0,0:0:0:0:
64,192,121351,1,0,0:0:0:0:
64,192,121438,1,0,0:0:0:0:
320,192,121525,1,0,0:0:0:0:
448,192,121525,1,0,0:0:0:0:
192,192,121699,1,0,0:0:0:0:
448,192,121874,1,0,0:0:0:0:
320,192,121961,1,0,0:0:0:0:
192,192,122048,1,0,0:0:0:0:
448,192,122223,1,0,0:0:0:0:
64,192,122223,1,0,0:0:0:0:
320,192,122397,1,0,0:0:0:0:
64,192,122572,1,0,0:0:0:0:
192,192,122746,1,0,0:0:0:0:
320,192,122746,1,0,0:0:0:0:
448,192,122920,1,0,0:0:0:0:
64,192,122920,1,0,0:0:0:0:
192,192,123008,1,0,0:0:0:0:
320,192,123095,1,0,0:0:0:0:
192,192,123269,1,0,0:0:0:0:
64,192,123269,1,0,0:0:0:0:
320,192,123444,1,0,0:0:0:0:
192,192,123531,1,0,0:0:0:0:
64,192,123531,1,0,0:0:0:0:
320,192,123618,1,0,0:0:0:0:
448,192,123618,1,0,0:0:0:0:
64,192,123792,1,0,0:0:0:0:
320,192,123792,1,0,0:0:0:0:
192,192,123967,1,0,0:0:0:0:
320,192,124141,1,0,0:0:0:0:
64,192,124141,1,0,0:0:0:0:
192,192,124316,1,0,0:0:0:0:
448,192,124316,1,0,0:0:0:0:
320,192,124490,1,0,0:0:0:0:
448,192,124665,1,0,0:0:0:0:
320,192,124752,1,0,0:0:0:0:
192,192,124839,1,0,0:0:0:0:
64,192,124839,1,0,0:0:0:0:
448,192,124926,1,0,0:0:0:0:
320,192,124926,1,0,0:0:0:0:
192,192,125013,1,0,0:0:0:0:
64,192,125013,1,0,0:0:0:0:
448,192,125188,1,0,0:0:0:0:
320,192,125188,1,0,0:0:0:0:
64,192,125362,1,0,0:0:0:0:
448,192,125537,1,0,0:0:0:0:
320,192,125537,1,0,0:0:0:0:
192,192,125711,1,0,0:0:0:0:
64,192,125711,1,0,0:0:0:0:
448,192,125885,1,0,0:0:0:0:
320,192,125929,1,0,0:0:0:0:
192,192,125973,1,0,0:0:0:0:
64,192,126016,1,0,0:0:0:0:
448,192,126060,1,0,0:0:0:0:
320,192,126060,1,0,0:0:0:0:
192,192,126234,1,0,0:0:0:0:
320,192,126322,1,0,0:0:0:0:
448,192,126322,1,0,0:0:0:0:
192,192,126409,1,0,0:0:0:0:
64,192,126409,1,0,0:0:0:0:
448,192,126583,1,0,0:0:0:0:
320,192,126583,1,0,0:0:0:0:
64,192,126758,1,0,0:0:0:0:
320,192,126932,1,0,0:0:0:0:
192,192,126932,1,0,0:0:0:0:
448,192,127106,1,0,0:0:0:0:
64,192,127106,1,0,0:0:0:0:
320,192,127281,1,0,0:0:0:0:
64,192,127455,1,0,0:0:0:0:
192,192,127455,1,0,0:0:0:0:
448,192,127630,1,0,0:0:0:0:
320,192,127630,1,0,0:0:0:0:
192,192,127717,1,0,0:0:0:0:
64,192,127717,1,0,0:0:0:0:
448,192,127804,1,0,0:0:0:0:
320,192,127979,1,0,0:0:0:0:
192,192,127979,1,0,0:0:0:0:
64,192,128153,1,0,0:0:0:0:
192,192,128182,1,0,0:0:0:0:
320,192,128211,1,0,0:0:0:0:
448,192,128240,1,0,0:0:0:0:
192,192,128327,1,0,0:0:0:0:
64,192,128327,1,0,0:0:0:0:
320,192,128415,1,0,0:0:0:0:
448,192,128415,1,0,0:0:0:0:
192,192,128502,1,0,0:0:0:0:
64,192,128502,1,0,0:0:0:0:
192,192,128618,1,0,0:0:0:0:
64,192,128618,1,0,0:0:0:0:
320,192,128734,1,0,0:0:0:0:
448,192,128734,1,0,0:0:0:0:
448,192,128851,1,0,0:0:0:0:
320,192,128851,1,0,0:0:0:0:
64,192,129025,1,0,0:0:0:0:
320,192,129112,1,0,0:0:0:0:
448,192,129112,1,0,0:0:0:0:
192,192,129199,1,0,0:0:0:0:
64,192,129199,1,0,0:0:0:0:
448,192,129374,1,0,0:0:0:0:
192,192,129374,1,0,0:0:0:0:
320,192,129548,1,0,0:0:0:0:
64,192,129723,1,0,0:0:0:0:
448,192,129723,1,0,0:0:0:0:
192,192,129897,1,0,0:0:0:0:
320,192,129897,1,0,0:0:0:0:
448,192,130072,1,0,0:0:0:0:
64,192,130246,1,0,0:0:0:0:
192,192,130333,1,0,0:0:0:0:
320,192,130420,1,0,0:0:0:0:
192,192,130508,1,0,0:0:0:0:
64,192,130508,1,0,0:0:0:0:
320,192,130595,1,0,0:0:0:0:
448,192,130595,1,0,0:0:0:0:
64,192,130769,1,0,0:0:0:0:
192,192,130769,1,0,0:0:0:0:
448,192,130944,1,0,0:0:0:0:
320,192,130944,1,0,0:0:0:0:
192,192,131031,1,0,0:0:0:0:
64,192,131031,1,0,0:0:0:0:
320,192,131118,1,0,0:0:0:0:
448,192,131118,1,0,0:0:0:0:
64,192,131292,1,0,0:0:0:0:
192,192,131322,1,0,0:0:0:0:
320,192,131351,1,0,0:0:0:0:
448,192,131380,1,0,0:0:0:0:
448,192,131467,1,0,0:0:0:0:
320,192,131496,1,0,0:0:0:0:
192,192,131525,1,0,0:0:0:0:
64,192,131554,1,0,0:0:0:0:
320,192,131641,1,0,0:0:0:0:
448,192,131641,1,0,0:0:0:0:
64,192,131816,1,0,0:0:0:0:
192,192,131903,1,0,0:0:0:0:
320,192,131903,1,0,0:0:0:0:
448,192,131990,1,0,0:0:0:0:
64,192,131990,1,0,0:0:0:0:
192,192,132165,1,0,0:0:0:0:
320,192,132165,1,0,0:0:0:0:
448,192,132339,1,0,0:0:0:0:
448,192,132426,1,0,0:0:0:0:
448,192,132513,1,0,0:0:0:0:
64,192,132513,1,0,0:0:0:0:
448,192,132601,1,0,0:0:0:0:
448,192,132688,1,0,0:0:0:0:
192,192,132688,1,0,0:0:0:0:
448,192,133037,1,0,0:0:0:0:
320,192,133066,1,0,0:0:0:0:
192,192,133095,1,0,0:0:0:0:
64,192,133124,1,0,0:0:0:0:
448,192,133153,1,0,0:0:0:0:
320,192,133182,1,0,0:0:0:0:
192,192,133211,1,0,0:0:0:0:
64,192,133240,1,0,0:0:0:0:
448,192,133269,1,0,0:0:0:0:
320,192,133298,1,0,0:0:0:0:
192,192,133298,1,0,0:0:0:0:
64,192,133385,1,0,0:0:0:0:
448,192,133385,1,0,0:0:0:0:
320,192,133560,1,0,0:0:0:0:
192,192,133560,1,0,0:0:0:0:
448,192,134432,128,0,135130:0:0:0:0:
64,192,134432,128,0,135130:0:0:0:0:
192,192,135130,1,0,0:0:0:0:
320,192,135130,1,0,0:0:0:0:
320,192,135479,128,0,136525:0:0:0:0:
192,192,135479,128,0,136525:0:0:0:0:
448,192,136525,1,0,0:0:0:0:
64,192,136525,1,0,0:0:0:0:
448,192,136874,1,0,0:0:0:0:
64,192,136874,1,0,0:0:0:0:
448,192,137048,128,0,137223:0:0:0:0:
320,192,137048,128,0,137223:0:0:0:0:
192,192,137223,128,0,137572:0:0:0:0:
64,192,137223,128,0,137572:0:0:0:0:
448,192,137572,128,0,137746:0:0:0:0:
320,192,137572,128,0,137746:0:0:0:0:
192,192,137746,128,0,137920:0:0:0:0:
64,192,137746,128,0,137920:0:0:0:0:
320,192,137920,1,0,0:0:0:0:
448,192,137920,1,0,0:0:0:0:
320,192,138269,128,0,138618:0:0:0:0:
448,192,138269,128,0,138618:0:0:0:0:
192,192,138618,128,0,138792:0:0:0:0:
64,192,138618,128,0,138792:0:0:0:0:
320,192,138792,128,0,138967:0:0:0:0:
448,192,138792,128,0,138967:0:0:0:0:
64,192,138967,128,0,139141:0:0:0:0:
192,192,138967,128,0,139141:0:0:0:0:
320,192,139141,128,0,139316:0:0:0:0:
448,192,139141,128,0,139316:0:0:0:0:
192,192,139316,1,0,0:0:0:0:
64,192,139316,1,0,0:0:0:0:
448,192,140013,128,0,140711:0:0:0:0:
64,192,140013,128,0,140711:0:0:0:0:
192,192,140711,1,0,0:0:0:0:
320,192,140711,1,0,0:0:0:0:
448,192,141060,128,0,142106:0:0:0:0:
64,192,141060,128,0,142106:0:0:0:0:
192,192,142106,1,0,0:0:0:0:
320,192,142106,1,0,0:0:0:0:
192,192,142455,1,0,0:0:0:0:
448,192,142455,1,0,0:0:0:0:
320,192,142630,128,0,142804:0:0:0:0:
64,192,142630,128,0,142804:0:0:0:0:
448,192,142804,128,0,143153:0:0:0:0:
192,192,142804,128,0,143153:0:0:0:0:
64,192,143153,128,0,143327:0:0:0:0:
320,192,143153,128,0,143327:0:0:0:0:
192,192,143327,128,0,143502:0:0:0:0:
448,192,143327,128,0,143502:0:0:0:0:
320,192,143502,1,0,0:0:0:0:
64,192,143502,1,0,0:0:0:0:
320,192,143851,128,0,144199:0:0:0:0:
64,192,143851,128,0,144199:0:0:0:0:
448,192,144199,128,0,144374:0:0:0:0:
192,192,144199,128,0,144374:0:0:0:0:
320,192,144374,128,0,144548:0:0:0:0:
64,192,144374,128,0,144548:0:0:0:0:
448,192,144548,128,0,144723:0:0:0:0:
192,192,144548,128,0,144723:0:0:0:0:
320,192,144723,128,0,144897:0:0:0:0:
64,192,144723,128,0,144897:0:0:0:0:
192,192,144897,1,0,0:0:0:0:
448,192,144897,1,0,0:0:0:0:
320,192,145072,1,0,0:0:0:0:
64,192,145420,1,0,0:0:0:0:
320,192,145595,1,0,0:0:0:0:
448,192,145595,1,0,0:0:0:0:
64,192,145944,1,0,0:0:0:0:
192,192,146118,1,0,0:0:0:0:
320,192,146292,1,0,0:0:0:0:
448,192,146292,1,0,0:0:0:0:
192,192,146467,1,0,0:0:0:0:
64,192,146641,128,0,147688:0:0:0:0:
448,192,146641,128,0,147688:0:0:0:0:
192,192,147688,1,0,0:0:0:0:
320,192,147688,1,0,0:0:0:0:
320,192,148037,1,0,0:0:0:0:
192,192,148037,1,0,0:0:0:0:
448,192,148211,128,0,148385:0:0:0:0:
64,192,148211,128,0,148385:0:0:0:0:
192,192,148385,128,0,148734:0:0:0:0:
320,192,148385,128,0,148734:0:0:0:0:
448,192,148734,128,0,148909:0:0:0:0:
64,192,148734,128,0,148909:0:0:0:0:
192,192,148909,128,0,149083:0:0:0:0:
320,192,148909,128,0,149083:0:0:0:0:
448,192,149083,1,0,0:0:0:0:
64,192,149083,1,0,0:0:0:0:
448,192,149432,128,0,149781:0:0:0:0:
64,192,149432,128,0,149781:0:0:0:0:
192,192,149781,128,0,149955:0:0:0:0:
320,192,149781,128,0,149955:0:0:0:0:
448,192,149955,128,0,150130:0:0:0:0:
64,192,149955,128,0,150130:0:0:0:0:
192,192,150130,128,0,150304:0:0:0:0:
320,192,150130,128,0,150304:0:0:0:0:
64,192,150304,128,0,150479:0:0:0:0:
448,192,150304,128,0,150479:0:0:0:0:
192,192,150479,1,0,0:0:0:0:
320,192,150479,1,0,0:0:0:0:
320,192,151176,128,0,151874:0:0:0:0:
448,192,151176,128,0,151874:0:0:0:0:
192,192,151874,1,0,0:0:0:0:
64,192,151874,1,0,0:0:0:0:
64,192,152223,128,0,153269:0:0:0:0:
192,192,152223,128,0,153269:0:0:0:0:
320,192,153269,1,0,0:0:0:0:
448,192,153269,1,0,0:0:0:0:
192,192,153618,1,0,0:0:0:0:
64,192,153618,1,0,0:0:0:0:
320,192,153792,128,0,153967:0:0:0:0:
448,192,153792,128,0,153967:0:0:0:0:
192,192,153967,128,0,154316:0:0:0:0:
64,192,153967,128,0,154316:0:0:0:0:
320,192,154316,128,0,154490:0:0:0:0:
448,192,154316,128,0,154490:0:0:0:0:
192,192,154490,128,0,154665:0:0:0:0:
64,192,154490,128,0,154665:0:0:0:0:
320,192,154665,1,0,0:0:0:0:
448,192,154665,1,0,0:0:0:0:
320,192,155013,128,0,155362:0:0:0:0:
448,192,155013,128,0,155362:0:0:0:0:
192,192,155362,128,0,155537:0:0:0:0:
64,192,155362,128,0,155537:0:0:0:0:
320,192,155537,128,0,155711:0:0:0:0:
448,192,155537,128,0,155711:0:0:0:0:
192,192,155711,128,0,155885:0:0:0:0:
64,192,155711,128,0,155885:0:0:0:0:
320,192,155885,128,0,156060:0:0:0:0:
448,192,155885,128,0,156060:0:0:0:0:
64,192,156757,128,0,157455:0:0:0:0:
448,192,156757,128,0,157455:0:0:0:0:
320,192,157455,1,0,0:0:0:0:
192,192,157455,1,0,0:0:0:0:
192,192,157804,128,0,158676:0:0:0:0:
320,192,157804,128,0,158502:0:0:0:0:
448,192,158502,128,0,158851:0:0:0:0:
64,192,158676,128,0,158851:0:0:0:0:
320,192,158851,1,0,0:0:0:0:
192,192,158851,1,0,0:0:0:0:
64,192,159199,1,0,0:0:0:0:
448,192,159199,1,0,0:0:0:0:
64,192,159374,128,0,159548:0:0:0:0:
192,192,159374,128,0,159548:0:0:0:0:
320,192,159548,128,0,159897:0:0:0:0:
448,192,159548,128,0,159897:0:0:0:0:
64,192,159897,128,0,160072:0:0:0:0:
192,192,159897,128,0,160072:0:0:0:0:
320,192,160072,128,0,160246:0:0:0:0:
448,192,160072,128,0,160246:0:0:0:0:
192,192,160246,1,0,0:0:0:0:
64,192,160246,1,0,0:0:0:0:
192,192,160595,128,0,160944:0:0:0:0:
64,192,160595,128,0,160944:0:0:0:0:
320,192,160944,128,0,161118:0:0:0:0:
448,192,160944,128,0,161118:0:0:0:0:
192,192,161118,128,0,161292:0:0:0:0:
64,192,161118,128,0,161292:0:0:0:0:
448,192,161292,128,0,161467:0:0:0:0:
320,192,161292,128,0,161467:0:0:0:0:
192,192,161467,128,0,161641:0:0:0:0:
64,192,161467,128,0,161641:0:0:0:0:
320,192,161641,1,0,0:0:0:0:
448,192,161641,1,0,0:0:0:0:
64,192,162077,1,0,0:0:0:0:
192,192,162165,1,0,0:0:0:0:
320,192,162252,1,0,0:0:0:0:
64,192,162339,128,0,163037:0:0:0:0:
448,192,162339,128,0,163037:0:0:0:0:
320,192,163037,1,0,0:0:0:0:
192,192,163037,1,0,0:0:0:0:
64,192,163385,128,0,164432:0:0:0:0:
448,192,163385,128,0,164432:0:0:0:0:
320,192,164432,1,0,0:0:0:0:
192,192,164432,1,0,0:0:0:0:
320,192,164781,1,0,0:0:0:0:
64,192,164781,1,0,0:0:0:0:
192,192,164955,128,0,165130:0:0:0:0:
448,192,164955,128,0,165130:0:0:0:0:
64,192,165130,128,0,165479:0:0:0:0:
320,192,165130,128,0,165479:0:0:0:0:
448,192,165479,128,0,165653:0:0:0:0:
192,192,165479,128,0,165653:0:0:0:0:
320,192,165653,128,0,165827:0:0:0:0:
64,192,165653,128,0,165827:0:0:0:0:
192,192,165827,1,0,0:0:0:0:
448,192,165827,1,0,0:0:0:0:
192,192,166176,128,0,166525:0:0:0:0:
448,192,166176,128,0,166525:0:0:0:0:
64,192,166525,128,0,166699:0:0:0:0:
320,192,166525,128,0,166699:0:0:0:0:
192,192,166699,128,0,166874:0:0:0:0:
448,192,166699,128,0,166874:0:0:0:0:
64,192,166874,128,0,167048:0:0:0:0:
320,192,166874,128,0,167048:0:0:0:0:
192,192,167048,128,0,167223:0:0:0:0:
448,192,167048,128,0,167223:0:0:0:0:
320,192,167223,1,0,0:0:0:0:
64,192,167223,1,0,0:0:0:0:
192,192,167397,1,0,0:0:0:0:
448,192,167746,1,0,0:0:0:0:
192,192,167920,1,0,0:0:0:0:
64,192,167920,1,0,0:0:0:0:
448,192,168269,1,0,0:0:0:0:
320,192,168444,1,0,0:0:0:0:
192,192,168618,1,0,0:0:0:0:
64,192,168618,1,0,0:0:0:0:
320,192,168792,1,0,0:0:0:0:
448,192,168967,128,0,170013:0:0:0:0:
64,192,168967,128,0,170013:0:0:0:0:
320,192,170013,1,0,0:0:0:0:
192,192,170013,1,0,0:0:0:0:
64,192,170362,1,0,0:0:0:0:
448,192,170362,1,0,0:0:0:0:
192,192,170537,128,0,170711:0:0:0:0:
320,192,170537,128,0,170711:0:0:0:0:
448,192,170711,128,0,171060:0:0:0:0:
64,192,170711,128,0,171060:0:0:0:0:
192,192,171060,128,0,171234:0:0:0:0:
320,192,171060,128,0,171234:0:0:0:0:
448,192,171234,128,0,171409:0:0:0:0:
64,192,171234,128,0,171409:0:0:0:0:
320,192,171409,1,0,0:0:0:0:
192,192,171409,1,0,0:0:0:0:
192,192,171758,128,0,172106:0:0:0:0:
320,192,171758,128,0,172106:0:0:0:0:
448,192,172106,128,0,172281:0:0:0:0:
64,192,172106,128,0,172281:0:0:0:0:
320,192,172281,128,0,172455:0:0:0:0:
192,192,172281,128,0,172455:0:0:0:0:
64,192,172455,128,0,172630:0:0:0:0:
448,192,172455,128,0,172630:0:0:0:0:
192,192,172630,128,0,172804:0:0:0:0:
320,192,172630,128,0,172804:0:0:0:0:
448,192,172804,1,0,0:0:0:0:
64,192,172804,1,0,0:0:0:0:
192,192,172979,1,0,0:0:0:0:
320,192,172979,1,0,0:0:0:0:
192,192,173502,128,0,174199:0:0:0:0:
64,192,173502,128,0,174199:0:0:0:0:
320,192,174199,1,0,0:0:0:0:
448,192,174199,1,0,0:0:0:0:
448,192,174548,128,0,175595:0:0:0:0:
320,192,174548,128,0,175595:0:0:0:0:
192,192,175595,1,0,0:0:0:0:
64,192,175595,1,0,0:0:0:0:
320,192,175944,1,0,0:0:0:0:
448,192,175944,1,0,0:0:0:0:
192,192,176118,128,0,176292:0:0:0:0:
64,192,176118,128,0,176292:0:0:0:0:
320,192,176292,128,0,176641:0:0:0:0:
448,192,176292,128,0,176641:0:0:0:0:
192,192,176641,128,0,176816:0:0:0:0:
64,192,176641,128,0,176816:0:0:0:0:
320,192,176816,128,0,176990:0:0:0:0:
448,192,176816,128,0,176990:0:0:0:0:
192,192,176990,1,0,0:0:0:0:
64,192,176990,1,0,0:0:0:0:
192,192,177339,128,0,177688:0:0:0:0:
64,192,177339,128,0,177688:0:0:0:0:
320,192,177688,128,0,177862:0:0:0:0:
448,192,177688,128,0,177862:0:0:0:0:
192,192,177862,128,0,178037:0:0:0:0:
64,192,177862,128,0,178037:0:0:0:0:
320,192,178037,128,0,178211:0:0:0:0:
448,192,178037,128,0,178211:0:0:0:0:
192,192,178211,128,0,178385:0:0:0:0:
64,192,178211,128,0,178385:0:0:0:0:
64,192,178734,1,0,0:0:0:0:
192,192,178778,1,0,0:0:0:0:
320,192,178822,1,0,0:0:0:0:
448,192,178865,1,0,0:0:0:0:
64,192,178909,1,0,0:0:0:0:
192,192,178952,1,0,0:0:0:0:
320,192,178996,1,0,0:0:0:0:
448,192,179040,1,0,0:0:0:0:
192,192,179083,1,0,0:0:0:0:
64,192,179083,1,0,0:0:0:0:
64,192,179432,1,0,0:0:0:0:
64,192,179781,1,0,0:0:0:0:
64,192,180130,1,0,0:0:0:0:
64,192,180479,1,0,0:0:0:0:
64,192,180827,1,0,0:0:0:0:
64,192,181176,1,0,0:0:0:0:
64,192,181525,1,0,0:0:0:0:
448,192,181874,1,0,0:0:0:0:
448,192,182223,1,0,0:0:0:0:
448,192,182572,1,0,0:0:0:0:
448,192,182920,1,0,0:0:0:0:
448,192,183269,1,0,0:0:0:0:
448,192,183618,1,0,0:0:0:0:
448,192,183967,1,0,0:0:0:0:
448,192,184316,1,0,0:0:0:0:
192,192,184665,1,0,0:0:0:0:
192,192,185013,1,0,0:0:0:0:
192,192,185362,1,0,0:0:0:0:
192,192,185711,1,0,0:0:0:0:
192,192,186060,1,0,0:0:0:0:
192,192,186409,1,0,0:0:0:0:
192,192,186758,1,0,0:0:0:0:
192,192,187106,1,0,0:0:0:0:
320,192,187455,1,0,0:0:0:0:
320,192,187804,1,0,0:0:0:0:
320,192,188153,1,0,0:0:0:0:
320,192,188502,1,0,0:0:0:0:
320,192,188851,1,0,0:0:0:0:
320,192,189199,1,0,0:0:0:0:
320,192,189548,1,0,0:0:0:0:
320,192,189897,1,0,0:0:0:0:
192,192,189984,1,0,0:0:0:0:
320,192,190072,1,0,0:0:0:0:
192,192,190159,1,0,0:0:0:0:
448,192,190246,1,0,0:0:0:0:
64,192,190246,1,0,0:0:0:0:
320,192,190246,1,0,0:0:0:0:
320,192,190508,1,0,0:0:0:0:
192,192,190595,1,0,0:0:0:0:
64,192,190595,1,0,0:0:0:0:
320,192,190769,1,0,0:0:0:0:
448,192,190944,1,0,0:0:0:0:
192,192,190944,1,0,0:0:0:0:
320,192,191118,1,0,0:0:0:0:
448,192,191292,1,0,0:0:0:0:
64,192,191292,1,0,0:0:0:0:
192,192,191467,1,0,0:0:0:0:
64,192,191641,1,0,0:0:0:0:
320,192,191641,1,0,0:0:0:0:
448,192,191903,1,0,0:0:0:0:
320,192,191990,1,0,0:0:0:0:
192,192,191990,1,0,0:0:0:0:
64,192,192165,1,0,0:0:0:0:
448,192,192339,1,0,0:0:0:0:
192,192,192339,1,0,0:0:0:0:
320,192,192513,1,0,0:0:0:0:
448,192,192688,1,0,0:0:0:0:
64,192,192688,1,0,0:0:0:0:
320,192,192862,1,0,0:0:0:0:
192,192,192862,1,0,0:0:0:0:
64,192,193037,1,0,0:0:0:0:
192,192,193037,1,0,0:0:0:0:
448,192,193037,1,0,0:0:0:0:
320,192,193298,1,0,0:0:0:0:
192,192,193385,1,0,0:0:0:0:
448,192,193385,1,0,0:0:0:0:
320,192,193560,1,0,0:0:0:0:
448,192,193734,1,0,0:0:0:0:
64,192,193734,1,0,0:0:0:0:
320,192,193909,1,0,0:0:0:0:
64,192,194083,1,0,0:0:0:0:
192,192,194083,1,0,0:0:0:0:
448,192,194258,1,0,0:0:0:0:
192,192,194432,1,0,0:0:0:0:
320,192,194432,1,0,0:0:0:0:
64,192,194694,1,0,0:0:0:0:
192,192,194781,1,0,0:0:0:0:
448,192,194781,1,0,0:0:0:0:
320,192,194955,1,0,0:0:0:0:
448,192,195130,1,0,0:0:0:0:
64,192,195130,1,0,0:0:0:0:
320,192,195304,1,0,0:0:0:0:
64,192,195479,1,0,0:0:0:0:
192,192,195479,1,0,0:0:0:0:
448,192,195653,1,0,0:0:0:0:
320,192,195827,1,0,0:0:0:0:
64,192,195827,1,0,0:0:0:0:
320,192,196002,1,0,0:0:0:0:
192,192,196002,1,0,0:0:0:0:
64,192,196176,1,0,0:0:0:0:
448,192,196176,1,0,0:0:0:0:
64,192,196351,1,0,0:0:0:0:
192,192,196351,1,0,0:0:0:0:
320,192,196525,1,0,0:0:0:0:
192,192,196525,1,0,0:0:0:0:
64,192,196699,1,0,0:0:0:0:
448,192,196699,1,0,0:0:0:0:
192,192,196874,1,0,0:0:0:0:
320,192,196874,1,0,0:0:0:0:
320,192,197048,1,0,0:0:0:0:
448,192,197048,1,0,0:0:0:0:
64,192,197223,1,0,0:0:0:0:
192,192,197223,1,0,0:0:0:0:
448,192,197310,1,0,0:0:0:0:
320,192,197310,1,0,0:0:0:0:
64,192,197397,1,0,0:0:0:0:
192,192,197397,1,0,0:0:0:0:
448,192,197484,1,0,0:0:0:0:
320,192,197484,1,0,0:0:0:0:
64,192,197572,1,0,0:0:0:0:
192,192,197572,1,0,0:0:0:0:
448,192,197659,1,0,0:0:0:0:
320,192,197659,1,0,0:0:0:0:
64,192,197746,1,0,0:0:0:0:
192,192,197746,1,0,0:0:0:0:
448,192,197833,1,0,0:0:0:0:
320,192,197833,1,0,0:0:0:0:
64,192,197920,1,0,0:0:0:0:
192,192,197920,1,0,0:0:0:0:
320,192,198008,1,0,0:0:0:0:
448,192,198008,1,0,0:0:0:0:
64,192,198095,1,0,0:0:0:0:
192,192,198095,1,0,0:0:0:0:
320,192,198182,1,0,0:0:0:0:
448,192,198182,1,0,0:0:0:0:
64,192,198269,1,0,0:0:0:0:
192,192,198269,1,0,0:0:0:0:
320,192,198356,1,0,0:0:0:0:
448,192,198356,1,0,0:0:0:0:
64,192,198444,1,0,0:0:0:0:
192,192,198444,1,0,0:0:0:0:
320,192,198531,1,0,0:0:0:0:
448,192,198531,1,0,0:0:0:0:
64,192,198618,1,0,0:0:0:0:
192,192,198618,1,0,0:0:0:0:
320,192,201409,1,0,0:0:0:0:
448,192,201409,1,0,0:0:0:0:
64,192,201452,1,0,0:0:0:0:
192,192,201496,1,0,0:0:0:0:
448,192,201540,1,0,0:0:0:0:
320,192,201583,1,0,0:0:0:0:
192,192,201627,1,0,0:0:0:0:
64,192,201670,1,0,0:0:0:0:
320,192,201714,1,0,0:0:0:0:
192,192,201758,1,0,0:0:0:0:
448,192,201758,1,0,0:0:0:0:
192,192,201845,1,0,0:0:0:0:
192,192,201932,1,0,0:0:0:0:
192,192,202019,1,0,0:0:0:0:
448,192,202106,1,0,0:0:0:0:
64,192,202106,1,0,0:0:0:0:
64,192,202281,1,0,0:0:0:0:
192,192,202368,1,0,0:0:0:0:
320,192,202368,1,0,0:0:0:0:
448,192,202455,1,0,0:0:0:0:
64,192,202455,1,0,0:0:0:0:
320,192,202630,1,0,0:0:0:0:
64,192,202630,1,0,0:0:0:0:
192,192,202804,1,0,0:0:0:0:
448,192,202804,1,0,0:0:0:0:
448,192,202979,1,0,0:0:0:0:
64,192,203153,1,0,0:0:0:0:
448,192,203153,1,0,0:0:0:0:
192,192,203502,1,0,0:0:0:0:
448,192,203502,1,0,0:0:0:0:
320,192,203851,1,0,0:0:0:0:
320,192,203938,1,0,0:0:0:0:
320,192,204025,1,0,0:0:0:0:
320,192,204112,1,0,0:0:0:0:
192,192,204199,1,0,0:0:0:0:
64,192,204199,1,0,0:0:0:0:
320,192,204243,1,0,0:0:0:0:
448,192,204287,1,0,0:0:0:0:
64,192,204330,1,0,0:0:0:0:
192,192,204374,1,0,0:0:0:0:
320,192,204417,1,0,0:0:0:0:
448,192,204461,1,0,0:0:0:0:
192,192,204505,1,0,0:0:0:0:
64,192,204548,1,0,0:0:0:0:
448,192,204592,1,0,0:0:0:0:
320,192,204635,1,0,0:0:0:0:
192,192,204679,1,0,0:0:0:0:
64,192,204723,1,0,0:0:0:0:
64,192,204810,1,0,0:0:0:0:
320,192,204897,1,0,0:0:0:0:
192,192,204897,1,0,0:0:0:0:
448,192,204984,1,0,0:0:0:0:
448,192,205072,1,0,0:0:0:0:
192,192,205159,1,0,0:0:0:0:
320,192,205159,1,0,0:0:0:0:
448,192,205246,1,0,0:0:0:0:
64,192,205246,1,0,0:0:0:0:
448,192,205420,1,0,0:0:0:0:
192,192,205420,1,0,0:0:0:0:
64,192,205595,1,0,0:0:0:0:
320,192,205595,1,0,0:0:0:0:
320,192,205769,1,0,0:0:0:0:
192,192,205944,1,0,0:0:0:0:
64,192,205944,1,0,0:0:0:0:
64,192,206118,1,0,0:0:0:0:
320,192,206292,1,0,0:0:0:0:
448,192,206292,1,0,0:0:0:0:
192,192,206990,1,0,0:0:0:0:
64,192,206990,1,0,0:0:0:0:
320,192,207034,1,0,0:0:0:0:
448,192,207077,1,0,0:0:0:0:
64,192,207121,1,0,0:0:0:0:
192,192,207165,1,0,0:0:0:0:
320,192,207208,1,0,0:0:0:0:
448,192,207252,1,0,0:0:0:0:
64,192,207295,1,0,0:0:0:0:
320,192,207339,1,0,0:0:0:0:
192,192,207339,1,0,0:0:0:0:
320,192,207426,1,0,0:0:0:0:
320,192,207513,1,0,0:0:0:0:
320,192,207601,1,0,0:0:0:0:
192,192,207688,1,0,0:0:0:0:
64,192,207688,1,0,0:0:0:0:
64,192,207862,1,0,0:0:0:0:
448,192,207949,1,0,0:0:0:0:
192,192,207949,1,0,0:0:0:0:
64,192,208037,1,0,0:0:0:0:
320,192,208037,1,0,0:0:0:0:
64,192,208211,1,0,0:0:0:0:
448,192,208211,1,0,0:0:0:0:
320,192,208385,1,0,0:0:0:0:
192,192,208385,1,0,0:0:0:0:
192,192,208560,1,0,0:0:0:0:
64,192,208734,1,0,0:0:0:0:
320,192,208734,1,0,0:0:0:0:
192,192,209083,1,0,0:0:0:0:
448,192,209083,1,0,0:0:0:0:
64,192,209432,1,0,0:0:0:0:
320,192,209432,1,0,0:0:0:0:
192,192,209606,1,0,0:0:0:0:
448,192,209781,1,0,0:0:0:0:
320,192,209824,1,0,0:0:0:0:
192,192,209868,1,0,0:0:0:0:
64,192,209912,1,0,0:0:0:0:
448,192,209955,1,0,0:0:0:0:
320,192,209999,1,0,0:0:0:0:
192,192,210042,1,0,0:0:0:0:
64,192,210086,1,0,0:0:0:0:
448,192,210130,1,0,0:0:0:0:
320,192,210151,1,0,0:0:0:0:
192,192,210173,1,0,0:0:0:0:
64,192,210195,1,0,0:0:0:0:
64,192,210304,1,0,0:0:0:0:
192,192,210326,1,0,0:0:0:0:
320,192,210348,1,0,0:0:0:0:
448,192,210369,1,0,0:0:0:0:
64,192,210479,1,0,0:0:0:0:
320,192,210500,1,0,0:0:0:0:
192,192,210522,1,0,0:0:0:0:
448,192,210544,1,0,0:0:0:0:
448,192,210653,1,0,0:0:0:0:
320,192,210675,1,0,0:0:0:0:
192,192,210697,1,0,0:0:0:0:
64,192,210718,1,0,0:0:0:0:
64,192,210827,1,0,0:0:0:0:
192,192,210849,1,0,0:0:0:0:
320,192,210871,1,0,0:0:0:0:
448,192,210893,1,0,0:0:0:0:
64,192,210915,1,0,0:0:0:0:
192,192,210936,1,0,0:0:0:0:
320,192,210958,1,0,0:0:0:0:
448,192,210980,1,0,0:0:0:0:
64,192,211002,1,0,0:0:0:0:
192,192,211024,1,0,0:0:0:0:
320,192,211045,1,0,0:0:0:0:
448,192,211067,1,0,0:0:0:0:
64,192,211089,1,0,0:0:0:0:
192,192,211111,1,0,0:0:0:0:
320,192,211133,1,0,0:0:0:0:
448,192,211154,1,0,0:0:0:0:
64,192,211176,1,0,0:0:0:0:
192,192,211176,1,0,0:0:0:0:
320,192,211351,1,0,0:0:0:0:
448,192,211438,1,0,0:0:0:0:
64,192,211525,1,0,0:0:0:0:
64,192,211612,1,0,0:0:0:0:
64,192,211699,1,0,0:0:0:0:
64,192,211787,1,0,0:0:0:0:
64,192,211874,1,0,0:0:0:0:
320,192,212135,1,0,0:0:0:0:
192,192,212572,1,0,0:0:0:0:
64,192,212572,1,0,0:0:0:0:
320,192,212615,1,0,0:0:0:0:
448,192,212659,1,0,0:0:0:0:
64,192,212702,1,0,0:0:0:0:
192,192,212746,1,0,0:0:0:0:
448,192,212790,1,0,0:0:0:0:
320,192,212833,1,0,0:0:0:0:
192,192,212877,1,0,0:0:0:0:
448,192,212920,1,0,0:0:0:0:
64,192,212920,1,0,0:0:0:0:
448,192,213008,1,0,0:0:0:0:
448,192,213095,1,0,0:0:0:0:
448,192,213182,1,0,0:0:0:0:
64,192,213269,1,0,0:0:0:0:
192,192,213269,1,0,0:0:0:0:
192,192,213444,1,0,0:0:0:0:
64,192,213531,1,0,0:0:0:0:
320,192,213531,1,0,0:0:0:0:
192,192,213618,1,0,0:0:0:0:
448,192,213618,1,0,0:0:0:0:
192,192,213792,1,0,0:0:0:0:
448,192,213792,1,0,0:0:0:0:
320,192,213967,1,0,0:0:0:0:
64,192,213967,1,0,0:0:0:0:
64,192,214141,1,0,0:0:0:0:
448,192,214316,1,0,0:0:0:0:
320,192,214316,1,0,0:0:0:0:
64,192,214665,1,0,0:0:0:0:
320,192,214665,1,0,0:0:0:0:
192,192,215013,1,0,0:0:0:0:
192,192,215101,1,0,0:0:0:0:
192,192,215188,1,0,0:0:0:0:
192,192,215275,1,0,0:0:0:0:
192,192,215362,1,0,0:0:0:0:
320,192,215406,1,0,0:0:0:0:
448,192,215449,1,0,0:0:0:0:
320,192,215493,1,0,0:0:0:0:
192,192,215537,1,0,0:0:0:0:
64,192,215580,1,0,0:0:0:0:
192,192,215624,1,0,0:0:0:0:
320,192,215667,1,0,0:0:0:0:
448,192,215711,1,0,0:0:0:0:
320,192,215755,1,0,0:0:0:0:
192,192,215798,1,0,0:0:0:0:
64,192,215842,1,0,0:0:0:0:
448,192,215885,1,0,0:0:0:0:
448,192,215973,1,0,0:0:0:0:
192,192,216060,1,0,0:0:0:0:
320,192,216060,1,0,0:0:0:0:
64,192,216147,1,0,0:0:0:0:
64,192,216234,1,0,0:0:0:0:
448,192,216322,1,0,0:0:0:0:
320,192,216322,1,0,0:0:0:0:
64,192,216409,1,0,0:0:0:0:
192,192,216409,1,0,0:0:0:0:
192,192,216583,1,0,0:0:0:0:
320,192,216583,1,0,0:0:0:0:
448,192,216758,1,0,0:0:0:0:
320,192,216758,1,0,0:0:0:0:
448,192,216932,1,0,0:0:0:0:
320,192,217106,1,0,0:0:0:0:
192,192,217106,1,0,0:0:0:0:
64,192,217281,1,0,0:0:0:0:
448,192,217455,1,0,0:0:0:0:
320,192,217455,1,0,0:0:0:0:
320,192,218153,1,0,0:0:0:0:
448,192,218153,1,0,0:0:0:0:
64,192,218197,1,0,0:0:0:0:
192,192,218240,1,0,0:0:0:0:
320,192,218284,1,0,0:0:0:0:
448,192,218327,1,0,0:0:0:0:
192,192,218371,1,0,0:0:0:0:
64,192,218415,1,0,0:0:0:0:
448,192,218458,1,0,0:0:0:0:
192,192,218502,1,0,0:0:0:0:
320,192,218502,1,0,0:0:0:0:
192,192,218589,1,0,0:0:0:0:
448,192,218676,1,0,0:0:0:0:
320,192,218676,1,0,0:0:0:0:
320,192,218763,1,0,0:0:0:0:
64,192,218851,1,0,0:0:0:0:
192,192,218851,1,0,0:0:0:0:
448,192,219025,1,0,0:0:0:0:
64,192,219112,1,0,0:0:0:0:
192,192,219112,1,0,0:0:0:0:
448,192,219199,1,0,0:0:0:0:
320,192,219199,1,0,0:0:0:0:
320,192,219374,1,0,0:0:0:0:
448,192,219548,1,0,0:0:0:0:
64,192,219548,1,0,0:0:0:0:
64,192,219723,1,0,0:0:0:0:
448,192,219810,1,0,0:0:0:0:
320,192,219810,1,0,0:0:0:0:
64,192,219897,1,0,0:0:0:0:
192,192,219897,1,0,0:0:0:0:
320,192,220072,1,0,0:0:0:0:
448,192,220072,1,0,0:0:0:0:
192,192,220246,1,0,0:0:0:0:
320,192,220246,1,0,0:0:0:0:
448,192,220508,1,0,0:0:0:0:
64,192,220508,1,0,0:0:0:0:
192,192,220595,1,0,0:0:0:0:
320,192,220595,1,0,0:0:0:0:
448,192,220769,1,0,0:0:0:0:
64,192,220944,1,0,0:0:0:0:
64,192,221176,1,0,0:0:0:0:
64,192,221409,1,0,0:0:0:0:
64,192,221641,1,0,0:0:0:0:
64,192,221874,1,0,0:0:0:0:
64,192,222106,1,0,0:0:0:0:
64,192,222339,1,0,0:0:0:0:
192,192,222368,1,0,0:0:0:0:
320,192,222397,1,0,0:0:0:0:
448,192,222426,1,0,0:0:0:0:
64,192,222455,1,0,0:0:0:0:
192,192,222484,1,0,0:0:0:0:
320,192,222513,1,0,0:0:0:0:
448,192,222542,1,0,0:0:0:0:
64,192,222601,1,0,0:0:0:0:
192,192,222688,1,0,0:0:0:0:
320,192,222920,1,0,0:0:0:0:
448,192,223037,1,0,0:0:0:0:
64,192,223153,1,0,0:0:0:0:
192,192,223269,1,0,0:0:0:0:
320,192,223385,1,0,0:0:0:0:
448,192,223502,1,0,0:0:0:0:
192,192,223618,1,0,0:0:0:0:
64,192,223734,1,0,0:0:0:0:
448,192,223734,1,0,0:0:0:0:
320,192,223778,1,0,0:0:0:0:
192,192,223822,1,0,0:0:0:0:
448,192,223865,1,0,0:0:0:0:
64,192,223909,1,0,0:0:0:0:
192,192,223952,1,0,0:0:0:0:
320,192,223996,1,0,0:0:0:0:
64,192,224040,1,0,0:0:0:0:
448,192,224083,128,0,224170:0:0:0:0:
448,192,224432,1,0,0:0:0:0:
320,192,224432,1,0,0:0:0:0:
64,192,224432,128,0,224519:0:0:0:0:
192,192,224606,128,0,224694:0:0:0:0:
64,192,224781,1,0,0:0:0:0:
448,192,224781,128,0,224868:0:0:0:0:
320,192,225130,1,0,0:0:0:0:
320,192,225217,1,0,0:0:0:0:
64,192,225304,1,0,0:0:0:0:
320,192,225304,1,0,0:0:0:0:
192,192,225479,1,0,0:0:0:0:
448,192,225479,128,0,225566:0:0:0:0:
192,192,225653,128,0,225740:0:0:0:0:
448,192,225827,1,0,0:0:0:0:
64,192,225827,1,0,0:0:0:0:
320,192,225827,128,0,225915:0:0:0:0:
64,192,226002,128,0,226089:0:0:0:0:
448,192,226176,128,0,226263:0:0:0:0:
192,192,226351,1,0,0:0:0:0:
320,192,226351,1,0,0:0:0:0:
448,192,226525,1,0,0:0:0:0:
64,192,226525,1,0,0:0:0:0:
64,192,226612,1,0,0:0:0:0:
64,192,226699,1,0,0:0:0:0:
64,192,226787,1,0,0:0:0:0:
448,192,226874,128,0,226961:0:0:0:0:
320,192,227048,128,0,227135:0:0:0:0:
448,192,227223,1,0,0:0:0:0:
192,192,227223,1,0,0:0:0:0:
64,192,227223,128,0,227310:0:0:0:0:
320,192,227397,1,0,0:0:0:0:
192,192,227397,128,0,227484:0:0:0:0:
448,192,227572,128,0,227659:0:0:0:0:
192,192,227746,1,0,0:0:0:0:
64,192,227746,1,0,0:0:0:0:
448,192,227920,1,0,0:0:0:0:
320,192,227949,1,0,0:0:0:0:
192,192,227979,1,0,0:0:0:0:
64,192,228008,1,0,0:0:0:0:
64,192,228095,1,0,0:0:0:0:
192,192,228124,1,0,0:0:0:0:
320,192,228153,1,0,0:0:0:0:
448,192,228182,1,0,0:0:0:0:
448,192,228269,1,0,0:0:0:0:
320,192,228298,1,0,0:0:0:0:
192,192,228327,1,0,0:0:0:0:
64,192,228356,1,0,0:0:0:0:
448,192,228385,1,0,0:0:0:0:
320,192,228415,1,0,0:0:0:0:
192,192,228444,1,0,0:0:0:0:
64,192,228473,1,0,0:0:0:0:
448,192,228502,1,0,0:0:0:0:
320,192,228531,1,0,0:0:0:0:
192,192,228560,1,0,0:0:0:0:
64,192,228589,1,0,0:0:0:0:
448,192,228618,1,0,0:0:0:0:
320,192,228618,1,0,0:0:0:0:
192,192,228618,1,0,0:0:0:0:
64,192,228880,1,0,0:0:0:0:
192,192,228909,1,0,0:0:0:0:
320,192,228938,1,0,0:0:0:0:
448,192,228967,1,0,0:0:0:0:
64,192,228996,1,0,0:0:0:0:
192,192,229025,1,0,0:0:0:0:
320,192,229054,1,0,0:0:0:0:
448,192,229083,1,0,0:0:0:0:
64,192,229141,1,0,0:0:0:0:
192,192,229170,1,0,0:0:0:0:
320,192,229199,1,0,0:0:0:0:
448,192,229229,1,0,0:0:0:0:
64,192,229316,1,0,0:0:0:0:
192,192,229338,1,0,0:0:0:0:
320,192,229359,1,0,0:0:0:0:
448,192,229381,1,0,0:0:0:0:
64,192,229403,1,0,0:0:0:0:
192,192,229425,1,0,0:0:0:0:
320,192,229447,1,0,0:0:0:0:
448,192,229468,1,0,0:0:0:0:
64,192,229490,1,0,0:0:0:0:
192,192,229512,1,0,0:0:0:0:
320,192,229534,1,0,0:0:0:0:
448,192,229556,1,0,0:0:0:0:
448,192,229665,1,0,0:0:0:0:
320,192,229694,1,0,0:0:0:0:
192,192,229723,1,0,0:0:0:0:
64,192,229752,1,0,0:0:0:0:
64,192,229839,1,0,0:0:0:0:
192,192,229868,1,0,0:0:0:0:
320,192,229897,1,0,0:0:0:0:
448,192,229926,1,0,0:0:0:0:
192,192,230013,1,0,0:0:0:0:
320,192,230013,1,0,0:0:0:0:
64,192,230013,128,0,230362:0:0:0:0:
448,192,230362,1,0,0:0:0:0:
192,192,230362,128,0,230711:0:0:0:0:
448,192,230711,1,0,0:0:0:0:
448,192,230798,1,0,0:0:0:0:
448,192,230885,1,0,0:0:0:0:
192,192,231060,1,0,0:0:0:0:
320,192,231060,128,0,231147:0:0:0:0:
64,192,231234,128,0,231322:0:0:0:0:
320,192,231409,1,0,0:0:0:0:
192,192,231409,1,0,0:0:0:0:
448,192,231409,128,0,231496:0:0:0:0:
192,192,231583,128,0,231670:0:0:0:0:
320,192,231758,128,0,231845:0:0:0:0:
448,192,231932,1,0,0:0:0:0:
192,192,231932,1,0,0:0:0:0:
320,192,232106,1,0,0:0:0:0:
64,192,232106,1,0,0:0:0:0:
64,192,232194,1,0,0:0:0:0:
64,192,232281,1,0,0:0:0:0:
64,192,232368,1,0,0:0:0:0:
320,192,232455,128,0,232542:0:0:0:0:
448,192,232630,128,0,232717:0:0:0:0:
320,192,232804,1,0,0:0:0:0:
192,192,232804,1,0,0:0:0:0:
64,192,232804,128,0,232891:0:0:0:0:
448,192,232979,1,0,0:0:0:0:
320,192,232979,128,0,233066:0:0:0:0:
64,192,233153,1,0,0:0:0:0:
192,192,233153,128,0,233240:0:0:0:0:
64,192,233502,1,0,0:0:0:0:
192,192,233676,1,0,0:0:0:0:
320,192,233763,1,0,0:0:0:0:
448,192,233851,1,0,0:0:0:0:
448,192,233938,1,0,0:0:0:0:
448,192,234025,1,0,0:0:0:0:
448,192,234112,1,0,0:0:0:0:
448,192,234199,1,0,0:0:0:0:
192,192,234461,1,0,0:0:0:0:
320,192,234897,1,0,0:0:0:0:
448,192,234897,1,0,0:0:0:0:
192,192,234941,1,0,0:0:0:0:
64,192,234984,1,0,0:0:0:0:
448,192,235028,1,0,0:0:0:0:
320,192,235072,1,0,0:0:0:0:
64,192,235115,1,0,0:0:0:0:
192,192,235159,1,0,0:0:0:0:
320,192,235202,1,0,0:0:0:0:
448,192,235246,1,0,0:0:0:0:
448,192,235333,1,0,0:0:0:0:
448,192,235420,1,0,0:0:0:0:
448,192,235508,1,0,0:0:0:0:
64,192,235595,1,0,0:0:0:0:
192,192,235595,1,0,0:0:0:0:
320,192,235595,1,0,0:0:0:0:
64,192,235682,1,0,0:0:0:0:
64,192,235769,1,0,0:0:0:0:
64,192,235856,1,0,0:0:0:0:
192,192,235944,1,0,0:0:0:0:
448,192,235944,1,0,0:0:0:0:
320,192,236031,1,0,0:0:0:0:
320,192,236118,1,0,0:0:0:0:
320,192,236205,1,0,0:0:0:0:
64,192,236292,1,0,0:0:0:0:
448,192,236467,1,0,0:0:0:0:
192,192,236467,1,0,0:0:0:0:
448,192,236554,1,0,0:0:0:0:
64,192,236641,1,0,0:0:0:0:
192,192,236641,1,0,0:0:0:0:
320,192,236816,1,0,0:0:0:0:
320,192,236903,1,0,0:0:0:0:
64,192,236990,128,0,237077:0:0:0:0:
448,192,236990,1,0,0:0:0:0:
192,192,236990,1,0,0:0:0:0:
64,192,237165,128,0,237252:0:0:0:0:
64,192,237339,128,0,237426:0:0:0:0:
448,192,237513,1,0,0:0:0:0:
320,192,237513,1,0,0:0:0:0:
64,192,237688,128,0,237775:0:0:0:0:
192,192,237688,1,0,0:0:0:0:
448,192,238037,128,0,238124:0:0:0:0:
64,192,238211,128,0,238298:0:0:0:0:
192,192,238385,1,0,0:0:0:0:
448,192,238385,1,0,0:0:0:0:
320,192,238385,128,0,238473:0:0:0:0:
64,192,238560,1,0,0:0:0:0:
192,192,238560,128,0,238647:0:0:0:0:
448,192,238734,128,0,238822:0:0:0:0:
192,192,238909,1,0,0:0:0:0:
64,192,238909,1,0,0:0:0:0:
448,192,239083,1,0,0:0:0:0:
320,192,239083,1,0,0:0:0:0:
448,192,239170,1,0,0:0:0:0:
448,192,239258,128,0,239345:0:0:0:0:
320,192,239432,128,0,239519:0:0:0:0:
192,192,239606,128,0,239694:0:0:0:0:
448,192,239781,1,0,0:0:0:0:
320,192,239781,1,0,0:0:0:0:
64,192,239781,128,0,239868:0:0:0:0:
320,192,239955,1,0,0:0:0:0:
192,192,239955,128,0,240042:0:0:0:0:
320,192,240130,128,0,240217:0:0:0:0:
192,192,240304,1,0,0:0:0:0:
64,192,240304,1,0,0:0:0:0:
448,192,240391,1,0,0:0:0:0:
320,192,240391,1,0,0:0:0:0:
64,192,240479,1,0,0:0:0:0:
192,192,240508,1,0,0:0:0:0:
320,192,240537,1,0,0:0:0:0:
448,192,240566,1,0,0:0:0:0:
64,192,240595,1,0,0:0:0:0:
192,192,240624,1,0,0:0:0:0:
320,192,240653,1,0,0:0:0:0:
448,192,240682,1,0,0:0:0:0:
448,192,240827,1,0,0:0:0:0:
320,192,240856,1,0,0:0:0:0:
192,192,240885,1,0,0:0:0:0:
64,192,240915,1,0,0:0:0:0:
64,192,241002,1,0,0:0:0:0:
192,192,241031,1,0,0:0:0:0:
320,192,241060,1,0,0:0:0:0:
448,192,241089,1,0,0:0:0:0:
64,192,241176,128,0,241351:0:0:0:0:
192,192,241176,1,0,0:0:0:0:
320,192,241176,1,0,0:0:0:0:
64,192,241438,1,0,0:0:0:0:
192,192,241438,1,0,0:0:0:0:
320,192,241525,1,0,0:0:0:0:
448,192,241525,128,0,241612:0:0:0:0:
320,192,241699,128,0,241787:0:0:0:0:
64,192,241874,1,0,0:0:0:0:
64,192,241961,1,0,0:0:0:0:
64,192,242048,1,0,0:0:0:0:
64,192,242135,1,0,0:0:0:0:
320,192,242223,1,0,0:0:0:0:
192,192,242223,1,0,0:0:0:0:
448,192,242310,1,0,0:0:0:0:
448,192,242397,1,0,0:0:0:0:
448,192,242484,1,0,0:0:0:0:
64,192,242572,128,0,242659:0:0:0:0:
192,192,242572,1,0,0:0:0:0:
320,192,242572,1,0,0:0:0:0:
64,192,242746,128,0,242833:0:0:0:0:
448,192,242920,128,0,243008:0:0:0:0:
320,192,243095,1,0,0:0:0:0:
192,192,243095,1,0,0:0:0:0:
448,192,243269,1,0,0:0:0:0:
64,192,243269,128,0,243356:0:0:0:0:
448,192,243618,128,0,243705:0:0:0:0:
192,192,243792,1,0,0:0:0:0:
64,192,243792,128,0,243880:0:0:0:0:
448,192,243967,1,0,0:0:0:0:
192,192,243967,1,0,0:0:0:0:
320,192,243967,128,0,244054:0:0:0:0:
192,192,244141,128,0,244229:0:0:0:0:
320,192,244316,1,0,0:0:0:0:
448,192,244316,128,0,244403:0:0:0:0:
320,192,244665,1,0,0:0:0:0:
64,192,244665,1,0,0:0:0:0:
192,192,244839,1,0,0:0:0:0:
320,192,244926,1,0,0:0:0:0:
448,192,245013,1,0,0:0:0:0:
64,192,245013,1,0,0:0:0:0:
448,192,245101,1,0,0:0:0:0:
448,192,245188,1,0,0:0:0:0:
448,192,245275,1,0,0:0:0:0:
448,192,245362,1,0,0:0:0:0:
192,192,245362,1,0,0:0:0:0:
192,192,245537,1,0,0:0:0:0:
320,192,245537,1,0,0:0:0:0:
64,192,246060,5,0,0:0:0:0:
320,192,246060,1,0,0:0:0:0:
448,192,246060,1,0,0:0:0:0:
192,192,246234,1,0,0:0:0:0:
320,192,246409,1,0,0:0:0:0:
192,192,246409,1,0,0:0:0:0:
64,192,246409,1,0,0:0:0:0:
448,192,246583,1,0,0:0:0:0:
448,192,246758,1,0,0:0:0:0:
320,192,246758,1,0,0:0:0:0:
192,192,246758,1,0,0:0:0:0:
64,192,246932,1,0,0:0:0:0:
192,192,247106,1,0,0:0:0:0:
64,192,247106,1,0,0:0:0:0:
448,192,247106,1,0,0:0:0:0:
320,192,247281,1,0,0:0:0:0:
448,192,247455,1,0,0:0:0:0:
320,192,247455,1,0,0:0:0:0:
64,192,247455,1,0,0:0:0:0:
448,192,247717,1,0,0:0:0:0:
320,192,247804,1,0,0:0:0:0:
192,192,247804,1,0,0:0:0:0:
64,192,247804,1,0,0:0:0:0:
320,192,247979,1,0,0:0:0:0:
192,192,248153,1,0,0:0:0:0:
448,192,248153,1,0,0:0:0:0:
64,192,248153,1,0,0:0:0:0:
64,192,248415,1,0,0:0:0:0:
448,192,248502,1,0,0:0:0:0:
192,192,248502,1,0,0:0:0:0:
320,192,248502,1,0,0:0:0:0:
320,192,248676,1,0,0:0:0:0:
192,192,248763,1,0,0:0:0:0:
448,192,248851,1,0,0:0:0:0:
320,192,248851,1,0,0:0:0:0:
64,192,248851,1,0,0:0:0:0:
448,192,249025,1,0,0:0:0:0:
320,192,249199,1,0,0:0:0:0:
192,192,249199,1,0,0:0:0:0:
64,192,249199,1,0,0:0:0:0:
64,192,249374,1,0,0:0:0:0:
448,192,249548,1,0,0:0:0:0:
320,192,249548,1,0,0:0:0:0:
192,192,249548,1,0,0:0:0:0:
192,192,249723,1,0,0:0:0:0:
448,192,249897,1,0,0:0:0:0:
320,192,249897,1,0,0:0:0:0:
64,192,249897,1,0,0:0:0:0:
320,192,250072,1,0,0:0:0:0:
448,192,250246,1,0,0:0:0:0:
192,192,250246,1,0,0:0:0:0:
64,192,250246,1,0,0:0:0:0:
320,192,250420,1,0,0:0:0:0:
448,192,250508,1,0,0:0:0:0:
320,192,250595,1,0,0:0:0:0:
192,192,250595,1,0,0:0:0:0:
64,192,250595,1,0,0:0:0:0:
192,192,250769,1,0,0:0:0:0:
448,192,250944,1,0,0:0:0:0:
320,192,250944,1,0,0:0:0:0:
64,192,250944,1,0,0:0:0:0:
320,192,251205,1,0,0:0:0:0:
448,192,251292,1,0,0:0:0:0:
192,192,251292,1,0,0:0:0:0:
64,192,251292,1,0,0:0:0:0:
448,192,251641,1,0,0:0:0:0:
192,192,251641,1,0,0:0:0:0:
320,192,251641,1,0,0:0:0:0:
448,192,251816,1,0,0:0:0:0:
320,192,251990,1,0,0:0:0:0:
64,192,251990,1,0,0:0:0:0:
192,192,251990,1,0,0:0:0:0:
320,192,252165,1,0,0:0:0:0:
448,192,252339,1,0,0:0:0:0:
192,192,252339,1,0,0:0:0:0:
64,192,252339,1,0,0:0:0:0:
192,192,252513,1,0,0:0:0:0:
320,192,252688,1,0,0:0:0:0:
448,192,252688,1,0,0:0:0:0:
64,192,252688,1,0,0:0:0:0:
64,192,252862,1,0,0:0:0:0:
448,192,253037,1,0,0:0:0:0:
320,192,253037,1,0,0:0:0:0:
192,192,253037,1,0,0:0:0:0:
320,192,253298,1,0,0:0:0:0:
448,192,253385,1,0,0:0:0:0:
192,192,253385,1,0,0:0:0:0:
64,192,253385,1,0,0:0:0:0:
192,192,253560,1,0,0:0:0:0:
320,192,253734,1,0,0:0:0:0:
64,192,253734,1,0,0:0:0:0:
448,192,253734,1,0,0:0:0:0:
448,192,253996,1,0,0:0:0:0:
320,192,254083,1,0,0:0:0:0:
64,192,254083,1,0,0:0:0:0:
192,192,254083,1,0,0:0:0:0:
192,192,254258,1,0,0:0:0:0:
64,192,254345,1,0,0:0:0:0:
448,192,254432,1,0,0:0:0:0:
320,192,254432,1,0,0:0:0:0:
192,192,254432,1,0,0:0:0:0:
192,192,254694,1,0,0:0:0:0:
448,192,254781,1,0,0:0:0:0:
320,192,254781,1,0,0:0:0:0:
64,192,254781,1,0,0:0:0:0:
448,192,254955,1,0,0:0:0:0:
320,192,255130,1,0,0:0:0:0:
192,192,255130,1,0,0:0:0:0:
64,192,255130,1,0,0:0:0:0:
448,192,255304,1,0,0:0:0:0:
320,192,255391,1,0,0:0:0:0:
448,192,255479,1,0,0:0:0:0:
192,192,255479,1,0,0:0:0:0:
64,192,255479,1,0,0:0:0:0:
64,192,255740,1,0,0:0:0:0:
320,192,255827,1,0,0:0:0:0:
192,192,255827,1,0,0:0:0:0:
448,192,255827,1,0,0:0:0:0:
320,192,256002,1,0,0:0:0:0:
192,192,256089,1,0,0:0:0:0:
448,192,256176,1,0,0:0:0:0:
320,192,256176,1,0,0:0:0:0:
64,192,256176,1,0,0:0:0:0:
448,192,256351,1,0,0:0:0:0:
320,192,256525,1,0,0:0:0:0:
192,192,256525,1,0,0:0:0:0:
64,192,256525,1,0,0:0:0:0:
320,192,256787,1,0,0:0:0:0:
192,192,257223,1,0,0:0:0:0:
320,192,257223,1,0,0:0:0:0:
448,192,257223,1,0,0:0:0:0:
320,192,257484,1,0,0:0:0:0:
448,192,257572,1,0,0:0:0:0:
192,192,257572,1,0,0:0:0:0:
64,192,257572,1,0,0:0:0:0:
320,192,257746,1,0,0:0:0:0:
448,192,257920,1,0,0:0:0:0:
320,192,257920,1,0,0:0:0:0:
64,192,257920,1,0,0:0:0:0:
192,192,258095,1,0,0:0:0:0:
320,192,258269,1,0,0:0:0:0:
192,192,258269,1,0,0:0:0:0:
448,192,258269,1,0,0:0:0:0:
320,192,258618,1,0,0:0:0:0:
192,192,258618,1,0,0:0:0:0:
64,192,258618,1,0,0:0:0:0:
320,192,258792,1,0,0:0:0:0:
192,192,258880,1,0,0:0:0:0:
448,192,258967,1,0,0:0:0:0:
320,192,258967,1,0,0:0:0:0:
64,192,258967,1,0,0:0:0:0:
448,192,259141,1,0,0:0:0:0:
320,192,259316,1,0,0:0:0:0:
192,192,259316,1,0,0:0:0:0:
64,192,259316,1,0,0:0:0:0:
64,192,259490,1,0,0:0:0:0:
448,192,259665,1,0,0:0:0:0:
320,192,259665,1,0,0:0:0:0:
192,192,259665,1,0,0:0:0:0:
448,192,259839,1,0,0:0:0:0:
320,192,259883,1,0,0:0:0:0:
192,192,259926,1,0,0:0:0:0:
64,192,259970,1,0,0:0:0:0:
448,192,260013,1,0,0:0:0:0:
320,192,260013,1,0,0:0:0:0:
192,192,260013,1,0,0:0:0:0:
448,192,260275,1,0,0:0:0:0:
320,192,260362,1,0,0:0:0:0:
192,192,260362,1,0,0:0:0:0:
64,192,260362,1,0,0:0:0:0:
320,192,260537,1,0,0:0:0:0:
448,192,260711,1,0,0:0:0:0:
192,192,260711,1,0,0:0:0:0:
64,192,260711,1,0,0:0:0:0:
64,192,260885,1,0,0:0:0:0:
448,192,261060,1,0,0:0:0:0:
320,192,261060,1,0,0:0:0:0:
192,192,261060,1,0,0:0:0:0:
448,192,261409,1,0,0:0:0:0:
192,192,261409,1,0,0:0:0:0:
64,192,261409,1,0,0:0:0:0:
320,192,261583,1,0,0:0:0:0:
192,192,261670,1,0,0:0:0:0:
448,192,261758,1,0,0:0:0:0:
320,192,261758,1,0,0:0:0:0:
64,192,261758,1,0,0:0:0:0:
448,192,261932,1,0,0:0:0:0:
320,192,262106,1,0,0:0:0:0:
192,192,262106,1,0,0:0:0:0:
64,192,262106,1,0,0:0:0:0:
448,192,262150,1,0,0:0:0:0:
320,192,262194,1,0,0:0:0:0:
192,192,262237,1,0,0:0:0:0:
64,192,262281,1,0,0:0:0:0:
320,192,262368,1,0,0:0:0:0:
64,192,262455,1,0,0:0:0:0:
448,192,262455,1,0,0:0:0:0:
192,192,262455,1,0,0:0:0:0:
320,192,262572,1,0,0:0:0:0:
448,192,262688,1,0,0:0:0:0:
192,192,262804,1,0,0:0:0:0:
64,192,262804,1,0,0:0:0:0:
320,192,262804,1,0,0:0:0:0:
448,192,263066,1,0,0:0:0:0:
320,192,263153,1,0,0:0:0:0:
192,192,263153,1,0,0:0:0:0:
64,192,263153,1,0,0:0:0:0:
64,192,263327,1,0,0:0:0:0:
448,192,263502,1,0,0:0:0:0:
320,192,263502,1,0,0:0:0:0:
192,192,263502,1,0,0:0:0:0:
320,192,263676,1,0,0:0:0:0:
448,192,263851,1,0,0:0:0:0:
192,192,263851,1,0,0:0:0:0:
64,192,263851,1,0,0:0:0:0:
448,192,264199,1,0,0:0:0:0:
320,192,264199,1,0,0:0:0:0:
64,192,264199,1,0,0:0:0:0:
192,192,264374,1,0,0:0:0:0:
64,192,264461,1,0,0:0:0:0:
448,192,264548,1,0,0:0:0:0:
320,192,264548,1,0,0:0:0:0:
192,192,264548,1,0,0:0:0:0:
448,192,264723,1,0,0:0:0:0:
320,192,264897,1,0,0:0:0:0:
192,192,264897,1,0,0:0:0:0:
64,192,264897,1,0,0:0:0:0:
448,192,264984,1,0,0:0:0:0:
320,192,265072,1,0,0:0:0:0:
448,192,265246,1,0,0:0:0:0:
192,192,265246,1,0,0:0:0:0:
64,192,265246,1,0,0:0:0:0:
320,192,265290,1,0,0:0:0:0:
192,192,265333,1,0,0:0:0:0:
448,192,265420,1,0,0:0:0:0:
320,192,265464,1,0,0:0:0:0:
192,192,265508,1,0,0:0:0:0:
448,192,265595,1,0,0:0:0:0:
320,192,265595,1,0,0:0:0:0:
64,192,265595,1,0,0:0:0:0:
64,192,265856,1,0,0:0:0:0:
448,192,265944,1,0,0:0:0:0:
320,192,265944,1,0,0:0:0:0:
192,192,265944,1,0,0:0:0:0:
448,192,266118,1,0,0:0:0:0:
64,192,266292,1,0,0:0:0:0:
192,192,266292,1,0,0:0:0:0:
320,192,266292,1,0,0:0:0:0:
320,192,266467,1,0,0:0:0:0:
448,192,266641,1,0,0:0:0:0:
192,192,266641,1,0,0:0:0:0:
64,192,266641,1,0,0:0:0:0:
448,192,266990,1,0,0:0:0:0:
320,192,266990,1,0,0:0:0:0:
192,192,267165,1,0,0:0:0:0:
64,192,267339,1,0,0:0:0:0:
448,192,267339,1,0,0:0:0:0:
192,192,267513,1,0,0:0:0:0:
320,192,267601,1,0,0:0:0:0:
448,192,267688,1,0,0:0:0:0:
64,192,267688,1,0,0:0:0:0:
320,192,267775,1,0,0:0:0:0:
192,192,267862,1,0,0:0:0:0:
64,192,268037,1,0,0:0:0:0:
448,192,268037,1,0,0:0:0:0:
192,192,268385,1,0,0:0:0:0:
320,192,268385,1,0,0:0:0:0:
