osu file format v14

[General]
AudioFilename: 01 Kamuy.mp3
AudioLeadIn: 0
PreviewTime: 86876
Countdown: 0
SampleSet: None
StackLeniency: 0.2
Mode: 3
LetterboxInBreaks: 0
SpecialStyle: 0
WidescreenStoryboard: 0

[Editor]
DistanceSpacing: 1
BeatDivisor: 4
GridSize: 4
TimelineZoom: 1.5

[Metadata]
Title:Kamuy EP
TitleUnicode:Kamuy EP
Artist:Srav3R
ArtistUnicode:Srav3R
Creator:dionzz99
Version:Kamuy
Source:NBDCD-008
Tags:
BeatmapID:3597658
BeatmapSetID:1757986

[Difficulty]
HPDrainRate:6
CircleSize:4
OverallDifficulty:6
ApproachRate:5
SliderMultiplier:1.4
SliderTickRate:1

[Events]
//Background and Video events
0,0,"srav3r768.jpg",0,0
//Break Periods
//Storyboard Layer 0 (Background)
//Storyboard Layer 1 (Fail)
//Storyboard Layer 2 (Pass)
//Storyboard Layer 3 (Foreground)
//Storyboard Layer 4 (Overlay)
//Storyboard Sound Samples

[TimingPoints]
476,342.857142857143,4,1,0,25,1,0
5618,-1000,4,1,0,25,0,0
5704,-200,4,1,0,25,0,0
5790,-100,4,1,0,25,0,0
5876,-66.6666666666667,4,1,0,25,0,0
5961,-100,4,1,0,25,0,0
22076,-1000,4,1,0,25,0,0
22161,-200,4,1,0,25,0,0
22247,-100,4,1,0,25,0,0
22333,-50,4,1,0,25,0,0
22418,-200,4,1,0,25,0,0
23790,-50,4,1,0,25,0,0
23876,-200,4,1,0,25,0,0
25161,-50,4,1,0,25,0,0
25247,-200,4,1,0,25,0,0
26533,-50,4,1,0,25,0,0
26618,-200,4,1,0,25,0,0
27904,-50,4,1,0,25,0,0
27990,-200,4,1,0,25,0,0
29276,-50,4,1,0,25,0,0
29361,-200,4,1,0,25,0,0
30647,-50,4,1,0,25,0,0
30733,-200,4,1,0,25,0,0
32018,-50,4,1,0,25,0,0
32104,-200,4,1,0,25,0,0
33390,-50,4,1,0,25,0,0
33476,-200,4,1,0,25,0,0
34761,-50,4,1,0,25,0,0
34847,-200,4,1,0,25,0,0
36133,-50,4,1,0,25,0,0
36218,-200,4,1,0,25,0,0
37504,-50,4,1,0,25,0,0
37590,-200,4,1,0,25,0,0
38876,-50,4,1,0,25,0,0
38961,-200,4,1,0,25,0,0
40247,-50,4,1,0,25,0,0
40333,-200,4,1,0,25,0,0
41618,-50,4,1,0,25,0,0
41704,-200,4,1,0,25,0,0
42990,-50,4,1,0,25,0,0
43076,-200,4,1,0,25,0,0
44361,-50,4,1,0,25,0,0
44447,-133.333333333333,4,1,0,25,0,0
45733,-50,4,1,0,25,0,0
45818,-133.333333333333,4,1,0,25,0,0
47104,-50,4,1,0,25,0,0
47190,-133.333333333333,4,1,0,25,0,0
48476,-50,4,1,0,25,0,0
48561,-133.333333333333,4,1,0,25,0,0
49847,-50,4,1,0,25,0,0
49933,-133.333333333333,4,1,0,25,0,0
51218,-50,4,1,0,25,0,0
51304,-133.333333333333,4,1,0,25,0,0
52590,-50,4,1,0,25,0,0
52676,-133.333333333333,4,1,0,25,0,0
53961,-50,4,1,0,25,0,0
54047,-133.333333333333,4,1,0,25,0,0
55333,-100,4,1,0,25,0,0
65790,-117.647058823529,4,1,0,25,0,0
65961,-133.333333333333,4,1,0,25,0,0
66133,-200,4,1,0,25,0,0
66304,-117.647058823529,4,1,0,25,0,0
82761,-111.111111111111,4,1,0,25,0,0
85504,-100,4,1,0,25,0,0
86876,-200,4,1,0,25,0,0
87904,-1000,4,1,0,25,0,0
87990,-200,4,1,0,25,0,0
88076,-100,4,1,0,25,0,0
88161,-50,4,1,0,25,0,0
88247,-100,4,1,0,25,0,1
89618,-50,4,1,0,25,0,1
89704,-66.6666666666667,4,1,0,25,0,1
89790,-100,4,1,0,25,0,1
89876,-133.333333333333,4,1,0,25,0,1
89961,-100,4,1,0,25,0,1
90990,-50,4,1,0,25,0,1
91076,-100,4,1,0,25,0,1
92361,-200,4,1,0,25,0,1
92533,-1000,4,1,0,25,0,1
92618,-66.6666666666667,4,1,0,25,0,1
92704,-100,4,1,0,25,0,1
93733,-20,4,1,0,25,0,1
93904,-1000,4,1,0,25,0,1
93990,-66.6666666666667,4,1,0,25,0,1
94076,-100,4,1,0,25,0,1
95104,-50,4,1,0,25,0,1
95190,-66.6666666666667,4,1,0,25,0,1
95276,-100,4,1,0,25,0,1
95361,-200,4,1,0,25,0,1
95447,-100,4,1,0,25,0,1
99218,-57.1428571428571,4,1,0,25,0,1
99261,-1000,4,1,0,25,0,1
99304,-57.1428571428571,4,1,0,25,0,1
99347,-1000,4,1,0,25,0,1
99390,-57.1428571428571,4,1,0,25,0,1
99433,-1000,4,1,0,25,0,1
99476,-57.1428571428571,4,1,0,25,0,1
99518,-1000,4,1,0,25,0,1
99561,-100,4,1,0,25,0,1
100590,-50,4,1,0,25,0,1
100676,-66.6666666666667,4,1,0,25,0,1
100761,-100,4,1,0,25,0,1
100847,-133.333333333333,4,1,0,25,0,1
100933,-100,4,1,0,25,0,1
101961,-50,4,1,0,25,0,1
102047,-100,4,1,0,25,0,1
103333,-200,4,1,0,25,0,1
103504,-1000,4,1,0,25,0,1
103590,-66.6666666666667,4,1,0,25,0,1
103676,-100,4,1,0,25,0,1
104704,-20,4,1,0,25,0,1
104876,-1000,4,1,0,25,0,1
104961,-66.6666666666667,4,1,0,25,0,1
105047,-100,4,1,0,25,0,1
106076,-50,4,1,0,25,0,1
106161,-66.6666666666667,4,1,0,25,0,1
106247,-100,4,1,0,25,0,1
106333,-200,4,1,0,25,0,1
106418,-100,4,1,0,25,0,1
108818,-66.6666666666667,4,1,0,25,0,0
109161,-200,4,1,0,25,0,0
110190,-100,4,1,0,25,0,1
120818,-80,4,1,0,25,0,1
120990,-66.6666666666667,4,1,0,25,0,1
121161,-66.6666666666667,4,1,0,25,0,1
121247,-133.333333333333,4,1,0,25,0,1
121333,-1000,4,1,0,25,0,1
121461,-50,4,1,0,25,0,1
121504,-100,4,1,0,25,0,1
126304,-1000,4,1,0,25,0,1
126390,-200,4,1,0,25,0,1
126476,-100,4,1,0,25,0,1
126561,-66.6666666666667,4,1,0,25,0,1
126647,-100,4,1,0,25,0,1
130761,-66.6666666666667,4,1,0,25,0,0
131104,-133.333333333333,4,1,0,25,0,0
132132,-200,4,1,0,25,0,0
132133,-200,4,1,0,25,0,0
133504,-50,4,1,0,25,0,0
133590,-200,4,1,0,25,0,0
134875,-50,4,1,0,25,0,0
134961,-200,4,1,0,25,0,0
136247,-50,4,1,0,25,0,0
136332,-200,4,1,0,25,0,0
137618,-50,4,1,0,25,0,0
137704,-200,4,1,0,25,0,0
138990,-50,4,1,0,25,0,0
139075,-200,4,1,0,25,0,0
140361,-50,4,1,0,25,0,0
140447,-200,4,1,0,25,0,0
141732,-50,4,1,0,25,0,0
141818,-200,4,1,0,25,0,0
143104,-50,4,1,0,25,0,0
143190,-200,4,1,0,25,0,0
144475,-50,4,1,0,25,0,0
144561,-200,4,1,0,25,0,0
145847,-50,4,1,0,25,0,0
145932,-200,4,1,0,25,0,0
147218,-50,4,1,0,25,0,0
147304,-200,4,1,0,25,0,0
148590,-50,4,1,0,25,0,0
148675,-200,4,1,0,25,0,0
149961,-50,4,1,0,25,0,0
150047,-200,4,1,0,25,0,0
151332,-50,4,1,0,25,0,0
151418,-200,4,1,0,25,0,0
152704,-50,4,1,0,25,0,0
152790,-200,4,1,0,25,0,0
154075,-50,4,1,0,25,0,0
154161,-133.333333333333,4,1,0,25,0,0
155447,-50,4,1,0,25,0,0
155532,-133.333333333333,4,1,0,25,0,0
156818,-50,4,1,0,25,0,0
156904,-133.333333333333,4,1,0,25,0,0
158190,-50,4,1,0,25,0,0
158275,-133.333333333333,4,1,0,25,0,0
159561,-50,4,1,0,25,0,0
159647,-133.333333333333,4,1,0,25,0,0
160932,-50,4,1,0,25,0,0
161018,-133.333333333333,4,1,0,25,0,0
162304,-50,4,1,0,25,0,0
162390,-133.333333333333,4,1,0,25,0,0
163675,-50,4,1,0,25,0,0
163761,-133.333333333333,4,1,0,25,0,0
165047,-100,4,1,0,25,0,0
175504,-125,4,1,0,25,0,0
175676,-153.846153846153,4,1,0,25,0,0
175847,-200,4,1,0,25,0,0
176018,-117.647058823529,4,1,0,25,0,0
176361,-66.6666666666667,4,1,0,25,0,0
176404,-117.647058823529,4,1,0,25,0,0
177047,-66.6666666666667,4,1,0,25,0,0
177090,-117.647058823529,4,1,0,25,0,0
177733,-66.6666666666667,4,1,0,25,0,0
177776,-117.647058823529,4,1,0,25,0,0
178418,-66.6666666666667,4,1,0,25,0,0
178461,-117.647058823529,4,1,0,25,0,0
179104,-66.6666666666667,4,1,0,25,0,0
179147,-117.647058823529,4,1,0,25,0,0
179790,-66.6666666666667,4,1,0,25,0,0
179833,-117.647058823529,4,1,0,25,0,0
180476,-66.6666666666667,4,1,0,25,0,0
180518,-117.647058823529,4,1,0,25,0,0
181161,-66.6666666666667,4,1,0,25,0,0
181204,-117.647058823529,4,1,0,25,0,0
181847,-66.6666666666667,4,1,0,25,0,0
181890,-117.647058823529,4,1,0,25,0,0
182533,-66.6666666666667,4,1,0,25,0,0
182576,-117.647058823529,4,1,0,25,0,0
183218,-66.6666666666667,4,1,0,25,0,0
183261,-117.647058823529,4,1,0,25,0,0
183904,-66.6666666666667,4,1,0,25,0,0
183947,-117.647058823529,4,1,0,25,0,0
184590,-66.6666666666667,4,1,0,25,0,0
184633,-117.647058823529,4,1,0,25,0,0
185276,-66.6666666666667,4,1,0,25,0,0
185318,-117.647058823529,4,1,0,25,0,0
185961,-66.6666666666667,4,1,0,25,0,0
186004,-117.647058823529,4,1,0,25,0,0
186647,-66.6666666666667,4,1,0,25,0,0
186690,-117.647058823529,4,1,0,25,0,0
186990,-111.111111111111,4,1,0,25,0,0
187333,-66.6666666666667,4,1,0,25,0,0
187376,-111.111111111111,4,1,0,25,0,0
188018,-66.6666666666667,4,1,0,25,0,0
188061,-111.111111111111,4,1,0,25,0,0
188704,-66.6666666666667,4,1,0,25,0,0
188747,-111.111111111111,4,1,0,25,0,0
189390,-66.6666666666667,4,1,0,25,0,0
189433,-111.111111111111,4,1,0,25,0,0
190076,-66.6666666666667,4,1,0,25,0,0
190118,-111.111111111111,4,1,0,25,0,0
190761,-66.6666666666667,4,1,0,25,0,0
190804,-111.111111111111,4,1,0,25,0,0
191447,-66.6666666666667,4,1,0,25,0,0
191490,-111.111111111111,4,1,0,25,0,0
192133,-66.6666666666667,4,1,0,25,0,0
192176,-111.111111111111,4,1,0,25,0,0
192476,-100,4,1,0,25,0,0
196590,-200,4,1,0,25,0,0
197618,-1000,4,1,0,25,0,0
197704,-200,4,1,0,25,0,0
197790,-100,4,1,0,25,0,0
197876,-50,4,1,0,25,0,0
197961,-100,4,1,0,25,0,1
197962,-100,4,1,0,25,0,1
199333,-50,4,1,0,25,0,1
199419,-66.6666666666667,4,1,0,25,0,1
199505,-100,4,1,0,25,0,1
199591,-133.333333333333,4,1,0,25,0,1
199676,-100,4,1,0,25,0,1
200705,-50,4,1,0,25,0,1
200791,-100,4,1,0,25,0,1
202076,-200,4,1,0,25,0,1
202248,-1000,4,1,0,25,0,1
202333,-66.6666666666667,4,1,0,25,0,1
202419,-100,4,1,0,25,0,1
203448,-20,4,1,0,25,0,1
203619,-1000,4,1,0,25,0,1
203705,-66.6666666666667,4,1,0,25,0,1
203791,-100,4,1,0,25,0,1
204819,-50,4,1,0,25,0,1
204905,-66.6666666666667,4,1,0,25,0,1
204991,-100,4,1,0,25,0,1
205076,-200,4,1,0,25,0,1
205162,-100,4,1,0,25,0,1
208933,-57.1428571428571,4,1,0,25,0,1
208976,-1000,4,1,0,25,0,1
209019,-57.1428571428571,4,1,0,25,0,1
209062,-1000,4,1,0,25,0,1
209105,-57.1428571428571,4,1,0,25,0,1
209148,-1000,4,1,0,25,0,1
209191,-57.1428571428571,4,1,0,25,0,1
209233,-1000,4,1,0,25,0,1
209276,-100,4,1,0,25,0,1
210305,-50,4,1,0,25,0,1
210391,-66.6666666666667,4,1,0,25,0,1
210476,-100,4,1,0,25,0,1
210562,-133.333333333333,4,1,0,25,0,1
210648,-100,4,1,0,25,0,1
211676,-50,4,1,0,25,0,1
211762,-100,4,1,0,25,0,1
213048,-200,4,1,0,25,0,1
213219,-1000,4,1,0,25,0,1
213305,-66.6666666666667,4,1,0,25,0,1
213391,-100,4,1,0,25,0,1
214419,-20,4,1,0,25,0,1
214591,-1000,4,1,0,25,0,1
214676,-66.6666666666667,4,1,0,25,0,1
214762,-100,4,1,0,25,0,1
215791,-50,4,1,0,25,0,1
215876,-66.6666666666667,4,1,0,25,0,1
215962,-100,4,1,0,25,0,1
216048,-200,4,1,0,25,0,1
216133,-100,4,1,0,25,0,1
218533,-66.6666666666667,4,1,0,25,0,0
218876,-200,4,1,0,25,0,0
219904,-100,4,1,0,25,0,1
230533,-80,4,1,0,25,0,1
230704,-66.6666666666667,4,1,0,25,0,1
230876,-80,4,1,0,25,0,1
230961,-133.333333333333,4,1,0,25,0,1
231047,-1000,4,1,0,25,0,1
231176,-33.3333333333333,4,1,0,25,0,1
231218,-100,4,1,0,25,0,1
236018,-1000,4,1,0,25,0,1
236104,-200,4,1,0,25,0,1
236190,-100,4,1,0,25,0,1
236276,-66.6666666666667,4,1,0,25,0,1
236361,-100,4,1,0,25,0,1
240476,-66.6666666666667,4,1,0,25,0,0
240818,-133.333333333333,4,1,0,25,0,0
241847,-100,4,1,0,25,0,1
243218,-50,4,1,0,25,0,1
243304,-66.6666666666667,4,1,0,25,0,1
243390,-100,4,1,0,25,0,1
243476,-133.333333333333,4,1,0,25,0,1
243561,-100,4,1,0,25,0,1
244590,-50,4,1,0,25,0,1
244676,-100,4,1,0,25,0,1
245961,-200,4,1,0,25,0,1
246133,-1000,4,1,0,25,0,1
246218,-66.6666666666667,4,1,0,25,0,1
246304,-100,4,1,0,25,0,1
247333,-20,4,1,0,25,0,1
247504,-1000,4,1,0,25,0,1
247590,-66.6666666666667,4,1,0,25,0,1
247676,-100,4,1,0,25,0,1
248704,-50,4,1,0,25,0,1
248790,-66.6666666666667,4,1,0,25,0,1
248876,-100,4,1,0,25,0,1
248961,-200,4,1,0,25,0,1
249047,-100,4,1,0,25,0,1
254190,-133.333333333333,4,1,0,25,0,1
254276,-200,4,1,0,25,0,1
254361,-1000,4,1,0,25,0,1
254447,-50,4,1,0,25,0,1
254533,-100,4,1,0,25,0,1
258304,-1000,4,1,0,25,0,1
258561,-50,4,1,0,25,0,1
258647,-100,4,1,0,25,0,1
259676,-100,4,1,0,25,0,1
259761,-200,4,1,0,25,0,1
259847,-1000,4,1,0,25,0,1
259933,-50,4,1,0,25,0,1
260018,-100,4,1,0,25,0,1
262418,-100,4,1,0,25,0,0
262761,-200,4,1,0,25,0,0
263447,-1000,4,1,0,25,0,0
263533,-200,4,1,0,25,0,0
263618,-100,4,1,0,25,0,0
263704,-66.6666666666667,4,1,0,25,0,0
263790,-100,4,1,0,25,0,0
274418,-1000,4,1,0,25,0,0
274504,-200,4,1,0,25,0,0
274590,-100,4,1,0,25,0,0
274676,-66.6666666666667,4,1,0,25,0,0
274761,-100,4,1,0,25,0,0
285390,-1000,4,1,0,25,0,0
285476,-200,4,1,0,25,0,0
285561,-100,4,1,0,25,0,0
285647,-66.6666666666667,4,1,0,25,0,0
285733,-100,4,1,0,25,0,0

[HitObjects]
448,192,476,128,0,990:0:0:0:0:
192,192,476,1,0,0:0:0:0:
64,192,476,1,0,0:0:0:0:
320,192,647,128,0,818:0:0:0:0:
192,192,818,1,0,0:0:0:0:
64,192,818,1,0,0:0:0:0:
320,192,990,128,0,1847:0:0:0:0:
192,192,990,128,0,1161:0:0:0:0:
64,192,1161,1,0,0:0:0:0:
448,192,1161,1,0,0:0:0:0:
448,192,1333,128,0,1504:0:0:0:0:
192,192,1504,1,0,0:0:0:0:
64,192,1504,1,0,0:0:0:0:
448,192,1676,128,0,1847:0:0:0:0:
64,192,1847,1,0,0:0:0:0:
192,192,1847,1,0,0:0:0:0:
320,192,2018,128,0,2190:0:0:0:0:
448,192,2190,1,0,0:0:0:0:
192,192,2190,1,0,0:0:0:0:
64,192,2361,128,0,2533:0:0:0:0:
192,192,2533,1,0,0:0:0:0:
448,192,2533,1,0,0:0:0:0:
320,192,2704,128,0,2876:0:0:0:0:
192,192,2876,1,0,0:0:0:0:
64,192,2876,1,0,0:0:0:0:
448,192,3047,128,0,3218:0:0:0:0:
192,192,3218,1,0,0:0:0:0:
320,192,3218,1,0,0:0:0:0:
64,192,3390,128,0,3561:0:0:0:0:
448,192,3561,1,0,0:0:0:0:
192,192,3561,1,0,0:0:0:0:
320,192,3733,128,0,3904:0:0:0:0:
192,192,3904,1,0,0:0:0:0:
64,192,3904,1,0,0:0:0:0:
448,192,4076,128,0,4247:0:0:0:0:
192,192,4247,1,0,0:0:0:0:
320,192,4247,1,0,0:0:0:0:
64,192,4418,128,0,4590:0:0:0:0:
320,192,4590,1,0,0:0:0:0:
192,192,4590,1,0,0:0:0:0:
448,192,4761,128,0,4933:0:0:0:0:
64,192,4933,1,0,0:0:0:0:
320,192,4933,1,0,0:0:0:0:
192,192,5104,128,0,5276:0:0:0:0:
448,192,5276,1,0,0:0:0:0:
64,192,5276,1,0,0:0:0:0:
320,192,5447,128,0,5618:0:0:0:0:
192,192,5618,1,0,0:0:0:0:
64,192,5618,1,0,0:0:0:0:
448,192,5618,128,0,5961:0:0:0:0:
64,192,5961,128,0,6476:0:0:0:0:
192,192,5961,1,0,0:0:0:0:
320,192,6133,128,0,6304:0:0:0:0:
192,192,6304,1,0,0:0:0:0:
448,192,6304,1,0,0:0:0:0:
192,192,6476,128,0,7333:0:0:0:0:
448,192,6476,128,0,6647:0:0:0:0:
320,192,6647,1,0,0:0:0:0:
64,192,6647,1,0,0:0:0:0:
64,192,6818,128,0,6990:0:0:0:0:
320,192,6990,1,0,0:0:0:0:
448,192,6990,1,0,0:0:0:0:
448,192,7161,128,0,7333:0:0:0:0:
320,192,7333,1,0,0:0:0:0:
64,192,7333,1,0,0:0:0:0:
64,192,7504,128,0,7676:0:0:0:0:
192,192,7676,1,0,0:0:0:0:
448,192,7676,1,0,0:0:0:0:
320,192,7847,128,0,8018:0:0:0:0:
192,192,8018,1,0,0:0:0:0:
64,192,8018,1,0,0:0:0:0:
448,192,8190,128,0,8361:0:0:0:0:
192,192,8361,1,0,0:0:0:0:
320,192,8361,1,0,0:0:0:0:
64,192,8533,128,0,8704:0:0:0:0:
320,192,8704,1,0,0:0:0:0:
448,192,8704,1,0,0:0:0:0:
192,192,8876,128,0,9047:0:0:0:0:
64,192,9047,1,0,0:0:0:0:
320,192,9047,1,0,0:0:0:0:
448,192,9218,128,0,9390:0:0:0:0:
320,192,9390,1,0,0:0:0:0:
192,192,9390,1,0,0:0:0:0:
64,192,9561,128,0,9733:0:0:0:0:
192,192,9733,1,0,0:0:0:0:
448,192,9733,1,0,0:0:0:0:
320,192,9904,128,0,10076:0:0:0:0:
64,192,10076,128,0,10418:0:0:0:0:
192,192,10076,1,0,0:0:0:0:
448,192,10247,1,0,0:0:0:0:
320,192,10247,1,0,0:0:0:0:
192,192,10418,128,0,10590:0:0:0:0:
320,192,10418,1,0,0:0:0:0:
448,192,10504,1,0,0:0:0:0:
320,192,10590,128,0,10761:0:0:0:0:
64,192,10590,1,0,0:0:0:0:
192,192,10676,1,0,0:0:0:0:
448,192,10761,128,0,10933:0:0:0:0:
64,192,10761,1,0,0:0:0:0:
192,192,10847,1,0,0:0:0:0:
320,192,10933,128,0,11104:0:0:0:0:
64,192,10933,1,0,0:0:0:0:
192,192,11018,1,0,0:0:0:0:
64,192,11104,128,0,11447:0:0:0:0:
448,192,11104,1,0,0:0:0:0:
320,192,11147,1,0,0:0:0:0:
192,192,11190,1,0,0:0:0:0:
448,192,11233,1,0,0:0:0:0:
320,192,11276,1,0,0:0:0:0:
192,192,11318,1,0,0:0:0:0:
448,192,11361,1,0,0:0:0:0:
192,192,11447,128,0,11961:0:0:0:0:
320,192,11447,1,0,0:0:0:0:
64,192,11618,128,0,11790:0:0:0:0:
448,192,11704,1,0,0:0:0:0:
320,192,11790,1,0,0:0:0:0:
320,192,11961,128,0,12818:0:0:0:0:
448,192,11961,128,0,12133:0:0:0:0:
192,192,12047,1,0,0:0:0:0:
64,192,12133,1,0,0:0:0:0:
64,192,12304,128,0,12476:0:0:0:0:
192,192,12390,1,0,0:0:0:0:
448,192,12476,1,0,0:0:0:0:
192,192,12647,128,0,12818:0:0:0:0:
64,192,12733,1,0,0:0:0:0:
448,192,12818,1,0,0:0:0:0:
448,192,12990,128,0,13161:0:0:0:0:
320,192,13076,1,0,0:0:0:0:
192,192,13161,1,0,0:0:0:0:
64,192,13161,1,0,0:0:0:0:
64,192,13333,128,0,13504:0:0:0:0:
320,192,13418,1,0,0:0:0:0:
192,192,13504,1,0,0:0:0:0:
448,192,13504,1,0,0:0:0:0:
320,192,13676,128,0,13847:0:0:0:0:
448,192,13761,1,0,0:0:0:0:
192,192,13847,1,0,0:0:0:0:
64,192,13847,1,0,0:0:0:0:
448,192,14018,128,0,14190:0:0:0:0:
192,192,14104,1,0,0:0:0:0:
64,192,14190,1,0,0:0:0:0:
320,192,14190,1,0,0:0:0:0:
192,192,14361,128,0,14533:0:0:0:0:
320,192,14447,1,0,0:0:0:0:
448,192,14533,1,0,0:0:0:0:
64,192,14533,1,0,0:0:0:0:
320,192,14704,128,0,14876:0:0:0:0:
64,192,14790,1,0,0:0:0:0:
192,192,14876,1,0,0:0:0:0:
448,192,14876,1,0,0:0:0:0:
64,192,15047,128,0,15218:0:0:0:0:
448,192,15133,1,0,0:0:0:0:
320,192,15218,1,0,0:0:0:0:
192,192,15218,1,0,0:0:0:0:
448,192,15390,128,0,15561:0:0:0:0:
64,192,15476,1,0,0:0:0:0:
320,192,15561,1,0,0:0:0:0:
192,192,15561,1,0,0:0:0:0:
64,192,15733,128,0,15904:0:0:0:0:
320,192,15818,1,0,0:0:0:0:
192,192,15904,1,0,0:0:0:0:
448,192,15904,1,0,0:0:0:0:
320,192,16076,128,0,16247:0:0:0:0:
64,192,16161,1,0,0:0:0:0:
192,192,16247,1,0,0:0:0:0:
448,192,16247,1,0,0:0:0:0:
64,192,16418,128,0,16590:0:0:0:0:
448,192,16504,1,0,0:0:0:0:
320,192,16590,1,0,0:0:0:0:
192,192,16590,128,0,16933:0:0:0:0:
448,192,16761,1,0,0:0:0:0:
64,192,16847,1,0,0:0:0:0:
448,192,16933,128,0,17447:0:0:0:0:
320,192,16933,1,0,0:0:0:0:
192,192,17018,1,0,0:0:0:0:
64,192,17104,1,0,0:0:0:0:
320,192,17190,1,0,0:0:0:0:
192,192,17276,1,0,0:0:0:0:
64,192,17276,1,0,0:0:0:0:
320,192,17361,1,0,0:0:0:0:
64,192,17447,128,0,18304:0:0:0:0:
192,192,17533,1,0,0:0:0:0:
320,192,17618,1,0,0:0:0:0:
448,192,17618,1,0,0:0:0:0:
192,192,17704,1,0,0:0:0:0:
320,192,17790,1,0,0:0:0:0:
448,192,17876,1,0,0:0:0:0:
320,192,17961,1,0,0:0:0:0:
192,192,17961,1,0,0:0:0:0:
448,192,18047,1,0,0:0:0:0:
320,192,18133,1,0,0:0:0:0:
192,192,18218,1,0,0:0:0:0:
320,192,18304,1,0,0:0:0:0:
448,192,18304,1,0,0:0:0:0:
192,192,18390,1,0,0:0:0:0:
64,192,18476,1,0,0:0:0:0:
448,192,18561,1,0,0:0:0:0:
320,192,18647,1,0,0:0:0:0:
192,192,18647,1,0,0:0:0:0:
64,192,18733,1,0,0:0:0:0:
192,192,18818,1,0,0:0:0:0:
448,192,18904,1,0,0:0:0:0:
320,192,18990,1,0,0:0:0:0:
64,192,18990,1,0,0:0:0:0:
192,192,19076,1,0,0:0:0:0:
320,192,19161,1,0,0:0:0:0:
448,192,19247,1,0,0:0:0:0:
192,192,19333,1,0,0:0:0:0:
64,192,19333,1,0,0:0:0:0:
320,192,19418,1,0,0:0:0:0:
448,192,19504,1,0,0:0:0:0:
320,192,19590,1,0,0:0:0:0:
192,192,19676,1,0,0:0:0:0:
64,192,19676,1,0,0:0:0:0:
320,192,19718,1,0,0:0:0:0:
448,192,19761,1,0,0:0:0:0:
64,192,19804,1,0,0:0:0:0:
192,192,19847,1,0,0:0:0:0:
320,192,19890,1,0,0:0:0:0:
448,192,19933,1,0,0:0:0:0:
64,192,19976,1,0,0:0:0:0:
192,192,20018,1,0,0:0:0:0:
320,192,20061,1,0,0:0:0:0:
448,192,20104,1,0,0:0:0:0:
64,192,20147,1,0,0:0:0:0:
192,192,20190,1,0,0:0:0:0:
320,192,20233,1,0,0:0:0:0:
448,192,20276,1,0,0:0:0:0:
64,192,20318,1,0,0:0:0:0:
192,192,20361,1,0,0:0:0:0:
320,192,20404,1,0,0:0:0:0:
448,192,20447,1,0,0:0:0:0:
64,192,20490,1,0,0:0:0:0:
192,192,20533,1,0,0:0:0:0:
320,192,20576,1,0,0:0:0:0:
448,192,20618,1,0,0:0:0:0:
64,192,20661,1,0,0:0:0:0:
192,192,20704,1,0,0:0:0:0:
320,192,20747,1,0,0:0:0:0:
448,192,20790,1,0,0:0:0:0:
64,192,20833,1,0,0:0:0:0:
192,192,20876,1,0,0:0:0:0:
320,192,20918,1,0,0:0:0:0:
448,192,20961,1,0,0:0:0:0:
64,192,21004,1,0,0:0:0:0:
192,192,21047,1,0,0:0:0:0:
320,192,21047,1,0,0:0:0:0:
320,192,21218,1,0,0:0:0:0:
448,192,21218,1,0,0:0:0:0:
192,192,21390,1,0,0:0:0:0:
64,192,21476,1,0,0:0:0:0:
320,192,21561,1,0,0:0:0:0:
448,192,21733,1,0,0:0:0:0:
192,192,21733,1,0,0:0:0:0:
320,192,21818,1,0,0:0:0:0:
64,192,21904,1,0,0:0:0:0:
320,192,21990,1,0,0:0:0:0:
192,192,22076,1,0,0:0:0:0:
448,192,22076,128,0,22418:0:0:0:0:
64,192,22418,128,0,22933:0:0:0:0:
192,192,22933,128,0,23790:0:0:0:0:
320,192,24476,1,0,0:0:0:0:
192,192,24476,1,0,0:0:0:0:
320,192,27218,1,0,0:0:0:0:
448,192,27218,1,0,0:0:0:0:
448,192,27904,128,0,28418:0:0:0:0:
320,192,28418,128,0,29276:0:0:0:0:
192,192,29961,1,0,0:0:0:0:
64,192,29961,1,0,0:0:0:0:
192,192,32704,1,0,0:0:0:0:
320,192,32704,1,0,0:0:0:0:
192,192,33390,128,0,33904:0:0:0:0:
64,192,33904,128,0,34761:0:0:0:0:
448,192,34247,128,0,34418:0:0:0:0:
320,192,34590,128,0,34761:0:0:0:0:
192,192,34761,128,0,35104:0:0:0:0:
64,192,35104,128,0,35447:0:0:0:0:
448,192,35447,128,0,35618:0:0:0:0:
320,192,35447,1,0,0:0:0:0:
192,192,35618,128,0,35790:0:0:0:0:
320,192,35790,128,0,35961:0:0:0:0:
64,192,35961,128,0,36304:0:0:0:0:
192,192,36304,128,0,36476:0:0:0:0:
320,192,36476,128,0,36647:0:0:0:0:
64,192,36647,128,0,36818:0:0:0:0:
192,192,36818,128,0,37333:0:0:0:0:
448,192,37333,128,0,37676:0:0:0:0:
320,192,37676,128,0,38018:0:0:0:0:
64,192,38018,128,0,38190:0:0:0:0:
192,192,38190,128,0,38361:0:0:0:0:
320,192,38190,1,0,0:0:0:0:
448,192,38361,128,0,38533:0:0:0:0:
320,192,38533,128,0,38876:0:0:0:0:
64,192,38876,128,0,39390:0:0:0:0:
320,192,39218,128,0,39390:0:0:0:0:
448,192,39390,128,0,40247:0:0:0:0:
192,192,39390,128,0,39733:0:0:0:0:
64,192,39733,128,0,39904:0:0:0:0:
320,192,40076,128,0,40247:0:0:0:0:
64,192,40247,128,0,40590:0:0:0:0:
448,192,40590,128,0,40933:0:0:0:0:
320,192,40933,128,0,41104:0:0:0:0:
64,192,40933,1,0,0:0:0:0:
192,192,41104,128,0,41276:0:0:0:0:
448,192,41276,128,0,41447:0:0:0:0:
320,192,41447,128,0,41961:0:0:0:0:
64,192,41961,128,0,42304:0:0:0:0:
192,192,42304,128,0,42647:0:0:0:0:
448,192,42647,128,0,42733:0:0:0:0:
320,192,42733,128,0,42818:0:0:0:0:
192,192,42818,128,0,42904:0:0:0:0:
64,192,42904,128,0,42990:0:0:0:0:
448,192,42990,128,0,43333:0:0:0:0:
192,192,43333,128,0,43504:0:0:0:0:
64,192,43504,128,0,43676:0:0:0:0:
448,192,43676,128,0,43847:0:0:0:0:
320,192,43676,1,0,0:0:0:0:
192,192,43847,128,0,44018:0:0:0:0:
320,192,44018,128,0,44361:0:0:0:0:
448,192,44361,128,0,44704:0:0:0:0:
64,192,44361,1,0,0:0:0:0:
64,192,44704,128,0,44876:0:0:0:0:
320,192,44704,1,0,0:0:0:0:
192,192,44876,128,0,45218:0:0:0:0:
320,192,45218,128,0,45390:0:0:0:0:
64,192,45218,1,0,0:0:0:0:
448,192,45390,128,0,45561:0:0:0:0:
192,192,45390,1,0,0:0:0:0:
64,192,45561,128,0,45733:0:0:0:0:
320,192,45733,128,0,45904:0:0:0:0:
448,192,45733,1,0,0:0:0:0:
192,192,45904,128,0,46076:0:0:0:0:
64,192,46076,128,0,46418:0:0:0:0:
320,192,46076,1,0,0:0:0:0:
192,192,46247,1,0,0:0:0:0:
448,192,46418,128,0,46761:0:0:0:0:
64,192,46590,1,0,0:0:0:0:
192,192,46761,128,0,46933:0:0:0:0:
320,192,46761,1,0,0:0:0:0:
320,192,46933,128,0,47104:0:0:0:0:
448,192,47104,128,0,47276:0:0:0:0:
192,192,47104,1,0,0:0:0:0:
64,192,47276,128,0,47447:0:0:0:0:
320,192,47447,128,0,47618:0:0:0:0:
448,192,47447,1,0,0:0:0:0:
192,192,47618,128,0,47790:0:0:0:0:
448,192,47790,128,0,47961:0:0:0:0:
320,192,47961,128,0,48133:0:0:0:0:
64,192,47961,1,0,0:0:0:0:
192,192,48133,128,0,48304:0:0:0:0:
448,192,48133,1,0,0:0:0:0:
64,192,48304,128,0,48476:0:0:0:0:
448,192,48476,128,0,48647:0:0:0:0:
192,192,48476,1,0,0:0:0:0:
320,192,48647,128,0,48818:0:0:0:0:
192,192,48818,128,0,49161:0:0:0:0:
448,192,48818,1,0,0:0:0:0:
320,192,48990,1,0,0:0:0:0:
64,192,49161,128,0,49333:0:0:0:0:
448,192,49161,1,0,0:0:0:0:
192,192,49247,1,0,0:0:0:0:
320,192,49333,128,0,49504:0:0:0:0:
448,192,49333,1,0,0:0:0:0:
192,192,49504,128,0,49847:0:0:0:0:
448,192,49504,1,0,0:0:0:0:
64,192,49504,1,0,0:0:0:0:
320,192,49676,1,0,0:0:0:0:
64,192,49847,128,0,50018:0:0:0:0:
320,192,49847,1,0,0:0:0:0:
192,192,50018,128,0,50190:0:0:0:0:
320,192,50190,128,0,50361:0:0:0:0:
64,192,50190,1,0,0:0:0:0:
448,192,50361,128,0,50533:0:0:0:0:
320,192,50533,128,0,50704:0:0:0:0:
448,192,50704,128,0,50876:0:0:0:0:
64,192,50704,1,0,0:0:0:0:
192,192,50876,128,0,51047:0:0:0:0:
64,192,50876,1,0,0:0:0:0:
320,192,51047,128,0,51218:0:0:0:0:
64,192,51218,128,0,51733:0:0:0:0:
192,192,51218,1,0,0:0:0:0:
448,192,51561,1,0,0:0:0:0:
192,192,51733,128,0,51904:0:0:0:0:
320,192,51733,1,0,0:0:0:0:
448,192,51818,1,0,0:0:0:0:
64,192,51904,1,0,0:0:0:0:
192,192,51990,1,0,0:0:0:0:
320,192,52076,128,0,52247:0:0:0:0:
448,192,52076,1,0,0:0:0:0:
192,192,52247,128,0,52418:0:0:0:0:
448,192,52247,1,0,0:0:0:0:
64,192,52418,128,0,52590:0:0:0:0:
448,192,52590,128,0,52761:0:0:0:0:
192,192,52590,1,0,0:0:0:0:
320,192,52761,128,0,52933:0:0:0:0:
192,192,52933,128,0,53104:0:0:0:0:
64,192,52933,1,0,0:0:0:0:
320,192,53104,128,0,53276:0:0:0:0:
448,192,53104,1,0,0:0:0:0:
64,192,53190,1,0,0:0:0:0:
192,192,53276,128,0,53447:0:0:0:0:
448,192,53276,1,0,0:0:0:0:
320,192,53361,1,0,0:0:0:0:
64,192,53447,128,0,53618:0:0:0:0:
448,192,53447,1,0,0:0:0:0:
320,192,53618,128,0,53790:0:0:0:0:
192,192,53618,1,0,0:0:0:0:
448,192,53790,128,0,54304:0:0:0:0:
64,192,53961,1,0,0:0:0:0:
192,192,53961,1,0,0:0:0:0:
64,192,54304,1,0,0:0:0:0:
192,192,54304,1,0,0:0:0:0:
320,192,54476,128,0,54647:0:0:0:0:
192,192,54647,1,0,0:0:0:0:
64,192,54647,1,0,0:0:0:0:
64,192,54733,1,0,0:0:0:0:
192,192,54733,1,0,0:0:0:0:
320,192,54818,128,0,54990:0:0:0:0:
448,192,54904,1,0,0:0:0:0:
64,192,54904,1,0,0:0:0:0:
192,192,54990,128,0,55161:0:0:0:0:
448,192,55076,1,0,0:0:0:0:
64,192,55161,128,0,55333:0:0:0:0:
320,192,55161,1,0,0:0:0:0:
192,192,55247,1,0,0:0:0:0:
320,192,55247,1,0,0:0:0:0:
448,192,55333,128,0,55676:0:0:0:0:
192,192,55333,1,0,0:0:0:0:
192,192,55504,1,0,0:0:0:0:
320,192,55676,1,0,0:0:0:0:
64,192,55676,128,0,55847:0:0:0:0:
192,192,55847,128,0,56190:0:0:0:0:
320,192,55847,1,0,0:0:0:0:
448,192,55933,1,0,0:0:0:0:
320,192,56018,1,0,0:0:0:0:
64,192,56104,1,0,0:0:0:0:
320,192,56190,128,0,56361:0:0:0:0:
448,192,56190,1,0,0:0:0:0:
192,192,56361,1,0,0:0:0:0:
448,192,56361,128,0,56533:0:0:0:0:
64,192,56533,128,0,56704:0:0:0:0:
448,192,56704,1,0,0:0:0:0:
320,192,56704,128,0,56876:0:0:0:0:
192,192,56876,128,0,57047:0:0:0:0:
320,192,57047,1,0,0:0:0:0:
64,192,57047,128,0,57390:0:0:0:0:
192,192,57218,1,0,0:0:0:0:
448,192,57218,1,0,0:0:0:0:
320,192,57304,1,0,0:0:0:0:
448,192,57390,128,0,57733:0:0:0:0:
192,192,57476,1,0,0:0:0:0:
64,192,57561,1,0,0:0:0:0:
320,192,57561,1,0,0:0:0:0:
320,192,57733,1,0,0:0:0:0:
192,192,57733,128,0,57904:0:0:0:0:
320,192,57904,128,0,58076:0:0:0:0:
192,192,58076,1,0,0:0:0:0:
448,192,58076,128,0,58247:0:0:0:0:
64,192,58247,128,0,58418:0:0:0:0:
448,192,58418,1,0,0:0:0:0:
320,192,58418,128,0,58590:0:0:0:0:
192,192,58590,128,0,58761:0:0:0:0:
64,192,58676,1,0,0:0:0:0:
448,192,58761,128,0,58933:0:0:0:0:
192,192,58847,1,0,0:0:0:0:
64,192,58933,1,0,0:0:0:0:
320,192,58933,128,0,59104:0:0:0:0:
448,192,59104,1,0,0:0:0:0:
192,192,59104,128,0,59276:0:0:0:0:
64,192,59276,128,0,59447:0:0:0:0:
192,192,59447,1,0,0:0:0:0:
448,192,59447,128,0,59618:0:0:0:0:
320,192,59618,128,0,59790:0:0:0:0:
448,192,59790,1,0,0:0:0:0:
192,192,59790,128,0,60133:0:0:0:0:
448,192,59961,1,0,0:0:0:0:
320,192,60047,1,0,0:0:0:0:
448,192,60133,1,0,0:0:0:0:
64,192,60133,128,0,60304:0:0:0:0:
192,192,60218,1,0,0:0:0:0:
320,192,60218,1,0,0:0:0:0:
448,192,60304,128,0,60476:0:0:0:0:
320,192,60390,1,0,0:0:0:0:
64,192,60476,1,0,0:0:0:0:
192,192,60476,128,0,60818:0:0:0:0:
320,192,60647,1,0,0:0:0:0:
448,192,60647,1,0,0:0:0:0:
320,192,60818,1,0,0:0:0:0:
64,192,60818,128,0,60990:0:0:0:0:
192,192,60990,128,0,61161:0:0:0:0:
64,192,61161,1,0,0:0:0:0:
320,192,61161,128,0,61333:0:0:0:0:
448,192,61333,128,0,61504:0:0:0:0:
64,192,61333,1,0,0:0:0:0:
192,192,61418,1,0,0:0:0:0:
320,192,61504,128,0,61676:0:0:0:0:
64,192,61504,1,0,0:0:0:0:
192,192,61590,1,0,0:0:0:0:
64,192,61676,1,0,0:0:0:0:
448,192,61676,128,0,61847:0:0:0:0:
64,192,61847,1,0,0:0:0:0:
192,192,61847,128,0,62018:0:0:0:0:
320,192,62018,128,0,62190:0:0:0:0:
192,192,62190,1,0,0:0:0:0:
64,192,62190,128,0,62704:0:0:0:0:
320,192,62361,1,0,0:0:0:0:
448,192,62533,1,0,0:0:0:0:
320,192,62704,1,0,0:0:0:0:
192,192,62704,128,0,62876:0:0:0:0:
448,192,62790,1,0,0:0:0:0:
64,192,62876,1,0,0:0:0:0:
192,192,62961,1,0,0:0:0:0:
448,192,63047,1,0,0:0:0:0:
320,192,63047,128,0,63218:0:0:0:0:
448,192,63218,1,0,0:0:0:0:
192,192,63218,128,0,63390:0:0:0:0:
64,192,63390,128,0,63561:0:0:0:0:
448,192,63561,128,0,63733:0:0:0:0:
192,192,63561,1,0,0:0:0:0:
320,192,63733,128,0,63904:0:0:0:0:
64,192,63733,1,0,0:0:0:0:
192,192,63904,128,0,64076:0:0:0:0:
448,192,63990,1,0,0:0:0:0:
64,192,63990,1,0,0:0:0:0:
320,192,64076,128,0,64247:0:0:0:0:
64,192,64076,1,0,0:0:0:0:
192,192,64247,128,0,64418:0:0:0:0:
448,192,64247,1,0,0:0:0:0:
64,192,64418,128,0,64590:0:0:0:0:
448,192,64418,1,0,0:0:0:0:
192,192,64504,1,0,0:0:0:0:
320,192,64504,1,0,0:0:0:0:
320,192,64590,128,0,64761:0:0:0:0:
448,192,64590,1,0,0:0:0:0:
192,192,64676,1,0,0:0:0:0:
64,192,64676,1,0,0:0:0:0:
448,192,64761,128,0,65276:0:0:0:0:
320,192,64847,1,0,0:0:0:0:
192,192,64847,1,0,0:0:0:0:
320,192,65104,1,0,0:0:0:0:
64,192,65190,1,0,0:0:0:0:
192,192,65276,1,0,0:0:0:0:
320,192,65276,1,0,0:0:0:0:
320,192,65447,128,0,65618:0:0:0:0:
64,192,65447,1,0,0:0:0:0:
192,192,65533,1,0,0:0:0:0:
64,192,65618,1,0,0:0:0:0:
448,192,65704,1,0,0:0:0:0:
192,192,65704,1,0,0:0:0:0:
320,192,65790,128,0,65961:0:0:0:0:
64,192,65790,1,0,0:0:0:0:
448,192,65876,1,0,0:0:0:0:
192,192,65961,128,0,66133:0:0:0:0:
64,192,65961,1,0,0:0:0:0:
64,192,66133,128,0,66304:0:0:0:0:
448,192,66304,128,0,66647:0:0:0:0:
320,192,66304,1,0,0:0:0:0:
192,192,66561,1,0,0:0:0:0:
64,192,66647,1,0,0:0:0:0:
320,192,66818,1,0,0:0:0:0:
192,192,66990,1,0,0:0:0:0:
320,192,67076,1,0,0:0:0:0:
64,192,67161,128,0,67333:0:0:0:0:
448,192,67161,1,0,0:0:0:0:
192,192,67333,1,0,0:0:0:0:
320,192,67504,128,0,67676:0:0:0:0:
64,192,67504,1,0,0:0:0:0:
192,192,67676,128,0,68018:0:0:0:0:
448,192,67676,1,0,0:0:0:0:
64,192,67933,1,0,0:0:0:0:
448,192,68018,128,0,68361:0:0:0:0:
320,192,68018,1,0,0:0:0:0:
64,192,68190,1,0,0:0:0:0:
192,192,68361,128,0,68533:0:0:0:0:
320,192,68361,1,0,0:0:0:0:
64,192,68404,1,0,0:0:0:0:
448,192,68447,1,0,0:0:0:0:
320,192,68490,1,0,0:0:0:0:
64,192,68533,128,0,68704:0:0:0:0:
192,192,68576,1,0,0:0:0:0:
320,192,68618,1,0,0:0:0:0:
448,192,68704,128,0,68876:0:0:0:0:
320,192,68876,128,0,69218:0:0:0:0:
192,192,68876,1,0,0:0:0:0:
448,192,69047,1,0,0:0:0:0:
64,192,69218,128,0,69390:0:0:0:0:
192,192,69304,1,0,0:0:0:0:
448,192,69390,128,0,69561:0:0:0:0:
320,192,69390,1,0,0:0:0:0:
192,192,69561,128,0,69733:0:0:0:0:
64,192,69561,1,0,0:0:0:0:
448,192,69733,128,0,70247:0:0:0:0:
320,192,69733,1,0,0:0:0:0:
192,192,69818,1,0,0:0:0:0:
64,192,69904,1,0,0:0:0:0:
320,192,70076,1,0,0:0:0:0:
64,192,70247,128,0,70590:0:0:0:0:
192,192,70247,1,0,0:0:0:0:
448,192,70418,1,0,0:0:0:0:
320,192,70590,128,0,70933:0:0:0:0:
192,192,70676,1,0,0:0:0:0:
64,192,70761,1,0,0:0:0:0:
64,192,70933,128,0,71104:0:0:0:0:
192,192,70933,1,0,0:0:0:0:
448,192,71104,128,0,71276:0:0:0:0:
192,192,71104,1,0,0:0:0:0:
320,192,71147,1,0,0:0:0:0:
64,192,71190,1,0,0:0:0:0:
192,192,71233,1,0,0:0:0:0:
320,192,71276,128,0,71447:0:0:0:0:
448,192,71318,1,0,0:0:0:0:
64,192,71361,1,0,0:0:0:0:
192,192,71447,128,0,71790:0:0:0:0:
448,192,71618,1,0,0:0:0:0:
64,192,71790,128,0,72133:0:0:0:0:
320,192,71790,1,0,0:0:0:0:
448,192,72047,1,0,0:0:0:0:
320,192,72133,128,0,72304:0:0:0:0:
192,192,72133,1,0,0:0:0:0:
192,192,72304,128,0,72476:0:0:0:0:
64,192,72304,1,0,0:0:0:0:
320,192,72476,1,0,0:0:0:0:
192,192,72561,1,0,0:0:0:0:
448,192,72647,128,0,72818:0:0:0:0:
64,192,72647,1,0,0:0:0:0:
320,192,72818,1,0,0:0:0:0:
192,192,72990,128,0,73161:0:0:0:0:
64,192,72990,1,0,0:0:0:0:
320,192,73161,128,0,73504:0:0:0:0:
448,192,73161,1,0,0:0:0:0:
192,192,73418,1,0,0:0:0:0:
64,192,73504,128,0,73847:0:0:0:0:
448,192,73504,1,0,0:0:0:0:
192,192,73676,1,0,0:0:0:0:
320,192,73847,128,0,74018:0:0:0:0:
192,192,73847,1,0,0:0:0:0:
448,192,73890,1,0,0:0:0:0:
64,192,73933,1,0,0:0:0:0:
192,192,73976,1,0,0:0:0:0:
448,192,74018,128,0,74190:0:0:0:0:
320,192,74061,1,0,0:0:0:0:
192,192,74104,1,0,0:0:0:0:
64,192,74190,128,0,74361:0:0:0:0:
192,192,74361,128,0,74704:0:0:0:0:
320,192,74361,1,0,0:0:0:0:
448,192,74533,1,0,0:0:0:0:
64,192,74790,1,0,0:0:0:0:
448,192,74876,128,0,75218:0:0:0:0:
320,192,74876,1,0,0:0:0:0:
64,192,75047,1,0,0:0:0:0:
192,192,75218,128,0,75561:0:0:0:0:
320,192,75218,1,0,0:0:0:0:
448,192,75304,1,0,0:0:0:0:
320,192,75390,1,0,0:0:0:0:
64,192,75561,128,0,75647:0:0:0:0:
448,192,75561,1,0,0:0:0:0:
192,192,75647,128,0,75733:0:0:0:0:
320,192,75733,128,0,75818:0:0:0:0:
64,192,75733,1,0,0:0:0:0:
448,192,75818,128,0,75904:0:0:0:0:
64,192,75904,128,0,76247:0:0:0:0:
192,192,75904,1,0,0:0:0:0:
448,192,76161,1,0,0:0:0:0:
320,192,76247,128,0,76418:0:0:0:0:
192,192,76247,1,0,0:0:0:0:
448,192,76418,128,0,76590:0:0:0:0:
64,192,76418,1,0,0:0:0:0:
192,192,76590,128,0,76761:0:0:0:0:
64,192,76590,1,0,0:0:0:0:
320,192,76633,1,0,0:0:0:0:
448,192,76676,1,0,0:0:0:0:
64,192,76718,1,0,0:0:0:0:
320,192,76761,128,0,76933:0:0:0:0:
448,192,76804,1,0,0:0:0:0:
192,192,76847,1,0,0:0:0:0:
64,192,76933,128,0,77276:0:0:0:0:
448,192,77104,1,0,0:0:0:0:
192,192,77276,128,0,77618:0:0:0:0:
320,192,77276,1,0,0:0:0:0:
448,192,77447,1,0,0:0:0:0:
320,192,77533,1,0,0:0:0:0:
64,192,77618,1,0,0:0:0:0:
320,192,77790,1,0,0:0:0:0:
192,192,77876,1,0,0:0:0:0:
64,192,77961,1,0,0:0:0:0:
448,192,78133,128,0,78304:0:0:0:0:
192,192,78218,1,0,0:0:0:0:
320,192,78304,1,0,0:0:0:0:
64,192,78476,1,0,0:0:0:0:
192,192,78476,128,0,78647:0:0:0:0:
448,192,78561,1,0,0:0:0:0:
320,192,78647,128,0,78990:0:0:0:0:
64,192,78647,1,0,0:0:0:0:
192,192,78904,1,0,0:0:0:0:
64,192,78990,128,0,79333:0:0:0:0:
448,192,78990,1,0,0:0:0:0:
448,192,79161,1,0,0:0:0:0:
192,192,79247,1,0,0:0:0:0:
320,192,79333,128,0,79504:0:0:0:0:
448,192,79333,1,0,0:0:0:0:
448,192,79504,128,0,79676:0:0:0:0:
192,192,79590,1,0,0:0:0:0:
64,192,79676,128,0,79847:0:0:0:0:
320,192,79676,1,0,0:0:0:0:
192,192,79847,128,0,80190:0:0:0:0:
448,192,79847,1,0,0:0:0:0:
320,192,79933,1,0,0:0:0:0:
64,192,80018,1,0,0:0:0:0:
448,192,80190,128,0,80361:0:0:0:0:
320,192,80276,1,0,0:0:0:0:
64,192,80361,128,0,80533:0:0:0:0:
192,192,80361,1,0,0:0:0:0:
320,192,80533,128,0,80704:0:0:0:0:
192,192,80533,1,0,0:0:0:0:
448,192,80618,1,0,0:0:0:0:
64,192,80704,128,0,81218:0:0:0:0:
192,192,80704,1,0,0:0:0:0:
320,192,80961,1,0,0:0:0:0:
192,192,81047,1,0,0:0:0:0:
448,192,81218,128,0,81561:0:0:0:0:
320,192,81218,1,0,0:0:0:0:
192,192,81304,1,0,0:0:0:0:
64,192,81390,1,0,0:0:0:0:
192,192,81561,128,0,81904:0:0:0:0:
320,192,81647,1,0,0:0:0:0:
448,192,81733,1,0,0:0:0:0:
448,192,81904,128,0,82076:0:0:0:0:
64,192,81904,1,0,0:0:0:0:
192,192,81990,1,0,0:0:0:0:
64,192,82076,128,0,82247:0:0:0:0:
320,192,82076,1,0,0:0:0:0:
192,192,82247,128,0,82418:0:0:0:0:
448,192,82333,1,0,0:0:0:0:
320,192,82418,128,0,82761:0:0:0:0:
64,192,82418,1,0,0:0:0:0:
64,192,82590,1,0,0:0:0:0:
192,192,82676,1,0,0:0:0:0:
448,192,82761,128,0,83104:0:0:0:0:
64,192,82761,1,0,0:0:0:0:
192,192,82847,1,0,0:0:0:0:
320,192,82933,1,0,0:0:0:0:
64,192,83018,1,0,0:0:0:0:
192,192,83104,128,0,83276:0:0:0:0:
320,192,83104,1,0,0:0:0:0:
448,192,83190,1,0,0:0:0:0:
320,192,83276,128,0,83447:0:0:0:0:
64,192,83276,1,0,0:0:0:0:
192,192,83361,1,0,0:0:0:0:
448,192,83447,1,0,0:0:0:0:
320,192,83533,1,0,0:0:0:0:
64,192,83618,128,0,83790:0:0:0:0:
192,192,83618,1,0,0:0:0:0:
448,192,83704,1,0,0:0:0:0:
320,192,83790,1,0,0:0:0:0:
192,192,83876,1,0,0:0:0:0:
320,192,83961,128,0,84133:0:0:0:0:
64,192,83961,1,0,0:0:0:0:
448,192,84047,1,0,0:0:0:0:
192,192,84133,128,0,84476:0:0:0:0:
64,192,84133,1,0,0:0:0:0:
320,192,84218,1,0,0:0:0:0:
448,192,84304,1,0,0:0:0:0:
64,192,84390,1,0,0:0:0:0:
448,192,84476,128,0,84818:0:0:0:0:
320,192,84476,1,0,0:0:0:0:
192,192,84561,1,0,0:0:0:0:
64,192,84647,1,0,0:0:0:0:
320,192,84733,1,0,0:0:0:0:
192,192,84818,128,0,84990:0:0:0:0:
64,192,84818,1,0,0:0:0:0:
320,192,84904,1,0,0:0:0:0:
64,192,84990,128,0,85161:0:0:0:0:
448,192,84990,1,0,0:0:0:0:
320,192,85076,1,0,0:0:0:0:
448,192,85161,128,0,85333:0:0:0:0:
192,192,85161,1,0,0:0:0:0:
64,192,85247,1,0,0:0:0:0:
320,192,85333,128,0,85504:0:0:0:0:
192,192,85333,1,0,0:0:0:0:
448,192,85418,1,0,0:0:0:0:
64,192,85504,1,0,0:0:0:0:
192,192,85547,1,0,0:0:0:0:
320,192,85590,1,0,0:0:0:0:
448,192,85633,1,0,0:0:0:0:
64,192,85676,1,0,0:0:0:0:
192,192,85718,1,0,0:0:0:0:
320,192,85761,1,0,0:0:0:0:
448,192,85804,1,0,0:0:0:0:
64,192,85847,1,0,0:0:0:0:
192,192,85890,1,0,0:0:0:0:
320,192,85933,1,0,0:0:0:0:
448,192,85976,1,0,0:0:0:0:
64,192,86018,1,0,0:0:0:0:
192,192,86061,1,0,0:0:0:0:
320,192,86104,1,0,0:0:0:0:
448,192,86147,1,0,0:0:0:0:
64,192,86190,1,0,0:0:0:0:
192,192,86233,1,0,0:0:0:0:
320,192,86276,1,0,0:0:0:0:
448,192,86318,1,0,0:0:0:0:
64,192,86361,1,0,0:0:0:0:
192,192,86404,1,0,0:0:0:0:
320,192,86447,1,0,0:0:0:0:
448,192,86490,1,0,0:0:0:0:
64,192,86533,1,0,0:0:0:0:
192,192,86576,1,0,0:0:0:0:
320,192,86618,1,0,0:0:0:0:
448,192,86661,1,0,0:0:0:0:
64,192,86704,1,0,0:0:0:0:
192,192,86747,1,0,0:0:0:0:
320,192,86790,1,0,0:0:0:0:
448,192,86833,1,0,0:0:0:0:
64,192,86876,128,0,87218:0:0:0:0:
192,192,87218,128,0,87390:0:0:0:0:
64,192,87390,128,0,87561:0:0:0:0:
320,192,87561,128,0,87733:0:0:0:0:
192,192,87733,128,0,87904:0:0:0:0:
448,192,87904,128,0,88247:0:0:0:0:
192,192,88247,1,0,0:0:0:0:
64,192,88247,1,0,0:0:0:0:
320,192,88333,1,0,0:0:0:0:
448,192,88418,1,0,0:0:0:0:
320,192,88504,1,0,0:0:0:0:
192,192,88590,1,0,0:0:0:0:
64,192,88590,1,0,0:0:0:0:
448,192,88633,1,0,0:0:0:0:
320,192,88676,1,0,0:0:0:0:
192,192,88718,1,0,0:0:0:0:
64,192,88761,1,0,0:0:0:0:
320,192,88804,1,0,0:0:0:0:
448,192,88847,1,0,0:0:0:0:
64,192,88890,1,0,0:0:0:0:
192,192,88933,1,0,0:0:0:0:
320,192,88976,1,0,0:0:0:0:
448,192,89018,1,0,0:0:0:0:
192,192,89061,1,0,0:0:0:0:
64,192,89104,1,0,0:0:0:0:
448,192,89147,1,0,0:0:0:0:
320,192,89190,1,0,0:0:0:0:
192,192,89233,1,0,0:0:0:0:
64,192,89276,1,0,0:0:0:0:
448,192,89276,1,0,0:0:0:0:
320,192,89361,1,0,0:0:0:0:
64,192,89447,1,0,0:0:0:0:
448,192,89447,1,0,0:0:0:0:
192,192,89533,1,0,0:0:0:0:
192,192,89961,1,0,0:0:0:0:
64,192,89961,1,0,0:0:0:0:
320,192,90047,1,0,0:0:0:0:
448,192,90133,1,0,0:0:0:0:
192,192,90218,1,0,0:0:0:0:
64,192,90304,1,0,0:0:0:0:
320,192,90304,1,0,0:0:0:0:
448,192,90390,1,0,0:0:0:0:
320,192,90476,1,0,0:0:0:0:
192,192,90561,1,0,0:0:0:0:
64,192,90647,1,0,0:0:0:0:
320,192,90733,1,0,0:0:0:0:
192,192,90818,1,0,0:0:0:0:
448,192,90904,1,0,0:0:0:0:
320,192,90990,1,0,0:0:0:0:
64,192,90990,1,0,0:0:0:0:
448,192,91333,1,0,0:0:0:0:
320,192,91333,1,0,0:0:0:0:
192,192,91418,1,0,0:0:0:0:
64,192,91504,1,0,0:0:0:0:
320,192,91504,1,0,0:0:0:0:
448,192,91590,1,0,0:0:0:0:
320,192,91676,1,0,0:0:0:0:
192,192,91676,1,0,0:0:0:0:
64,192,91761,1,0,0:0:0:0:
448,192,91847,1,0,0:0:0:0:
192,192,91847,1,0,0:0:0:0:
320,192,91933,1,0,0:0:0:0:
192,192,92018,1,0,0:0:0:0:
64,192,92018,1,0,0:0:0:0:
448,192,92104,1,0,0:0:0:0:
320,192,92190,1,0,0:0:0:0:
192,192,92190,1,0,0:0:0:0:
64,192,92276,1,0,0:0:0:0:
320,192,92533,1,0,0:0:0:0:
192,192,92533,1,0,0:0:0:0:
448,192,92704,1,0,0:0:0:0:
64,192,92704,1,0,0:0:0:0:
192,192,92790,1,0,0:0:0:0:
320,192,92876,1,0,0:0:0:0:
192,192,92961,1,0,0:0:0:0:
64,192,93047,1,0,0:0:0:0:
448,192,93047,1,0,0:0:0:0:
320,192,93133,1,0,0:0:0:0:
192,192,93218,1,0,0:0:0:0:
320,192,93304,1,0,0:0:0:0:
448,192,93390,1,0,0:0:0:0:
192,192,93476,1,0,0:0:0:0:
320,192,93561,1,0,0:0:0:0:
64,192,93647,1,0,0:0:0:0:
192,192,93733,1,0,0:0:0:0:
448,192,93733,1,0,0:0:0:0:
192,192,94076,1,0,0:0:0:0:
64,192,94076,1,0,0:0:0:0:
320,192,94161,1,0,0:0:0:0:
448,192,94247,1,0,0:0:0:0:
320,192,94333,1,0,0:0:0:0:
64,192,94418,1,0,0:0:0:0:
448,192,94418,1,0,0:0:0:0:
192,192,94504,1,0,0:0:0:0:
320,192,94590,1,0,0:0:0:0:
448,192,94676,1,0,0:0:0:0:
192,192,94761,1,0,0:0:0:0:
64,192,94761,1,0,0:0:0:0:
320,192,94847,1,0,0:0:0:0:
448,192,94933,1,0,0:0:0:0:
64,192,94933,1,0,0:0:0:0:
192,192,95018,1,0,0:0:0:0:
320,192,95447,1,0,0:0:0:0:
448,192,95447,1,0,0:0:0:0:
192,192,95490,1,0,0:0:0:0:
64,192,95533,1,0,0:0:0:0:
448,192,95576,1,0,0:0:0:0:
320,192,95618,1,0,0:0:0:0:
64,192,95661,1,0,0:0:0:0:
192,192,95704,1,0,0:0:0:0:
320,192,95747,1,0,0:0:0:0:
448,192,95790,1,0,0:0:0:0:
64,192,95833,1,0,0:0:0:0:
192,192,95876,1,0,0:0:0:0:
448,192,95918,1,0,0:0:0:0:
320,192,95961,1,0,0:0:0:0:
192,192,96004,1,0,0:0:0:0:
64,192,96047,1,0,0:0:0:0:
448,192,96090,1,0,0:0:0:0:
320,192,96133,1,0,0:0:0:0:
192,192,96218,1,0,0:0:0:0:
64,192,96304,1,0,0:0:0:0:
192,192,96390,1,0,0:0:0:0:
448,192,96476,128,0,97333:0:0:0:0:
320,192,96476,1,0,0:0:0:0:
192,192,97161,1,0,0:0:0:0:
320,192,97161,1,0,0:0:0:0:
64,192,97161,1,0,0:0:0:0:
64,192,97333,128,0,97676:0:0:0:0:
192,192,97333,1,0,0:0:0:0:
320,192,97676,128,0,98018:0:0:0:0:
448,192,97676,1,0,0:0:0:0:
192,192,98018,1,0,0:0:0:0:
64,192,98018,1,0,0:0:0:0:
448,192,98018,1,0,0:0:0:0:
320,192,98190,1,0,0:0:0:0:
64,192,98190,1,0,0:0:0:0:
192,192,98361,128,0,98533:0:0:0:0:
448,192,98533,128,0,98704:0:0:0:0:
64,192,98533,1,0,0:0:0:0:
320,192,98533,1,0,0:0:0:0:
320,192,98704,128,0,98876:0:0:0:0:
64,192,98876,128,0,99218:0:0:0:0:
448,192,99218,1,0,0:0:0:0:
320,192,99218,1,0,0:0:0:0:
192,192,99304,1,0,0:0:0:0:
64,192,99304,1,0,0:0:0:0:
320,192,99390,1,0,0:0:0:0:
448,192,99390,1,0,0:0:0:0:
192,192,99476,1,0,0:0:0:0:
64,192,99476,1,0,0:0:0:0:
320,192,99561,1,0,0:0:0:0:
448,192,99561,1,0,0:0:0:0:
192,192,99647,1,0,0:0:0:0:
64,192,99733,1,0,0:0:0:0:
448,192,99818,1,0,0:0:0:0:
320,192,99904,1,0,0:0:0:0:
192,192,99904,1,0,0:0:0:0:
64,192,99990,1,0,0:0:0:0:
192,192,100076,1,0,0:0:0:0:
320,192,100161,1,0,0:0:0:0:
448,192,100247,1,0,0:0:0:0:
64,192,100247,1,0,0:0:0:0:
192,192,100333,1,0,0:0:0:0:
448,192,100418,1,0,0:0:0:0:
64,192,100418,1,0,0:0:0:0:
320,192,100504,1,0,0:0:0:0:
64,192,100933,1,0,0:0:0:0:
192,192,100933,1,0,0:0:0:0:
320,192,100976,1,0,0:0:0:0:
448,192,101018,1,0,0:0:0:0:
64,192,101061,1,0,0:0:0:0:
192,192,101104,1,0,0:0:0:0:
320,192,101147,1,0,0:0:0:0:
448,192,101190,1,0,0:0:0:0:
192,192,101233,1,0,0:0:0:0:
64,192,101276,1,0,0:0:0:0:
448,192,101318,1,0,0:0:0:0:
320,192,101361,1,0,0:0:0:0:
192,192,101404,1,0,0:0:0:0:
64,192,101447,1,0,0:0:0:0:
448,192,101490,1,0,0:0:0:0:
320,192,101533,1,0,0:0:0:0:
192,192,101576,1,0,0:0:0:0:
64,192,101618,1,0,0:0:0:0:
448,192,101704,1,0,0:0:0:0:
320,192,101790,1,0,0:0:0:0:
192,192,101876,1,0,0:0:0:0:
448,192,101961,1,0,0:0:0:0:
64,192,101961,1,0,0:0:0:0:
192,192,102304,1,0,0:0:0:0:
64,192,102304,1,0,0:0:0:0:
320,192,102390,1,0,0:0:0:0:
448,192,102476,1,0,0:0:0:0:
64,192,102476,1,0,0:0:0:0:
192,192,102561,1,0,0:0:0:0:
320,192,102647,1,0,0:0:0:0:
448,192,102647,1,0,0:0:0:0:
192,192,102733,1,0,0:0:0:0:
64,192,102818,1,0,0:0:0:0:
448,192,102818,1,0,0:0:0:0:
320,192,102904,1,0,0:0:0:0:
192,192,102990,1,0,0:0:0:0:
64,192,102990,1,0,0:0:0:0:
320,192,103076,1,0,0:0:0:0:
448,192,103161,1,0,0:0:0:0:
64,192,103161,1,0,0:0:0:0:
192,192,103247,1,0,0:0:0:0:
448,192,103504,1,0,0:0:0:0:
320,192,103504,1,0,0:0:0:0:
192,192,103676,1,0,0:0:0:0:
64,192,103676,1,0,0:0:0:0:
448,192,103761,1,0,0:0:0:0:
320,192,103847,1,0,0:0:0:0:
192,192,103933,1,0,0:0:0:0:
64,192,104018,1,0,0:0:0:0:
448,192,104018,1,0,0:0:0:0:
192,192,104104,1,0,0:0:0:0:
320,192,104190,1,0,0:0:0:0:
448,192,104276,1,0,0:0:0:0:
192,192,104361,1,0,0:0:0:0:
64,192,104361,1,0,0:0:0:0:
448,192,104447,1,0,0:0:0:0:
320,192,104533,1,0,0:0:0:0:
192,192,104618,1,0,0:0:0:0:
64,192,104704,1,0,0:0:0:0:
448,192,104704,1,0,0:0:0:0:
448,192,105047,1,0,0:0:0:0:
192,192,105047,1,0,0:0:0:0:
320,192,105133,1,0,0:0:0:0:
192,192,105218,1,0,0:0:0:0:
64,192,105304,1,0,0:0:0:0:
448,192,105390,1,0,0:0:0:0:
320,192,105390,1,0,0:0:0:0:
64,192,105476,1,0,0:0:0:0:
192,192,105561,1,0,0:0:0:0:
320,192,105647,1,0,0:0:0:0:
448,192,105733,1,0,0:0:0:0:
64,192,105733,1,0,0:0:0:0:
192,192,105818,1,0,0:0:0:0:
320,192,105904,1,0,0:0:0:0:
448,192,105904,1,0,0:0:0:0:
64,192,105990,1,0,0:0:0:0:
192,192,106418,1,0,0:0:0:0:
64,192,106418,1,0,0:0:0:0:
320,192,106461,1,0,0:0:0:0:
448,192,106504,1,0,0:0:0:0:
64,192,106547,1,0,0:0:0:0:
192,192,106590,1,0,0:0:0:0:
320,192,106633,1,0,0:0:0:0:
448,192,106676,1,0,0:0:0:0:
192,192,106718,1,0,0:0:0:0:
64,192,106761,1,0,0:0:0:0:
448,192,106804,1,0,0:0:0:0:
320,192,106847,1,0,0:0:0:0:
192,192,106890,1,0,0:0:0:0:
64,192,106933,1,0,0:0:0:0:
448,192,106976,1,0,0:0:0:0:
320,192,107018,1,0,0:0:0:0:
192,192,107061,1,0,0:0:0:0:
64,192,107104,1,0,0:0:0:0:
448,192,107190,1,0,0:0:0:0:
320,192,107276,1,0,0:0:0:0:
192,192,107361,1,0,0:0:0:0:
64,192,107447,128,0,108304:0:0:0:0:
448,192,107447,1,0,0:0:0:0:
192,192,108133,1,0,0:0:0:0:
320,192,108133,1,0,0:0:0:0:
448,192,108133,1,0,0:0:0:0:
192,192,108304,128,0,108647:0:0:0:0:
448,192,108304,1,0,0:0:0:0:
320,192,108647,128,0,109161:0:0:0:0:
64,192,108647,1,0,0:0:0:0:
64,192,109418,1,0,0:0:0:0:
192,192,109676,1,0,0:0:0:0:
448,192,109847,1,0,0:0:0:0:
320,192,109933,1,0,0:0:0:0:
192,192,110018,1,0,0:0:0:0:
448,192,110190,128,0,110533:0:0:0:0:
320,192,110190,1,0,0:0:0:0:
64,192,110190,1,0,0:0:0:0:
192,192,110361,1,0,0:0:0:0:
64,192,110361,1,0,0:0:0:0:
64,192,110533,128,0,110704:0:0:0:0:
192,192,110533,1,0,0:0:0:0:
320,192,110533,1,0,0:0:0:0:
320,192,110704,128,0,110876:0:0:0:0:
448,192,110704,1,0,0:0:0:0:
448,192,110876,1,0,0:0:0:0:
192,192,110876,1,0,0:0:0:0:
64,192,111047,128,0,111218:0:0:0:0:
448,192,111047,1,0,0:0:0:0:
192,192,111218,128,0,111390:0:0:0:0:
320,192,111218,1,0,0:0:0:0:
448,192,111218,1,0,0:0:0:0:
320,192,111390,128,0,111561:0:0:0:0:
448,192,111390,1,0,0:0:0:0:
448,192,111561,128,0,111733:0:0:0:0:
64,192,111561,1,0,0:0:0:0:
192,192,111733,128,0,111904:0:0:0:0:
64,192,111733,1,0,0:0:0:0:
64,192,111904,128,0,112247:0:0:0:0:
320,192,111904,1,0,0:0:0:0:
448,192,111904,1,0,0:0:0:0:
448,192,112076,1,0,0:0:0:0:
320,192,112076,1,0,0:0:0:0:
320,192,112247,128,0,112590:0:0:0:0:
192,192,112247,1,0,0:0:0:0:
192,192,112418,1,0,0:0:0:0:
64,192,112418,1,0,0:0:0:0:
64,192,112590,128,0,112761:0:0:0:0:
192,192,112590,1,0,0:0:0:0:
448,192,112590,1,0,0:0:0:0:
192,192,112761,128,0,112933:0:0:0:0:
320,192,112761,1,0,0:0:0:0:
320,192,112933,128,0,113104:0:0:0:0:
64,192,112933,1,0,0:0:0:0:
192,192,113104,128,0,113276:0:0:0:0:
448,192,113104,1,0,0:0:0:0:
64,192,113276,128,0,113447:0:0:0:0:
448,192,113276,1,0,0:0:0:0:
320,192,113276,1,0,0:0:0:0:
320,192,113447,128,0,113618:0:0:0:0:
192,192,113447,1,0,0:0:0:0:
448,192,113618,128,0,113790:0:0:0:0:
192,192,113618,1,0,0:0:0:0:
320,192,113790,128,0,113961:0:0:0:0:
64,192,113790,1,0,0:0:0:0:
192,192,113961,128,0,114133:0:0:0:0:
64,192,113961,1,0,0:0:0:0:
448,192,113961,1,0,0:0:0:0:
64,192,114133,128,0,114304:0:0:0:0:
320,192,114133,1,0,0:0:0:0:
448,192,114304,128,0,114476:0:0:0:0:
192,192,114304,1,0,0:0:0:0:
320,192,114476,128,0,114647:0:0:0:0:
64,192,114476,1,0,0:0:0:0:
192,192,114647,128,0,114990:0:0:0:0:
448,192,114647,1,0,0:0:0:0:
64,192,114647,1,0,0:0:0:0:
320,192,114818,1,0,0:0:0:0:
64,192,114818,1,0,0:0:0:0:
64,192,114990,128,0,115161:0:0:0:0:
448,192,114990,1,0,0:0:0:0:
448,192,115161,128,0,115333:0:0:0:0:
192,192,115161,1,0,0:0:0:0:
320,192,115333,128,0,115676:0:0:0:0:
192,192,115333,1,0,0:0:0:0:
64,192,115333,1,0,0:0:0:0:
192,192,115504,1,0,0:0:0:0:
64,192,115504,1,0,0:0:0:0:
64,192,115676,128,0,115847:0:0:0:0:
448,192,115676,1,0,0:0:0:0:
192,192,115847,128,0,116018:0:0:0:0:
320,192,115847,1,0,0:0:0:0:
320,192,116018,128,0,116190:0:0:0:0:
64,192,116018,1,0,0:0:0:0:
448,192,116018,1,0,0:0:0:0:
448,192,116190,128,0,116361:0:0:0:0:
64,192,116190,1,0,0:0:0:0:
320,192,116361,128,0,116533:0:0:0:0:
64,192,116361,1,0,0:0:0:0:
64,192,116533,128,0,116704:0:0:0:0:
192,192,116533,1,0,0:0:0:0:
448,192,116704,128,0,116876:0:0:0:0:
192,192,116704,1,0,0:0:0:0:
320,192,116704,1,0,0:0:0:0:
192,192,116876,128,0,117047:0:0:0:0:
320,192,116876,1,0,0:0:0:0:
320,192,117047,128,0,117561:0:0:0:0:
64,192,117047,1,0,0:0:0:0:
448,192,117218,1,0,0:0:0:0:
64,192,117218,1,0,0:0:0:0:
192,192,117390,1,0,0:0:0:0:
448,192,117390,1,0,0:0:0:0:
64,192,117390,1,0,0:0:0:0:
64,192,117561,128,0,117733:0:0:0:0:
448,192,117561,1,0,0:0:0:0:
448,192,117733,1,0,0:0:0:0:
192,192,117733,1,0,0:0:0:0:
320,192,117904,128,0,118076:0:0:0:0:
64,192,117904,1,0,0:0:0:0:
192,192,118076,128,0,118247:0:0:0:0:
64,192,118076,1,0,0:0:0:0:
448,192,118076,1,0,0:0:0:0:
64,192,118247,128,0,118418:0:0:0:0:
320,192,118247,1,0,0:0:0:0:
448,192,118418,128,0,118590:0:0:0:0:
320,192,118418,1,0,0:0:0:0:
320,192,118590,128,0,118761:0:0:0:0:
64,192,118590,1,0,0:0:0:0:
192,192,118761,128,0,118933:0:0:0:0:
64,192,118761,1,0,0:0:0:0:
448,192,118761,1,0,0:0:0:0:
320,192,118933,128,0,119104:0:0:0:0:
448,192,118933,1,0,0:0:0:0:
192,192,119104,128,0,119276:0:0:0:0:
448,192,119104,1,0,0:0:0:0:
64,192,119276,128,0,119447:0:0:0:0:
320,192,119276,1,0,0:0:0:0:
320,192,119447,128,0,119618:0:0:0:0:
192,192,119447,1,0,0:0:0:0:
448,192,119447,1,0,0:0:0:0:
448,192,119618,128,0,120133:0:0:0:0:
192,192,119618,1,0,0:0:0:0:
64,192,119618,1,0,0:0:0:0:
320,192,119961,1,0,0:0:0:0:
192,192,119961,1,0,0:0:0:0:
192,192,120133,1,0,0:0:0:0:
64,192,120133,1,0,0:0:0:0:
320,192,120133,1,0,0:0:0:0:
320,192,120304,128,0,120476:0:0:0:0:
64,192,120476,1,0,0:0:0:0:
192,192,120561,1,0,0:0:0:0:
448,192,120647,128,0,120818:0:0:0:0:
320,192,120647,1,0,0:0:0:0:
64,192,120733,1,0,0:0:0:0:
192,192,120818,128,0,120990:0:0:0:0:
320,192,120818,1,0,0:0:0:0:
64,192,120990,128,0,121161:0:0:0:0:
448,192,121161,128,0,121504:0:0:0:0:
64,192,121504,128,0,121676:0:0:0:0:
192,192,121504,1,0,0:0:0:0:
320,192,121504,1,0,0:0:0:0:
320,192,121676,128,0,121847:0:0:0:0:
448,192,121676,1,0,0:0:0:0:
192,192,121847,1,0,0:0:0:0:
64,192,121847,1,0,0:0:0:0:
64,192,122018,128,0,122190:0:0:0:0:
448,192,122018,1,0,0:0:0:0:
192,192,122190,128,0,122361:0:0:0:0:
320,192,122190,1,0,0:0:0:0:
448,192,122190,1,0,0:0:0:0:
320,192,122361,128,0,122533:0:0:0:0:
64,192,122361,1,0,0:0:0:0:
448,192,122533,128,0,122704:0:0:0:0:
64,192,122533,1,0,0:0:0:0:
192,192,122704,128,0,122876:0:0:0:0:
320,192,122704,1,0,0:0:0:0:
64,192,122876,128,0,123218:0:0:0:0:
320,192,122876,1,0,0:0:0:0:
448,192,122876,1,0,0:0:0:0:
192,192,123047,1,0,0:0:0:0:
448,192,123047,1,0,0:0:0:0:
320,192,123218,128,0,123561:0:0:0:0:
448,192,123218,1,0,0:0:0:0:
192,192,123390,1,0,0:0:0:0:
64,192,123390,1,0,0:0:0:0:
64,192,123561,128,0,123733:0:0:0:0:
192,192,123561,1,0,0:0:0:0:
448,192,123561,1,0,0:0:0:0:
192,192,123733,128,0,123904:0:0:0:0:
448,192,123733,1,0,0:0:0:0:
320,192,123904,128,0,124076:0:0:0:0:
448,192,123904,1,0,0:0:0:0:
192,192,124076,128,0,124247:0:0:0:0:
64,192,124076,1,0,0:0:0:0:
64,192,124247,128,0,124418:0:0:0:0:
448,192,124247,1,0,0:0:0:0:
320,192,124247,1,0,0:0:0:0:
320,192,124418,128,0,124590:0:0:0:0:
192,192,124418,1,0,0:0:0:0:
448,192,124590,128,0,124761:0:0:0:0:
64,192,124590,1,0,0:0:0:0:
320,192,124761,128,0,124933:0:0:0:0:
192,192,124761,1,0,0:0:0:0:
192,192,124933,128,0,125104:0:0:0:0:
64,192,124933,1,0,0:0:0:0:
448,192,124933,1,0,0:0:0:0:
64,192,125104,128,0,125276:0:0:0:0:
320,192,125104,1,0,0:0:0:0:
448,192,125276,128,0,125447:0:0:0:0:
192,192,125276,1,0,0:0:0:0:
320,192,125447,128,0,125618:0:0:0:0:
64,192,125447,1,0,0:0:0:0:
192,192,125618,128,0,125961:0:0:0:0:
64,192,125618,1,0,0:0:0:0:
448,192,125618,1,0,0:0:0:0:
448,192,125790,1,0,0:0:0:0:
320,192,125790,1,0,0:0:0:0:
64,192,125961,128,0,126133:0:0:0:0:
320,192,125961,1,0,0:0:0:0:
448,192,126133,128,0,126304:0:0:0:0:
192,192,126133,1,0,0:0:0:0:
320,192,126304,128,0,126647:0:0:0:0:
64,192,126647,128,0,126818:0:0:0:0:
192,192,126647,1,0,0:0:0:0:
192,192,126818,128,0,126990:0:0:0:0:
448,192,126818,1,0,0:0:0:0:
320,192,126990,128,0,127161:0:0:0:0:
64,192,126990,1,0,0:0:0:0:
448,192,126990,1,0,0:0:0:0:
448,192,127161,128,0,127333:0:0:0:0:
64,192,127161,1,0,0:0:0:0:
320,192,127333,128,0,127504:0:0:0:0:
64,192,127333,1,0,0:0:0:0:
64,192,127504,128,0,127676:0:0:0:0:
192,192,127504,1,0,0:0:0:0:
448,192,127676,128,0,127847:0:0:0:0:
192,192,127676,1,0,0:0:0:0:
320,192,127676,1,0,0:0:0:0:
192,192,127847,128,0,128018:0:0:0:0:
64,192,127847,1,0,0:0:0:0:
320,192,128018,128,0,128533:0:0:0:0:
448,192,128018,1,0,0:0:0:0:
64,192,128190,1,0,0:0:0:0:
192,192,128190,1,0,0:0:0:0:
448,192,128361,1,0,0:0:0:0:
192,192,128361,1,0,0:0:0:0:
64,192,128361,1,0,0:0:0:0:
64,192,128533,128,0,128704:0:0:0:0:
448,192,128533,1,0,0:0:0:0:
192,192,128704,1,0,0:0:0:0:
448,192,128704,1,0,0:0:0:0:
320,192,128876,128,0,129047:0:0:0:0:
64,192,128876,1,0,0:0:0:0:
192,192,129047,128,0,129218:0:0:0:0:
448,192,129047,1,0,0:0:0:0:
64,192,129047,1,0,0:0:0:0:
64,192,129218,128,0,129390:0:0:0:0:
320,192,129218,1,0,0:0:0:0:
448,192,129390,128,0,129561:0:0:0:0:
192,192,129390,1,0,0:0:0:0:
320,192,129561,128,0,129733:0:0:0:0:
64,192,129561,1,0,0:0:0:0:
192,192,129733,128,0,129904:0:0:0:0:
64,192,129733,1,0,0:0:0:0:
448,192,129733,1,0,0:0:0:0:
320,192,129904,128,0,130076:0:0:0:0:
448,192,129904,1,0,0:0:0:0:
192,192,130076,128,0,130247:0:0:0:0:
64,192,130076,1,0,0:0:0:0:
64,192,130247,128,0,130418:0:0:0:0:
320,192,130247,1,0,0:0:0:0:
320,192,130418,128,0,130590:0:0:0:0:
192,192,130418,1,0,0:0:0:0:
448,192,130418,1,0,0:0:0:0:
448,192,130590,128,0,131104:0:0:0:0:
192,192,130590,1,0,0:0:0:0:
64,192,130590,1,0,0:0:0:0:
320,192,131276,128,0,131447:0:0:0:0:
448,192,131618,128,0,131790:0:0:0:0:
192,192,131790,128,0,131961:0:0:0:0:
64,192,131961,128,0,132133:0:0:0:0:
448,192,132133,128,0,132647:0:0:0:0:
192,192,132647,128,0,133504:0:0:0:0:
448,192,134190,1,0,0:0:0:0:
64,192,134190,1,0,0:0:0:0:
192,192,136933,1,0,0:0:0:0:
320,192,136933,1,0,0:0:0:0:
64,192,137618,128,0,138133:0:0:0:0:
320,192,138133,128,0,138990:0:0:0:0:
192,192,139676,1,0,0:0:0:0:
64,192,139676,1,0,0:0:0:0:
320,192,142418,1,0,0:0:0:0:
448,192,142418,1,0,0:0:0:0:
320,192,143104,128,0,143618:0:0:0:0:
192,192,143618,128,0,144476:0:0:0:0:
448,192,143961,128,0,144133:0:0:0:0:
64,192,144304,128,0,144476:0:0:0:0:
320,192,144476,128,0,144818:0:0:0:0:
192,192,144818,128,0,145161:0:0:0:0:
64,192,145161,1,0,0:0:0:0:
320,192,145161,128,0,145333:0:0:0:0:
448,192,145333,128,0,145504:0:0:0:0:
192,192,145504,128,0,145676:0:0:0:0:
64,192,145676,128,0,146018:0:0:0:0:
320,192,146018,128,0,146190:0:0:0:0:
448,192,146190,128,0,146361:0:0:0:0:
192,192,146361,128,0,146533:0:0:0:0:
320,192,146533,128,0,147047:0:0:0:0:
64,192,147047,128,0,147390:0:0:0:0:
192,192,147390,128,0,147733:0:0:0:0:
448,192,147733,128,0,147904:0:0:0:0:
64,192,147904,1,0,0:0:0:0:
192,192,147904,128,0,148076:0:0:0:0:
448,192,148076,128,0,148247:0:0:0:0:
64,192,148247,128,0,148590:0:0:0:0:
192,192,148590,128,0,149104:0:0:0:0:
448,192,148933,128,0,149104:0:0:0:0:
64,192,149104,128,0,149961:0:0:0:0:
320,192,149104,128,0,149276:0:0:0:0:
192,192,149447,128,0,149618:0:0:0:0:
448,192,149790,128,0,149961:0:0:0:0:
320,192,149961,128,0,150304:0:0:0:0:
64,192,150304,128,0,150647:0:0:0:0:
192,192,150647,1,0,0:0:0:0:
448,192,150647,128,0,150818:0:0:0:0:
64,192,150818,128,0,150990:0:0:0:0:
320,192,150990,128,0,151161:0:0:0:0:
192,192,151161,128,0,151504:0:0:0:0:
448,192,151676,128,0,152018:0:0:0:0:
64,192,152018,128,0,152361:0:0:0:0:
448,192,152361,128,0,152447:0:0:0:0:
320,192,152447,128,0,152533:0:0:0:0:
192,192,152533,128,0,152618:0:0:0:0:
64,192,152618,128,0,152704:0:0:0:0:
448,192,152704,128,0,153047:0:0:0:0:
64,192,153047,128,0,153218:0:0:0:0:
192,192,153218,128,0,153390:0:0:0:0:
448,192,153390,128,0,153561:0:0:0:0:
64,192,153390,1,0,0:0:0:0:
320,192,153561,128,0,153733:0:0:0:0:
64,192,153733,128,0,154076:0:0:0:0:
320,192,154076,128,0,154418:0:0:0:0:
448,192,154076,1,0,0:0:0:0:
448,192,154418,128,0,154590:0:0:0:0:
192,192,154418,1,0,0:0:0:0:
320,192,154590,128,0,154933:0:0:0:0:
192,192,154590,1,0,0:0:0:0:
64,192,154676,1,0,0:0:0:0:
448,192,154761,1,0,0:0:0:0:
64,192,154847,1,0,0:0:0:0:
192,192,154933,128,0,155104:0:0:0:0:
448,192,154933,1,0,0:0:0:0:
64,192,155104,128,0,155276:0:0:0:0:
320,192,155104,1,0,0:0:0:0:
448,192,155276,128,0,155447:0:0:0:0:
192,192,155447,128,0,155618:0:0:0:0:
64,192,155447,1,0,0:0:0:0:
320,192,155618,128,0,155790:0:0:0:0:
448,192,155790,128,0,156133:0:0:0:0:
192,192,155790,1,0,0:0:0:0:
320,192,155961,1,0,0:0:0:0:
64,192,155961,1,0,0:0:0:0:
192,192,156047,1,0,0:0:0:0:
64,192,156133,128,0,156476:0:0:0:0:
192,192,156218,1,0,0:0:0:0:
448,192,156304,1,0,0:0:0:0:
320,192,156304,1,0,0:0:0:0:
320,192,156476,128,0,156647:0:0:0:0:
192,192,156476,1,0,0:0:0:0:
192,192,156647,128,0,156818:0:0:0:0:
64,192,156818,128,0,156990:0:0:0:0:
320,192,156818,1,0,0:0:0:0:
448,192,156990,128,0,157161:0:0:0:0:
192,192,157161,128,0,157333:0:0:0:0:
64,192,157161,1,0,0:0:0:0:
320,192,157333,128,0,157504:0:0:0:0:
448,192,157333,1,0,0:0:0:0:
192,192,157418,1,0,0:0:0:0:
64,192,157504,128,0,157676:0:0:0:0:
448,192,157504,1,0,0:0:0:0:
320,192,157590,1,0,0:0:0:0:
192,192,157676,128,0,157847:0:0:0:0:
448,192,157676,1,0,0:0:0:0:
320,192,157847,128,0,158018:0:0:0:0:
64,192,157847,1,0,0:0:0:0:
448,192,158018,128,0,158190:0:0:0:0:
64,192,158190,128,0,158361:0:0:0:0:
320,192,158190,1,0,0:0:0:0:
192,192,158361,128,0,158533:0:0:0:0:
320,192,158533,128,0,158876:0:0:0:0:
64,192,158533,1,0,0:0:0:0:
192,192,158704,1,0,0:0:0:0:
448,192,158704,1,0,0:0:0:0:
64,192,158790,1,0,0:0:0:0:
448,192,158876,128,0,159047:0:0:0:0:
320,192,158961,1,0,0:0:0:0:
64,192,158961,1,0,0:0:0:0:
192,192,159047,128,0,159218:0:0:0:0:
448,192,159133,1,0,0:0:0:0:
320,192,159218,128,0,159561:0:0:0:0:
64,192,159218,1,0,0:0:0:0:
192,192,159390,1,0,0:0:0:0:
64,192,159390,1,0,0:0:0:0:
448,192,159561,128,0,159733:0:0:0:0:
192,192,159561,1,0,0:0:0:0:
320,192,159733,128,0,159904:0:0:0:0:
192,192,159904,128,0,160076:0:0:0:0:
448,192,159904,1,0,0:0:0:0:
64,192,160076,128,0,160247:0:0:0:0:
448,192,160076,1,0,0:0:0:0:
320,192,160161,1,0,0:0:0:0:
192,192,160247,128,0,160418:0:0:0:0:
448,192,160247,1,0,0:0:0:0:
320,192,160333,1,0,0:0:0:0:
64,192,160418,128,0,160590:0:0:0:0:
448,192,160418,1,0,0:0:0:0:
320,192,160590,128,0,160761:0:0:0:0:
192,192,160590,1,0,0:0:0:0:
192,192,160761,128,0,160933:0:0:0:0:
448,192,160933,128,0,161447:0:0:0:0:
320,192,160933,1,0,0:0:0:0:
64,192,161276,1,0,0:0:0:0:
320,192,161447,128,0,161618:0:0:0:0:
192,192,161447,1,0,0:0:0:0:
64,192,161533,1,0,0:0:0:0:
448,192,161618,1,0,0:0:0:0:
320,192,161704,1,0,0:0:0:0:
192,192,161790,128,0,161961:0:0:0:0:
64,192,161790,1,0,0:0:0:0:
320,192,161961,128,0,162133:0:0:0:0:
64,192,161961,1,0,0:0:0:0:
448,192,162133,128,0,162304:0:0:0:0:
64,192,162304,128,0,162476:0:0:0:0:
320,192,162304,1,0,0:0:0:0:
192,192,162476,128,0,162647:0:0:0:0:
320,192,162647,128,0,162818:0:0:0:0:
448,192,162647,1,0,0:0:0:0:
192,192,162818,128,0,162990:0:0:0:0:
64,192,162818,1,0,0:0:0:0:
448,192,162904,1,0,0:0:0:0:
320,192,162990,128,0,163161:0:0:0:0:
64,192,162990,1,0,0:0:0:0:
192,192,163076,1,0,0:0:0:0:
448,192,163161,128,0,163333:0:0:0:0:
64,192,163161,1,0,0:0:0:0:
192,192,163333,128,0,163504:0:0:0:0:
320,192,163333,1,0,0:0:0:0:
64,192,163504,128,0,164018:0:0:0:0:
448,192,163676,1,0,0:0:0:0:
320,192,163676,1,0,0:0:0:0:
448,192,164018,1,0,0:0:0:0:
320,192,164018,1,0,0:0:0:0:
192,192,164190,128,0,164361:0:0:0:0:
320,192,164361,1,0,0:0:0:0:
448,192,164361,1,0,0:0:0:0:
448,192,164447,1,0,0:0:0:0:
320,192,164447,1,0,0:0:0:0:
192,192,164533,128,0,164704:0:0:0:0:
64,192,164618,1,0,0:0:0:0:
448,192,164618,1,0,0:0:0:0:
320,192,164704,128,0,164876:0:0:0:0:
64,192,164790,1,0,0:0:0:0:
448,192,164876,128,0,165047:0:0:0:0:
192,192,164876,1,0,0:0:0:0:
320,192,164961,1,0,0:0:0:0:
192,192,164961,1,0,0:0:0:0:
64,192,165047,128,0,165390:0:0:0:0:
320,192,165047,1,0,0:0:0:0:
320,192,165218,1,0,0:0:0:0:
192,192,165390,1,0,0:0:0:0:
448,192,165390,128,0,165561:0:0:0:0:
320,192,165561,128,0,165904:0:0:0:0:
192,192,165561,1,0,0:0:0:0:
64,192,165647,1,0,0:0:0:0:
192,192,165733,1,0,0:0:0:0:
448,192,165818,1,0,0:0:0:0:
192,192,165904,128,0,166076:0:0:0:0:
64,192,165904,1,0,0:0:0:0:
320,192,166076,1,0,0:0:0:0:
64,192,166076,128,0,166247:0:0:0:0:
448,192,166247,128,0,166418:0:0:0:0:
64,192,166418,1,0,0:0:0:0:
192,192,166418,128,0,166590:0:0:0:0:
320,192,166590,128,0,166761:0:0:0:0:
192,192,166761,1,0,0:0:0:0:
448,192,166761,128,0,167104:0:0:0:0:
320,192,166933,1,0,0:0:0:0:
64,192,166933,1,0,0:0:0:0:
192,192,167018,1,0,0:0:0:0:
64,192,167104,128,0,167447:0:0:0:0:
320,192,167190,1,0,0:0:0:0:
448,192,167276,1,0,0:0:0:0:
192,192,167276,1,0,0:0:0:0:
192,192,167447,1,0,0:0:0:0:
320,192,167447,128,0,167618:0:0:0:0:
192,192,167618,128,0,167790:0:0:0:0:
320,192,167790,1,0,0:0:0:0:
64,192,167790,128,0,167961:0:0:0:0:
448,192,167961,128,0,168133:0:0:0:0:
64,192,168133,1,0,0:0:0:0:
192,192,168133,128,0,168304:0:0:0:0:
320,192,168304,128,0,168476:0:0:0:0:
448,192,168390,1,0,0:0:0:0:
64,192,168476,128,0,168647:0:0:0:0:
320,192,168561,1,0,0:0:0:0:
448,192,168647,1,0,0:0:0:0:
192,192,168647,128,0,168818:0:0:0:0:
64,192,168818,1,0,0:0:0:0:
320,192,168818,128,0,168990:0:0:0:0:
448,192,168990,128,0,169161:0:0:0:0:
320,192,169161,1,0,0:0:0:0:
64,192,169161,128,0,169333:0:0:0:0:
192,192,169333,128,0,169504:0:0:0:0:
64,192,169504,1,0,0:0:0:0:
320,192,169504,128,0,169847:0:0:0:0:
64,192,169676,1,0,0:0:0:0:
192,192,169761,1,0,0:0:0:0:
64,192,169847,1,0,0:0:0:0:
448,192,169847,128,0,170018:0:0:0:0:
320,192,169933,1,0,0:0:0:0:
192,192,169933,1,0,0:0:0:0:
64,192,170018,128,0,170190:0:0:0:0:
192,192,170104,1,0,0:0:0:0:
448,192,170190,1,0,0:0:0:0:
320,192,170190,128,0,170533:0:0:0:0:
192,192,170361,1,0,0:0:0:0:
64,192,170361,1,0,0:0:0:0:
192,192,170533,1,0,0:0:0:0:
448,192,170533,128,0,170704:0:0:0:0:
320,192,170704,128,0,170876:0:0:0:0:
448,192,170876,1,0,0:0:0:0:
192,192,170876,128,0,171047:0:0:0:0:
64,192,171047,128,0,171218:0:0:0:0:
448,192,171047,1,0,0:0:0:0:
320,192,171133,1,0,0:0:0:0:
192,192,171218,128,0,171390:0:0:0:0:
448,192,171218,1,0,0:0:0:0:
320,192,171304,1,0,0:0:0:0:
448,192,171390,1,0,0:0:0:0:
64,192,171390,128,0,171561:0:0:0:0:
448,192,171561,1,0,0:0:0:0:
320,192,171561,128,0,171733:0:0:0:0:
192,192,171733,128,0,171904:0:0:0:0:
320,192,171904,1,0,0:0:0:0:
448,192,171904,128,0,172418:0:0:0:0:
192,192,172076,1,0,0:0:0:0:
64,192,172247,1,0,0:0:0:0:
192,192,172418,1,0,0:0:0:0:
320,192,172418,128,0,172590:0:0:0:0:
64,192,172504,1,0,0:0:0:0:
448,192,172590,1,0,0:0:0:0:
320,192,172676,1,0,0:0:0:0:
64,192,172761,1,0,0:0:0:0:
192,192,172761,128,0,172933:0:0:0:0:
64,192,172933,1,0,0:0:0:0:
320,192,172933,128,0,173104:0:0:0:0:
448,192,173104,128,0,173276:0:0:0:0:
64,192,173276,128,0,173447:0:0:0:0:
320,192,173276,1,0,0:0:0:0:
192,192,173447,128,0,173618:0:0:0:0:
448,192,173447,1,0,0:0:0:0:
320,192,173618,128,0,173790:0:0:0:0:
64,192,173704,1,0,0:0:0:0:
448,192,173704,1,0,0:0:0:0:
192,192,173790,128,0,173961:0:0:0:0:
448,192,173790,1,0,0:0:0:0:
320,192,173961,128,0,174133:0:0:0:0:
64,192,173961,1,0,0:0:0:0:
448,192,174133,128,0,174304:0:0:0:0:
64,192,174133,1,0,0:0:0:0:
320,192,174218,1,0,0:0:0:0:
192,192,174218,1,0,0:0:0:0:
192,192,174304,128,0,174476:0:0:0:0:
64,192,174304,1,0,0:0:0:0:
320,192,174390,1,0,0:0:0:0:
448,192,174390,1,0,0:0:0:0:
64,192,174476,128,0,174990:0:0:0:0:
192,192,174561,1,0,0:0:0:0:
320,192,174561,1,0,0:0:0:0:
192,192,174818,1,0,0:0:0:0:
448,192,174904,1,0,0:0:0:0:
320,192,174990,1,0,0:0:0:0:
192,192,174990,1,0,0:0:0:0:
192,192,175161,128,0,175333:0:0:0:0:
448,192,175161,1,0,0:0:0:0:
320,192,175247,1,0,0:0:0:0:
448,192,175333,1,0,0:0:0:0:
64,192,175418,1,0,0:0:0:0:
320,192,175418,1,0,0:0:0:0:
192,192,175504,128,0,175676:0:0:0:0:
448,192,175504,1,0,0:0:0:0:
64,192,175590,1,0,0:0:0:0:
320,192,175676,128,0,175847:0:0:0:0:
448,192,175676,1,0,0:0:0:0:
448,192,175847,128,0,176018:0:0:0:0:
64,192,176018,128,0,176361:0:0:0:0:
192,192,176018,1,0,0:0:0:0:
320,192,176190,1,0,0:0:0:0:
448,192,176361,1,0,0:0:0:0:
192,192,176361,1,0,0:0:0:0:
320,192,176533,1,0,0:0:0:0:
192,192,176704,1,0,0:0:0:0:
448,192,176876,128,0,177047:0:0:0:0:
192,192,177047,1,0,0:0:0:0:
320,192,177047,1,0,0:0:0:0:
64,192,177218,128,0,177390:0:0:0:0:
192,192,177390,128,0,177561:0:0:0:0:
320,192,177561,1,0,0:0:0:0:
448,192,177733,128,0,178076:0:0:0:0:
64,192,177733,1,0,0:0:0:0:
192,192,177904,1,0,0:0:0:0:
64,192,178076,128,0,178247:0:0:0:0:
320,192,178247,128,0,178418:0:0:0:0:
192,192,178418,128,0,178590:0:0:0:0:
448,192,178418,1,0,0:0:0:0:
64,192,178590,128,0,178933:0:0:0:0:
320,192,178761,1,0,0:0:0:0:
448,192,178933,128,0,179104:0:0:0:0:
320,192,179104,128,0,179276:0:0:0:0:
64,192,179104,1,0,0:0:0:0:
448,192,179276,128,0,179447:0:0:0:0:
192,192,179447,128,0,179790:0:0:0:0:
320,192,179618,1,0,0:0:0:0:
64,192,179790,1,0,0:0:0:0:
448,192,179790,1,0,0:0:0:0:
320,192,179961,128,0,180304:0:0:0:0:
192,192,180133,1,0,0:0:0:0:
64,192,180304,128,0,180647:0:0:0:0:
448,192,180476,1,0,0:0:0:0:
320,192,180476,1,0,0:0:0:0:
192,192,180647,128,0,180818:0:0:0:0:
448,192,180818,128,0,180990:0:0:0:0:
320,192,180990,128,0,181161:0:0:0:0:
64,192,181161,128,0,181504:0:0:0:0:
192,192,181161,1,0,0:0:0:0:
320,192,181333,1,0,0:0:0:0:
448,192,181504,128,0,181847:0:0:0:0:
192,192,181504,1,0,0:0:0:0:
320,192,181676,1,0,0:0:0:0:
64,192,181847,128,0,182018:0:0:0:0:
192,192,181847,1,0,0:0:0:0:
320,192,182018,128,0,182190:0:0:0:0:
192,192,182190,1,0,0:0:0:0:
64,192,182190,1,0,0:0:0:0:
448,192,182361,128,0,182533:0:0:0:0:
320,192,182533,1,0,0:0:0:0:
192,192,182533,1,0,0:0:0:0:
64,192,182704,128,0,182876:0:0:0:0:
192,192,182876,128,0,183218:0:0:0:0:
448,192,182876,1,0,0:0:0:0:
320,192,183047,1,0,0:0:0:0:
448,192,183218,128,0,183561:0:0:0:0:
64,192,183218,1,0,0:0:0:0:
320,192,183390,1,0,0:0:0:0:
192,192,183561,128,0,183733:0:0:0:0:
64,192,183561,1,0,0:0:0:0:
64,192,183733,128,0,183904:0:0:0:0:
320,192,183904,128,0,184076:0:0:0:0:
192,192,183904,1,0,0:0:0:0:
448,192,183904,1,0,0:0:0:0:
448,192,184076,128,0,184247:0:0:0:0:
64,192,184247,1,0,0:0:0:0:
192,192,184247,1,0,0:0:0:0:
320,192,184418,1,0,0:0:0:0:
64,192,184590,128,0,184933:0:0:0:0:
448,192,184590,1,0,0:0:0:0:
192,192,184761,1,0,0:0:0:0:
448,192,184933,128,0,185276:0:0:0:0:
320,192,184933,1,0,0:0:0:0:
192,192,185104,1,0,0:0:0:0:
64,192,185276,128,0,185361:0:0:0:0:
320,192,185276,1,0,0:0:0:0:
192,192,185361,128,0,185447:0:0:0:0:
320,192,185447,128,0,185533:0:0:0:0:
448,192,185533,128,0,185618:0:0:0:0:
64,192,185618,128,0,185961:0:0:0:0:
192,192,185618,1,0,0:0:0:0:
448,192,185790,1,0,0:0:0:0:
320,192,185961,128,0,186133:0:0:0:0:
192,192,185961,1,0,0:0:0:0:
192,192,186133,128,0,186304:0:0:0:0:
448,192,186304,128,0,186476:0:0:0:0:
320,192,186304,1,0,0:0:0:0:
64,192,186476,128,0,186647:0:0:0:0:
320,192,186647,128,0,186990:0:0:0:0:
192,192,186647,1,0,0:0:0:0:
448,192,186818,1,0,0:0:0:0:
448,192,186990,128,0,187333:0:0:0:0:
64,192,186990,1,0,0:0:0:0:
64,192,187247,1,0,0:0:0:0:
192,192,187247,1,0,0:0:0:0:
192,192,187333,1,0,0:0:0:0:
64,192,187333,1,0,0:0:0:0:
448,192,187504,1,0,0:0:0:0:
320,192,187504,1,0,0:0:0:0:
320,192,187676,1,0,0:0:0:0:
192,192,187676,1,0,0:0:0:0:
64,192,187847,128,0,188018:0:0:0:0:
192,192,188018,1,0,0:0:0:0:
320,192,188018,1,0,0:0:0:0:
448,192,188190,128,0,188361:0:0:0:0:
320,192,188361,128,0,188533:0:0:0:0:
64,192,188361,1,0,0:0:0:0:
448,192,188618,1,0,0:0:0:0:
192,192,188618,1,0,0:0:0:0:
64,192,188704,128,0,189047:0:0:0:0:
320,192,188704,1,0,0:0:0:0:
192,192,188876,1,0,0:0:0:0:
448,192,188876,1,0,0:0:0:0:
448,192,189047,128,0,189218:0:0:0:0:
320,192,189133,1,0,0:0:0:0:
64,192,189133,1,0,0:0:0:0:
192,192,189218,128,0,189390:0:0:0:0:
320,192,189390,128,0,189561:0:0:0:0:
448,192,189390,1,0,0:0:0:0:
448,192,189561,128,0,189904:0:0:0:0:
192,192,189733,1,0,0:0:0:0:
64,192,189733,1,0,0:0:0:0:
320,192,189733,1,0,0:0:0:0:
64,192,189904,128,0,190076:0:0:0:0:
320,192,189990,1,0,0:0:0:0:
192,192,189990,1,0,0:0:0:0:
192,192,190076,128,0,190247:0:0:0:0:
320,192,190076,1,0,0:0:0:0:
64,192,190247,128,0,190418:0:0:0:0:
448,192,190247,1,0,0:0:0:0:
320,192,190418,128,0,190761:0:0:0:0:
192,192,190418,1,0,0:0:0:0:
64,192,190761,1,0,0:0:0:0:
448,192,190761,1,0,0:0:0:0:
192,192,190933,128,0,191276:0:0:0:0:
320,192,191104,1,0,0:0:0:0:
64,192,191104,1,0,0:0:0:0:
448,192,191276,128,0,191618:0:0:0:0:
320,192,191361,1,0,0:0:0:0:
192,192,191361,1,0,0:0:0:0:
192,192,191447,1,0,0:0:0:0:
320,192,191447,1,0,0:0:0:0:
320,192,191618,128,0,191790:0:0:0:0:
64,192,191618,1,0,0:0:0:0:
64,192,191790,128,0,191961:0:0:0:0:
448,192,191790,1,0,0:0:0:0:
192,192,191961,128,0,192133:0:0:0:0:
320,192,191961,1,0,0:0:0:0:
448,192,192133,128,0,192476:0:0:0:0:
64,192,192133,1,0,0:0:0:0:
192,192,192304,1,0,0:0:0:0:
64,192,192304,1,0,0:0:0:0:
64,192,192390,1,0,0:0:0:0:
192,192,192390,1,0,0:0:0:0:
64,192,192476,128,0,192818:0:0:0:0:
192,192,192476,1,0,0:0:0:0:
320,192,192476,1,0,0:0:0:0:
448,192,192647,1,0,0:0:0:0:
320,192,192647,1,0,0:0:0:0:
192,192,192647,1,0,0:0:0:0:
448,192,192818,128,0,192990:0:0:0:0:
320,192,192818,1,0,0:0:0:0:
192,192,192818,1,0,0:0:0:0:
192,192,192990,128,0,193161:0:0:0:0:
64,192,192990,1,0,0:0:0:0:
320,192,192990,1,0,0:0:0:0:
64,192,193161,1,0,0:0:0:0:
320,192,193161,1,0,0:0:0:0:
448,192,193161,1,0,0:0:0:0:
64,192,193333,128,0,193504:0:0:0:0:
320,192,193333,1,0,0:0:0:0:
448,192,193333,1,0,0:0:0:0:
448,192,193504,1,0,0:0:0:0:
320,192,193504,1,0,0:0:0:0:
192,192,193504,1,0,0:0:0:0:
448,192,193676,128,0,193847:0:0:0:0:
192,192,193676,1,0,0:0:0:0:
64,192,193676,1,0,0:0:0:0:
320,192,193847,128,0,194190:0:0:0:0:
192,192,193847,1,0,0:0:0:0:
64,192,193847,1,0,0:0:0:0:
192,192,194018,1,0,0:0:0:0:
64,192,194018,1,0,0:0:0:0:
448,192,194018,1,0,0:0:0:0:
64,192,194190,128,0,194533:0:0:0:0:
192,192,194190,1,0,0:0:0:0:
448,192,194190,1,0,0:0:0:0:
448,192,194361,1,0,0:0:0:0:
320,192,194361,1,0,0:0:0:0:
192,192,194361,1,0,0:0:0:0:
320,192,194533,128,0,194704:0:0:0:0:
192,192,194533,1,0,0:0:0:0:
448,192,194533,1,0,0:0:0:0:
448,192,194704,128,0,194876:0:0:0:0:
64,192,194704,1,0,0:0:0:0:
192,192,194704,1,0,0:0:0:0:
192,192,194876,128,0,195047:0:0:0:0:
64,192,194876,1,0,0:0:0:0:
320,192,194876,1,0,0:0:0:0:
64,192,195047,128,0,195218:0:0:0:0:
320,192,195047,1,0,0:0:0:0:
448,192,195047,1,0,0:0:0:0:
320,192,195218,1,0,0:0:0:0:
448,192,195218,1,0,0:0:0:0:
192,192,195304,1,0,0:0:0:0:
64,192,195304,1,0,0:0:0:0:
320,192,195390,1,0,0:0:0:0:
448,192,195390,1,0,0:0:0:0:
192,192,195476,1,0,0:0:0:0:
64,192,195476,1,0,0:0:0:0:
320,192,195561,1,0,0:0:0:0:
448,192,195561,1,0,0:0:0:0:
192,192,195647,1,0,0:0:0:0:
64,192,195647,1,0,0:0:0:0:
320,192,195733,1,0,0:0:0:0:
448,192,195733,1,0,0:0:0:0:
192,192,195818,1,0,0:0:0:0:
64,192,195818,1,0,0:0:0:0:
320,192,195904,1,0,0:0:0:0:
448,192,195904,1,0,0:0:0:0:
192,192,195990,1,0,0:0:0:0:
64,192,195990,1,0,0:0:0:0:
320,192,196076,1,0,0:0:0:0:
448,192,196076,1,0,0:0:0:0:
192,192,196161,1,0,0:0:0:0:
64,192,196161,1,0,0:0:0:0:
320,192,196247,1,0,0:0:0:0:
448,192,196247,1,0,0:0:0:0:
192,192,196333,1,0,0:0:0:0:
64,192,196333,1,0,0:0:0:0:
320,192,196418,1,0,0:0:0:0:
448,192,196418,1,0,0:0:0:0:
192,192,196504,1,0,0:0:0:0:
64,192,196504,1,0,0:0:0:0:
448,192,196590,128,0,196933:0:0:0:0:
320,192,196590,1,0,0:0:0:0:
192,192,196933,128,0,197104:0:0:0:0:
320,192,197104,128,0,197276:0:0:0:0:
64,192,197276,128,0,197447:0:0:0:0:
448,192,197447,128,0,197618:0:0:0:0:
64,192,197618,128,0,197961:0:0:0:0:
320,192,197961,1,0,0:0:0:0:
448,192,197961,1,0,0:0:0:0:
192,192,198047,1,0,0:0:0:0:
64,192,198133,1,0,0:0:0:0:
192,192,198218,1,0,0:0:0:0:
448,192,198304,1,0,0:0:0:0:
320,192,198304,1,0,0:0:0:0:
64,192,198347,1,0,0:0:0:0:
192,192,198390,1,0,0:0:0:0:
320,192,198433,1,0,0:0:0:0:
448,192,198476,1,0,0:0:0:0:
192,192,198518,1,0,0:0:0:0:
64,192,198561,1,0,0:0:0:0:
448,192,198604,1,0,0:0:0:0:
320,192,198647,1,0,0:0:0:0:
192,192,198690,1,0,0:0:0:0:
64,192,198733,1,0,0:0:0:0:
320,192,198776,1,0,0:0:0:0:
448,192,198818,1,0,0:0:0:0:
64,192,198861,1,0,0:0:0:0:
192,192,198904,1,0,0:0:0:0:
320,192,198947,1,0,0:0:0:0:
64,192,198990,1,0,0:0:0:0:
448,192,198990,1,0,0:0:0:0:
192,192,199076,1,0,0:0:0:0:
64,192,199161,1,0,0:0:0:0:
448,192,199161,1,0,0:0:0:0:
320,192,199247,1,0,0:0:0:0:
448,192,199676,1,0,0:0:0:0:
320,192,199676,1,0,0:0:0:0:
192,192,199761,1,0,0:0:0:0:
64,192,199847,1,0,0:0:0:0:
320,192,199933,1,0,0:0:0:0:
192,192,200018,1,0,0:0:0:0:
448,192,200018,1,0,0:0:0:0:
64,192,200104,1,0,0:0:0:0:
192,192,200190,1,0,0:0:0:0:
320,192,200276,1,0,0:0:0:0:
448,192,200361,1,0,0:0:0:0:
192,192,200447,1,0,0:0:0:0:
320,192,200533,1,0,0:0:0:0:
64,192,200618,1,0,0:0:0:0:
448,192,200704,1,0,0:0:0:0:
192,192,200704,1,0,0:0:0:0:
192,192,201047,1,0,0:0:0:0:
64,192,201047,1,0,0:0:0:0:
320,192,201133,1,0,0:0:0:0:
192,192,201218,1,0,0:0:0:0:
448,192,201218,1,0,0:0:0:0:
64,192,201304,1,0,0:0:0:0:
320,192,201390,1,0,0:0:0:0:
192,192,201390,1,0,0:0:0:0:
448,192,201476,1,0,0:0:0:0:
320,192,201561,1,0,0:0:0:0:
64,192,201561,1,0,0:0:0:0:
192,192,201647,1,0,0:0:0:0:
448,192,201733,1,0,0:0:0:0:
320,192,201733,1,0,0:0:0:0:
64,192,201818,1,0,0:0:0:0:
320,192,201904,1,0,0:0:0:0:
192,192,201904,1,0,0:0:0:0:
448,192,201990,1,0,0:0:0:0:
320,192,202247,1,0,0:0:0:0:
192,192,202247,1,0,0:0:0:0:
448,192,202418,1,0,0:0:0:0:
64,192,202418,1,0,0:0:0:0:
320,192,202504,1,0,0:0:0:0:
192,192,202590,1,0,0:0:0:0:
320,192,202676,1,0,0:0:0:0:
64,192,202761,1,0,0:0:0:0:
448,192,202761,1,0,0:0:0:0:
192,192,202847,1,0,0:0:0:0:
320,192,202933,1,0,0:0:0:0:
192,192,203018,1,0,0:0:0:0:
64,192,203104,1,0,0:0:0:0:
320,192,203190,1,0,0:0:0:0:
192,192,203276,1,0,0:0:0:0:
448,192,203361,1,0,0:0:0:0:
64,192,203447,1,0,0:0:0:0:
320,192,203447,1,0,0:0:0:0:
448,192,203790,1,0,0:0:0:0:
320,192,203790,1,0,0:0:0:0:
192,192,203876,1,0,0:0:0:0:
64,192,203961,1,0,0:0:0:0:
192,192,204047,1,0,0:0:0:0:
64,192,204133,1,0,0:0:0:0:
448,192,204133,1,0,0:0:0:0:
320,192,204218,1,0,0:0:0:0:
192,192,204304,1,0,0:0:0:0:
64,192,204390,1,0,0:0:0:0:
448,192,204476,1,0,0:0:0:0:
320,192,204476,1,0,0:0:0:0:
192,192,204561,1,0,0:0:0:0:
448,192,204647,1,0,0:0:0:0:
64,192,204647,1,0,0:0:0:0:
320,192,204733,1,0,0:0:0:0:
64,192,205161,1,0,0:0:0:0:
192,192,205161,1,0,0:0:0:0:
320,192,205204,1,0,0:0:0:0:
448,192,205247,1,0,0:0:0:0:
64,192,205290,1,0,0:0:0:0:
192,192,205333,1,0,0:0:0:0:
448,192,205376,1,0,0:0:0:0:
320,192,205418,1,0,0:0:0:0:
192,192,205461,1,0,0:0:0:0:
64,192,205504,1,0,0:0:0:0:
448,192,205547,1,0,0:0:0:0:
320,192,205590,1,0,0:0:0:0:
64,192,205633,1,0,0:0:0:0:
192,192,205676,1,0,0:0:0:0:
320,192,205718,1,0,0:0:0:0:
448,192,205761,1,0,0:0:0:0:
64,192,205804,1,0,0:0:0:0:
192,192,205847,1,0,0:0:0:0:
320,192,205933,1,0,0:0:0:0:
448,192,206018,1,0,0:0:0:0:
320,192,206104,1,0,0:0:0:0:
192,192,206190,1,0,0:0:0:0:
64,192,206190,128,0,207047:0:0:0:0:
448,192,206876,1,0,0:0:0:0:
192,192,206876,1,0,0:0:0:0:
320,192,206876,1,0,0:0:0:0:
320,192,207047,1,0,0:0:0:0:
448,192,207047,128,0,207390:0:0:0:0:
64,192,207390,1,0,0:0:0:0:
192,192,207390,128,0,207733:0:0:0:0:
64,192,207733,1,0,0:0:0:0:
448,192,207733,1,0,0:0:0:0:
320,192,207733,1,0,0:0:0:0:
448,192,207904,1,0,0:0:0:0:
192,192,207904,1,0,0:0:0:0:
320,192,208076,128,0,208247:0:0:0:0:
192,192,208247,1,0,0:0:0:0:
448,192,208247,1,0,0:0:0:0:
64,192,208247,128,0,208418:0:0:0:0:
192,192,208418,128,0,208590:0:0:0:0:
448,192,208590,128,0,208933:0:0:0:0:
192,192,208933,1,0,0:0:0:0:
64,192,208933,1,0,0:0:0:0:
448,192,209018,1,0,0:0:0:0:
320,192,209018,1,0,0:0:0:0:
64,192,209104,1,0,0:0:0:0:
192,192,209104,1,0,0:0:0:0:
448,192,209190,1,0,0:0:0:0:
320,192,209190,1,0,0:0:0:0:
64,192,209276,1,0,0:0:0:0:
192,192,209276,1,0,0:0:0:0:
320,192,209361,1,0,0:0:0:0:
448,192,209447,1,0,0:0:0:0:
64,192,209533,1,0,0:0:0:0:
320,192,209618,1,0,0:0:0:0:
192,192,209618,1,0,0:0:0:0:
448,192,209704,1,0,0:0:0:0:
320,192,209790,1,0,0:0:0:0:
192,192,209876,1,0,0:0:0:0:
448,192,209961,1,0,0:0:0:0:
64,192,209961,1,0,0:0:0:0:
320,192,210047,1,0,0:0:0:0:
448,192,210133,1,0,0:0:0:0:
64,192,210133,1,0,0:0:0:0:
192,192,210218,1,0,0:0:0:0:
320,192,210647,1,0,0:0:0:0:
448,192,210647,1,0,0:0:0:0:
192,192,210690,1,0,0:0:0:0:
64,192,210733,1,0,0:0:0:0:
448,192,210776,1,0,0:0:0:0:
320,192,210818,1,0,0:0:0:0:
192,192,210861,1,0,0:0:0:0:
64,192,210904,1,0,0:0:0:0:
320,192,210947,1,0,0:0:0:0:
448,192,210990,1,0,0:0:0:0:
64,192,211033,1,0,0:0:0:0:
192,192,211076,1,0,0:0:0:0:
320,192,211118,1,0,0:0:0:0:
448,192,211161,1,0,0:0:0:0:
64,192,211204,1,0,0:0:0:0:
192,192,211247,1,0,0:0:0:0:
320,192,211290,1,0,0:0:0:0:
448,192,211333,1,0,0:0:0:0:
64,192,211418,1,0,0:0:0:0:
192,192,211504,1,0,0:0:0:0:
320,192,211590,1,0,0:0:0:0:
448,192,211676,1,0,0:0:0:0:
64,192,211676,1,0,0:0:0:0:
448,192,212018,1,0,0:0:0:0:
320,192,212018,1,0,0:0:0:0:
192,192,212104,1,0,0:0:0:0:
448,192,212190,1,0,0:0:0:0:
64,192,212190,1,0,0:0:0:0:
320,192,212276,1,0,0:0:0:0:
64,192,212361,1,0,0:0:0:0:
192,192,212361,1,0,0:0:0:0:
320,192,212447,1,0,0:0:0:0:
64,192,212533,1,0,0:0:0:0:
448,192,212533,1,0,0:0:0:0:
192,192,212618,1,0,0:0:0:0:
448,192,212704,1,0,0:0:0:0:
320,192,212704,1,0,0:0:0:0:
192,192,212790,1,0,0:0:0:0:
448,192,212876,1,0,0:0:0:0:
64,192,212876,1,0,0:0:0:0:
320,192,212961,1,0,0:0:0:0:
192,192,213218,1,0,0:0:0:0:
64,192,213218,1,0,0:0:0:0:
448,192,213390,1,0,0:0:0:0:
320,192,213390,1,0,0:0:0:0:
64,192,213476,1,0,0:0:0:0:
192,192,213561,1,0,0:0:0:0:
320,192,213647,1,0,0:0:0:0:
64,192,213733,1,0,0:0:0:0:
448,192,213733,1,0,0:0:0:0:
320,192,213818,1,0,0:0:0:0:
192,192,213904,1,0,0:0:0:0:
64,192,213990,1,0,0:0:0:0:
448,192,214076,1,0,0:0:0:0:
320,192,214076,1,0,0:0:0:0:
64,192,214161,1,0,0:0:0:0:
192,192,214247,1,0,0:0:0:0:
320,192,214333,1,0,0:0:0:0:
64,192,214418,1,0,0:0:0:0:
448,192,214418,1,0,0:0:0:0:
320,192,214761,1,0,0:0:0:0:
64,192,214761,1,0,0:0:0:0:
192,192,214847,1,0,0:0:0:0:
320,192,214933,1,0,0:0:0:0:
448,192,215018,1,0,0:0:0:0:
192,192,215104,1,0,0:0:0:0:
64,192,215104,1,0,0:0:0:0:
448,192,215190,1,0,0:0:0:0:
320,192,215276,1,0,0:0:0:0:
192,192,215361,1,0,0:0:0:0:
448,192,215447,1,0,0:0:0:0:
64,192,215447,1,0,0:0:0:0:
320,192,215533,1,0,0:0:0:0:
64,192,215618,1,0,0:0:0:0:
192,192,215618,1,0,0:0:0:0:
448,192,215704,1,0,0:0:0:0:
448,192,216133,1,0,0:0:0:0:
320,192,216133,1,0,0:0:0:0:
192,192,216176,1,0,0:0:0:0:
64,192,216218,1,0,0:0:0:0:
448,192,216261,1,0,0:0:0:0:
320,192,216304,1,0,0:0:0:0:
192,192,216347,1,0,0:0:0:0:
64,192,216390,1,0,0:0:0:0:
320,192,216433,1,0,0:0:0:0:
448,192,216476,1,0,0:0:0:0:
64,192,216518,1,0,0:0:0:0:
192,192,216561,1,0,0:0:0:0:
320,192,216604,1,0,0:0:0:0:
448,192,216647,1,0,0:0:0:0:
64,192,216690,1,0,0:0:0:0:
192,192,216733,1,0,0:0:0:0:
320,192,216776,1,0,0:0:0:0:
448,192,216818,1,0,0:0:0:0:
64,192,216904,1,0,0:0:0:0:
192,192,216990,1,0,0:0:0:0:
320,192,217076,1,0,0:0:0:0:
64,192,217161,1,0,0:0:0:0:
448,192,217161,128,0,218018:0:0:0:0:
64,192,217847,1,0,0:0:0:0:
192,192,217847,1,0,0:0:0:0:
320,192,217847,1,0,0:0:0:0:
64,192,218018,1,0,0:0:0:0:
320,192,218018,128,0,218361:0:0:0:0:
448,192,218361,1,0,0:0:0:0:
192,192,218361,128,0,218876:0:0:0:0:
448,192,219133,1,0,0:0:0:0:
320,192,219390,1,0,0:0:0:0:
448,192,219561,1,0,0:0:0:0:
192,192,219647,1,0,0:0:0:0:
64,192,219733,1,0,0:0:0:0:
448,192,219904,1,0,0:0:0:0:
64,192,219904,128,0,220247:0:0:0:0:
320,192,219904,1,0,0:0:0:0:
448,192,220076,1,0,0:0:0:0:
320,192,220076,1,0,0:0:0:0:
192,192,220247,1,0,0:0:0:0:
320,192,220247,1,0,0:0:0:0:
448,192,220247,128,0,220418:0:0:0:0:
64,192,220418,1,0,0:0:0:0:
192,192,220418,128,0,220590:0:0:0:0:
320,192,220590,1,0,0:0:0:0:
64,192,220590,1,0,0:0:0:0:
448,192,220761,128,0,220933:0:0:0:0:
192,192,220761,1,0,0:0:0:0:
64,192,220933,1,0,0:0:0:0:
192,192,220933,1,0,0:0:0:0:
320,192,220933,128,0,221104:0:0:0:0:
64,192,221104,1,0,0:0:0:0:
192,192,221104,128,0,221276:0:0:0:0:
448,192,221276,1,0,0:0:0:0:
64,192,221276,128,0,221447:0:0:0:0:
448,192,221447,1,0,0:0:0:0:
320,192,221447,128,0,221618:0:0:0:0:
64,192,221618,1,0,0:0:0:0:
192,192,221618,1,0,0:0:0:0:
448,192,221618,128,0,221961:0:0:0:0:
64,192,221790,1,0,0:0:0:0:
320,192,221790,1,0,0:0:0:0:
320,192,221961,1,0,0:0:0:0:
192,192,221961,128,0,222304:0:0:0:0:
448,192,222133,1,0,0:0:0:0:
64,192,222133,1,0,0:0:0:0:
64,192,222304,1,0,0:0:0:0:
320,192,222304,1,0,0:0:0:0:
448,192,222304,128,0,222476:0:0:0:0:
320,192,222476,128,0,222647:0:0:0:0:
64,192,222476,1,0,0:0:0:0:
448,192,222647,1,0,0:0:0:0:
192,192,222647,128,0,222818:0:0:0:0:
64,192,222818,1,0,0:0:0:0:
320,192,222818,128,0,222990:0:0:0:0:
192,192,222990,1,0,0:0:0:0:
64,192,222990,1,0,0:0:0:0:
448,192,222990,128,0,223161:0:0:0:0:
320,192,223161,1,0,0:0:0:0:
192,192,223161,128,0,223333:0:0:0:0:
64,192,223333,128,0,223504:0:0:0:0:
448,192,223333,1,0,0:0:0:0:
192,192,223504,128,0,223676:0:0:0:0:
320,192,223504,1,0,0:0:0:0:
64,192,223676,1,0,0:0:0:0:
448,192,223676,1,0,0:0:0:0:
320,192,223676,128,0,223847:0:0:0:0:
192,192,223847,1,0,0:0:0:0:
448,192,223847,128,0,224018:0:0:0:0:
320,192,224018,1,0,0:0:0:0:
64,192,224018,128,0,224190:0:0:0:0:
448,192,224190,1,0,0:0:0:0:
192,192,224190,128,0,224361:0:0:0:0:
448,192,224361,1,0,0:0:0:0:
64,192,224361,1,0,0:0:0:0:
320,192,224361,128,0,224704:0:0:0:0:
448,192,224533,1,0,0:0:0:0:
192,192,224533,1,0,0:0:0:0:
64,192,224704,1,0,0:0:0:0:
448,192,224704,128,0,224876:0:0:0:0:
320,192,224876,1,0,0:0:0:0:
64,192,224876,128,0,225047:0:0:0:0:
448,192,225047,1,0,0:0:0:0:
320,192,225047,1,0,0:0:0:0:
192,192,225047,128,0,225390:0:0:0:0:
448,192,225218,1,0,0:0:0:0:
64,192,225218,1,0,0:0:0:0:
64,192,225390,1,0,0:0:0:0:
448,192,225390,128,0,225561:0:0:0:0:
192,192,225561,1,0,0:0:0:0:
320,192,225561,128,0,225733:0:0:0:0:
64,192,225733,1,0,0:0:0:0:
448,192,225733,1,0,0:0:0:0:
192,192,225733,128,0,225904:0:0:0:0:
64,192,225904,128,0,226076:0:0:0:0:
320,192,225904,1,0,0:0:0:0:
448,192,226076,1,0,0:0:0:0:
192,192,226076,128,0,226247:0:0:0:0:
320,192,226247,1,0,0:0:0:0:
448,192,226247,128,0,226418:0:0:0:0:
192,192,226418,1,0,0:0:0:0:
320,192,226418,1,0,0:0:0:0:
64,192,226418,128,0,226590:0:0:0:0:
192,192,226590,1,0,0:0:0:0:
320,192,226590,128,0,226761:0:0:0:0:
448,192,226761,1,0,0:0:0:0:
192,192,226761,128,0,227276:0:0:0:0:
448,192,226933,1,0,0:0:0:0:
64,192,226933,1,0,0:0:0:0:
448,192,227104,1,0,0:0:0:0:
64,192,227104,1,0,0:0:0:0:
320,192,227104,1,0,0:0:0:0:
64,192,227276,1,0,0:0:0:0:
448,192,227276,128,0,227447:0:0:0:0:
320,192,227447,1,0,0:0:0:0:
64,192,227447,1,0,0:0:0:0:
448,192,227618,1,0,0:0:0:0:
192,192,227618,128,0,227790:0:0:0:0:
64,192,227790,1,0,0:0:0:0:
448,192,227790,1,0,0:0:0:0:
320,192,227790,128,0,227961:0:0:0:0:
192,192,227961,1,0,0:0:0:0:
448,192,227961,128,0,228133:0:0:0:0:
192,192,228133,1,0,0:0:0:0:
64,192,228133,128,0,228304:0:0:0:0:
448,192,228304,1,0,0:0:0:0:
192,192,228304,128,0,228476:0:0:0:0:
64,192,228476,1,0,0:0:0:0:
448,192,228476,1,0,0:0:0:0:
320,192,228476,128,0,228647:0:0:0:0:
64,192,228647,1,0,0:0:0:0:
192,192,228647,128,0,228818:0:0:0:0:
64,192,228818,1,0,0:0:0:0:
320,192,228818,128,0,228990:0:0:0:0:
192,192,228990,1,0,0:0:0:0:
448,192,228990,128,0,229161:0:0:0:0:
64,192,229161,1,0,0:0:0:0:
320,192,229161,1,0,0:0:0:0:
192,192,229161,128,0,229333:0:0:0:0:
448,192,229333,1,0,0:0:0:0:
320,192,229333,1,0,0:0:0:0:
64,192,229333,128,0,229847:0:0:0:0:
192,192,229676,1,0,0:0:0:0:
448,192,229676,1,0,0:0:0:0:
192,192,229847,1,0,0:0:0:0:
448,192,229847,1,0,0:0:0:0:
320,192,229847,1,0,0:0:0:0:
192,192,230018,128,0,230190:0:0:0:0:
448,192,230190,1,0,0:0:0:0:
320,192,230276,1,0,0:0:0:0:
192,192,230361,1,0,0:0:0:0:
64,192,230361,128,0,230533:0:0:0:0:
448,192,230447,1,0,0:0:0:0:
192,192,230533,1,0,0:0:0:0:
320,192,230533,128,0,230704:0:0:0:0:
448,192,230704,128,0,230876:0:0:0:0:
64,192,230876,128,0,231218:0:0:0:0:
192,192,231218,1,0,0:0:0:0:
320,192,231218,1,0,0:0:0:0:
448,192,231218,128,0,231390:0:0:0:0:
64,192,231390,1,0,0:0:0:0:
192,192,231390,128,0,231561:0:0:0:0:
448,192,231561,1,0,0:0:0:0:
320,192,231561,1,0,0:0:0:0:
448,192,231733,128,0,231904:0:0:0:0:
192,192,231733,1,0,0:0:0:0:
64,192,231904,1,0,0:0:0:0:
192,192,231904,1,0,0:0:0:0:
320,192,231904,128,0,232076:0:0:0:0:
448,192,232076,1,0,0:0:0:0:
192,192,232076,128,0,232247:0:0:0:0:
448,192,232247,1,0,0:0:0:0:
64,192,232247,128,0,232418:0:0:0:0:
192,192,232418,1,0,0:0:0:0:
320,192,232418,128,0,232590:0:0:0:0:
64,192,232590,1,0,0:0:0:0:
192,192,232590,1,0,0:0:0:0:
448,192,232590,128,0,232933:0:0:0:0:
64,192,232761,1,0,0:0:0:0:
192,192,232761,1,0,0:0:0:0:
64,192,232933,1,0,0:0:0:0:
192,192,232933,128,0,233276:0:0:0:0:
448,192,233104,1,0,0:0:0:0:
320,192,233104,1,0,0:0:0:0:
64,192,233276,1,0,0:0:0:0:
320,192,233276,1,0,0:0:0:0:
448,192,233276,128,0,233447:0:0:0:0:
64,192,233447,1,0,0:0:0:0:
320,192,233447,128,0,233618:0:0:0:0:
64,192,233618,1,0,0:0:0:0:
192,192,233618,128,0,233790:0:0:0:0:
448,192,233790,1,0,0:0:0:0:
320,192,233790,128,0,233961:0:0:0:0:
192,192,233961,1,0,0:0:0:0:
64,192,233961,1,0,0:0:0:0:
448,192,233961,128,0,234133:0:0:0:0:
320,192,234133,1,0,0:0:0:0:
192,192,234133,128,0,234304:0:0:0:0:
448,192,234304,1,0,0:0:0:0:
64,192,234304,128,0,234476:0:0:0:0:
320,192,234476,1,0,0:0:0:0:
192,192,234476,128,0,234647:0:0:0:0:
64,192,234647,1,0,0:0:0:0:
448,192,234647,1,0,0:0:0:0:
320,192,234647,128,0,234818:0:0:0:0:
448,192,234818,128,0,234990:0:0:0:0:
192,192,234818,1,0,0:0:0:0:
320,192,234990,1,0,0:0:0:0:
64,192,234990,128,0,235161:0:0:0:0:
448,192,235161,1,0,0:0:0:0:
192,192,235161,128,0,235333:0:0:0:0:
64,192,235333,1,0,0:0:0:0:
448,192,235333,1,0,0:0:0:0:
320,192,235333,128,0,235676:0:0:0:0:
192,192,235504,1,0,0:0:0:0:
64,192,235504,1,0,0:0:0:0:
448,192,235676,128,0,235847:0:0:0:0:
192,192,235676,1,0,0:0:0:0:
64,192,235847,128,0,236018:0:0:0:0:
192,192,235847,1,0,0:0:0:0:
192,192,236018,128,0,236361:0:0:0:0:
320,192,236361,1,0,0:0:0:0:
448,192,236361,128,0,236533:0:0:0:0:
64,192,236533,1,0,0:0:0:0:
320,192,236533,128,0,236704:0:0:0:0:
64,192,236704,1,0,0:0:0:0:
448,192,236704,1,0,0:0:0:0:
192,192,236704,128,0,236876:0:0:0:0:
448,192,236876,1,0,0:0:0:0:
64,192,236876,128,0,237047:0:0:0:0:
448,192,237047,1,0,0:0:0:0:
192,192,237047,128,0,237218:0:0:0:0:
320,192,237218,1,0,0:0:0:0:
448,192,237218,128,0,237390:0:0:0:0:
192,192,237390,1,0,0:0:0:0:
320,192,237390,1,0,0:0:0:0:
64,192,237390,128,0,237561:0:0:0:0:
448,192,237561,1,0,0:0:0:0:
320,192,237561,128,0,237733:0:0:0:0:
64,192,237733,1,0,0:0:0:0:
192,192,237733,128,0,238247:0:0:0:0:
320,192,237904,1,0,0:0:0:0:
448,192,237904,1,0,0:0:0:0:
448,192,238076,1,0,0:0:0:0:
320,192,238076,1,0,0:0:0:0:
64,192,238076,1,0,0:0:0:0:
64,192,238247,1,0,0:0:0:0:
448,192,238247,128,0,238418:0:0:0:0:
64,192,238418,1,0,0:0:0:0:
320,192,238418,1,0,0:0:0:0:
448,192,238590,1,0,0:0:0:0:
192,192,238590,128,0,238761:0:0:0:0:
448,192,238761,1,0,0:0:0:0:
64,192,238761,1,0,0:0:0:0:
320,192,238761,128,0,238933:0:0:0:0:
192,192,238933,1,0,0:0:0:0:
448,192,238933,128,0,239104:0:0:0:0:
320,192,239104,1,0,0:0:0:0:
64,192,239104,128,0,239276:0:0:0:0:
448,192,239276,1,0,0:0:0:0:
192,192,239276,128,0,239447:0:0:0:0:
64,192,239447,1,0,0:0:0:0:
448,192,239447,1,0,0:0:0:0:
320,192,239447,128,0,239618:0:0:0:0:
64,192,239618,1,0,0:0:0:0:
192,192,239618,128,0,239790:0:0:0:0:
448,192,239790,1,0,0:0:0:0:
320,192,239790,128,0,239961:0:0:0:0:
192,192,239961,1,0,0:0:0:0:
448,192,239961,128,0,240133:0:0:0:0:
64,192,240133,1,0,0:0:0:0:
320,192,240133,1,0,0:0:0:0:
192,192,240133,128,0,240304:0:0:0:0:
448,192,240304,1,0,0:0:0:0:
320,192,240304,1,0,0:0:0:0:
64,192,240304,128,0,240818:0:0:0:0:
448,192,240990,128,0,241161:0:0:0:0:
320,192,241333,128,0,241504:0:0:0:0:
192,192,241504,128,0,241676:0:0:0:0:
64,192,241676,128,0,241847:0:0:0:0:
320,192,241847,1,0,0:0:0:0:
448,192,241847,1,0,0:0:0:0:
192,192,241890,1,0,0:0:0:0:
64,192,241933,1,0,0:0:0:0:
448,192,241976,1,0,0:0:0:0:
320,192,242018,1,0,0:0:0:0:
192,192,242061,1,0,0:0:0:0:
64,192,242104,1,0,0:0:0:0:
320,192,242147,1,0,0:0:0:0:
448,192,242190,1,0,0:0:0:0:
64,192,242233,1,0,0:0:0:0:
192,192,242276,1,0,0:0:0:0:
320,192,242318,1,0,0:0:0:0:
448,192,242361,1,0,0:0:0:0:
192,192,242404,1,0,0:0:0:0:
64,192,242447,1,0,0:0:0:0:
448,192,242490,1,0,0:0:0:0:
320,192,242533,1,0,0:0:0:0:
64,192,242576,1,0,0:0:0:0:
192,192,242618,1,0,0:0:0:0:
320,192,242661,1,0,0:0:0:0:
448,192,242704,1,0,0:0:0:0:
192,192,242747,1,0,0:0:0:0:
64,192,242790,1,0,0:0:0:0:
448,192,242833,1,0,0:0:0:0:
320,192,242876,1,0,0:0:0:0:
192,192,242876,1,0,0:0:0:0:
64,192,242961,1,0,0:0:0:0:
320,192,243047,1,0,0:0:0:0:
448,192,243047,1,0,0:0:0:0:
192,192,243133,1,0,0:0:0:0:
448,192,243561,1,0,0:0:0:0:
64,192,243561,1,0,0:0:0:0:
320,192,243647,1,0,0:0:0:0:
192,192,243733,1,0,0:0:0:0:
320,192,243818,1,0,0:0:0:0:
448,192,243904,1,0,0:0:0:0:
64,192,243904,1,0,0:0:0:0:
192,192,243990,1,0,0:0:0:0:
320,192,244076,1,0,0:0:0:0:
192,192,244161,1,0,0:0:0:0:
64,192,244247,1,0,0:0:0:0:
448,192,244247,1,0,0:0:0:0:
320,192,244333,1,0,0:0:0:0:
192,192,244418,1,0,0:0:0:0:
64,192,244504,1,0,0:0:0:0:
448,192,244590,1,0,0:0:0:0:
192,192,244590,1,0,0:0:0:0:
320,192,244933,1,0,0:0:0:0:
64,192,244933,1,0,0:0:0:0:
192,192,245018,1,0,0:0:0:0:
448,192,245104,1,0,0:0:0:0:
320,192,245104,1,0,0:0:0:0:
64,192,245190,1,0,0:0:0:0:
192,192,245276,1,0,0:0:0:0:
448,192,245276,1,0,0:0:0:0:
320,192,245361,1,0,0:0:0:0:
192,192,245447,1,0,0:0:0:0:
64,192,245447,1,0,0:0:0:0:
448,192,245533,1,0,0:0:0:0:
320,192,245618,1,0,0:0:0:0:
64,192,245618,1,0,0:0:0:0:
192,192,245704,1,0,0:0:0:0:
320,192,245790,1,0,0:0:0:0:
448,192,245790,1,0,0:0:0:0:
64,192,245876,1,0,0:0:0:0:
320,192,246133,1,0,0:0:0:0:
448,192,246133,1,0,0:0:0:0:
192,192,246304,1,0,0:0:0:0:
64,192,246304,1,0,0:0:0:0:
320,192,246390,1,0,0:0:0:0:
192,192,246476,1,0,0:0:0:0:
448,192,246561,1,0,0:0:0:0:
320,192,246647,1,0,0:0:0:0:
192,192,246647,1,0,0:0:0:0:
448,192,246733,1,0,0:0:0:0:
192,192,246818,1,0,0:0:0:0:
320,192,246904,1,0,0:0:0:0:
64,192,246990,1,0,0:0:0:0:
192,192,247076,1,0,0:0:0:0:
64,192,247161,1,0,0:0:0:0:
320,192,247247,1,0,0:0:0:0:
192,192,247333,1,0,0:0:0:0:
192,192,247676,1,0,0:0:0:0:
64,192,247676,1,0,0:0:0:0:
320,192,247761,1,0,0:0:0:0:
448,192,247847,1,0,0:0:0:0:
64,192,247933,1,0,0:0:0:0:
192,192,248018,1,0,0:0:0:0:
320,192,248018,1,0,0:0:0:0:
448,192,248104,1,0,0:0:0:0:
320,192,248190,1,0,0:0:0:0:
192,192,248276,1,0,0:0:0:0:
64,192,248361,1,0,0:0:0:0:
448,192,248361,1,0,0:0:0:0:
320,192,248447,1,0,0:0:0:0:
192,192,248533,1,0,0:0:0:0:
448,192,248533,1,0,0:0:0:0:
64,192,248618,1,0,0:0:0:0:
64,192,249047,1,0,0:0:0:0:
192,192,249047,1,0,0:0:0:0:
320,192,249090,1,0,0:0:0:0:
448,192,249133,1,0,0:0:0:0:
64,192,249176,1,0,0:0:0:0:
192,192,249218,1,0,0:0:0:0:
320,192,249261,1,0,0:0:0:0:
448,192,249304,1,0,0:0:0:0:
192,192,249347,1,0,0:0:0:0:
64,192,249390,1,0,0:0:0:0:
448,192,249433,1,0,0:0:0:0:
320,192,249476,1,0,0:0:0:0:
192,192,249518,1,0,0:0:0:0:
64,192,249561,1,0,0:0:0:0:
448,192,249604,1,0,0:0:0:0:
320,192,249647,1,0,0:0:0:0:
192,192,249690,1,0,0:0:0:0:
64,192,249733,1,0,0:0:0:0:
448,192,249818,1,0,0:0:0:0:
320,192,249904,1,0,0:0:0:0:
192,192,249990,1,0,0:0:0:0:
64,192,250076,1,0,0:0:0:0:
448,192,250076,128,0,250761:0:0:0:0:
64,192,250761,128,0,250933:0:0:0:0:
192,192,250761,1,0,0:0:0:0:
320,192,250761,1,0,0:0:0:0:
320,192,250933,128,0,251276:0:0:0:0:
448,192,250933,1,0,0:0:0:0:
192,192,251276,128,0,251790:0:0:0:0:
64,192,251276,1,0,0:0:0:0:
320,192,251618,1,0,0:0:0:0:
448,192,251618,1,0,0:0:0:0:
64,192,251618,1,0,0:0:0:0:
320,192,251790,1,0,0:0:0:0:
448,192,251790,1,0,0:0:0:0:
64,192,251961,128,0,252133:0:0:0:0:
192,192,252133,128,0,252304:0:0:0:0:
320,192,252133,1,0,0:0:0:0:
448,192,252133,1,0,0:0:0:0:
448,192,252304,128,0,252476:0:0:0:0:
320,192,252476,128,0,252647:0:0:0:0:
64,192,252647,128,0,252818:0:0:0:0:
448,192,252818,128,0,253161:0:0:0:0:
320,192,252818,1,0,0:0:0:0:
192,192,252904,1,0,0:0:0:0:
64,192,252990,1,0,0:0:0:0:
320,192,253076,1,0,0:0:0:0:
192,192,253161,128,0,253333:0:0:0:0:
64,192,253161,1,0,0:0:0:0:
64,192,253333,128,0,253504:0:0:0:0:
448,192,253333,1,0,0:0:0:0:
320,192,253504,128,0,253847:0:0:0:0:
192,192,253504,1,0,0:0:0:0:
448,192,253676,1,0,0:0:0:0:
64,192,253676,1,0,0:0:0:0:
64,192,253847,128,0,254018:0:0:0:0:
192,192,253847,1,0,0:0:0:0:
448,192,254018,128,0,254533:0:0:0:0:
320,192,254018,1,0,0:0:0:0:
192,192,254018,1,0,0:0:0:0:
320,192,254533,128,0,254704:0:0:0:0:
192,192,254533,1,0,0:0:0:0:
64,192,254533,1,0,0:0:0:0:
448,192,254704,128,0,254876:0:0:0:0:
320,192,254876,128,0,254961:0:0:0:0:
64,192,254876,1,0,0:0:0:0:
192,192,254961,128,0,255047:0:0:0:0:
64,192,255047,128,0,255218:0:0:0:0:
192,192,255218,128,0,255390:0:0:0:0:
320,192,255390,128,0,255561:0:0:0:0:
448,192,255561,128,0,255733:0:0:0:0:
192,192,255561,1,0,0:0:0:0:
64,192,255561,1,0,0:0:0:0:
64,192,255733,128,0,255904:0:0:0:0:
320,192,255733,1,0,0:0:0:0:
192,192,255904,128,0,256076:0:0:0:0:
448,192,255904,1,0,0:0:0:0:
320,192,256076,128,0,256247:0:0:0:0:
64,192,256076,1,0,0:0:0:0:
192,192,256247,128,0,256418:0:0:0:0:
448,192,256247,1,0,0:0:0:0:
64,192,256418,128,0,256590:0:0:0:0:
320,192,256418,1,0,0:0:0:0:
320,192,256590,128,0,256761:0:0:0:0:
192,192,256590,1,0,0:0:0:0:
448,192,256761,128,0,257276:0:0:0:0:
192,192,256761,1,0,0:0:0:0:
64,192,256761,1,0,0:0:0:0:
320,192,257104,1,0,0:0:0:0:
192,192,257104,1,0,0:0:0:0:
64,192,257276,1,0,0:0:0:0:
192,192,257276,1,0,0:0:0:0:
320,192,257276,1,0,0:0:0:0:
192,192,257447,128,0,257618:0:0:0:0:
64,192,257618,128,0,257790:0:0:0:0:
448,192,257618,1,0,0:0:0:0:
320,192,257790,128,0,257961:0:0:0:0:
192,192,257961,128,0,258133:0:0:0:0:
448,192,258133,128,0,258304:0:0:0:0:
320,192,258304,128,0,259333:0:0:0:0:
64,192,258304,1,0,0:0:0:0:
192,192,258304,1,0,0:0:0:0:
192,192,258647,1,0,0:0:0:0:
64,192,258647,1,0,0:0:0:0:
448,192,258647,1,0,0:0:0:0:
448,192,258990,1,0,0:0:0:0:
64,192,258990,1,0,0:0:0:0:
192,192,259333,128,0,259504:0:0:0:0:
64,192,259333,1,0,0:0:0:0:
64,192,259504,128,0,259676:0:0:0:0:
448,192,259504,1,0,0:0:0:0:
192,192,259676,128,0,260018:0:0:0:0:
64,192,260018,128,0,260104:0:0:0:0:
448,192,260018,1,0,0:0:0:0:
320,192,260104,128,0,260190:0:0:0:0:
448,192,260190,128,0,260361:0:0:0:0:
64,192,260361,128,0,260533:0:0:0:0:
320,192,260361,1,0,0:0:0:0:
192,192,260533,128,0,260704:0:0:0:0:
448,192,260704,128,0,260876:0:0:0:0:
64,192,260876,128,0,261047:0:0:0:0:
320,192,261047,128,0,261733:0:0:0:0:
192,192,261047,1,0,0:0:0:0:
448,192,261047,1,0,0:0:0:0:
448,192,261733,1,0,0:0:0:0:
64,192,261733,1,0,0:0:0:0:
192,192,261733,128,0,261904:0:0:0:0:
64,192,261904,128,0,262247:0:0:0:0:
320,192,261904,1,0,0:0:0:0:
448,192,262247,128,0,262590:0:0:0:0:
192,192,262247,1,0,0:0:0:0:
192,192,263790,1,0,0:0:0:0:
64,192,263790,1,0,0:0:0:0:
320,192,263790,1,0,0:0:0:0:
448,192,263876,1,0,0:0:0:0:
320,192,263961,1,0,0:0:0:0:
192,192,264047,1,0,0:0:0:0:
64,192,264133,1,0,0:0:0:0:
320,192,264133,1,0,0:0:0:0:
448,192,264133,1,0,0:0:0:0:
192,192,264218,1,0,0:0:0:0:
320,192,264304,1,0,0:0:0:0:
64,192,264390,1,0,0:0:0:0:
192,192,264476,1,0,0:0:0:0:
320,192,264476,1,0,0:0:0:0:
448,192,264561,1,0,0:0:0:0:
192,192,264647,1,0,0:0:0:0:
64,192,264733,1,0,0:0:0:0:
192,192,264818,1,0,0:0:0:0:
320,192,264818,1,0,0:0:0:0:
448,192,264818,1,0,0:0:0:0:
64,192,264904,1,0,0:0:0:0:
192,192,264990,1,0,0:0:0:0:
448,192,265076,1,0,0:0:0:0:
64,192,265161,1,0,0:0:0:0:
320,192,265161,1,0,0:0:0:0:
192,192,265247,1,0,0:0:0:0:
64,192,265333,1,0,0:0:0:0:
320,192,265418,1,0,0:0:0:0:
448,192,265504,1,0,0:0:0:0:
192,192,265504,1,0,0:0:0:0:
64,192,265504,1,0,0:0:0:0:
320,192,265590,1,0,0:0:0:0:
192,192,265676,1,0,0:0:0:0:
320,192,265761,1,0,0:0:0:0:
448,192,265847,1,0,0:0:0:0:
64,192,265847,1,0,0:0:0:0:
320,192,265933,1,0,0:0:0:0:
192,192,266018,1,0,0:0:0:0:
64,192,266104,1,0,0:0:0:0:
192,192,266190,1,0,0:0:0:0:
320,192,266190,1,0,0:0:0:0:
448,192,266190,1,0,0:0:0:0:
64,192,266276,1,0,0:0:0:0:
320,192,266361,1,0,0:0:0:0:
448,192,266447,1,0,0:0:0:0:
320,192,266533,1,0,0:0:0:0:
192,192,266533,1,0,0:0:0:0:
64,192,266618,1,0,0:0:0:0:
192,192,266704,1,0,0:0:0:0:
448,192,266790,1,0,0:0:0:0:
320,192,266876,1,0,0:0:0:0:
192,192,266876,1,0,0:0:0:0:
64,192,266876,1,0,0:0:0:0:
448,192,266961,1,0,0:0:0:0:
192,192,267047,1,0,0:0:0:0:
64,192,267133,1,0,0:0:0:0:
448,192,267218,1,0,0:0:0:0:
192,192,267218,1,0,0:0:0:0:
320,192,267304,1,0,0:0:0:0:
64,192,267390,1,0,0:0:0:0:
192,192,267476,1,0,0:0:0:0:
64,192,267561,1,0,0:0:0:0:
320,192,267561,1,0,0:0:0:0:
448,192,267561,1,0,0:0:0:0:
192,192,267647,1,0,0:0:0:0:
320,192,267733,1,0,0:0:0:0:
448,192,267818,1,0,0:0:0:0:
192,192,267904,1,0,0:0:0:0:
64,192,267904,1,0,0:0:0:0:
320,192,267990,1,0,0:0:0:0:
64,192,268076,1,0,0:0:0:0:
448,192,268161,1,0,0:0:0:0:
64,192,268247,1,0,0:0:0:0:
192,192,268247,1,0,0:0:0:0:
320,192,268247,1,0,0:0:0:0:
448,192,268333,1,0,0:0:0:0:
320,192,268418,1,0,0:0:0:0:
192,192,268504,1,0,0:0:0:0:
448,192,268590,1,0,0:0:0:0:
64,192,268590,1,0,0:0:0:0:
320,192,268676,1,0,0:0:0:0:
192,192,268761,1,0,0:0:0:0:
320,192,268847,1,0,0:0:0:0:
64,192,268933,1,0,0:0:0:0:
192,192,268933,1,0,0:0:0:0:
448,192,268933,1,0,0:0:0:0:
320,192,269018,1,0,0:0:0:0:
192,192,269104,1,0,0:0:0:0:
448,192,269190,1,0,0:0:0:0:
320,192,269276,1,0,0:0:0:0:
64,192,269276,1,0,0:0:0:0:
192,192,269361,1,0,0:0:0:0:
448,192,269447,1,0,0:0:0:0:
64,192,269533,1,0,0:0:0:0:
192,192,269618,1,0,0:0:0:0:
320,192,269618,1,0,0:0:0:0:
448,192,269618,1,0,0:0:0:0:
64,192,269704,1,0,0:0:0:0:
192,192,269790,1,0,0:0:0:0:
64,192,269876,1,0,0:0:0:0:
448,192,269961,1,0,0:0:0:0:
320,192,269961,1,0,0:0:0:0:
192,192,270047,1,0,0:0:0:0:
320,192,270133,1,0,0:0:0:0:
192,192,270218,1,0,0:0:0:0:
64,192,270304,1,0,0:0:0:0:
320,192,270304,1,0,0:0:0:0:
448,192,270304,1,0,0:0:0:0:
192,192,270390,1,0,0:0:0:0:
320,192,270476,1,0,0:0:0:0:
448,192,270561,1,0,0:0:0:0:
192,192,270647,1,0,0:0:0:0:
64,192,270647,1,0,0:0:0:0:
320,192,270733,1,0,0:0:0:0:
192,192,270818,1,0,0:0:0:0:
448,192,270904,1,0,0:0:0:0:
64,192,270990,1,0,0:0:0:0:
192,192,270990,1,0,0:0:0:0:
320,192,270990,1,0,0:0:0:0:
448,192,271076,1,0,0:0:0:0:
320,192,271161,1,0,0:0:0:0:
192,192,271247,1,0,0:0:0:0:
320,192,271333,1,0,0:0:0:0:
64,192,271333,1,0,0:0:0:0:
448,192,271418,1,0,0:0:0:0:
192,192,271504,1,0,0:0:0:0:
64,192,271590,1,0,0:0:0:0:
192,192,271676,1,0,0:0:0:0:
320,192,271676,1,0,0:0:0:0:
448,192,271676,1,0,0:0:0:0:
64,192,271761,1,0,0:0:0:0:
192,192,271847,1,0,0:0:0:0:
320,192,271933,1,0,0:0:0:0:
192,192,272018,1,0,0:0:0:0:
64,192,272018,1,0,0:0:0:0:
448,192,272104,1,0,0:0:0:0:
64,192,272190,1,0,0:0:0:0:
320,192,272276,1,0,0:0:0:0:
64,192,272361,1,0,0:0:0:0:
192,192,272361,1,0,0:0:0:0:
448,192,272361,1,0,0:0:0:0:
320,192,272447,1,0,0:0:0:0:
448,192,272533,1,0,0:0:0:0:
64,192,272618,1,0,0:0:0:0:
192,192,272704,1,0,0:0:0:0:
448,192,272704,1,0,0:0:0:0:
320,192,272790,1,0,0:0:0:0:
192,192,272876,1,0,0:0:0:0:
448,192,272961,1,0,0:0:0:0:
64,192,273047,1,0,0:0:0:0:
192,192,273047,1,0,0:0:0:0:
320,192,273047,1,0,0:0:0:0:
448,192,273133,1,0,0:0:0:0:
320,192,273218,1,0,0:0:0:0:
192,192,273304,1,0,0:0:0:0:
64,192,273390,1,0,0:0:0:0:
448,192,273390,1,0,0:0:0:0:
320,192,273561,1,0,0:0:0:0:
192,192,273561,1,0,0:0:0:0:
64,192,273733,1,0,0:0:0:0:
448,192,273733,1,0,0:0:0:0:
320,192,273818,1,0,0:0:0:0:
192,192,273904,1,0,0:0:0:0:
64,192,273990,1,0,0:0:0:0:
320,192,274076,1,0,0:0:0:0:
448,192,274076,1,0,0:0:0:0:
192,192,274161,1,0,0:0:0:0:
64,192,274247,1,0,0:0:0:0:
192,192,274333,1,0,0:0:0:0:
64,192,274418,1,0,0:0:0:0:
448,192,274418,1,0,0:0:0:0:
64,192,274761,1,0,0:0:0:0:
192,192,274761,1,0,0:0:0:0:
320,192,274761,1,0,0:0:0:0:
448,192,274847,1,0,0:0:0:0:
192,192,274933,1,0,0:0:0:0:
64,192,275018,1,0,0:0:0:0:
192,192,275104,1,0,0:0:0:0:
320,192,275104,1,0,0:0:0:0:
448,192,275104,1,0,0:0:0:0:
64,192,275190,1,0,0:0:0:0:
192,192,275276,1,0,0:0:0:0:
448,192,275361,1,0,0:0:0:0:
320,192,275447,1,0,0:0:0:0:
64,192,275447,1,0,0:0:0:0:
192,192,275533,1,0,0:0:0:0:
448,192,275618,1,0,0:0:0:0:
192,192,275704,1,0,0:0:0:0:
64,192,275790,1,0,0:0:0:0:
320,192,275790,1,0,0:0:0:0:
448,192,275790,1,0,0:0:0:0:
192,192,275876,1,0,0:0:0:0:
320,192,275961,1,0,0:0:0:0:
192,192,276047,1,0,0:0:0:0:
448,192,276133,1,0,0:0:0:0:
64,192,276133,1,0,0:0:0:0:
320,192,276218,1,0,0:0:0:0:
192,192,276304,1,0,0:0:0:0:
320,192,276390,1,0,0:0:0:0:
64,192,276476,1,0,0:0:0:0:
192,192,276476,1,0,0:0:0:0:
448,192,276476,1,0,0:0:0:0:
320,192,276561,1,0,0:0:0:0:
192,192,276647,1,0,0:0:0:0:
64,192,276733,1,0,0:0:0:0:
192,192,276818,1,0,0:0:0:0:
320,192,276818,1,0,0:0:0:0:
448,192,276904,1,0,0:0:0:0:
320,192,276990,1,0,0:0:0:0:
192,192,277076,1,0,0:0:0:0:
64,192,277161,1,0,0:0:0:0:
320,192,277161,1,0,0:0:0:0:
448,192,277161,1,0,0:0:0:0:
192,192,277247,1,0,0:0:0:0:
320,192,277333,1,0,0:0:0:0:
448,192,277418,1,0,0:0:0:0:
320,192,277504,1,0,0:0:0:0:
64,192,277504,1,0,0:0:0:0:
192,192,277504,1,0,0:0:0:0:
448,192,277590,1,0,0:0:0:0:
192,192,277676,1,0,0:0:0:0:
64,192,277761,1,0,0:0:0:0:
192,192,277847,1,0,0:0:0:0:
320,192,277847,1,0,0:0:0:0:
448,192,277847,1,0,0:0:0:0:
64,192,277933,1,0,0:0:0:0:
192,192,278018,1,0,0:0:0:0:
320,192,278104,1,0,0:0:0:0:
448,192,278190,1,0,0:0:0:0:
64,192,278190,1,0,0:0:0:0:
192,192,278276,1,0,0:0:0:0:
320,192,278361,1,0,0:0:0:0:
448,192,278447,1,0,0:0:0:0:
64,192,278533,1,0,0:0:0:0:
192,192,278533,1,0,0:0:0:0:
320,192,278533,1,0,0:0:0:0:
448,192,278618,1,0,0:0:0:0:
64,192,278704,1,0,0:0:0:0:
192,192,278790,1,0,0:0:0:0:
448,192,278876,1,0,0:0:0:0:
320,192,278876,1,0,0:0:0:0:
64,192,278961,1,0,0:0:0:0:
320,192,279047,1,0,0:0:0:0:
192,192,279133,1,0,0:0:0:0:
64,192,279218,1,0,0:0:0:0:
320,192,279218,1,0,0:0:0:0:
448,192,279218,1,0,0:0:0:0:
192,192,279304,1,0,0:0:0:0:
320,192,279390,1,0,0:0:0:0:
448,192,279476,1,0,0:0:0:0:
64,192,279561,1,0,0:0:0:0:
192,192,279561,1,0,0:0:0:0:
320,192,279647,1,0,0:0:0:0:
192,192,279733,1,0,0:0:0:0:
320,192,279818,1,0,0:0:0:0:
64,192,279904,1,0,0:0:0:0:
192,192,279904,1,0,0:0:0:0:
448,192,279904,1,0,0:0:0:0:
320,192,279990,1,0,0:0:0:0:
448,192,280076,1,0,0:0:0:0:
192,192,280161,1,0,0:0:0:0:
320,192,280247,1,0,0:0:0:0:
64,192,280247,1,0,0:0:0:0:
448,192,280333,1,0,0:0:0:0:
192,192,280418,1,0,0:0:0:0:
64,192,280504,1,0,0:0:0:0:
192,192,280590,1,0,0:0:0:0:
320,192,280590,1,0,0:0:0:0:
448,192,280590,1,0,0:0:0:0:
64,192,280676,1,0,0:0:0:0:
192,192,280761,1,0,0:0:0:0:
320,192,280847,1,0,0:0:0:0:
448,192,280933,1,0,0:0:0:0:
64,192,280933,1,0,0:0:0:0:
192,192,281018,1,0,0:0:0:0:
320,192,281104,1,0,0:0:0:0:
448,192,281190,1,0,0:0:0:0:
64,192,281276,1,0,0:0:0:0:
192,192,281276,1,0,0:0:0:0:
320,192,281276,1,0,0:0:0:0:
448,192,281361,1,0,0:0:0:0:
64,192,281447,1,0,0:0:0:0:
192,192,281533,1,0,0:0:0:0:
320,192,281618,1,0,0:0:0:0:
64,192,281618,1,0,0:0:0:0:
448,192,281618,1,0,0:0:0:0:
192,192,281704,1,0,0:0:0:0:
320,192,281790,1,0,0:0:0:0:
448,192,281876,1,0,0:0:0:0:
64,192,281961,1,0,0:0:0:0:
320,192,281961,1,0,0:0:0:0:
192,192,281961,1,0,0:0:0:0:
448,192,282047,1,0,0:0:0:0:
320,192,282133,1,0,0:0:0:0:
448,192,282218,1,0,0:0:0:0:
192,192,282304,1,0,0:0:0:0:
64,192,282304,1,0,0:0:0:0:
320,192,282390,1,0,0:0:0:0:
448,192,282476,1,0,0:0:0:0:
320,192,282561,1,0,0:0:0:0:
64,192,282647,1,0,0:0:0:0:
192,192,282647,1,0,0:0:0:0:
448,192,282647,1,0,0:0:0:0:
320,192,282733,1,0,0:0:0:0:
192,192,282818,1,0,0:0:0:0:
64,192,282904,1,0,0:0:0:0:
320,192,282990,1,0,0:0:0:0:
448,192,282990,1,0,0:0:0:0:
192,192,282990,1,0,0:0:0:0:
64,192,283076,1,0,0:0:0:0:
192,192,283161,1,0,0:0:0:0:
64,192,283247,1,0,0:0:0:0:
192,192,283333,1,0,0:0:0:0:
448,192,283333,1,0,0:0:0:0:
320,192,283333,1,0,0:0:0:0:
64,192,283418,1,0,0:0:0:0:
192,192,283504,1,0,0:0:0:0:
448,192,283590,1,0,0:0:0:0:
64,192,283676,1,0,0:0:0:0:
192,192,283676,1,0,0:0:0:0:
320,192,283676,1,0,0:0:0:0:
448,192,283761,1,0,0:0:0:0:
320,192,283847,1,0,0:0:0:0:
192,192,283933,1,0,0:0:0:0:
64,192,284018,1,0,0:0:0:0:
448,192,284018,1,0,0:0:0:0:
320,192,284018,1,0,0:0:0:0:
192,192,284104,1,0,0:0:0:0:
64,192,284190,1,0,0:0:0:0:
320,192,284276,1,0,0:0:0:0:
448,192,284361,1,0,0:0:0:0:
192,192,284361,1,0,0:0:0:0:
64,192,284361,1,0,0:0:0:0:
320,192,284533,1,0,0:0:0:0:
192,192,284533,1,0,0:0:0:0:
64,192,284704,1,0,0:0:0:0:
448,192,284704,1,0,0:0:0:0:
192,192,284790,1,0,0:0:0:0:
320,192,284876,1,0,0:0:0:0:
192,192,284961,1,0,0:0:0:0:
64,192,285047,1,0,0:0:0:0:
448,192,285047,1,0,0:0:0:0:
320,192,285133,1,0,0:0:0:0:
448,192,285218,1,0,0:0:0:0:
320,192,285304,1,0,0:0:0:0:
64,192,285390,128,0,285733:0:0:0:0:
448,192,285390,128,0,285733:0:0:0:0:
192,192,285733,1,0,0:0:0:0:
320,192,285733,1,0,0:0:0:0:
