osu file format v14

[General]
AudioFilename: audio.mp3
AudioLeadIn: 0
PreviewTime: 134669
Countdown: 1
SampleSet: Soft
StackLeniency: 0.7
Mode: 0
LetterboxInBreaks: 0
WidescreenStoryboard: 0

[Editor]
Bookmarks: 134669,198669,319624,487094,635670,775903
DistanceSpacing: 3
BeatDivisor: 6
GridSize: 8
TimelineZoom: 2.5

[Metadata]
Title:Songs Compilation
TitleUnicode:Songs Compilation
Artist:Squid Sisters
ArtistUnicode:Squid Sisters
Creator:henrygame3
Version:Staaaay fresh!
Source:Splatoon
Tags:
BeatmapID:1327687
BeatmapSetID:629044

[Difficulty]
HPDrainRate:6
CircleSize:4
OverallDifficulty:7
ApproachRate:10
SliderMultiplier:2.5
SliderTickRate:1

[Events]
//Background and Video events
0,0,"CI_NSwitch_Splatoon2_SquidSistersNovel_Chapter3_02_image912w.jpg",0,0
//Break Periods
2,129323,133919
2,194868,198149
2,308715,328277
//Storyboard Layer 0 (Background)
//Storyboard Layer 1 (Fail)
//Storyboard Layer 2 (Pass)
//Storyboard Layer 3 (Foreground)
//Storyboard Sound Samples

[TimingPoints]
751.26582278481,697.674418604651,4,1,1,70,1,0
134669,652.173913043478,4,3,1,100,1,1
134669,-66.6666666666667,4,3,1,100,0,1
198669,461.538461538462,4,2,1,100,1,0
198690,-133.333333333333,4,2,1,100,0,0
319624,413.793103448276,4,2,1,100,1,0
322840,-400,4,2,1,100,0,0
486907,375,4,3,1,100,1,0
635670,384.615384615385,4,2,1,100,1,0
775945,413.793103448276,4,3,1,100,1,0

[Colours]
Combo1 : 128,255,0
Combo2 : 255,0,255

[HitObjects]
136,104,751,5,0,0:0:0:0:
196,102,1100,1,0,0:0:0:0:
215,158,1448,2,0,P|253:204|290:213,2,83.3333333333333
267,186,2495,1,0,0:0:0:0:
225,142,2844,1,0,0:0:0:0:
357,165,3018,2,0,P|370:117|359:96,1,41.6666666666667
361,102,3367,5,0,0:0:0:0:
332,93,3541,1,0,0:0:0:0:
225,79,3890,1,0,0:0:0:0:
222,138,4239,1,0,0:0:0:0:
246,155,4414,1,0,0:0:0:0:
276,163,4588,1,0,0:0:0:0:
236,243,4937,6,0,P|146:168|166:153,1,208.333333333333
204,147,6332,2,0,P|313:124|309:135,1,230
309,132,7728,5,2,0:0:0:0:
287,111,7902,1,2,0:0:0:0:
268,88,8077,1,2,0:0:0:0:
238,81,8251,1,2,0:0:0:0:
208,90,8426,1,2,0:0:0:0:
202,119,8600,1,2,0:0:0:0:
205,149,8774,1,2,0:0:0:0:
226,169,8948,1,2,0:0:0:0:
247,214,9123,6,0,P|356:226|358:143,1,208.333333333333
411,196,10518,1,0,3:0:0:0:
397,180,10634,1,0,3:0:0:0:
383,165,10751,1,0,3:0:0:0:
367,152,10867,1,0,3:0:0:0:
348,145,10983,1,0,3:0:0:0:
327,144,11100,1,0,3:0:0:0:
307,147,11216,1,0,3:0:0:0:
291,160,11332,1,0,3:0:0:0:
274,171,11448,1,0,3:0:0:0:
256,181,11565,1,0,3:0:0:0:
238,191,11681,1,0,3:0:0:0:
235,210,11797,1,0,3:0:0:0:
235,230,11914,1,0,0:0:0:0:
238,263,12030,6,0,P|121:246|125:235,1,208.333333333333
211,119,13774,1,0,0:0:0:0:
298,139,14355,1,0,0:0:0:0:
225,234,14879,1,0,0:0:0:0:
209,208,15053,1,0,0:0:0:0:
193,182,15228,1,0,0:0:0:0:
201,116,15751,1,0,0:0:0:0:
262,139,16100,2,0,P|347:149|356:109,2,125
310,174,17495,5,0,0:0:0:0:
239,230,17844,1,0,0:0:0:0:
168,174,18193,1,0,0:0:0:0:
265,103,19065,1,0,0:0:0:0:
295,113,19239,1,0,0:0:0:0:
323,123,19414,1,0,0:0:0:0:
325,182,19762,2,0,P|179:146|181:141,1,230
117,136,20983,5,0,0:0:0:0:
264,95,21332,1,0,0:0:0:0:
377,115,21681,1,0,0:0:0:0:
316,205,22030,1,0,0:0:0:0:
219,202,22379,1,0,0:0:0:0:
218,96,22611,2,0,P|324:87|335:125,1,166.666666666667
328,165,23425,6,0,B|177:200|185:197|183:120|183:120|313:97|313:97|417:106|417:106|419:171|419:171|342:279|343:279|484:264|484:264|481:264,1,708.333333333333
448,213,26099,1,0,0:0:0:0:
434,190,26215,1,0,0:0:0:0:
407,186,26331,1,0,0:0:0:0:
383,173,26448,2,0,P|260:179|266:185,1,333.333333333333
178,169,27728,5,0,0:0:0:0:
327,80,27960,1,0,0:0:0:0:
419,236,28193,1,0,0:0:0:0:
239,303,28425,1,0,0:0:0:0:
287,185,28658,1,0,0:0:0:0:
351,101,29007,6,0,L|234:102,1,83.3333333333333
267,101,29355,1,0,0:0:0:0:
170,125,29704,2,0,L|190:195,1,41.6666666666667
181,165,30053,1,0,0:0:0:0:
280,171,30402,2,0,L|352:177,1,41.6666666666667
321,174,30751,1,0,0:0:0:0:
249,105,31100,2,0,P|210:199|225:211,1,125
232,221,31565,5,0,0:0:0:0:
260,238,31681,1,0,0:0:0:0:
293,239,31797,1,0,0:0:0:0:
322,223,31914,2,0,L|321:146,1,41.6666666666667
305,145,32146,1,0,0:0:0:0:
218,94,32495,2,0,L|266:56,1,41.6666666666667
313,89,32844,6,0,L|343:183,2,83.3333333333333
280,96,33425,1,0,3:0:0:0:
249,110,33541,1,0,3:0:0:0:
234,140,33658,1,0,3:0:0:0:
229,172,33774,1,0,3:0:0:0:
239,203,33890,1,0,3:0:0:0:
267,220,34007,1,0,3:0:0:0:
300,216,34123,1,0,3:0:0:0:
331,206,34239,1,0,3:0:0:0:
379,160,34472,5,0,0:0:0:0:
351,141,34588,1,0,0:0:0:0:
226,251,35169,1,0,0:0:0:0:
237,241,35286,2,0,P|364:215|368:211,1,125
330,125,35983,1,0,0:0:0:0:
244,176,36332,1,0,0:0:0:0:
341,200,36681,5,0,0:0:0:0:
249,241,37030,1,0,0:0:0:0:
215,146,37379,1,0,0:0:0:0:
314,158,37728,1,0,0:0:0:0:
259,74,38076,1,0,0:0:0:0:
346,123,38425,1,0,0:0:0:0:
298,210,38774,6,0,P|186:240|188:223,1,208.333333333333
255,132,39821,2,0,P|226:216|230:217,1,125
308,190,40518,1,0,0:0:0:0:
406,172,40867,1,0,0:0:0:0:
326,111,41216,1,0,0:0:0:0:
239,161,41565,2,0,B|163:240|166:243|281:230,1,166.666666666667
329,249,42262,2,0,L|379:134,1,125
295,77,42960,5,0,0:0:0:0:
377,133,43309,1,0,0:0:0:0:
443,57,43658,1,0,0:0:0:0:
448,156,44007,1,0,0:0:0:0:
411,248,44355,5,0,0:0:0:0:
319,206,44704,1,0,0:0:0:0:
288,192,44821,1,0,0:0:0:0:
271,181,44937,1,0,0:0:0:0:
377,155,45053,1,0,0:0:0:0:
345,144,45169,1,0,0:0:0:0:
316,126,45286,1,0,0:0:0:0:
254,99,45518,6,0,P|108:142|110:156,1,208.333333333333
164,176,46332,2,0,P|262:197|267:189,1,125
283,133,46797,1,0,0:0:0:0:
390,91,47146,1,0,0:0:0:0:
402,197,47495,1,0,0:0:0:0:
378,259,47844,2,0,P|241:232|239:228,1,125
218,209,48425,5,0,0:0:0:0:
311,172,48774,1,0,0:0:0:0:
404,137,49123,1,0,0:0:0:0:
436,231,49472,1,0,0:0:0:0:
366,234,49704,2,0,B|199:161|206:167|323:100,1,250
410,327,50983,2,0,B|345:197|323:142|323:142|366:115|366:115|294:93|294:93|221:99|221:99|243:121|203:131,1,416.666666666667
197,123,52262,6,0,P|147:224|144:242,1,125
175,249,52728,2,0,P|288:222|286:206,1,166.666666666667
267,187,53309,2,0,P|354:138|357:151,1,166.666666666667
283,130,54007,2,0,B|200:237|210:243|210:243|340:217|340:217|337:131|337:131,1,333.333333333333
281,117,55169,6,0,L|280:191,1,41.6666666666667
275,191,55402,2,0,L|275:240,1,41.6666666666667
273,265,55634,2,0,L|269:314,1,41.6666666666667
336,300,55983,1,0,0:0:0:0:
237,315,56332,2,0,L|159:311,2,41.6666666666667
320,256,56914,5,0,0:0:0:0:
400,192,57262,1,0,0:0:0:0:
320,136,57611,1,0,0:0:0:0:
224,176,57960,1,0,0:0:0:0:
192,272,58309,1,0,0:0:0:0:
288,256,58658,1,0,0:0:0:0:
312,160,59007,1,0,0:0:0:0:
272,112,59239,2,0,L|240:48,1,41.6666666666667
176,136,59704,5,0,0:0:0:0:
200,232,60053,1,0,0:0:0:0:
296,232,60402,1,0,0:0:0:0:
384,184,60751,1,0,0:0:0:0:
424,272,61100,1,0,0:0:0:0:
328,304,61448,1,0,0:0:0:0:
232,312,61797,1,0,0:0:0:0:
280,224,62146,1,0,0:0:0:0:
360,160,62495,1,0,0:0:0:0:
336,64,62844,5,0,0:0:0:0:
272,88,63076,1,0,0:0:0:0:
240,104,63193,1,0,0:0:0:0:
224,200,63541,1,0,0:0:0:0:
248,264,63774,1,0,0:0:0:0:
280,256,63890,1,0,0:0:0:0:
368,216,64239,1,0,0:0:0:0:
400,160,64472,1,0,0:0:0:0:
376,136,64588,1,0,0:0:0:0:
280,96,64937,6,0,P|208:136|192:200,1,125
376,104,65634,6,0,P|448:144|464:208,1,125
400,256,66332,2,0,P|288:280|264:272,2,125
400,224,67146,5,0,0:0:0:0:
400,192,67262,1,0,0:0:0:0:
368,176,67379,1,0,0:0:0:0:
336,168,67495,1,0,0:0:0:0:
304,160,67611,1,0,0:0:0:0:
272,176,67728,1,0,0:0:0:0:
264,208,67844,6,0,P|240:264|200:272,2,83.3333333333333
256,176,68425,1,0,0:0:0:0:
304,136,68658,1,0,0:0:0:0:
400,80,69007,1,0,0:0:0:0:
304,136,69239,2,0,B|136:152|160:152,2,125
312,104,70053,5,0,0:0:0:0:
376,112,70286,1,0,0:0:0:0:
392,176,70518,1,0,0:0:0:0:
312,232,70867,1,0,0:0:0:0:
256,152,71216,1,0,0:0:0:0:
312,72,71565,6,0,P|224:136|216:160,1,125
256,200,72146,2,0,L|312:168,1,41.6666666666667
320,160,72379,2,0,L|360:128,1,41.6666666666667
376,112,72611,2,0,L|416:88,1,41.6666666666667
440,200,72960,2,0,P|408:232|384:232,1,41.6666666666667
344,256,73309,1,0,0:0:0:0:
344,256,73658,1,0,0:0:0:0:
280,256,74007,2,0,P|248:192|256:176,1,83.3333333333333
288,136,74355,5,0,0:0:0:0:
320,120,74472,1,0,0:0:0:0:
352,112,74588,1,0,0:0:0:0:
384,120,74704,2,0,P|432:168|440:216,1,83.3333333333333
408,240,75169,2,0,P|304:256|280:240,1,125
320,184,75751,6,0,L|256:176,1,41.6666666666667
248,176,75983,2,0,L|184:176,1,41.6666666666667
232,112,76332,1,0,0:0:0:0:
232,112,76448,1,0,0:0:0:0:
296,112,76681,1,0,0:0:0:0:
296,112,76797,1,0,0:0:0:0:
352,144,77030,2,0,L|392:208,1,41.6666666666667
392,208,77262,2,0,L|424:264,1,41.6666666666667
456,192,77611,6,0,L|440:144,1,41.6666666666667
432,120,77844,2,0,L|384:80,1,41.6666666666667
336,112,78193,1,0,0:0:0:0:
304,112,78309,1,0,0:0:0:0:
304,208,78541,1,0,0:0:0:0:
216,152,78890,1,0,0:0:0:0:
152,176,79355,6,0,B|320:184|296:240|232:232|232:232|416:224|416:224|384:128|384:128|256:104|256:104,1,583.333333333333
224,128,81216,1,0,0:0:0:0:
192,128,81332,1,0,0:0:0:0:
128,136,81565,1,0,0:0:0:0:
144,232,81681,2,0,L|216:240,1,41.6666666666667
248,240,82030,2,0,L|304:240,1,41.6666666666667
392,184,82495,1,0,0:0:0:0:
384,120,82728,1,0,0:0:0:0:
288,128,83076,5,0,0:0:0:0:
184,144,83425,1,0,0:0:0:0:
96,192,83774,2,0,L|128:224,1,41.6666666666667
184,248,84123,2,0,L|232:208,1,41.6666666666667
272,192,84472,2,0,L|208:152,1,41.6666666666667
216,104,84821,6,0,L|280:104,1,41.6666666666667
257,104,85169,1,0,0:0:0:0:
360,120,85518,2,0,L|360:184,1,41.6666666666667
360,161,85751,1,0,0:0:0:0:
248,240,86216,2,0,L|200:208,1,41.6666666666667
213,216,86448,1,0,0:0:0:0:
240,88,86914,2,0,L|240:144,1,41.6666666666667
240,129,87146,1,0,0:0:0:0:
248,192,87379,6,0,L|248:248,1,41.6666666666667
240,264,87611,2,0,L|304:248,1,41.6666666666667
312,240,87844,2,0,L|336:192,1,41.6666666666667
424,240,88309,2,0,L|416:184,1,41.6666666666667
418,198,88541,1,0,0:0:0:0:
384,144,88774,5,0,3:0:0:0:
360,120,88890,1,0,3:0:0:0:
328,120,89007,1,0,3:0:0:0:
304,144,89123,1,0,3:0:0:0:
288,176,89239,1,0,3:0:0:0:
264,200,89355,1,0,3:0:0:0:
240,224,89472,1,0,3:0:0:0:
232,256,89588,1,0,3:0:0:0:
243,287,89704,2,0,P|370:291|373:283,1,166.666666666667
343,225,90402,2,0,P|250:166|245:169,1,125
308,115,90983,5,0,0:0:0:0:
209,131,91332,1,0,0:0:0:0:
137,201,91681,1,0,0:0:0:0:
236,206,92030,1,0,0:0:0:0:
334,188,92379,1,0,0:0:0:0:
338,88,92844,2,0,L|334:268,1,166.666666666667
400,252,93541,5,0,0:0:0:0:
432,157,93890,1,0,0:0:0:0:
332,160,94239,1,0,0:0:0:0:
232,166,94588,1,0,0:0:0:0:
235,265,94937,1,0,0:0:0:0:
334,277,95286,2,0,B|430:170|430:170|301:143|301:143|246:199|246:200|124:179|124:179|125:179,1,458.333333333333
129,148,96681,5,0,0:0:0:0:
89,56,97030,1,0,0:0:0:0:
185,83,97379,1,0,0:0:0:0:
251,158,97728,1,0,0:0:0:0:
307,240,98076,1,0,0:0:0:0:
396,284,98425,2,0,B|423:151|423:151|337:148|337:148|347:80|348:79|462:92|462:92|493:206|493:206,1,500
400,241,100169,6,0,L|316:233,1,83.3333333333333
283,232,100518,2,0,L|194:222,1,83.3333333333333
133,224,100983,2,0,B|193:101|193:101|272:131|272:131|303:97|303:97|215:45|215:45|241:32|241:32,1,375
279,72,102262,1,0,0:0:0:0:
371,109,102611,1,0,0:0:0:0:
374,208,102960,1,0,0:0:0:0:
277,235,103309,1,0,0:0:0:0:
181,204,103658,6,0,P|350:164|348:180,1,333.333333333333
381,107,104821,1,0,0:0:0:0:
339,159,105053,1,0,0:0:0:0:
288,202,105286,1,0,0:0:0:0:
232,238,105518,1,0,0:0:0:0:
191,185,105751,1,0,0:0:0:0:
442,96,106681,2,0,B|229:168|225:188|225:188|368:224|368:224,1,375
350,155,107960,6,0,L|304:114,1,41.6666666666667
287,114,108193,2,0,L|256:158,1,41.6666666666667
242,173,108425,2,0,L|239:239,1,41.6666666666667
246,247,108658,2,0,L|301:263,1,41.6666666666667
335,213,109007,2,0,P|312:124|300:120,1,83.3333333333333
233,163,109588,2,0,B|282:241|282:241|363:152|363:152|272:97|272:97,1,291.666666666667
352,77,110634,6,0,L|347:133,1,41.6666666666667
347,152,110867,2,0,L|348:208,1,41.6666666666667
346,227,111100,2,0,L|344:276,1,41.6666666666667
344,268,111681,1,0,0:0:0:0:
373,282,111797,1,0,0:0:0:0:
375,315,111914,1,0,0:0:0:0:
352,339,112030,1,0,0:0:0:0:
318,335,112146,1,0,0:0:0:0:
288,320,112262,2,0,L|232:288,1,41.6666666666667
256,199,112728,5,0,0:0:0:0:
231,102,113076,1,0,0:0:0:0:
326,131,113425,1,0,0:0:0:0:
237,177,113774,1,0,0:0:0:0:
301,253,114123,1,0,0:0:0:0:
299,152,114472,1,0,0:0:0:0:
228,80,114821,1,0,0:0:0:0:
157,150,115169,2,0,L|172:217,1,41.6666666666667
231,201,115518,5,0,0:0:0:0:
322,159,115867,1,0,0:0:0:0:
277,69,116216,1,0,0:0:0:0:
314,161,116565,1,0,0:0:0:0:
349,254,116914,1,0,0:0:0:0:
250,266,117262,1,0,0:0:0:0:
189,186,117611,1,0,0:0:0:0:
276,138,117960,2,0,L|336:151,1,41.6666666666667
316,146,118309,1,0,0:0:0:0:
377,174,118658,6,0,L|371:218,1,41.6666666666667
371,215,119007,1,0,0:0:0:0:
304,216,119355,2,0,L|252:219,1,41.6666666666667
262,218,119704,1,0,0:0:0:0:
221,165,120053,2,0,L|170:135,1,41.6666666666667
185,143,120402,1,0,0:0:0:0:
213,83,120751,2,0,L|271:110,1,41.6666666666667
250,100,121099,1,0,0:0:0:0:
334,155,121448,5,0,0:0:0:0:
373,63,121797,1,0,0:0:0:0:
401,158,122146,1,0,0:0:0:0:
332,231,122495,1,0,0:0:0:0:
361,137,122844,1,0,3:0:0:0:
337,134,122960,5,0,3:0:0:0:
303,135,123076,1,0,3:0:0:0:
275,154,123193,1,0,3:0:0:0:
255,181,123309,1,0,3:0:0:0:
256,214,123425,1,0,3:0:0:0:
280,236,123541,2,0,P|375:192|369:183,1,166.666666666667,0|0,3:0|3:0,3:0:0:0:
345,129,124239,6,0,P|250:168|254:207,1,125
256,205,124704,1,0,0:0:0:0:
269,235,124821,1,0,0:0:0:0:
333,220,125053,1,0,0:0:0:0:
377,170,125286,1,0,0:0:0:0:
389,70,125634,1,0,0:0:0:0:
291,93,125983,1,0,0:0:0:0:
196,137,126332,6,0,L|109:173,1,83.3333333333333
123,202,126681,2,0,L|192:257,1,83.3333333333333
217,238,127030,2,0,L|276:214,1,41.6666666666667
286,210,127262,1,0,0:0:0:0:
317,197,127379,1,0,0:0:0:0:
347,183,127495,1,0,0:0:0:0:
395,228,127728,5,0,0:0:0:0:
437,318,128076,1,0,0:0:0:0:
337,310,128425,1,0,0:0:0:0:
276,230,128774,1,0,0:0:0:0:
307,134,129123,1,0,0:0:0:0:
178,232,134669,6,0,L|339:178,1,125.000004768372
328,153,134995,2,0,L|165:78,1,125.000004768372
168,121,135321,2,0,L|165:228,1,62.5000023841859
203,217,135538,2,0,L|358:231,1,125.000004768372
348,182,135864,2,0,L|268:85,1,125.000004768372
352,48,136299,5,0,0:0:0:0:
432,176,136625,1,0,0:0:0:0:
312,264,136951,1,0,0:0:0:0:
200,160,137277,1,0,0:0:0:0:
336,128,137603,1,0,0:0:0:0:
264,264,137929,1,0,0:0:0:0:
416,272,138255,1,0,0:0:0:0:
320,160,138582,1,0,0:0:0:0:
168,176,138908,1,0,0:0:0:0:
256,296,139234,1,0,0:0:0:0:
336,168,139560,5,0,0:0:0:0:
200,112,139886,1,0,0:0:0:0:
120,240,140212,1,0,0:0:0:0:
272,216,140538,1,0,0:0:0:0:
312,72,140864,1,0,0:0:0:0:
180,184,141190,6,0,L|294:184,1,62.5000023841859
344,192,141516,2,0,P|208:104|184:112,1,187.500007152558
48,120,142169,1,0,0:0:0:0:
152,224,142495,2,0,P|160:144|72:160,1,187.500007152558
224,160,143147,1,0,0:0:0:0:
288,24,143473,1,0,0:0:0:0:
328,168,143799,1,0,0:0:0:0:
232,136,144125,1,0,0:0:0:0:
112,224,144451,6,0,P|256:240|264:232,1,125.000004768372
144,128,144995,2,0,P|296:184|312:208,1,187.500007152558
232,64,145647,1,0,0:0:0:0:
288,200,145864,1,0,0:0:0:0:
248,96,146082,1,0,0:0:0:0:
280,184,146299,1,0,0:0:0:0:
184,224,146516,6,0,L|248:264,1,62.5000023841859
336,248,146842,2,0,L|376:176,1,62.5000023841859
296,128,147169,2,0,P|232:168|224:168,1,62.5000023841859
160,120,147495,2,0,L|192:224,1,62.5000023841859
280,168,147821,2,0,L|384:168,1,62.5000023841859
184,40,148364,2,0,L|264:104,1,62.5000023841859
440,80,149016,6,0,B|288:168|272:176|272:176|160:160|160:160|104:120|104:120|192:80|192:80,1,437.500016689301
408,120,150321,2,0,B|256:32|240:24|240:24|128:40|128:40|72:80|72:80|160:120|160:120,1,437.500016689301
168,200,151299,6,0,P|336:160|328:144,1,312.500011920929
296,104,151951,1,0,0:0:0:0:
152,136,152277,1,0,0:0:0:0:
288,192,152603,1,0,0:0:0:0:
416,112,152929,1,0,0:0:0:0:
416,264,153255,1,0,0:0:0:0:
272,208,153582,1,0,0:0:0:0:
136,136,153908,1,0,0:0:0:0:
280,88,154234,1,0,0:0:0:0:
432,80,154560,5,0,0:0:0:0:
328,192,154886,1,0,0:0:0:0:
192,128,155212,1,0,0:0:0:0:
336,80,155538,1,0,0:0:0:0:
192,48,155864,1,0,0:0:0:0:
248,184,156190,1,0,0:0:0:0:
384,128,156516,1,0,0:0:0:0:
248,72,156842,1,0,0:0:0:0:
336,200,157169,1,0,0:0:0:0:
192,168,157495,5,0,0:0:0:0:
320,88,157821,1,0,0:0:0:0:
464,128,158147,2,0,P|280:152|272:144,1,187.500007152558
160,120,158799,2,0,P|304:88|304:104,1,250.000009536744
280,184,159451,2,0,B|96:168|96:168|232:96|232:96|384:80|384:80|392:136|392:136,1,500.000019073487
328,280,160755,2,0,B|176:160|176:160|368:128|368:128|400:224|400:224|432:184|432:184|440:176,1,500.000019073487
408,64,161951,5,0,0:0:0:0:
376,72,162060,1,0,0:0:0:0:
344,88,162169,1,0,0:0:0:0:
320,96,162277,1,0,0:0:0:0:
304,120,162386,1,0,0:0:0:0:
304,152,162495,1,0,0:0:0:0:
304,184,162603,1,0,0:0:0:0:
288,216,162712,1,0,0:0:0:0:
256,224,162821,1,0,0:0:0:0:
232,216,162929,1,0,0:0:0:0:
192,200,163038,1,0,0:0:0:0:
112,80,163255,6,0,L|200:72,1,62.5000023841859
224,88,163473,1,0,0:0:0:0:
248,104,163582,1,0,0:0:0:0:
264,120,163690,1,0,0:0:0:0:
256,152,163799,1,0,0:0:0:0:
240,184,163908,1,0,0:0:0:0:
216,192,164016,1,0,0:0:0:0:
184,200,164125,1,0,0:0:0:0:
153,185,164234,2,0,L|265:89,1,125.000004768372
272,160,164995,5,0,0:0:0:0:
280,112,165103,1,0,0:0:0:0:
288,64,165212,1,0,0:0:0:0:
344,168,165320,1,0,0:0:0:0:
352,120,165429,1,0,0:0:0:0:
352,72,165537,1,0,0:0:0:0:
432,200,165647,1,0,0:0:0:0:
432,144,165755,1,0,0:0:0:0:
432,96,165864,1,0,0:0:0:0:
248,120,166299,5,0,0:0:0:0:
224,136,166408,1,0,0:0:0:0:
208,160,166516,1,0,0:0:0:0:
208,192,166625,1,0,0:0:0:0:
224,224,166734,1,0,0:0:0:0:
256,224,166843,1,0,0:0:0:0:
288,208,166951,1,0,0:0:0:0:
304,184,167060,1,0,0:0:0:0:
304,144,167169,1,0,0:0:0:0:
272,120,167277,1,0,0:0:0:0:
240,128,167386,1,0,0:0:0:0:
216,160,167495,1,0,0:0:0:0:
224,192,167603,5,0,0:0:0:0:
256,208,167712,1,0,0:0:0:0:
288,216,167821,1,0,0:0:0:0:
312,192,167929,1,0,0:0:0:0:
328,160,168038,1,0,0:0:0:0:
336,120,168147,1,0,0:0:0:0:
304,104,168255,1,0,0:0:0:0:
272,104,168364,1,0,0:0:0:0:
248,112,168473,1,0,0:0:0:0:
224,136,168582,5,0,0:0:0:0:
208,160,168690,1,0,0:0:0:0:
216,192,168799,1,0,0:0:0:0:
240,208,168908,1,0,0:0:0:0:
272,216,169016,1,0,0:0:0:0:
304,200,169125,1,0,0:0:0:0:
327,176,169234,1,0,0:0:0:0:
331,137,169342,1,0,0:0:0:0:
293,122,169451,1,0,0:0:0:0:
255,129,169560,1,0,0:0:0:0:
221,151,169669,1,0,0:0:0:0:
207,185,169777,1,0,0:0:0:0:
218,226,169886,5,0,0:0:0:0:
248,244,169995,1,0,0:0:0:0:
286,241,170103,1,0,0:0:0:0:
314,222,170212,1,0,0:0:0:0:
322,172,170321,1,0,0:0:0:0:
303,147,170429,1,0,0:0:0:0:
272,159,170538,1,0,0:0:0:0:
238,174,170647,1,0,0:0:0:0:
214,197,170755,1,0,0:0:0:0:
280,240,170864,5,0,0:0:0:0:
288,192,170973,1,0,0:0:0:0:
288,144,171082,1,0,0:0:0:0:
352,248,171190,1,0,0:0:0:0:
360,200,171299,1,0,0:0:0:0:
360,152,171408,1,0,0:0:0:0:
424,264,171516,1,0,0:0:0:0:
424,216,171625,1,0,0:0:0:0:
432,168,171734,1,0,0:0:0:0:
240,112,172169,6,0,L|160:128,1,62.5000023841859
136,152,172386,2,0,L|136:216,1,62.5000023841859
224,272,172712,2,0,B|360:224|360:224|368:96|368:96,2,250.000009536744
208,176,173799,5,0,0:0:0:0:
312,64,174125,1,0,0:0:0:0:
344,208,174451,1,0,0:0:0:0:
192,216,174777,1,0,0:0:0:0:
288,104,175103,5,0,0:0:0:0:
432,160,175429,1,0,0:0:0:0:
280,160,175755,1,0,0:0:0:0:
128,160,176082,1,0,0:0:0:0:
248,64,176408,1,0,0:0:0:0:
256,216,176734,1,0,0:0:0:0:
392,144,177060,1,0,0:0:0:0:
240,128,177386,1,0,0:0:0:0:
112,208,177712,1,0,0:0:0:0:
264,216,178038,1,0,0:0:0:0:
384,128,178364,1,0,0:0:0:0:
240,96,178690,5,0,0:0:0:0:
128,192,179016,1,0,0:0:0:0:
280,192,179342,1,0,0:0:0:0:
352,56,179669,1,0,0:0:0:0:
368,208,179995,1,0,0:0:0:0:
240,280,180321,1,0,0:0:0:0:
176,144,180647,1,0,0:0:0:0:
328,136,180973,1,0,0:0:0:0:
208,224,181299,1,0,0:0:0:0:
352,248,181625,1,0,0:0:0:0:
264,128,181951,5,0,0:0:0:0:
408,80,182277,1,0,0:0:0:0:
256,72,182603,1,0,0:0:0:0:
136,160,182929,1,0,0:0:0:0:
144,8,183255,2,0,L|192:80,1,62.5000023841859
178,60,183799,1,0,0:0:0:0:
328,192,184234,2,0,L|240:128,1,62.5000023841859
277,155,184886,1,0,0:0:0:0:
424,168,185538,6,0,L|376:216,1,62.5000023841859
379,212,186190,1,0,0:0:0:0:
264,120,186516,5,0,0:0:0:0:
234,138,186625,1,0,0:0:0:0:
227,172,186734,1,0,0:0:0:0:
233,201,186842,1,0,0:0:0:0:
261,223,186951,1,0,0:0:0:0:
293,227,187060,1,0,0:0:0:0:
326,224,187168,1,0,0:0:0:0:
356,212,187277,1,0,0:0:0:0:
374,183,187386,1,0,0:0:0:0:
365,157,187495,1,0,0:0:0:0:
342,137,187603,5,0,0:0:0:0:
300,134,187712,1,0,0:0:0:0:
271,152,187821,1,0,0:0:0:0:
245,171,187929,1,0,0:0:0:0:
216,185,188038,1,0,0:0:0:0:
178,167,188147,1,0,0:0:0:0:
174,139,188255,1,0,0:0:0:0:
191,102,188364,1,0,0:0:0:0:
214,89,188473,1,0,0:0:0:0:
244,85,188582,5,0,0:0:0:0:
276,92,188690,1,0,0:0:0:0:
307,106,188799,1,0,0:0:0:0:
335,121,188908,1,0,0:0:0:0:
360,138,189016,1,0,0:0:0:0:
380,155,189125,1,0,0:0:0:0:
386,193,189234,1,0,0:0:0:0:
374,219,189342,1,0,0:0:0:0:
344,240,189451,1,0,0:0:0:0:
317,228,189560,5,0,0:0:0:0:
293,201,189668,1,0,0:0:0:0:
295,169,189777,1,0,0:0:0:0:
278,137,189886,1,0,0:0:0:0:
243,123,189995,1,0,0:0:0:0:
213,141,190103,1,0,0:0:0:0:
208,179,190212,1,0,0:0:0:0:
211,215,190321,1,0,0:0:0:0:
242,224,190429,5,0,0:0:0:0:
276,220,190538,1,0,0:0:0:0:
307,203,190647,1,0,0:0:0:0:
321,170,190755,1,0,0:0:0:0:
294,142,190864,1,0,0:0:0:0:
260,136,190973,1,0,0:0:0:0:
232,158,191082,1,0,0:0:0:0:
228,186,191190,1,0,0:0:0:0:
240,218,191299,1,0,0:0:0:0:
269,238,191408,5,0,0:0:0:0:
304,238,191516,1,0,0:0:0:0:
329,214,191625,1,0,0:0:0:0:
327,182,191734,1,0,0:0:0:0:
302,155,191842,1,0,0:0:0:0:
266,146,191951,1,0,0:0:0:0:
240,121,192060,1,0,0:0:0:0:
245,89,192168,1,0,0:0:0:0:
275,74,192277,1,0,0:0:0:0:
313,72,192386,1,0,0:0:0:0:
345,86,192495,5,0,0:0:0:0:
364,114,192603,1,0,0:0:0:0:
369,154,192712,1,0,0:0:0:0:
358,188,192821,1,0,0:0:0:0:
325,207,192929,1,0,0:0:0:0:
291,208,193038,1,0,0:0:0:0:
261,193,193147,1,0,0:0:0:0:
224,191,193255,1,0,0:0:0:0:
190,179,193364,1,0,0:0:0:0:
180,146,193473,5,0,0:0:0:0:
192,118,193582,1,0,0:0:0:0:
228,113,193690,1,0,0:0:0:0:
259,122,193799,1,0,0:0:0:0:
291,137,193908,1,0,0:0:0:0:
318,151,194016,1,0,0:0:0:0:
347,127,194125,1,0,0:0:0:0:
360,88,194234,1,0,0:0:0:0:
332,68,194342,1,0,0:0:0:0:
300,58,194451,5,0,0:0:0:0:
262,72,194560,1,0,0:0:0:0:
244,99,194668,1,0,0:0:0:0:
120,80,198899,5,0,0:0:0:0:
160,80,199130,1,0,0:0:0:0:
184,104,199361,1,0,0:0:0:0:
306,357,199592,2,0,P|256:240|304:216,2,187.500007152558
128,72,200669,1,0,0:0:0:0:
248,32,200899,1,0,0:0:0:0:
336,104,201130,1,0,0:0:0:0:
336,248,202592,6,0,L|248:216,1,93.7500035762788
272,120,203053,2,0,L|376:168,1,93.7500035762788
392,80,203515,2,0,L|288:32,1,93.7500035762788
260,113,203976,2,0,L|384:159,1,125.000004768372
161,165,206053,6,0,P|244:233|248:224,1,187.500007152558
350,248,206745,2,0,P|455:220|458:198,1,125.000004768372
356,83,207207,1,0,0:0:0:0:
210,138,207438,1,0,0:0:0:0:
277,217,207669,1,0,0:0:0:0:
374,182,207899,1,0,0:0:0:0:
434,110,208130,2,0,P|265:62|261:64,1,187.500007152558
175,154,208822,6,0,P|226:159|268:111,1,93.7500035762788
356,120,209284,1,0,0:0:0:0:
207,222,209515,1,0,0:0:0:0:
402,187,209745,1,0,0:0:0:0:
197,112,209976,5,0,0:0:0:0:
213,225,210207,1,0,0:0:0:0:
352,92,210438,1,0,0:0:0:0:
371,217,210669,1,0,0:0:0:0:
188,49,210899,1,0,0:0:0:0:
52,175,211130,1,0,0:0:0:0:
190,243,211361,1,0,0:0:0:0:
196,141,211822,2,0,P|261:175|301:166,2,93.7500035762788
234,52,212515,6,0,P|305:66|361:60,2,125.000004768372
113,279,213669,1,0,0:0:0:0:
486,291,213899,1,0,0:0:0:0:
125,187,214130,1,0,0:0:0:0:
485,83,214361,1,0,0:0:0:0:
206,334,214592,1,0,0:0:0:0:
412,22,214822,1,0,0:0:0:0:
37,49,215053,1,0,0:0:0:0:
332,280,215284,1,0,0:0:0:0:
45,166,215515,5,0,0:0:0:0:
413,228,215745,1,0,0:0:0:0:
84,46,215976,1,0,0:0:0:0:
352,308,216207,1,0,0:0:0:0:
240,252,216284,1,0,0:0:0:0:
132,187,216361,1,0,0:0:0:0:
17,137,216438,1,0,0:0:0:0:
365,276,216669,1,0,0:0:0:0:
34,101,216899,1,0,0:0:0:0:
404,39,217130,5,0,0:0:0:0:
170,332,217361,1,0,0:0:0:0:
72,55,217592,1,0,0:0:0:0:
373,275,217822,1,0,0:0:0:0:
72,55,218053,1,0,0:0:0:0:
439,58,218284,1,0,0:0:0:0:
72,137,218515,1,0,0:0:0:0:
438,209,218745,5,0,0:0:0:0:
79,321,218976,1,0,0:0:0:0:
154,221,219053,1,0,0:0:0:0:
223,116,219130,1,0,0:0:0:0:
296,14,219207,1,0,0:0:0:0:
436,361,219438,1,0,0:0:0:0:
10,235,219669,1,0,0:0:0:0:
347,73,219899,1,0,0:0:0:0:
277,177,219976,1,0,0:0:0:0:
197,273,220053,1,0,0:0:0:0:
64,319,220130,5,0,0:0:0:0:
155,142,220361,1,0,0:0:0:0:
354,179,220592,1,0,0:0:0:0:
255,51,220822,2,0,P|214:121|205:116,1,125.000004768372
275,264,221515,2,0,P|346:227|350:214,1,93.7500035762788
181,196,221976,5,0,0:0:0:0:
300,73,222207,1,0,0:0:0:0:
37,341,222438,1,0,0:0:0:0:
300,73,222669,1,0,0:0:0:0:
42,52,222899,1,0,0:0:0:0:
246,366,223130,1,0,0:0:0:0:
452,52,223361,1,0,0:0:0:0:
253,193,224515,5,0,0:0:0:0:
67,192,224745,1,0,0:0:0:0:
225,78,224976,1,0,0:0:0:0:
386,173,225207,1,0,0:0:0:0:
253,193,225438,1,0,0:0:0:0:
67,192,225669,1,0,0:0:0:0:
409,41,225899,1,0,0:0:0:0:
195,349,226130,1,0,0:0:0:0:
435,60,226361,5,0,0:0:0:0:
221,368,226592,1,0,0:0:0:0:
463,83,226822,1,0,0:0:0:0:
260,380,227053,1,0,0:0:0:0:
106,175,228207,6,0,P|163:218|169:213,1,93.7500035762788
506,61,228669,2,0,B|502:111|463:136|447:129|446:129,1,93.7500035762788
123,310,229130,2,0,P|166:266|230:303,1,125.000004768372
197,33,229592,2,0,P|303:35|306:37,1,93.7500035762788
55,322,230053,2,0,P|170:308|171:305,1,125.000004768372
333,139,230515,1,0,0:0:0:0:
105,53,230745,5,0,0:0:0:0:
396,289,230976,1,0,0:0:0:0:
31,201,231207,1,0,0:0:0:0:
374,49,231438,1,0,0:0:0:0:
108,314,231669,1,0,0:0:0:0:
200,53,231899,1,0,0:0:0:0:
458,325,232130,1,0,0:0:0:0:
110,188,232361,2,0,P|205:192|208:172,1,125.000004768372
207,98,232822,2,0,P|146:69|96:113,1,125.000004768372
66,202,233515,5,0,0:0:0:0:
439,194,233745,1,0,0:0:0:0:
85,66,233976,1,0,0:0:0:0:
401,268,234207,1,0,0:0:0:0:
43,155,234438,1,0,0:0:0:0:
232,45,234669,1,0,0:0:0:0:
21,353,234899,1,0,0:0:0:0:
306,109,235130,1,0,0:0:0:0:
90,353,235361,1,0,0:0:0:0:
387,124,235592,5,0,0:0:0:0:
147,358,235822,1,0,0:0:0:0:
92,175,236053,1,0,0:0:0:0:
466,150,236284,1,0,0:0:0:0:
108,37,236515,1,0,0:0:0:0:
397,272,236745,1,0,0:0:0:0:
54,118,236976,1,0,0:0:0:0:
425,173,237207,1,0,0:0:0:0:
72,43,237438,5,0,0:0:0:0:
82,253,237669,1,0,0:0:0:0:
455,255,237899,1,0,0:0:0:0:
134,59,238130,1,0,0:0:0:0:
82,253,238361,1,0,0:0:0:0:
412,75,238592,1,0,0:0:0:0:
40,119,238822,1,0,0:0:0:0:
403,212,239053,1,0,0:0:0:0:
43,320,239284,1,0,0:0:0:0:
294,41,239515,1,0,0:0:0:0:
225,332,239745,1,0,0:0:0:0:
62,156,239976,5,0,0:0:0:0:
437,151,240207,1,0,0:0:0:0:
108,332,240438,1,0,0:0:0:0:
241,77,240669,1,0,0:0:0:0:
390,304,240899,1,0,0:0:0:0:
65,115,241130,1,0,0:0:0:0:
439,97,241361,1,0,0:0:0:0:
63,81,241592,1,0,0:0:0:0:
436,59,241822,1,0,0:0:0:0:
103,232,242053,5,0,0:0:0:0:
477,203,242284,1,0,0:0:0:0:
132,351,242515,1,0,0:0:0:0:
270,3,242745,1,0,0:0:0:0:
428,343,242976,1,0,0:0:0:0:
104,153,243207,1,0,0:0:0:0:
475,96,243438,1,0,0:0:0:0:
178,325,243669,1,0,0:0:0:0:
226,67,243899,1,0,0:0:0:0:
435,378,244130,1,0,0:0:0:0:
107,194,244361,1,0,0:0:0:0:
456,57,244592,1,0,0:0:0:0:
220,346,244822,5,0,0:0:0:0:
242,44,245053,1,0,0:0:0:0:
482,332,245284,1,0,0:0:0:0:
176,113,245515,1,0,0:0:0:0:
60,325,245745,1,0,0:0:0:0:
348,85,245976,1,0,0:0:0:0:
45,91,246207,1,0,0:0:0:0:
394,226,246438,2,0,P|325:168|325:158,1,93.7500035762788
441,147,246899,2,0,P|370:85|351:116,1,156.250005960465
116,131,247592,5,0,0:0:0:0:
235,259,247822,1,0,0:0:0:0:
245,111,248053,1,0,0:0:0:0:
357,254,248284,1,0,0:0:0:0:
424,131,248515,1,0,0:0:0:0:
487,260,248745,1,0,0:0:0:0:
357,254,248976,1,0,0:0:0:0:
35,60,249207,5,0,0:0:0:0:
410,57,249438,1,0,0:0:0:0:
123,299,249669,1,0,0:0:0:0:
496,312,249899,1,0,0:0:0:0:
250,28,250130,1,0,0:0:0:0:
40,339,250361,1,0,0:0:0:0:
396,221,250592,1,0,0:0:0:0:
28,287,250822,1,0,0:0:0:0:
386,177,251053,5,0,0:0:0:0:
33,47,251284,1,0,0:0:0:0:
331,274,251515,1,0,0:0:0:0:
56,19,251745,1,0,0:0:0:0:
429,52,251976,1,0,0:0:0:0:
124,271,252207,1,0,0:0:0:0:
497,303,252438,1,0,0:0:0:0:
142,180,252669,6,0,P|279:182|282:178,1,156.250005960465
155,101,253207,2,0,P|236:76|304:135,1,156.250005960465
392,136,254284,6,0,L|432:146,1,31.2500011920929
177,146,254745,2,0,L|127:156,1,31.2500011920929
261,248,255207,2,0,L|263:308,1,31.2500011920929
167,84,255669,2,0,L|130:102,1,31.2500011920929
186,233,256130,2,0,L|150:263,1,31.2500011920929
128,112,256592,2,0,L|85:148,1,31.2500011920929
346,198,257053,2,0,L|389:215,1,31.2500011920929
99,27,257745,5,0,0:0:0:0:
487,34,257976,1,0,0:0:0:0:
466,319,258207,1,0,0:0:0:0:
48,339,258438,1,0,0:0:0:0:
44,27,258669,1,0,0:0:0:0:
417,31,258899,1,0,0:0:0:0:
417,261,259130,1,0,0:0:0:0:
43,296,259361,1,0,0:0:0:0:
43,47,259592,1,0,0:0:0:0:
416,47,259822,1,0,0:0:0:0:
498,57,260053,5,0,0:0:0:0:
123,79,260284,1,0,0:0:0:0:
487,168,260515,1,0,0:0:0:0:
113,172,260745,1,0,0:0:0:0:
478,259,260976,1,0,0:0:0:0:
102,263,261207,1,0,0:0:0:0:
407,45,261438,1,0,0:0:0:0:
31,47,261669,1,0,0:0:0:0:
343,251,261899,1,0,0:0:0:0:
11,74,262130,5,0,0:0:0:0:
254,359,262361,1,0,0:0:0:0:
463,47,262592,1,0,0:0:0:0:
149,250,262822,1,0,0:0:0:0:
507,359,263053,1,0,0:0:0:0:
132,341,263284,1,0,0:0:0:0:
496,251,263515,1,0,0:0:0:0:
148,114,263745,2,0,P|223:189|228:184,1,156.250005960465
255,35,264265,1,0,0:0:0:0:
375,33,264515,2,0,P|434:77|454:146,1,125.000004768372
364,160,265130,5,0,0:0:0:0:
90,309,265361,1,0,0:0:0:0:
308,3,265592,1,0,0:0:0:0:
458,345,265822,1,0,0:0:0:0:
114,193,266053,1,0,0:0:0:0:
468,69,266284,1,0,0:0:0:0:
189,320,266515,1,0,0:0:0:0:
90,74,266745,1,0,0:0:0:0:
443,201,266976,5,0,0:0:0:0:
95,343,267207,1,0,0:0:0:0:
260,6,267438,1,0,0:0:0:0:
263,381,267669,1,0,0:0:0:0:
440,52,267899,1,0,0:0:0:0:
353,142,267976,1,0,0:0:0:0:
260,226,268053,1,0,0:0:0:0:
170,313,268130,1,0,0:0:0:0:
30,189,268361,1,0,0:0:0:0:
379,327,268592,1,0,0:0:0:0:
106,71,268822,5,0,0:0:0:0:
453,213,269053,1,0,0:0:0:0:
140,5,269284,1,0,0:0:0:0:
361,308,269515,1,0,0:0:0:0:
56,91,269745,1,0,0:0:0:0:
54,338,269976,1,0,0:0:0:0:
259,23,270207,1,0,0:0:0:0:
456,342,270438,1,0,0:0:0:0:
80,339,270669,1,0,0:0:0:0:
438,234,270899,5,0,0:0:0:0:
79,121,271130,1,0,0:0:0:0:
454,125,271361,1,0,0:0:0:0:
88,41,271592,1,0,0:0:0:0:
412,226,271822,1,0,0:0:0:0:
54,110,272053,1,0,0:0:0:0:
379,297,272284,1,0,0:0:0:0:
16,200,272515,1,0,0:0:0:0:
345,23,272745,1,0,0:0:0:0:
147,342,272976,5,0,0:0:0:0:
415,79,273207,1,0,0:0:0:0:
42,28,273438,1,0,0:0:0:0:
258,334,273669,1,0,0:0:0:0:
504,53,273899,1,0,0:0:0:0:
141,149,274130,1,0,0:0:0:0:
477,316,274361,1,0,0:0:0:0:
101,330,274592,1,0,0:0:0:0:
369,69,274822,1,0,0:0:0:0:
34,240,275053,5,0,0:0:0:0:
340,23,275284,1,0,0:0:0:0:
493,365,275515,1,0,0:0:0:0:
178,163,275745,1,0,0:0:0:0:
37,31,275976,1,0,0:0:0:0:
411,52,276207,1,0,0:0:0:0:
111,278,276438,1,0,0:0:0:0:
457,132,276669,1,0,0:0:0:0:
95,37,276899,1,0,0:0:0:0:
351,311,277130,5,0,0:0:0:0:
7,159,277361,1,0,0:0:0:0:
369,61,277592,1,0,0:0:0:0:
80,298,277822,1,0,0:0:0:0:
418,136,278053,1,0,0:0:0:0:
54,44,278284,1,0,0:0:0:0:
358,264,278515,1,0,0:0:0:0:
9,128,278745,1,0,0:0:0:0:
383,156,278976,1,0,0:0:0:0:
34,16,279207,5,0,0:0:0:0:
316,263,279438,1,0,0:0:0:0:
3,54,279669,1,0,0:0:0:0:
376,68,279899,1,0,0:0:0:0:
64,276,280130,1,0,0:0:0:0:
432,202,280361,1,0,0:0:0:0:
82,66,280592,1,0,0:0:0:0:
390,276,280822,1,0,0:0:0:0:
28,174,281053,1,0,0:0:0:0:
385,58,281284,5,0,0:0:0:0:
93,295,281515,1,0,0:0:0:0:
440,157,281745,1,0,0:0:0:0:
74,70,281976,1,0,0:0:0:0:
381,285,282207,1,0,0:0:0:0:
26,161,282438,1,0,0:0:0:0:
392,79,282669,1,0,0:0:0:0:
96,307,282899,1,0,0:0:0:0:
456,202,283130,1,0,0:0:0:0:
97,91,283361,5,0,0:0:0:0:
425,272,283592,1,0,0:0:0:0:
79,130,283822,1,0,0:0:0:0:
408,309,284053,1,0,0:0:0:0:
58,171,284284,1,0,0:0:0:0:
417,62,284515,1,0,0:0:0:0:
126,296,284745,1,0,0:0:0:0:
465,135,284976,1,0,0:0:0:0:
94,75,285207,1,0,0:0:0:0:
392,302,285438,1,0,0:0:0:0:
43,162,285669,5,0,0:0:0:0:
402,59,285899,1,0,0:0:0:0:
117,304,286130,1,0,0:0:0:0:
460,151,286361,1,0,0:0:0:0:
98,50,286592,1,0,0:0:0:0:
397,274,286822,1,0,0:0:0:0:
53,121,287053,1,0,0:0:0:0:
424,65,287284,1,0,0:0:0:0:
122,288,287515,1,0,0:0:0:0:
463,135,287745,5,0,0:0:0:0:
95,60,287976,1,0,0:0:0:0:
384,299,288207,1,0,0:0:0:0:
8,313,288438,1,0,0:0:0:0:
303,81,288669,1,0,0:0:0:0:
384,299,288899,1,0,0:0:0:0:
96,57,289130,1,0,0:0:0:0:
470,40,289361,1,0,0:0:0:0:
152,241,289592,1,0,0:0:0:0:
254,42,289822,1,0,0:0:0:0:
474,346,290053,5,0,0:0:0:0:
98,346,290284,1,0,0:0:0:0:
359,76,290515,1,0,0:0:0:0:
63,49,290745,1,0,0:0:0:0:
372,261,290976,1,0,0:0:0:0:
216,37,291207,1,0,0:0:0:0:
33,364,291438,1,0,0:0:0:0:
364,187,291669,1,0,0:0:0:0:
24,30,291899,1,0,0:0:0:0:
398,50,292130,5,0,0:0:0:0:
102,281,292361,1,0,0:0:0:0:
468,198,292592,1,0,0:0:0:0:
106,104,292822,1,0,0:0:0:0:
425,301,293053,1,0,0:0:0:0:
159,35,293284,1,0,0:0:0:0:
364,348,293515,1,0,0:0:0:0:
94,89,293745,1,0,0:0:0:0:
467,53,293976,1,0,0:0:0:0:
146,247,294207,1,0,0:0:0:0:
471,298,294438,5,0,0:0:0:0:
114,179,294669,1,0,0:0:0:0:
458,33,294899,1,0,0:0:0:0:
82,43,295130,1,0,0:0:0:0:
374,278,295361,1,0,0:0:0:0:
37,112,295592,1,0,0:0:0:0:
404,44,295822,1,0,0:0:0:0:
138,309,296053,1,0,0:0:0:0:
452,103,296284,1,0,0:0:0:0:
78,63,296515,5,0,0:0:0:0:
351,317,296745,1,0,0:0:0:0:
48,94,296976,1,0,0:0:0:0:
313,359,297207,1,0,0:0:0:0:
146,22,297438,1,0,0:0:0:0:
380,315,297669,1,0,0:0:0:0:
65,112,297899,1,0,0:0:0:0:
427,209,298130,1,0,0:0:0:0:
52,225,298361,1,0,0:0:0:0:
402,90,298592,1,0,0:0:0:0:
97,306,298822,5,0,0:0:0:0:
356,35,299053,1,0,0:0:0:0:
29,219,299284,1,0,0:0:0:0:
403,187,299515,1,0,0:0:0:0:
50,63,299745,1,0,0:0:0:0:
339,302,299976,1,0,0:0:0:0:
86,24,300207,1,0,0:0:0:0:
272,349,300438,1,0,0:0:0:0:
30,61,300669,1,0,0:0:0:0:
403,52,300899,5,0,0:0:0:0:
125,304,301130,1,0,0:0:0:0:
359,10,301361,1,0,0:0:0:0:
158,327,301592,1,0,0:0:0:0:
412,53,301822,1,0,0:0:0:0:
36,40,302053,1,0,0:0:0:0:
332,269,302284,1,0,0:0:0:0:
8,79,302515,1,0,0:0:0:0:
378,128,302745,1,0,0:0:0:0:
73,347,302976,5,0,0:0:0:0:
329,73,303207,1,0,0:0:0:0:
72,346,303438,1,0,0:0:0:0:
324,68,303669,1,0,0:0:0:0:
59,42,303899,1,0,0:0:0:0:
361,264,304130,1,0,0:0:0:0:
192,39,304361,1,0,0:0:0:0:
119,242,304592,1,0,0:0:0:0:
439,50,304822,1,0,0:0:0:0:
332,116,304899,5,0,0:0:0:0:
222,176,304976,1,0,0:0:0:0:
198,298,305053,1,0,0:0:0:0:
349,287,305284,1,0,0:0:0:0:
53,55,305515,1,0,0:0:0:0:
426,58,305745,1,0,0:0:0:0:
63,156,305976,1,0,0:0:0:0:
438,149,306207,1,0,0:0:0:0:
73,239,306438,1,0,0:0:0:0:
448,225,306669,1,0,0:0:0:0:
87,322,306899,5,0,0:0:0:0:
462,322,307130,1,0,0:0:0:0:
95,240,307361,1,0,0:0:0:0:
470,232,307592,1,0,0:0:0:0:
103,157,307822,1,0,0:0:0:0:
478,165,308053,1,0,0:0:0:0:
111,83,308284,1,0,0:0:0:0:
486,91,308515,1,0,0:0:0:0:
163,186,328727,6,0,P|186:136|251:129,1,125
361,223,329761,2,0,P|457:148|450:124,1,166.666666666667
353,90,331141,2,0,P|212:89|175:127,1,197.916666666667
217,183,332934,2,0,P|318:218|324:208,1,145.833333333333
352,137,334106,2,0,P|230:77|207:87,1,166.666666666667
160,173,335417,2,0,P|296:202|299:191,1,208.333333333333
299,119,337210,2,0,P|195:91|187:96,1,125
206,175,338313,2,0,P|271:198|287:179,1,104.166666666667
373,173,339279,6,0,P|375:87|346:90,1,145.833333333333
276,102,340520,2,0,P|254:183|260:193,1,93.75
313,172,341348,2,0,P|215:160|208:152,1,114.583333333333
248,79,342382,2,0,P|334:86|336:97,1,114.583333333333
332,173,343417,2,0,P|242:151|246:140,1,156.25
328,153,344727,2,0,P|407:195|410:177,1,166.666666666667
346,125,346106,6,0,P|199:129|191:140,1,177.083333333333
222,215,347555,2,0,P|321:248|331:228,1,156.25
306,150,348865,2,0,P|177:110|171:116,1,166.666666666667
254,132,350244,2,0,P|316:183|317:202,1,104.166666666667
213,215,351279,2,0,P|236:111|254:115,1,166.666666666667
334,106,352658,2,0,P|401:187|391:219,1,145.833333333333
336,303,353968,6,0,P|205:256|202:249,1,156.25
206,128,355417,2,0,L|314:124,2,104.166666666667
137,81,357072,2,0,P|294:53|298:59,1,197.916666666667
342,141,358727,2,0,P|293:199|280:187,1,125
243,180,360382,5,0,0:0:0:0:
330,145,360589,1,0,0:0:0:0:
374,227,360796,1,0,0:0:0:0:
285,258,361003,1,0,0:0:0:0:
192,273,361210,1,0,0:0:0:0:
158,185,361417,1,0,0:0:0:0:
172,129,362658,6,0,P|288:127|288:133,1,177.083333333333
420,299,364313,2,0,P|164:251|158:235,1,322.916666666667
314,236,366796,2,0,P|132:162|104:188,1,260.416666666667
110,24,368865,2,0,P|155:123|163:165,1,145.833333333333
253,99,370520,2,0,P|259:152|155:218,1,187.5
283,212,372175,6,0,P|272:137|160:220,1,281.25
281,220,374451,2,0,P|301:137|278:106,1,125
156,108,375692,1,0,0:0:0:0:
232,204,375899,1,0,0:0:0:0:
312,115,376106,1,0,0:0:0:0:
241,56,376313,1,0,0:0:0:0:
338,8,376520,1,0,0:0:0:0:
386,69,376727,1,0,0:0:0:0:
434,164,376934,1,0,0:0:0:0:
350,222,377141,5,0,0:0:0:0:
302,149,377348,1,0,0:0:0:0:
220,175,377899,2,0,L|252:206,2,41.6666666666667
153,115,378796,1,0,0:0:0:0:
237,74,379003,1,0,0:0:0:0:
317,122,379210,1,0,0:0:0:0:
276,206,379417,1,0,0:0:0:0:
191,166,379624,1,0,0:0:0:0:
193,72,379830,6,0,P|273:49|279:57,1,104.166666666667
