osu file format v14

[General]
AudioFilename: audio.mp3
AudioLeadIn: 0
PreviewTime: 236774
Countdown: 0
SampleSet: Normal
StackLeniency: 0.7
Mode: 1
LetterboxInBreaks: 0
WidescreenStoryboard: 0

[Editor]
Bookmarks: 22552,33846,45140,56434,67728,79022,90316,101610,112904,124199,135493,146787,158081,169375,191951,203245,214539,225833,271009,276656,282304,287951,293598,299245,304892,310539,316186,327480
DistanceSpacing: 2.1
BeatDivisor: 6
GridSize: 4
TimelineZoom: 3.099999

[Metadata]
Title:Dark Steering
TitleUnicode:Dark Steering
Artist:Squarepusher
ArtistUnicode:Squarepusher
Creator:vrnl
Version:Endgame
Source:
Tags:Acid Techno idm Ufabulum warp WARPCDD228 Tom Jenkinson marathon glitch experimental
BeatmapID:1758481
BeatmapSetID:743046

[Difficulty]
HPDrainRate:4
CircleSize:2
OverallDifficulty:6.5
ApproachRate:0
SliderMultiplier:1.4
SliderTickRate:1

[Events]
//Background and Video events
0,0,"bg.jpg",0,0
//Break Periods
//Storyboard Layer 0 (Background)
//Storyboard Layer 1 (Fail)
//Storyboard Layer 2 (Pass)
//Storyboard Layer 3 (Foreground)
//Storyboard Sound Samples

[TimingPoints]
22552,352.941176470588,4,1,0,55,1,0
22552,-83.3333333333333,4,1,0,55,0,0
180657,352.941176470588,4,1,0,70,1,0
180921,-100,4,1,0,45,0,0
191951,-83.3333333333333,4,1,0,70,0,0
237127,-83.3333333333333,4,1,0,70,0,1
259715,-83.3333333333333,4,1,0,70,0,0
293598,-25,4,1,0,70,0,0
295009,-83.3333333333333,4,1,0,70,0,0
328186,-86.9565217391304,4,1,0,70,0,0
328892,-90.9090909090909,4,1,0,70,0,0
350068,-100,4,1,0,70,0,0
351215,-50,4,1,0,70,0,0
351480,352.941176470588,7,1,0,55,1,8
353774,-100,7,1,0,55,0,0
353950,352.941176470588,7,1,0,55,1,8
356332,352.941176470588,7,1,0,55,1,0
356332,-66.6666666666667,7,1,0,55,0,0
358802,352.941176470588,7,1,0,50,1,8
358802,-28.5714285714286,7,1,0,50,0,0
361096,-25,7,1,0,45,0,0
361272,352.941176470588,7,1,0,45,1,8

[HitObjects]
256,144,22552,5,0,0:0:0:0:
296,196,22904,1,2,0:0:0:0:
296,196,22993,1,2,0:0:0:0:
296,196,23081,1,0,0:0:0:0:
192,160,23257,1,2,0:0:0:0:
192,160,23346,1,0,0:0:0:0:
168,120,23434,1,0,0:0:0:0:
192,160,23493,1,0,0:0:0:0:
98,241,23552,1,0,0:0:0:0:
98,241,23610,1,2,0:0:0:0:
192,160,23787,1,0,0:0:0:0:
216,120,23963,1,0,0:0:0:0:
216,120,24228,1,0,0:0:0:0:
216,120,24316,1,2,0:0:0:0:
216,120,24404,1,0,0:0:0:0:
152,104,24581,1,2,0:0:0:0:
152,104,24669,1,2,0:0:0:0:
152,104,24757,1,0,0:0:0:0:
152,104,24846,1,2,0:0:0:0:
204,104,25022,1,0,0:0:0:0:
204,104,25110,1,0,0:0:0:0:
204,104,25199,1,0,0:0:0:0:
204,104,25375,1,0,0:0:0:0:
176,72,25640,1,0,0:0:0:0:
176,72,25728,1,2,0:0:0:0:
176,72,25816,1,2,0:0:0:0:
176,72,25904,1,0,0:0:0:0:
208,28,26081,1,2,0:0:0:0:
224,80,26169,1,0,0:0:0:0:
224,80,26346,1,0,0:0:0:0:
320,104,26434,1,2,0:0:0:0:
320,104,26493,1,0,0:0:0:0:
320,104,26552,1,0,0:0:0:0:
320,104,26610,1,2,0:0:0:0:
88,156,26699,1,2,0:0:0:0:
320,104,26787,1,0,0:0:0:0:
312,104,26963,1,2,0:0:0:0:
312,104,27140,1,2,0:0:0:0:
312,104,27228,1,0,0:0:0:0:
168,120,27404,1,0,0:0:0:0:
168,120,27493,1,2,0:0:0:0:
168,120,27581,1,0,0:0:0:0:
216,112,27669,1,2,0:0:0:0:
324,96,27846,1,0,0:0:0:0:
324,96,27904,1,0,0:0:0:0:
324,96,27963,1,0,0:0:0:0:
324,96,28022,1,0,0:0:0:0:
144,164,28199,1,0,0:0:0:0:
144,164,28552,1,2,0:0:0:0:
144,164,28640,1,2,0:0:0:0:
144,164,28728,1,0,0:0:0:0:
252,112,28904,1,0,0:0:0:0:
272,120,28993,1,0,0:0:0:0:
272,120,29081,1,2,0:0:0:0:
272,120,29140,1,2,0:0:0:0:
116,206,29199,1,2,0:0:0:0:
272,120,29257,1,0,0:0:0:0:
184,120,29434,1,2,0:0:0:0:
184,120,29610,1,0,0:0:0:0:
120,128,29699,1,0,0:0:0:0:
48,112,29875,1,0,0:0:0:0:
48,112,29963,1,2,0:0:0:0:
48,112,30052,1,0,0:0:0:0:
140,104,30140,1,0,0:0:0:0:
140,104,30228,1,2,0:0:0:0:
148,100,30316,1,0,0:0:0:0:
148,100,30404,1,2,0:0:0:0:
212,76,30669,1,0,0:0:0:0:
212,76,30757,1,0,0:0:0:0:
212,76,30846,1,0,0:0:0:0:
128,104,31022,1,0,0:0:0:0:
356,112,31287,1,0,0:0:0:0:
356,112,31375,1,2,0:0:0:0:
356,112,31463,1,2,0:0:0:0:
356,112,31552,1,0,0:0:0:0:
56,120,31728,1,2,0:0:0:0:
344,80,31816,1,0,0:0:0:0:
180,112,31993,1,0,0:0:0:0:
296,88,32081,1,2,0:0:0:0:
296,88,32169,1,2,0:0:0:0:
296,88,32257,1,2,0:0:0:0:
296,88,32346,1,2,0:0:0:0:
296,88,32434,1,0,0:0:0:0:
108,152,32610,1,2,0:0:0:0:
244,52,32787,1,2,0:0:0:0:
108,152,32875,1,0,0:0:0:0:
108,152,32963,1,2,0:0:0:0:
108,152,33052,1,0,0:0:0:0:
200,20,33140,1,2,0:0:0:0:
104,128,33228,1,2,0:0:0:0:
104,128,33404,1,0,0:0:0:0:
104,128,33493,1,2,0:0:0:0:
312,84,33581,1,2,0:0:0:0:
312,84,33669,1,0,0:0:0:0:
256,144,33846,1,0,0:0:0:0:
296,196,34198,1,2,0:0:0:0:
296,196,34287,1,2,0:0:0:0:
296,196,34375,1,0,0:0:0:0:
192,160,34551,1,2,0:0:0:0:
192,160,34640,1,0,0:0:0:0:
192,160,34728,1,0,0:0:0:0:
176,106,34787,1,0,0:0:0:0:
192,160,34846,1,0,0:0:0:0:
192,160,34904,1,2,0:0:0:0:
192,160,35081,1,0,0:0:0:0:
216,120,35257,1,0,0:0:0:0:
216,120,35522,1,0,0:0:0:0:
216,120,35610,1,2,0:0:0:0:
216,120,35698,1,0,0:0:0:0:
152,104,35875,1,0,0:0:0:0:
152,104,35963,1,2,0:0:0:0:
152,104,36051,1,2,0:0:0:0:
136,140,36140,1,0,0:0:0:0:
204,104,36316,1,0,0:0:0:0:
204,104,36404,1,0,0:0:0:0:
204,104,36493,1,2,0:0:0:0:
204,104,36669,1,0,0:0:0:0:
176,72,36934,1,0,0:0:0:0:
176,72,37022,1,2,0:0:0:0:
176,72,37110,1,2,0:0:0:0:
176,72,37198,1,0,0:0:0:0:
160,72,37375,1,2,0:0:0:0:
160,72,37463,1,0,0:0:0:0:
200,96,37640,1,0,0:0:0:0:
320,104,37728,1,2,0:0:0:0:
320,104,37787,1,0,0:0:0:0:
320,104,37846,1,0,0:0:0:0:
320,104,37904,1,0,0:0:0:0:
88,156,37993,1,2,0:0:0:0:
320,104,38081,1,0,0:0:0:0:
312,104,38257,1,2,0:0:0:0:
312,104,38434,1,2,0:0:0:0:
312,104,38522,1,0,0:0:0:0:
168,120,38698,1,2,0:0:0:0:
168,120,38787,1,0,0:0:0:0:
168,120,38875,1,2,0:0:0:0:
222,123,38963,1,2,0:0:0:0:
324,96,39140,1,2,0:0:0:0:
324,96,39198,1,0,0:0:0:0:
324,96,39257,1,0,0:0:0:0:
324,96,39316,1,0,0:0:0:0:
144,164,39493,1,0,0:0:0:0:
144,164,39846,1,2,0:0:0:0:
144,164,39934,1,2,0:0:0:0:
144,164,40022,1,0,0:0:0:0:
252,112,40198,1,0,0:0:0:0:
208,195,40287,1,0,0:0:0:0:
272,120,40375,1,2,0:0:0:0:
272,120,40434,1,2,0:0:0:0:
272,120,40493,1,2,0:0:0:0:
272,120,40551,1,0,0:0:0:0:
184,120,40728,1,2,0:0:0:0:
184,120,40904,1,0,0:0:0:0:
48,112,41169,1,0,0:0:0:0:
48,112,41257,1,2,0:0:0:0:
48,112,41346,1,0,0:0:0:0:
140,104,41434,1,0,0:0:0:0:
140,104,41522,1,2,0:0:0:0:
148,100,41610,1,0,0:0:0:0:
160,48,41699,1,2,0:0:0:0:
212,76,41963,1,0,0:0:0:0:
212,76,42052,1,0,0:0:0:0:
212,76,42140,1,0,0:0:0:0:
128,104,42316,1,0,0:0:0:0:
356,112,42581,1,0,0:0:0:0:
356,112,42669,1,2,0:0:0:0:
356,112,42757,1,2,0:0:0:0:
356,112,42846,1,0,0:0:0:0:
56,120,43022,1,2,0:0:0:0:
344,80,43110,1,0,0:0:0:0:
180,112,43287,1,0,0:0:0:0:
296,88,43375,1,2,0:0:0:0:
296,88,43463,1,2,0:0:0:0:
140,104,43552,1,2,0:0:0:0:
88,128,43640,1,0,0:0:0:0:
296,88,43728,1,0,0:0:0:0:
108,152,43904,1,0,0:0:0:0:
244,52,44081,1,2,0:0:0:0:
108,152,44169,1,0,0:0:0:0:
108,152,44346,1,2,0:0:0:0:
200,20,44434,1,2,0:0:0:0:
104,128,44522,1,2,0:0:0:0:
104,128,44698,1,0,0:0:0:0:
104,128,44787,1,2,0:0:0:0:
312,84,44875,1,2,0:0:0:0:
312,84,44963,1,0,0:0:0:0:
255,146,45140,1,6,0:0:0:0:
296,196,45492,1,2,0:0:0:0:
296,196,45581,1,2,0:0:0:0:
296,196,45669,1,0,0:0:0:0:
192,160,45845,1,2,0:0:0:0:
192,160,45934,1,0,0:0:0:0:
168,120,46022,1,2,0:0:0:0:
192,160,46081,1,0,0:0:0:0:
14,130,46140,1,0,0:0:0:0:
192,160,46198,1,2,0:0:0:0:
192,160,46375,1,0,0:0:0:0:
216,120,46551,1,0,0:0:0:0:
152,104,46640,1,0,0:0:0:0:
216,120,46816,1,0,0:0:0:0:
216,120,46904,1,2,0:0:0:0:
216,120,46992,1,0,0:0:0:0:
152,104,47169,1,2,0:0:0:0:
152,104,47257,1,2,0:0:0:0:
152,104,47345,1,0,0:0:0:0:
152,104,47434,1,2,0:0:0:0:
185,240,47610,1,2,0:0:0:0:
277,201,47699,1,2,0:0:0:0:
204,104,47787,1,0,0:0:0:0:
204,104,47963,1,0,0:0:0:0:
152,104,48140,1,0,0:0:0:0:
176,72,48228,1,0,0:0:0:0:
176,72,48316,1,2,0:0:0:0:
176,72,48404,1,0,0:0:0:0:
176,72,48492,1,2,0:0:0:0:
160,72,48669,1,2,0:0:0:0:
160,72,48757,1,0,0:0:0:0:
152,44,48934,1,0,0:0:0:0:
320,104,49022,1,2,0:0:0:0:
320,104,49081,1,0,0:0:0:0:
320,104,49140,1,0,0:0:0:0:
320,104,49198,1,2,0:0:0:0:
320,104,49287,1,2,0:0:0:0:
320,104,49375,1,0,0:0:0:0:
312,104,49551,1,2,0:0:0:0:
312,104,49728,1,2,0:0:0:0:
312,104,49816,1,0,0:0:0:0:
168,120,49992,1,0,0:0:0:0:
168,120,50081,1,2,0:0:0:0:
168,120,50169,1,2,0:0:0:0:
216,112,50257,1,0,0:0:0:0:
324,96,50434,1,0,0:0:0:0:
324,96,50492,1,0,0:0:0:0:
324,96,50551,1,0,0:0:0:0:
324,96,50610,1,0,0:0:0:0:
144,164,50787,1,0,0:0:0:0:
144,164,51140,1,2,0:0:0:0:
144,164,51228,1,2,0:0:0:0:
144,164,51316,1,0,0:0:0:0:
252,112,51492,1,0,0:0:0:0:
272,120,51581,1,0,0:0:0:0:
272,120,51669,1,2,0:0:0:0:
272,120,51728,1,2,0:0:0:0:
96,137,51787,1,2,0:0:0:0:
272,120,51845,1,0,0:0:0:0:
184,120,52022,1,2,0:0:0:0:
184,120,52198,1,0,0:0:0:0:
96,112,52375,1,0,0:0:0:0:
48,112,52463,1,0,0:0:0:0:
48,112,52551,1,2,0:0:0:0:
48,112,52640,1,0,0:0:0:0:
140,104,52816,1,2,0:0:0:0:
148,100,52904,1,2,0:0:0:0:
148,100,52992,1,2,0:0:0:0:
212,76,53257,1,0,0:0:0:0:
212,76,53346,1,0,0:0:0:0:
212,76,53434,1,0,0:0:0:0:
128,104,53610,1,0,0:0:0:0:
132,160,53787,1,0,0:0:0:0:
356,112,53875,1,0,0:0:0:0:
356,112,53963,1,2,0:0:0:0:
356,112,54051,1,2,0:0:0:0:
356,112,54140,1,0,0:0:0:0:
56,120,54316,1,2,0:0:0:0:
344,80,54404,1,0,0:0:0:0:
180,112,54581,1,0,0:0:0:0:
296,88,54669,1,2,0:0:0:0:
296,88,54757,1,2,0:0:0:0:
296,88,54846,1,2,0:0:0:0:
184,48,54934,1,2,0:0:0:0:
296,88,55022,1,0,0:0:0:0:
108,152,55198,1,2,0:0:0:0:
244,52,55375,1,2,0:0:0:0:
108,152,55463,1,0,0:0:0:0:
108,152,55551,1,0,0:0:0:0:
108,152,55640,1,2,0:0:0:0:
200,20,55728,1,2,0:0:0:0:
104,128,55816,1,2,0:0:0:0:
104,128,55992,1,0,0:0:0:0:
104,128,56081,1,2,0:0:0:0:
312,84,56169,1,2,0:0:0:0:
312,84,56257,1,0,0:0:0:0:
264,144,56434,1,6,0:0:0:0:
304,196,56786,1,2,0:0:0:0:
304,196,56875,1,2,0:0:0:0:
304,196,56963,1,0,0:0:0:0:
200,160,57139,1,2,0:0:0:0:
200,160,57228,1,2,0:0:0:0:
200,160,57316,1,0,0:0:0:0:
184,116,57375,1,0,0:0:0:0:
60,149,57434,1,0,0:0:0:0:
200,160,57492,1,2,0:0:0:0:
200,160,57669,1,0,0:0:0:0:
224,120,57845,1,0,0:0:0:0:
104,216,58022,1,0,0:0:0:0:
104,216,58110,1,2,0:0:0:0:
224,120,58198,1,2,0:0:0:0:
224,120,58286,1,0,0:0:0:0:
160,104,58463,1,2,0:0:0:0:
160,104,58551,1,2,0:0:0:0:
160,104,58639,1,0,0:0:0:0:
160,104,58728,1,2,0:0:0:0:
212,104,58904,1,0,0:0:0:0:
212,104,58993,1,2,0:0:0:0:
212,104,59081,1,0,0:0:0:0:
212,104,59257,1,0,0:0:0:0:
104,216,59434,1,0,0:0:0:0:
184,72,59522,1,0,0:0:0:0:
184,72,59610,1,2,0:0:0:0:
184,72,59698,1,0,0:0:0:0:
184,72,59786,1,0,0:0:0:0:
168,72,59963,1,2,0:0:0:0:
168,72,60052,1,0,0:0:0:0:
240,96,60228,1,0,0:0:0:0:
328,104,60316,1,2,0:0:0:0:
328,104,60375,1,2,0:0:0:0:
328,104,60434,1,2,0:0:0:0:
328,104,60492,1,0,0:0:0:0:
328,104,60581,1,0,0:0:0:0:
328,104,60669,1,0,0:0:0:0:
320,104,60845,1,2,0:0:0:0:
320,104,61022,1,2,0:0:0:0:
320,104,61110,1,0,0:0:0:0:
176,120,61286,1,0,0:0:0:0:
176,120,61375,1,2,0:0:0:0:
176,120,61463,1,2,0:0:0:0:
224,112,61551,1,0,0:0:0:0:
332,96,61728,1,2,0:0:0:0:
332,96,61786,1,2,0:0:0:0:
332,96,61845,1,0,0:0:0:0:
332,96,61904,1,0,0:0:0:0:
152,164,62081,1,0,0:0:0:0:
152,164,62434,1,2,0:0:0:0:
152,164,62522,1,2,0:0:0:0:
152,164,62610,1,0,0:0:0:0:
260,112,62786,1,0,0:0:0:0:
280,120,62875,1,0,0:0:0:0:
280,120,62963,1,2,0:0:0:0:
280,120,63022,1,2,0:0:0:0:
126,131,63081,1,2,0:0:0:0:
280,120,63139,1,0,0:0:0:0:
192,120,63316,1,2,0:0:0:0:
192,120,63492,1,0,0:0:0:0:
108,216,63669,1,0,0:0:0:0:
56,112,63757,1,0,0:0:0:0:
56,112,63845,1,2,0:0:0:0:
56,112,63934,1,0,0:0:0:0:
148,104,64022,1,0,0:0:0:0:
148,104,64110,1,2,0:0:0:0:
156,100,64198,1,0,0:0:0:0:
156,100,64286,1,2,0:0:0:0:
220,76,64551,1,0,0:0:0:0:
220,76,64640,1,0,0:0:0:0:
220,76,64728,1,0,0:0:0:0:
136,104,64904,1,0,0:0:0:0:
108,216,65081,1,0,0:0:0:0:
364,112,65169,1,0,0:0:0:0:
364,112,65257,1,2,0:0:0:0:
364,112,65345,1,2,0:0:0:0:
364,112,65434,1,0,0:0:0:0:
64,120,65610,1,2,0:0:0:0:
352,80,65699,1,0,0:0:0:0:
188,112,65875,1,0,0:0:0:0:
304,88,65963,1,2,0:0:0:0:
304,88,66052,1,0,0:0:0:0:
304,88,66139,1,2,0:0:0:0:
304,88,66228,1,2,0:0:0:0:
304,88,66316,1,0,0:0:0:0:
116,152,66492,1,2,0:0:0:0:
252,52,66669,1,2,0:0:0:0:
116,152,66757,1,0,0:0:0:0:
116,152,66845,1,0,0:0:0:0:
116,152,66934,1,2,0:0:0:0:
208,20,67022,1,2,0:0:0:0:
112,128,67110,1,2,0:0:0:0:
112,128,67286,1,0,0:0:0:0:
246,163,67375,1,2,0:0:0:0:
190,183,67463,1,2,0:0:0:0:
320,84,67551,1,0,0:0:0:0:
256,144,67728,1,6,0:0:0:0:
264,96,67904,1,0,0:0:0:0:
296,196,68080,1,2,0:0:0:0:
296,196,68169,1,2,0:0:0:0:
296,196,68257,1,0,0:0:0:0:
192,160,68433,1,2,0:0:0:0:
192,160,68522,1,0,0:0:0:0:
168,120,68610,1,0,0:0:0:0:
176,116,68699,1,0,0:0:0:0:
192,160,68786,1,2,0:0:0:0:
3,128,68875,1,2,0:0:0:0:
192,160,68963,1,0,0:0:0:0:
216,120,69404,1,0,0:0:0:0:
216,120,69492,1,2,0:0:0:0:
216,120,69580,1,0,0:0:0:0:
152,104,69757,1,2,0:0:0:0:
152,104,69845,1,2,0:0:0:0:
152,104,69933,1,0,0:0:0:0:
152,104,70022,1,2,0:0:0:0:
204,104,70198,1,0,0:0:0:0:
204,104,70287,1,0,0:0:0:0:
204,104,70375,1,0,0:0:0:0:
236,104,70552,1,2,0:0:0:0:
203,52,70728,1,2,0:0:0:0:
176,72,70816,1,0,0:0:0:0:
176,72,70904,1,2,0:0:0:0:
176,72,70992,1,0,0:0:0:0:
243,59,71081,1,0,0:0:0:0:
160,72,71257,1,2,0:0:0:0:
160,72,71346,1,0,0:0:0:0:
148,120,71522,1,0,0:0:0:0:
320,104,71610,1,2,0:0:0:0:
320,104,71669,1,0,0:0:0:0:
320,104,71728,1,0,0:0:0:0:
320,104,71786,1,2,0:0:0:0:
320,104,71845,1,2,0:0:0:0:
88,156,71904,1,2,0:0:0:0:
320,104,71963,1,0,0:0:0:0:
312,104,72139,1,2,0:0:0:0:
312,104,72316,1,2,0:0:0:0:
312,104,72404,1,0,0:0:0:0:
168,120,72580,1,0,0:0:0:0:
168,120,72669,1,2,0:0:0:0:
168,120,72757,1,2,0:0:0:0:
216,112,72845,1,0,0:0:0:0:
324,96,73022,1,0,0:0:0:0:
324,96,73080,1,0,0:0:0:0:
324,96,73139,1,0,0:0:0:0:
324,96,73198,1,0,0:0:0:0:
280,126,73287,1,2,0:0:0:0:
144,164,73375,1,0,0:0:0:0:
144,164,73728,1,2,0:0:0:0:
144,164,73816,1,2,0:0:0:0:
144,164,73904,1,0,0:0:0:0:
252,112,74080,1,2,0:0:0:0:
272,120,74169,1,0,0:0:0:0:
272,120,74257,1,0,0:0:0:0:
272,120,74316,1,0,0:0:0:0:
272,120,74375,1,0,0:0:0:0:
158,187,74434,1,0,0:0:0:0:
184,120,74610,1,2,0:0:0:0:
48,112,75051,1,0,0:0:0:0:
48,112,75139,1,2,0:0:0:0:
48,112,75228,1,0,0:0:0:0:
140,104,75316,1,0,0:0:0:0:
140,104,75404,1,2,0:0:0:0:
148,100,75492,1,2,0:0:0:0:
148,100,75580,1,0,0:0:0:0:
212,76,75845,1,0,0:0:0:0:
212,76,75934,1,0,0:0:0:0:
212,76,76022,1,0,0:0:0:0:
152,140,76110,1,0,0:0:0:0:
128,104,76198,1,2,0:0:0:0:
182,100,76287,1,2,0:0:0:0:
100,116,76463,1,0,0:0:0:0:
356,112,76551,1,2,0:0:0:0:
356,112,76639,1,2,0:0:0:0:
356,112,76728,1,0,0:0:0:0:
56,120,76904,1,2,0:0:0:0:
344,80,76993,1,0,0:0:0:0:
180,112,77169,1,0,0:0:0:0:
296,88,77257,1,2,0:0:0:0:
296,88,77346,1,2,0:0:0:0:
296,88,77433,1,2,0:0:0:0:
136,108,77522,1,2,0:0:0:0:
176,72,77610,1,0,0:0:0:0:
108,152,77786,1,2,0:0:0:0:
244,52,77963,1,2,0:0:0:0:
108,152,78051,1,0,0:0:0:0:
108,152,78139,1,0,0:0:0:0:
108,152,78228,1,2,0:0:0:0:
200,20,78316,1,2,0:0:0:0:
104,128,78404,1,2,0:0:0:0:
104,128,78580,1,0,0:0:0:0:
104,128,78669,1,2,0:0:0:0:
312,84,78757,1,2,0:0:0:0:
312,84,78845,1,0,0:0:0:0:
256,144,79022,1,6,0:0:0:0:
296,196,79374,1,2,0:0:0:0:
296,196,79463,1,2,0:0:0:0:
296,196,79551,1,0,0:0:0:0:
192,160,79727,1,2,0:0:0:0:
192,160,79816,1,0,0:0:0:0:
168,120,79904,1,2,0:0:0:0:
192,160,79963,1,0,0:0:0:0:
78,140,80022,1,0,0:0:0:0:
192,160,80080,1,2,0:0:0:0:
192,160,80257,1,0,0:0:0:0:
216,120,80699,1,2,0:0:0:0:
216,120,80786,1,0,0:0:0:0:
216,120,80963,1,0,0:0:0:0:
152,104,81051,1,2,0:0:0:0:
152,104,81139,1,2,0:0:0:0:
152,104,81227,1,0,0:0:0:0:
152,104,81316,1,2,0:0:0:0:
156,12,81404,1,2,0:0:0:0:
204,104,81492,1,0,0:0:0:0:
204,104,81581,1,0,0:0:0:0:
204,104,81669,1,0,0:0:0:0:
232,56,81757,1,2,0:0:0:0:
232,56,81846,1,2,0:0:0:0:
172,48,82022,1,0,0:0:0:0:
176,72,82110,1,0,0:0:0:0:
176,72,82198,1,2,0:0:0:0:
176,72,82286,1,0,0:0:0:0:
176,72,82374,1,0,0:0:0:0:
160,72,82551,1,2,0:0:0:0:
180,124,82640,1,0,0:0:0:0:
160,72,82816,1,0,0:0:0:0:
320,104,82904,1,2,0:0:0:0:
320,104,82963,1,0,0:0:0:0:
320,104,83022,1,0,0:0:0:0:
320,104,83080,1,2,0:0:0:0:
320,104,83139,1,2,0:0:0:0:
88,156,83198,1,2,0:0:0:0:
320,104,83257,1,2,0:0:0:0:
312,104,83433,1,2,0:0:0:0:
312,104,83610,1,2,0:0:0:0:
312,104,83698,1,0,0:0:0:0:
168,120,83874,1,0,0:0:0:0:
168,120,83963,1,2,0:0:0:0:
168,120,84051,1,2,0:0:0:0:
216,112,84139,1,0,0:0:0:0:
324,96,84316,1,0,0:0:0:0:
324,96,84374,1,0,0:0:0:0:
324,96,84433,1,0,0:0:0:0:
324,96,84492,1,0,0:0:0:0:
91,116,84581,1,2,0:0:0:0:
144,164,84669,1,0,0:0:0:0:
144,164,85022,1,2,0:0:0:0:
144,164,85110,1,2,0:0:0:0:
144,164,85198,1,0,0:0:0:0:
252,112,85374,1,2,0:0:0:0:
272,120,85463,1,0,0:0:0:0:
272,120,85551,1,0,0:0:0:0:
272,120,85610,1,0,0:0:0:0:
22,136,85669,1,0,0:0:0:0:
272,120,85728,1,0,0:0:0:0:
176,44,85904,1,0,0:0:0:0:
152,148,85993,1,0,0:0:0:0:
152,148,86081,1,2,0:0:0:0:
48,120,86169,1,2,0:0:0:0:
48,112,86345,1,0,0:0:0:0:
48,112,86433,1,2,0:0:0:0:
48,112,86522,1,0,0:0:0:0:
140,104,86610,1,0,0:0:0:0:
140,104,86698,1,2,0:0:0:0:
148,100,86786,1,2,0:0:0:0:
148,100,86874,1,2,0:0:0:0:
212,76,87139,1,0,0:0:0:0:
212,76,87228,1,0,0:0:0:0:
212,76,87316,1,2,0:0:0:0:
128,104,87492,1,0,0:0:0:0:
172,48,87669,1,0,0:0:0:0:
356,112,87757,1,0,0:0:0:0:
356,112,87845,1,2,0:0:0:0:
356,112,87933,1,2,0:0:0:0:
356,112,88022,1,0,0:0:0:0:
56,120,88198,1,2,0:0:0:0:
344,80,88287,1,0,0:0:0:0:
180,112,88463,1,0,0:0:0:0:
296,88,88551,1,2,0:0:0:0:
296,88,88640,1,0,0:0:0:0:
296,88,88727,1,2,0:0:0:0:
112,96,88816,1,2,0:0:0:0:
296,88,88904,1,0,0:0:0:0:
108,152,89080,1,2,0:0:0:0:
244,52,89257,1,2,0:0:0:0:
108,152,89345,1,0,0:0:0:0:
108,152,89433,1,0,0:0:0:0:
108,152,89522,1,2,0:0:0:0:
200,20,89610,1,2,0:0:0:0:
104,128,89698,1,2,0:0:0:0:
104,128,89874,1,0,0:0:0:0:
104,128,89963,1,2,0:0:0:0:
312,84,90051,1,2,0:0:0:0:
312,84,90139,1,0,0:0:0:0:
256,144,90316,1,6,0:0:0:0:
296,196,90668,1,2,0:0:0:0:
296,196,90757,1,2,0:0:0:0:
296,196,90845,1,0,0:0:0:0:
192,160,91021,1,2,0:0:0:0:
192,160,91110,1,2,0:0:0:0:
168,120,91198,1,0,0:0:0:0:
192,160,91287,1,0,0:0:0:0:
192,160,91374,1,2,0:0:0:0:
112,188,91434,1,0,0:0:0:0:
8,151,91493,1,0,0:0:0:0:
192,160,91551,1,0,0:0:0:0:
216,120,91727,1,0,0:0:0:0:
216,120,91992,1,0,0:0:0:0:
216,120,92080,1,2,0:0:0:0:
216,120,92168,1,0,0:0:0:0:
152,104,92345,1,2,0:0:0:0:
152,104,92433,1,2,0:0:0:0:
152,104,92521,1,0,0:0:0:0:
152,104,92610,1,2,0:0:0:0:
204,104,92786,1,0,0:0:0:0:
204,104,92875,1,0,0:0:0:0:
204,104,92963,1,2,0:0:0:0:
204,104,93139,1,0,0:0:0:0:
196,140,93316,1,0,0:0:0:0:
176,72,93404,1,0,0:0:0:0:
176,72,93492,1,2,0:0:0:0:
176,72,93580,1,2,0:0:0:0:
176,72,93668,1,0,0:0:0:0:
160,72,93845,1,2,0:0:0:0:
160,72,93934,1,0,0:0:0:0:
184,144,94110,1,0,0:0:0:0:
320,104,94198,1,2,0:0:0:0:
320,104,94257,1,2,0:0:0:0:
320,104,94316,1,2,0:0:0:0:
320,104,94374,1,0,0:0:0:0:
320,104,94463,1,0,0:0:0:0:
320,104,94551,1,0,0:0:0:0:
312,104,94727,1,2,0:0:0:0:
312,104,94904,1,2,0:0:0:0:
312,104,94992,1,0,0:0:0:0:
168,120,95168,1,0,0:0:0:0:
168,120,95257,1,2,0:0:0:0:
168,120,95345,1,2,0:0:0:0:
216,112,95433,1,0,0:0:0:0:
168,120,95522,1,2,0:0:0:0:
324,96,95610,1,0,0:0:0:0:
324,96,95668,1,0,0:0:0:0:
324,96,95727,1,0,0:0:0:0:
324,96,95786,1,0,0:0:0:0:
57,152,95875,1,2,0:0:0:0:
144,164,95963,1,0,0:0:0:0:
144,164,96316,1,2,0:0:0:0:
144,164,96404,1,2,0:0:0:0:
144,164,96492,1,0,0:0:0:0:
252,112,96668,1,2,0:0:0:0:
272,120,96757,1,0,0:0:0:0:
272,120,96846,1,2,0:0:0:0:
272,120,96934,1,2,0:0:0:0:
272,120,97021,1,0,0:0:0:0:
232,256,97081,1,0,0:0:0:0:
140,188,97140,1,0,0:0:0:0:
184,120,97198,1,2,0:0:0:0:
184,120,97374,1,0,0:0:0:0:
48,112,97639,1,0,0:0:0:0:
48,112,97727,1,2,0:0:0:0:
48,112,97816,1,0,0:0:0:0:
140,104,97904,1,0,0:0:0:0:
140,104,97992,1,2,0:0:0:0:
148,100,98080,1,0,0:0:0:0:
148,100,98169,1,2,0:0:0:0:
52,136,98228,1,2,0:0:0:0:
56,136,98287,1,2,0:0:0:0:
212,76,98433,1,0,0:0:0:0:
212,76,98492,1,0,0:0:0:0:
212,76,98551,1,0,0:0:0:0:
212,76,98610,1,0,0:0:0:0:
128,104,98786,1,2,0:0:0:0:
52,136,98846,1,2,0:0:0:0:
52,136,98904,1,0,0:0:0:0:
52,136,98963,1,0,0:0:0:0:
356,112,99051,1,0,0:0:0:0:
356,112,99139,1,2,0:0:0:0:
356,112,99227,1,2,0:0:0:0:
356,112,99316,1,0,0:0:0:0:
56,120,99492,1,2,0:0:0:0:
344,80,99581,1,0,0:0:0:0:
180,112,99757,1,0,0:0:0:0:
296,88,99845,1,2,0:0:0:0:
296,88,99904,1,0,0:0:0:0:
296,88,99963,1,2,0:0:0:0:
296,88,100021,1,0,0:0:0:0:
296,88,100080,1,2,0:0:0:0:
296,88,100139,1,2,0:0:0:0:
296,88,100198,1,0,0:0:0:0:
108,152,100374,1,2,0:0:0:0:
244,52,100551,1,2,0:0:0:0:
108,152,100639,1,0,0:0:0:0:
108,152,100727,1,0,0:0:0:0:
108,152,100816,1,2,0:0:0:0:
200,20,100904,1,2,0:0:0:0:
104,128,100993,1,2,0:0:0:0:
168,112,101081,1,2,0:0:0:0:
104,128,101168,1,0,0:0:0:0:
104,128,101257,1,2,0:0:0:0:
312,84,101346,1,2,0:0:0:0:
312,84,101433,1,0,0:0:0:0:
312,84,101610,1,6,0:0:0:0:
144,172,101963,1,2,0:0:0:0:
144,172,102051,1,2,0:0:0:0:
144,172,102140,1,0,0:0:0:0:
144,172,102316,1,2,0:0:0:0:
284,132,102404,1,0,0:0:0:0:
284,132,102581,1,0,0:0:0:0:
284,132,102669,1,2,0:0:0:0:
284,132,102757,1,0,0:0:0:0:
284,132,102846,1,2,0:0:0:0:
284,132,102934,1,0,0:0:0:0:
284,132,103022,1,2,0:0:0:0:
172,84,103110,1,2,0:0:0:0:
172,84,103199,1,2,0:0:0:0:
172,84,103287,1,2,0:0:0:0:
172,84,103375,1,2,0:0:0:0:
172,84,103463,1,0,0:0:0:0:
172,84,103640,1,0,0:0:0:0:
176,68,103728,1,2,0:0:0:0:
176,68,103816,1,0,0:0:0:0:
176,68,103993,1,2,0:0:0:0:
176,68,104081,1,0,0:0:0:0:
336,136,104140,1,0,0:0:0:0:
336,136,104199,1,0,0:0:0:0:
336,136,104257,1,0,0:0:0:0:
184,68,104316,1,0,0:0:0:0:
184,68,104375,1,0,0:0:0:0:
336,136,104434,1,2,0:0:0:0:
380,72,104610,1,0,0:0:0:0:
72,144,104787,1,2,0:0:0:0:
76,144,104875,1,2,0:0:0:0:
76,144,104963,1,0,0:0:0:0:
296,104,105140,1,2,0:0:0:0:
284,92,105228,1,0,0:0:0:0:
212,36,105404,1,2,0:0:0:0:
320,68,105493,1,0,0:0:0:0:
320,68,105581,1,0,0:0:0:0:
216,88,105640,1,2,0:0:0:0:
240,4,105699,1,2,0:0:0:0:
320,68,105757,1,0,0:0:0:0:
120,148,105846,1,0,0:0:0:0:
152,124,106022,1,2,0:0:0:0:
152,124,106110,1,0,0:0:0:0:
152,124,106199,1,0,0:0:0:0:
152,124,106287,1,2,0:0:0:0:
152,124,106375,1,2,0:0:0:0:
164,100,106463,1,0,0:0:0:0:
152,120,106551,1,2,0:0:0:0:
164,100,106640,1,2,0:0:0:0:
164,100,106728,1,0,0:0:0:0:
152,116,106904,1,0,0:0:0:0:
272,100,106993,1,0,0:0:0:0:
272,100,107081,1,2,0:0:0:0:
272,100,107169,1,2,0:0:0:0:
272,100,107257,1,0,0:0:0:0:
96,116,107610,1,2,0:0:0:0:
196,160,107699,1,2,0:0:0:0:
196,160,107787,1,0,0:0:0:0:
312,92,107963,1,2,0:0:0:0:
304,92,108022,1,0,0:0:0:0:
304,92,108081,1,2,0:0:0:0:
304,92,108140,1,0,0:0:0:0:
288,116,108199,1,2,0:0:0:0:
288,116,108257,1,0,0:0:0:0:
288,116,108316,1,2,0:0:0:0:
288,116,108375,1,0,0:0:0:0:
288,116,108434,1,0,0:0:0:0:
288,116,108493,1,2,0:0:0:0:
288,116,108581,1,0,0:0:0:0:
288,116,108669,1,2,0:0:0:0:
76,120,108728,1,2,0:0:0:0:
160,124,108787,1,2,0:0:0:0:
80,120,108846,1,0,0:0:0:0:
92,120,109022,1,0,0:0:0:0:
92,120,109110,1,0,0:0:0:0:
92,120,109199,1,0,0:0:0:0:
240,92,109375,1,2,0:0:0:0:
240,92,109434,1,0,0:0:0:0:
240,92,109493,1,0,0:0:0:0:
240,92,109551,1,2,0:0:0:0:
240,92,109610,1,0,0:0:0:0:
156,132,109669,1,0,0:0:0:0:
156,132,109728,1,2,0:0:0:0:
152,144,109816,1,0,0:0:0:0:
156,144,109904,1,2,0:0:0:0:
156,144,109963,1,2,0:0:0:0:
208,44,110022,1,2,0:0:0:0:
208,44,110081,1,0,0:0:0:0:
208,44,110140,1,0,0:0:0:0:
208,44,110199,1,0,0:0:0:0:
208,44,110257,1,0,0:0:0:0:
208,44,110434,1,0,0:0:0:0:
220,108,110522,1,2,0:0:0:0:
220,108,110610,1,0,0:0:0:0:
212,128,110787,1,2,0:0:0:0:
216,128,110963,1,0,0:0:0:0:
216,128,111051,1,2,0:0:0:0:
216,124,111140,1,2,0:0:0:0:
208,104,111316,1,2,0:0:0:0:
288,124,111375,1,2,0:0:0:0:
288,124,111434,1,2,0:0:0:0:
272,120,111493,1,2,0:0:0:0:
272,120,111551,1,2,0:0:0:0:
272,120,111610,1,2,0:0:0:0:
272,120,111669,1,0,0:0:0:0:
104,152,111757,1,0,0:0:0:0:
272,120,111846,1,2,0:0:0:0:
272,120,111904,1,0,0:0:0:0:
272,120,111963,1,0,0:0:0:0:
272,120,112022,1,0,0:0:0:0:
128,164,112110,1,0,0:0:0:0:
272,120,112199,1,2,0:0:0:0:
156,132,112257,1,0,0:0:0:0:
156,132,112316,1,0,0:0:0:0:
156,132,112375,1,2,0:0:0:0:
128,108,112434,1,0,0:0:0:0:
128,108,112493,1,2,0:0:0:0:
128,108,112551,1,0,0:0:0:0:
128,108,112610,1,2,0:0:0:0:
128,108,112669,1,0,0:0:0:0:
128,108,112728,1,2,0:0:0:0:
128,108,112904,1,6,0:0:0:0:
224,120,113610,1,2,0:0:0:0:
224,120,113669,1,2,0:0:0:0:
224,120,113728,1,0,0:0:0:0:
224,120,113787,1,2,0:0:0:0:
212,120,113963,1,2,0:0:0:0:
188,128,114140,1,2,0:0:0:0:
112,148,114316,1,0,0:0:0:0:
264,92,114581,1,0,0:0:0:0:
264,92,114669,1,2,0:0:0:0:
264,92,114757,1,2,0:0:0:0:
264,92,114846,1,0,0:0:0:0:
264,92,114934,1,2,0:0:0:0:
264,92,115022,1,2,0:0:0:0:
224,160,115287,1,0,0:0:0:0:
224,160,115375,1,2,0:0:0:0:
224,160,115728,1,4,0:0:0:0:
108,164,116081,1,2,0:0:0:0:
108,164,116169,1,2,0:0:0:0:
108,164,116257,1,0,0:0:0:0:
272,112,116434,1,2,0:0:0:0:
272,112,116493,1,2,0:0:0:0:
272,112,116551,1,0,0:0:0:0:
232,108,116699,1,2,0:0:0:0:
232,108,116787,1,0,0:0:0:0:
168,156,117140,1,0,0:0:0:0:
184,164,117316,1,2,0:0:0:0:
184,164,117493,1,2,0:0:0:0:
184,164,117581,1,2,0:0:0:0:
184,164,117669,1,0,0:0:0:0:
184,164,117846,1,2,0:0:0:0:
196,100,117904,1,0,0:0:0:0:
232,140,117963,1,0,0:0:0:0:
232,140,118022,1,0,0:0:0:0:
176,112,118199,1,2,0:0:0:0:
232,56,118551,1,6,0:0:0:0:
232,56,119257,1,2,0:0:0:0:
232,56,119316,1,2,0:0:0:0:
232,56,119375,1,0,0:0:0:0:
232,56,119434,1,2,0:0:0:0:
116,128,119522,1,0,0:0:0:0:
128,128,119610,1,2,0:0:0:0:
128,128,119699,1,0,0:0:0:0:
128,128,119787,1,2,0:0:0:0:
128,128,119875,1,0,0:0:0:0:
128,128,119963,1,0,0:0:0:0:
160,136,120140,1,0,0:0:0:0:
132,132,120228,1,0,0:0:0:0:
132,132,120316,1,2,0:0:0:0:
132,132,120404,1,0,0:0:0:0:
132,132,120493,1,2,0:0:0:0:
208,108,120669,1,2,0:0:0:0:
96,124,120934,1,0,0:0:0:0:
120,120,121022,1,2,0:0:0:0:
120,120,121375,1,4,0:0:0:0:
292,112,121728,1,0,0:0:0:0:
292,112,121787,1,0,0:0:0:0:
176,112,121846,1,0,0:0:0:0:
292,112,121904,1,2,0:0:0:0:
292,112,121993,1,0,0:0:0:0:
292,112,122081,1,2,0:0:0:0:
108,164,122140,1,2,0:0:0:0:
108,164,122199,1,0,0:0:0:0:
108,164,122257,1,0,0:0:0:0:
92,144,122346,1,0,0:0:0:0:
96,144,122434,1,2,0:0:0:0:
52,148,122610,1,2,0:0:0:0:
64,144,122787,1,0,0:0:0:0:
144,144,122963,1,2,0:0:0:0:
160,144,123140,1,2,0:0:0:0:
160,144,123228,1,0,0:0:0:0:
160,144,123404,1,0,0:0:0:0:
308,84,123493,1,2,0:0:0:0:
196,96,123581,1,2,0:0:0:0:
224,132,123757,1,2,0:0:0:0:
224,132,123846,1,0,0:0:0:0:
224,132,124022,1,0,0:0:0:0:
228,128,124199,1,6,0:0:0:0:
224,120,124904,1,2,0:0:0:0:
224,120,124963,1,2,0:0:0:0:
224,120,125022,1,0,0:0:0:0:
224,120,125081,1,2,0:0:0:0:
212,120,125257,1,2,0:0:0:0:
188,128,125434,1,2,0:0:0:0:
112,148,125610,1,0,0:0:0:0:
54,128,125787,1,0,0:0:0:0:
264,92,125875,1,0,0:0:0:0:
264,92,125963,1,2,0:0:0:0:
264,92,126051,1,2,0:0:0:0:
264,92,126140,1,0,0:0:0:0:
264,92,126228,1,2,0:0:0:0:
264,92,126316,1,2,0:0:0:0:
224,160,126581,1,0,0:0:0:0:
224,160,126669,1,2,0:0:0:0:
224,160,127022,1,4,0:0:0:0:
108,164,127375,1,2,0:0:0:0:
108,164,127463,1,2,0:0:0:0:
108,164,127551,1,0,0:0:0:0:
272,112,127728,1,2,0:0:0:0:
272,112,127787,1,0,0:0:0:0:
272,112,127846,1,2,0:0:0:0:
92,124,127904,1,0,0:0:0:0:
232,108,127993,1,2,0:0:0:0:
232,108,128081,1,0,0:0:0:0:
168,156,128434,1,0,0:0:0:0:
184,164,128610,1,2,0:0:0:0:
184,164,128787,1,2,0:0:0:0:
184,164,128875,1,2,0:0:0:0:
184,164,128963,1,0,0:0:0:0:
184,164,129140,1,2,0:0:0:0:
196,100,129198,1,0,0:0:0:0:
232,140,129257,1,2,0:0:0:0:
232,140,129316,1,2,0:0:0:0:
176,112,129493,1,2,0:0:0:0:
232,56,129845,1,6,0:0:0:0:
232,56,130551,1,2,0:0:0:0:
232,56,130610,1,2,0:0:0:0:
232,56,130669,1,0,0:0:0:0:
232,56,130728,1,2,0:0:0:0:
116,128,130816,1,0,0:0:0:0:
128,128,130904,1,2,0:0:0:0:
128,128,130993,1,2,0:0:0:0:
128,128,131081,1,0,0:0:0:0:
128,128,131169,1,0,0:0:0:0:
128,128,131257,1,2,0:0:0:0:
156,144,131434,1,0,0:0:0:0:
132,132,131522,1,0,0:0:0:0:
132,132,131610,1,2,0:0:0:0:
132,132,131698,1,0,0:0:0:0:
132,132,131875,1,2,0:0:0:0:
208,108,131963,1,2,0:0:0:0:
96,124,132228,1,0,0:0:0:0:
120,120,132316,1,2,0:0:0:0:
120,120,132669,1,4,0:0:0:0:
292,112,133022,1,0,0:0:0:0:
292,112,133081,1,2,0:0:0:0:
176,112,133140,1,2,0:0:0:0:
292,112,133198,1,2,0:0:0:0:
292,112,133287,1,0,0:0:0:0:
292,112,133375,1,2,0:0:0:0:
108,164,133434,1,2,0:0:0:0:
108,164,133493,1,0,0:0:0:0:
108,164,133551,1,0,0:0:0:0:
92,144,133640,1,0,0:0:0:0:
96,144,133728,1,2,0:0:0:0:
52,148,133904,1,2,0:0:0:0:
64,144,134081,1,0,0:0:0:0:
144,144,134257,1,2,0:0:0:0:
160,144,134434,1,2,0:0:0:0:
160,144,134522,1,0,0:0:0:0:
160,144,134698,1,0,0:0:0:0:
308,84,134787,1,2,0:0:0:0:
196,96,134846,1,2,0:0:0:0:
152,84,134904,1,0,0:0:0:0:
152,84,134963,5,0,0:0:0:0:
224,132,135051,1,2,0:0:0:0:
224,132,135140,1,0,0:0:0:0:
224,132,135316,1,0,0:0:0:0:
228,128,135493,1,6,0:0:0:0:
224,120,136199,1,2,0:0:0:0:
224,120,136257,1,2,0:0:0:0:
224,120,136316,1,0,0:0:0:0:
224,120,136376,1,2,0:0:0:0:
212,120,136552,1,2,0:0:0:0:
188,128,136729,1,2,0:0:0:0:
112,148,136905,1,0,0:0:0:0:
96,116,136993,1,2,0:0:0:0:
96,116,137081,1,0,0:0:0:0:
264,92,137258,1,2,0:0:0:0:
264,92,137346,1,0,0:0:0:0:
264,92,137435,1,0,0:0:0:0:
264,92,137523,1,2,0:0:0:0:
264,92,137611,1,2,0:0:0:0:
224,160,137876,1,0,0:0:0:0:
224,160,137964,1,2,0:0:0:0:
224,160,138317,1,4,0:0:0:0:
108,164,138670,1,2,0:0:0:0:
108,164,138758,1,2,0:0:0:0:
108,164,138846,1,0,0:0:0:0:
272,112,139023,1,2,0:0:0:0:
272,112,139081,1,2,0:0:0:0:
272,112,139140,1,0,0:0:0:0:
232,108,139288,1,2,0:0:0:0:
232,108,139376,1,0,0:0:0:0:
168,156,139729,1,0,0:0:0:0:
184,164,139905,1,2,0:0:0:0:
184,164,140082,1,2,0:0:0:0:
184,164,140170,1,2,0:0:0:0:
184,164,140258,1,0,0:0:0:0:
184,164,140435,1,2,0:0:0:0:
196,100,140493,1,2,0:0:0:0:
232,140,140552,1,0,0:0:0:0:
232,140,140611,1,0,0:0:0:0:
176,112,140788,1,2,0:0:0:0:
232,56,141140,1,6,0:0:0:0:
232,56,141846,1,2,0:0:0:0:
232,56,141904,1,2,0:0:0:0:
232,56,141963,1,0,0:0:0:0:
232,56,142023,1,2,0:0:0:0:
116,128,142111,1,0,0:0:0:0:
128,128,142199,1,2,0:0:0:0:
128,128,142288,1,0,0:0:0:0:
128,128,142376,1,2,0:0:0:0:
128,128,142464,1,2,0:0:0:0:
128,128,142552,1,0,0:0:0:0:
128,176,142728,1,0,0:0:0:0:
132,132,142817,1,0,0:0:0:0:
132,132,142905,1,2,0:0:0:0:
132,132,142993,1,0,0:0:0:0:
132,132,143169,1,0,0:0:0:0:
208,108,143258,1,2,0:0:0:0:
20,144,143434,1,0,0:0:0:0:
96,124,143523,1,0,0:0:0:0:
120,120,143611,1,2,0:0:0:0:
120,120,143964,1,4,0:0:0:0:
292,112,144317,1,0,0:0:0:0:
292,112,144376,1,0,0:0:0:0:
176,112,144435,1,0,0:0:0:0:
292,112,144493,1,2,0:0:0:0:
292,112,144582,1,0,0:0:0:0:
292,112,144670,1,2,0:0:0:0:
108,164,144728,1,0,0:0:0:0:
108,164,144787,1,0,0:0:0:0:
108,164,144846,1,0,0:0:0:0:
92,144,144935,1,0,0:0:0:0:
96,144,145023,1,2,0:0:0:0:
52,148,145199,1,2,0:0:0:0:
64,144,145376,1,0,0:0:0:0:
144,144,145552,1,2,0:0:0:0:
160,144,145729,1,2,0:0:0:0:
160,144,145817,1,0,0:0:0:0:
160,144,145993,1,0,0:0:0:0:
308,84,146082,1,2,0:0:0:0:
196,96,146170,1,2,0:0:0:0:
153,58,146257,1,0,0:0:0:0:
224,132,146346,1,2,0:0:0:0:
224,132,146435,1,0,0:0:0:0:
224,132,146611,1,0,0:0:0:0:
228,128,146788,1,6,0:0:0:0:
224,120,147493,1,2,0:0:0:0:
224,120,147551,1,2,0:0:0:0:
224,120,147610,1,0,0:0:0:0:
224,120,147670,1,2,0:0:0:0:
212,120,147846,1,2,0:0:0:0:
188,128,148023,1,2,0:0:0:0:
112,148,148199,1,0,0:0:0:0:
148,144,148287,1,2,0:0:0:0:
148,144,148375,1,0,0:0:0:0:
264,92,148552,1,2,0:0:0:0:
264,92,148640,1,0,0:0:0:0:
264,92,148729,1,0,0:0:0:0:
264,92,148817,1,2,0:0:0:0:
264,92,148905,1,2,0:0:0:0:
224,160,149170,1,0,0:0:0:0:
224,160,149258,1,2,0:0:0:0:
188,260,149434,1,2,0:0:0:0:
224,160,149611,1,0,0:0:0:0:
108,164,149964,1,2,0:0:0:0:
108,164,150052,1,2,0:0:0:0:
108,164,150140,1,0,0:0:0:0:
272,112,150317,1,2,0:0:0:0:
272,112,150375,1,0,0:0:0:0:
272,112,150434,1,2,0:0:0:0:
44,124,150493,1,0,0:0:0:0:
208,112,150581,1,0,0:0:0:0:
232,108,150670,1,0,0:0:0:0:
168,156,151023,1,2,0:0:0:0:
36,128,151199,1,0,0:0:0:0:
184,164,151376,1,2,0:0:0:0:
184,164,151464,1,2,0:0:0:0:
184,164,151552,1,0,0:0:0:0:
184,164,151729,1,2,0:0:0:0:
196,100,151787,1,2,0:0:0:0:
232,140,151846,1,0,0:0:0:0:
232,140,151905,1,0,0:0:0:0:
176,112,152082,1,2,0:0:0:0:
232,56,152434,1,6,0:0:0:0:
232,56,153140,1,2,0:0:0:0:
232,56,153199,1,2,0:0:0:0:
232,56,153257,1,0,0:0:0:0:
232,56,153317,1,2,0:0:0:0:
116,128,153405,1,0,0:0:0:0:
128,128,153493,1,2,0:0:0:0:
128,128,153582,1,0,0:0:0:0:
128,128,153670,1,0,0:0:0:0:
128,128,153758,1,2,0:0:0:0:
128,128,153846,1,0,0:0:0:0:
136,152,154022,1,0,0:0:0:0:
132,132,154111,1,0,0:0:0:0:
132,132,154199,1,2,0:0:0:0:
132,132,154287,1,0,0:0:0:0:
117,142,154375,1,0,0:0:0:0:
132,132,154463,1,2,0:0:0:0:
208,108,154552,1,2,0:0:0:0:
96,124,154817,1,0,0:0:0:0:
120,120,154905,1,2,0:0:0:0:
120,120,155257,1,4,0:0:0:0:
292,112,155611,1,0,0:0:0:0:
292,112,155670,1,2,0:0:0:0:
176,112,155729,1,2,0:0:0:0:
292,112,155787,1,2,0:0:0:0:
292,112,155876,1,0,0:0:0:0:
292,112,155964,1,2,0:0:0:0:
108,164,156022,1,2,0:0:0:0:
108,164,156081,1,0,0:0:0:0:
108,164,156140,1,0,0:0:0:0:
92,144,156229,1,0,0:0:0:0:
96,144,156317,1,2,0:0:0:0:
52,148,156493,1,2,0:0:0:0:
64,144,156670,1,0,0:0:0:0:
144,144,156846,1,2,0:0:0:0:
160,144,157023,1,2,0:0:0:0:
160,144,157111,1,0,0:0:0:0:
160,144,157199,1,0,0:0:0:0:
196,96,157287,1,2,0:0:0:0:
308,84,157376,1,2,0:0:0:0:
196,96,157434,1,0,0:0:0:0:
224,132,157493,1,0,0:0:0:0:
224,132,157551,1,2,0:0:0:0:
144,112,157640,1,2,0:0:0:0:
144,112,157728,1,0,0:0:0:0:
224,132,157816,1,2,0:0:0:0:
8,144,157904,1,0,0:0:0:0:
228,128,158082,1,6,0:0:0:0:
184,112,159493,1,0,0:0:0:0:
184,112,159581,1,2,0:0:0:0:
184,112,159669,1,0,0:0:0:0:
200,84,160199,1,2,0:0:0:0:
200,84,160904,1,0,0:0:0:0:
200,84,161610,1,0,0:0:0:0:
200,84,162316,1,2,0:0:0:0:
200,84,163022,1,0,0:0:0:0:
200,84,163728,1,6,0:0:0:0:
140,196,166551,1,2,0:0:0:0:
184,156,169375,1,6,0:0:0:0:
184,156,170787,1,0,0:0:0:0:
184,156,170875,1,2,0:0:0:0:
184,156,170963,1,0,0:0:0:0:
224,148,171493,1,0,0:0:0:0:
236,144,172199,1,2,0:0:0:0:
236,144,172904,1,0,0:0:0:0:
236,144,173610,1,0,0:0:0:0:
236,144,174316,1,2,0:0:0:0:
236,144,175022,1,6,0:0:0:0:
184,144,177846,1,0,0:0:0:0:
184,144,180657,1,6,0:0:0:0:
248,144,181009,1,2,0:0:0:0:
248,144,181186,1,2,0:0:0:0:
248,144,181362,1,0,0:0:0:0:
248,144,181539,1,0,0:0:0:0:
248,144,181715,1,2,0:0:0:0:
248,144,181892,1,2,0:0:0:0:
244,136,182245,1,0,0:0:0:0:
244,136,182421,1,0,0:0:0:0:
128,136,182598,1,2,0:0:0:0:
192,120,182774,1,2,0:0:0:0:
192,120,182951,1,0,0:0:0:0:
192,120,183127,1,0,0:0:0:0:
136,148,183480,1,0,0:0:0:0:
136,148,183657,1,0,0:0:0:0:
136,148,183833,1,0,0:0:0:0:
136,148,184009,1,2,0:0:0:0:
136,148,184186,1,0,0:0:0:0:
136,148,184362,1,2,0:0:0:0:
136,148,184539,1,0,0:0:0:0:
136,148,184715,1,0,0:0:0:0:
136,148,184892,1,2,0:0:0:0:
136,148,185246,1,0,0:0:0:0:
136,148,185422,1,2,0:0:0:0:
136,148,185598,1,2,0:0:0:0:
136,148,185775,1,0,0:0:0:0:
136,148,185951,1,0,0:0:0:0:
136,148,186304,1,0,0:0:0:0:
136,148,186480,1,0,0:0:0:0:
136,148,186657,1,0,0:0:0:0:
136,148,186833,1,2,0:0:0:0:
136,148,187009,1,2,0:0:0:0:
136,148,187186,1,0,0:0:0:0:
136,148,187362,1,0,0:0:0:0:
136,148,187539,1,0,0:0:0:0:
136,148,187715,1,2,0:0:0:0:
136,148,187892,1,2,0:0:0:0:
136,148,188068,1,0,0:0:0:0:
136,148,188245,1,2,0:0:0:0:
136,148,188421,1,2,0:0:0:0:
136,148,188597,1,0,0:0:0:0:
136,148,188774,1,0,0:0:0:0:
212,124,189127,1,0,0:0:0:0:
136,148,189304,1,0,0:0:0:0:
136,148,189480,1,2,0:0:0:0:
136,148,189657,1,2,0:0:0:0:
136,148,189833,1,2,0:0:0:0:
136,148,190009,1,0,0:0:0:0:
136,148,190186,1,0,0:0:0:0:
136,148,190362,1,0,0:0:0:0:
136,148,190539,1,2,0:0:0:0:
136,148,190892,1,0,0:0:0:0:
136,148,191068,1,2,0:0:0:0:
136,148,191245,1,2,0:0:0:0:
136,148,191421,1,2,0:0:0:0:
136,148,191598,1,0,0:0:0:0:
240,144,191951,1,0,0:0:0:0:
248,148,192304,1,2,0:0:0:0:
248,148,192480,1,2,0:0:0:0:
248,148,192657,1,2,0:0:0:0:
248,148,192921,1,0,0:0:0:0:
248,148,193009,1,2,0:0:0:0:
248,148,193186,1,2,0:0:0:0:
248,148,193362,1,0,0:0:0:0:
216,160,193539,1,0,0:0:0:0:
216,160,193627,1,0,0:0:0:0:
216,160,193715,1,2,0:0:0:0:
204,160,193892,1,2,0:0:0:0:
200,160,194157,1,2,0:0:0:0:
204,160,194333,1,0,0:0:0:0:
204,160,194421,1,2,0:0:0:0:
240,120,194598,1,0,0:0:0:0:
240,144,194774,1,0,0:0:0:0:
248,148,195127,1,2,0:0:0:0:
248,148,195303,1,2,0:0:0:0:
248,148,195480,1,2,0:0:0:0:
248,148,195744,1,0,0:0:0:0:
248,148,195832,1,2,0:0:0:0:
248,148,196009,1,2,0:0:0:0:
248,148,196185,1,0,0:0:0:0:
216,160,196362,1,0,0:0:0:0:
216,160,196450,1,0,0:0:0:0:
216,160,196538,1,2,0:0:0:0:
204,160,196715,1,2,0:0:0:0:
184,240,196892,1,2,0:0:0:0:
200,160,196980,1,2,0:0:0:0:
204,160,197156,1,2,0:0:0:0:
204,160,197244,1,2,0:0:0:0:
240,120,197421,1,2,0:0:0:0:
240,144,197598,1,0,0:0:0:0:
248,148,197951,1,2,0:0:0:0:
248,148,198127,1,2,0:0:0:0:
248,148,198304,1,2,0:0:0:0:
248,148,198568,1,0,0:0:0:0:
248,148,198656,1,2,0:0:0:0:
248,148,198833,1,2,0:0:0:0:
248,148,199009,1,0,0:0:0:0:
216,160,199186,1,0,0:0:0:0:
216,160,199274,1,0,0:0:0:0:
216,160,199362,1,2,0:0:0:0:
204,160,199539,1,2,0:0:0:0:
200,160,199804,1,2,0:0:0:0:
204,160,199980,1,0,0:0:0:0:
204,160,200068,1,2,0:0:0:0:
240,120,200245,1,0,0:0:0:0:
240,144,200421,1,0,0:0:0:0:
248,148,200774,1,2,0:0:0:0:
248,148,200950,1,0,0:0:0:0:
248,148,201127,1,0,0:0:0:0:
248,132,201186,1,2,0:0:0:0:
248,132,201245,1,2,0:0:0:0:
248,132,201304,1,2,0:0:0:0:
212,56,201362,1,2,0:0:0:0:
212,56,201421,1,2,0:0:0:0:
248,148,201479,1,2,0:0:0:0:
212,56,201539,1,2,0:0:0:0:
212,56,201598,1,2,0:0:0:0:
248,148,201656,1,2,0:0:0:0:
248,148,201832,1,0,0:0:0:0:
216,160,202009,1,0,0:0:0:0:
216,160,202097,1,0,0:0:0:0:
216,160,202185,1,2,0:0:0:0:
204,160,202362,1,2,0:0:0:0:
172,96,202539,1,2,0:0:0:0:
200,160,202627,1,2,0:0:0:0:
172,96,202715,1,0,0:0:0:0:
204,160,202803,1,2,0:0:0:0:
204,160,202891,1,2,0:0:0:0:
240,120,203068,1,2,0:0:0:0:
240,144,203245,1,0,0:0:0:0:
248,148,203598,1,2,0:0:0:0:
248,148,203774,1,2,0:0:0:0:
248,148,203951,1,2,0:0:0:0:
248,148,204215,1,0,0:0:0:0:
248,148,204303,1,2,0:0:0:0:
248,148,204480,1,2,0:0:0:0:
248,148,204656,1,0,0:0:0:0:
216,160,204833,1,0,0:0:0:0:
216,160,204921,1,0,0:0:0:0:
216,160,205009,1,2,0:0:0:0:
204,160,205186,1,2,0:0:0:0:
200,160,205451,1,2,0:0:0:0:
204,160,205627,1,0,0:0:0:0:
204,160,205715,1,2,0:0:0:0:
240,120,205892,1,0,0:0:0:0:
240,144,206068,1,0,0:0:0:0:
248,148,206421,1,2,0:0:0:0:
248,148,206597,1,2,0:0:0:0:
248,148,206774,1,2,0:0:0:0:
248,148,207038,1,0,0:0:0:0:
248,148,207126,1,2,0:0:0:0:
248,148,207303,1,2,0:0:0:0:
248,148,207479,1,0,0:0:0:0:
216,160,207656,1,0,0:0:0:0:
216,160,207715,1,0,0:0:0:0:
172,96,207774,1,0,0:0:0:0:
176,88,207833,1,2,0:0:0:0:
176,88,207892,1,2,0:0:0:0:
176,88,207951,1,2,0:0:0:0:
204,160,208009,1,2,0:0:0:0:
192,92,208186,1,0,0:0:0:0:
200,160,208274,1,2,0:0:0:0:
192,92,208362,1,0,0:0:0:0:
204,160,208450,1,2,0:0:0:0:
204,160,208538,1,2,0:0:0:0:
240,120,208715,1,2,0:0:0:0:
240,144,208892,1,0,0:0:0:0:
248,148,209245,1,2,0:0:0:0:
248,148,209421,1,2,0:0:0:0:
248,148,209598,1,2,0:0:0:0:
248,148,209862,1,0,0:0:0:0:
248,148,209950,1,2,0:0:0:0:
248,148,210127,1,2,0:0:0:0:
248,148,210303,1,0,0:0:0:0:
216,160,210480,1,0,0:0:0:0:
216,160,210568,1,0,0:0:0:0:
216,160,210656,1,2,0:0:0:0:
204,160,210833,1,2,0:0:0:0:
200,160,211098,1,2,0:0:0:0:
204,160,211274,1,0,0:0:0:0:
204,160,211362,1,2,0:0:0:0:
240,120,211539,1,0,0:0:0:0:
240,144,211715,1,0,0:0:0:0:
248,148,212068,1,2,0:0:0:0:
248,148,212244,1,2,0:0:0:0:
248,148,212421,1,2,0:0:0:0:
248,148,212685,1,0,0:0:0:0:
248,148,212773,1,2,0:0:0:0:
248,148,212950,1,2,0:0:0:0:
248,148,213126,1,0,0:0:0:0:
216,160,213303,1,0,0:0:0:0:
216,160,213391,1,0,0:0:0:0:
216,160,213479,1,2,0:0:0:0:
204,160,213656,1,2,0:0:0:0:
124,128,213833,1,0,0:0:0:0:
200,160,213921,1,2,0:0:0:0:
124,128,214009,1,0,0:0:0:0:
204,160,214097,1,0,0:0:0:0:
204,160,214185,1,2,0:0:0:0:
240,120,214362,1,0,0:0:0:0:
240,120,214539,1,6,0:0:0:0:
204,152,214892,1,0,0:0:0:0:
204,140,215068,1,0,0:0:0:0:
204,140,215156,1,0,0:0:0:0:
204,140,215245,1,2,0:0:0:0:
204,140,215333,1,2,0:0:0:0:
204,140,215421,1,0,0:0:0:0:
112,104,215509,1,0,0:0:0:0:
112,104,215597,1,2,0:0:0:0:
176,124,215774,1,2,0:0:0:0:
288,128,215951,1,2,0:0:0:0:
288,128,216039,1,2,0:0:0:0:
288,128,216127,1,0,0:0:0:0:
288,128,216215,1,0,0:0:0:0:
288,128,216304,1,2,0:0:0:0:
288,128,216392,1,0,0:0:0:0:
288,128,216480,1,2,0:0:0:0:
288,128,216568,1,0,0:0:0:0:
288,128,216656,1,2,0:0:0:0:
288,128,216745,1,2,0:0:0:0:
288,128,216833,1,0,0:0:0:0:
176,148,217009,1,2,0:0:0:0:
176,148,217098,1,0,0:0:0:0:
176,148,217186,1,0,0:0:0:0:
100,120,217362,1,0,0:0:0:0:
184,120,217715,1,2,0:0:0:0:
300,88,217892,1,0,0:0:0:0:
300,88,217980,1,2,0:0:0:0:
300,88,218068,1,2,0:0:0:0:
300,88,218156,1,2,0:0:0:0:
300,88,218245,1,0,0:0:0:0:
136,104,218333,1,0,0:0:0:0:
140,104,218421,1,2,0:0:0:0:
140,104,218598,1,0,0:0:0:0:
236,124,218774,1,0,0:0:0:0:
236,124,218862,1,0,0:0:0:0:
236,124,218951,1,2,0:0:0:0:
236,124,219039,1,0,0:0:0:0:
236,128,219127,1,2,0:0:0:0:
232,128,219215,1,2,0:0:0:0:
232,128,219304,1,0,0:0:0:0:
232,128,219392,1,0,0:0:0:0:
136,128,219480,1,2,0:0:0:0:
136,128,219568,1,2,0:0:0:0:
136,128,219656,1,0,0:0:0:0:
136,128,219745,1,0,0:0:0:0:
142,79,219833,1,2,0:0:0:0:
94,88,219921,1,2,0:0:0:0:
184,80,220009,1,2,0:0:0:0:
252,88,220186,1,4,0:0:0:0:
188,144,220539,1,2,0:0:0:0:
200,144,220715,1,0,0:0:0:0:
200,144,220804,1,2,0:0:0:0:
200,144,220892,1,2,0:0:0:0:
200,144,220980,1,0,0:0:0:0:
200,144,221068,1,0,0:0:0:0:
196,144,221156,1,0,0:0:0:0:
84,136,221245,1,2,0:0:0:0:
192,144,221421,1,2,0:0:0:0:
192,144,221598,1,0,0:0:0:0:
192,144,221686,1,0,0:0:0:0:
192,144,221774,1,2,0:0:0:0:
192,144,221862,1,2,0:0:0:0:
120,132,221951,1,0,0:0:0:0:
120,132,222127,1,0,0:0:0:0:
120,132,222215,1,0,0:0:0:0:
120,132,222304,1,2,0:0:0:0:
120,132,222392,1,2,0:0:0:0:
152,112,222480,1,0,0:0:0:0:
112,128,222568,1,0,0:0:0:0:
136,52,222656,1,2,0:0:0:0:
136,52,222745,1,0,0:0:0:0:
136,52,222833,1,2,0:0:0:0:
136,52,223009,1,0,0:0:0:0:
136,52,223362,1,2,0:0:0:0:
284,100,223451,1,2,0:0:0:0:
276,104,223539,1,2,0:0:0:0:
312,108,223627,1,0,0:0:0:0:
312,108,223715,1,2,0:0:0:0:
312,108,223804,1,0,0:0:0:0:
312,108,223892,1,0,0:0:0:0:
312,108,224068,1,2,0:0:0:0:
144,112,224245,1,0,0:0:0:0:
204,116,224421,1,0,0:0:0:0:
204,116,224509,1,0,0:0:0:0:
204,116,224598,1,0,0:0:0:0:
204,116,224686,1,0,0:0:0:0:
204,116,224774,1,2,0:0:0:0:
204,116,224951,1,0,0:0:0:0:
204,116,225039,1,2,0:0:0:0:
204,116,225127,1,2,0:0:0:0:
204,116,225215,1,0,0:0:0:0:
204,116,225304,1,2,0:0:0:0:
204,116,225392,1,0,0:0:0:0:
204,116,225480,1,2,0:0:0:0:
168,144,225568,1,0,0:0:0:0:
188,104,225656,1,0,0:0:0:0:
240,120,225833,1,6,0:0:0:0:
204,152,226186,1,0,0:0:0:0:
204,140,226362,1,0,0:0:0:0:
204,140,226450,1,0,0:0:0:0:
204,140,226539,1,2,0:0:0:0:
204,140,226627,1,2,0:0:0:0:
204,140,226715,1,0,0:0:0:0:
112,104,226804,1,0,0:0:0:0:
112,104,226891,1,2,0:0:0:0:
176,124,227068,1,2,0:0:0:0:
288,128,227245,1,2,0:0:0:0:
288,128,227333,1,2,0:0:0:0:
288,128,227421,1,0,0:0:0:0:
288,128,227509,1,0,0:0:0:0:
288,128,227598,1,2,0:0:0:0:
288,128,227686,1,0,0:0:0:0:
288,128,227774,1,2,0:0:0:0:
288,128,227862,1,0,0:0:0:0:
288,128,227950,1,2,0:0:0:0:
288,128,228039,1,2,0:0:0:0:
288,128,228127,1,0,0:0:0:0:
176,148,228303,1,2,0:0:0:0:
176,148,228392,1,0,0:0:0:0:
176,148,228480,1,0,0:0:0:0:
100,120,228656,1,0,0:0:0:0:
184,120,229009,1,2,0:0:0:0:
300,88,229186,1,0,0:0:0:0:
300,88,229274,1,2,0:0:0:0:
300,88,229362,1,2,0:0:0:0:
300,88,229450,1,2,0:0:0:0:
300,88,229539,1,0,0:0:0:0:
136,104,229627,1,0,0:0:0:0:
140,104,229715,1,2,0:0:0:0:
236,200,229804,1,2,0:0:0:0:
236,200,229892,1,0,0:0:0:0:
236,124,230068,1,0,0:0:0:0:
236,124,230156,1,0,0:0:0:0:
236,124,230245,1,2,0:0:0:0:
236,124,230333,1,0,0:0:0:0:
236,128,230421,1,2,0:0:0:0:
232,128,230509,1,2,0:0:0:0:
232,128,230598,1,0,0:0:0:0:
232,128,230686,1,0,0:0:0:0:
136,128,230774,1,2,0:0:0:0:
136,128,230862,1,2,0:0:0:0:
136,128,230950,1,0,0:0:0:0:
196,132,231039,1,0,0:0:0:0:
136,128,231127,1,2,0:0:0:0:
184,80,231215,1,2,0:0:0:0:
184,80,231303,1,2,0:0:0:0:
252,88,231480,1,4,0:0:0:0:
188,144,231833,1,2,0:0:0:0:
200,144,232009,1,0,0:0:0:0:
200,144,232098,1,2,0:0:0:0:
200,144,232186,1,2,0:0:0:0:
200,144,232274,1,2,0:0:0:0:
200,144,232362,1,0,0:0:0:0:
196,144,232450,1,0,0:0:0:0:
152,112,232539,1,2,0:0:0:0:
152,112,232627,1,2,0:0:0:0:
152,112,232715,1,2,0:0:0:0:
152,112,232804,1,2,0:0:0:0:
192,144,232892,1,0,0:0:0:0:
192,144,232980,1,0,0:0:0:0:
192,144,233068,1,2,0:0:0:0:
192,144,233156,1,2,0:0:0:0:
120,132,233245,1,0,0:0:0:0:
120,132,233421,1,0,0:0:0:0:
120,132,233509,1,0,0:0:0:0:
120,132,233598,1,2,0:0:0:0:
120,132,233686,1,2,0:0:0:0:
152,112,233774,1,0,0:0:0:0:
136,52,233950,1,2,0:0:0:0:
136,52,234039,1,2,0:0:0:0:
136,52,234127,1,2,0:0:0:0:
180,164,234215,1,2,0:0:0:0:
136,52,234303,1,0,0:0:0:0:
136,52,234656,1,2,0:0:0:0:
164,96,234745,1,2,0:0:0:0:
276,104,234833,1,2,0:0:0:0:
312,108,234921,1,0,0:0:0:0:
312,108,235009,1,2,0:0:0:0:
312,108,235098,1,0,0:0:0:0:
312,108,235186,1,0,0:0:0:0:
312,108,235362,1,2,0:0:0:0:
76,112,235451,1,2,0:0:0:0:
88,112,235539,1,2,0:0:0:0:
88,112,235627,1,2,0:0:0:0:
204,116,235715,1,0,0:0:0:0:
204,116,235803,1,0,0:0:0:0:
204,116,235892,1,0,0:0:0:0:
204,116,235980,1,0,0:0:0:0:
204,116,236068,1,2,0:0:0:0:
92,112,236156,1,2,0:0:0:0:
204,116,236245,1,0,0:0:0:0:
204,116,236333,1,0,0:0:0:0:
92,112,236421,1,2,0:0:0:0:
204,116,236509,1,0,0:0:0:0:
204,116,236598,1,2,0:0:0:0:
204,116,236656,1,0,0:0:0:0:
168,128,236715,1,0,0:0:0:0:
204,116,236774,1,2,0:0:0:0:
48,136,236833,1,2,0:0:0:0:
48,136,236892,1,2,0:0:0:0:
188,104,236951,1,0,0:0:0:0:
108,148,237127,1,6,0:0:0:0:
220,228,237304,1,0,0:0:0:0:
172,56,237392,1,0,0:0:0:0:
172,56,237480,1,2,0:0:0:0:
172,56,237568,1,0,0:0:0:0:
172,56,237656,1,2,0:0:0:0:
172,56,237745,1,0,0:0:0:0:
220,100,237833,1,2,0:0:0:0:
220,100,237921,1,2,0:0:0:0:
220,100,238009,1,0,0:0:0:0:
220,100,238098,1,0,0:0:0:0:
132,104,238186,1,2,0:0:0:0:
168,168,238274,1,0,0:0:0:0:
168,168,238362,1,0,0:0:0:0:
136,112,238539,1,2,0:0:0:0:
136,112,238627,1,2,0:0:0:0:
136,112,238715,1,2,0:0:0:0:
136,112,238804,1,2,0:0:0:0:
136,112,238892,1,0,0:0:0:0:
192,108,239068,1,0,0:0:0:0:
192,108,239156,1,0,0:0:0:0:
192,108,239245,1,2,0:0:0:0:
96,140,239333,1,2,0:0:0:0:
96,140,239421,1,0,0:0:0:0:
96,140,239598,1,2,0:0:0:0:
96,140,239686,1,2,0:0:0:0:
96,140,239774,1,2,0:0:0:0:
224,120,239951,1,0,0:0:0:0:
224,120,240127,1,0,0:0:0:0:
248,88,240215,1,0,0:0:0:0:
240,88,240304,1,2,0:0:0:0:
256,80,240480,1,0,0:0:0:0:
260,88,240568,1,0,0:0:0:0:
260,88,240656,1,2,0:0:0:0:
260,88,240745,1,2,0:0:0:0:
260,88,240833,1,0,0:0:0:0:
116,140,240921,1,0,0:0:0:0:
140,104,241009,1,2,0:0:0:0:
132,148,241186,1,0,0:0:0:0:
132,148,241362,1,0,0:0:0:0:
132,148,241451,1,2,0:0:0:0:
132,148,241539,1,2,0:0:0:0:
132,148,241627,1,2,0:0:0:0:
132,148,241715,1,2,0:0:0:0:
132,148,241892,1,0,0:0:0:0:
132,148,241980,1,0,0:0:0:0:
132,148,242068,1,2,0:0:0:0:
132,148,242156,1,2,0:0:0:0:
132,148,242245,1,0,0:0:0:0:
132,148,242333,1,0,0:0:0:0:
132,148,242421,1,2,0:0:0:0:
276,104,242509,1,2,0:0:0:0:
276,104,242598,1,0,0:0:0:0:
232,144,242774,1,6,0:0:0:0:
192,140,242951,1,0,0:0:0:0:
196,144,243127,1,2,0:0:0:0:
200,160,243304,1,2,0:0:0:0:
200,160,243392,1,0,0:0:0:0:
200,160,243480,1,2,0:0:0:0:
200,160,243568,1,2,0:0:0:0:
248,104,243656,1,0,0:0:0:0:
248,96,243833,1,2,0:0:0:0:
248,96,243921,1,2,0:0:0:0:
248,96,244009,1,2,0:0:0:0:
248,104,244186,1,0,0:0:0:0:
248,104,244274,1,0,0:0:0:0:
248,104,244362,1,2,0:0:0:0:
248,104,244451,1,2,0:0:0:0:
248,104,244539,1,2,0:0:0:0:
248,108,244715,1,0,0:0:0:0:
248,108,244804,1,0,0:0:0:0:
248,108,244892,1,2,0:0:0:0:
248,108,244980,1,2,0:0:0:0:
248,104,245068,1,0,0:0:0:0:
276,128,245245,1,2,0:0:0:0:
276,128,245333,1,2,0:0:0:0:
276,128,245421,1,2,0:0:0:0:
128,152,245509,1,2,0:0:0:0:
260,84,245598,1,0,0:0:0:0:
260,84,245774,1,0,0:0:0:0:
336,80,245951,1,2,0:0:0:0:
336,80,246009,1,0,0:0:0:0:
336,80,246068,1,0,0:0:0:0:
336,80,246127,1,0,0:0:0:0:
336,80,246186,1,0,0:0:0:0:
336,80,246245,1,0,0:0:0:0:
336,80,246304,1,2,0:0:0:0:
328,80,246480,1,0,0:0:0:0:
72,136,246656,1,2,0:0:0:0:
88,128,246715,1,2,0:0:0:0:
88,128,246774,1,2,0:0:0:0:
88,124,246833,1,2,0:0:0:0:
88,128,246892,1,2,0:0:0:0:
88,124,246951,1,2,0:0:0:0:
88,124,247009,1,2,0:0:0:0:
96,120,247186,1,0,0:0:0:0:
188,28,247362,1,2,0:0:0:0:
116,112,247421,1,0,0:0:0:0:
116,112,247480,1,0,0:0:0:0:
116,112,247539,1,2,0:0:0:0:
116,112,247598,1,0,0:0:0:0:
116,112,247656,1,0,0:0:0:0:
116,112,247715,1,2,0:0:0:0:
156,120,247774,1,2,0:0:0:0:
156,120,247833,1,2,0:0:0:0:
156,120,247892,1,0,0:0:0:0:
156,120,247951,1,0,0:0:0:0:
128,156,248009,1,0,0:0:0:0:
156,120,248068,1,2,0:0:0:0:
200,44,248245,1,0,0:0:0:0:
108,148,248421,1,6,0:0:0:0:
220,228,248598,1,0,0:0:0:0:
172,56,248686,1,0,0:0:0:0:
172,56,248774,1,2,0:0:0:0:
172,56,248862,1,0,0:0:0:0:
172,56,248950,1,2,0:0:0:0:
172,56,249039,1,0,0:0:0:0:
220,100,249127,1,2,0:0:0:0:
220,100,249215,1,0,0:0:0:0:
176,168,249304,1,0,0:0:0:0:
112,172,249392,1,0,0:0:0:0:
220,100,249480,1,2,0:0:0:0:
112,172,249568,1,0,0:0:0:0:
144,112,249656,1,0,0:0:0:0:
136,112,249833,1,2,0:0:0:0:
136,112,249921,1,2,0:0:0:0:
136,112,250009,1,2,0:0:0:0:
136,112,250098,1,2,0:0:0:0:
136,112,250186,1,0,0:0:0:0:
192,108,250362,1,0,0:0:0:0:
192,108,250450,1,0,0:0:0:0:
192,108,250539,1,2,0:0:0:0:
96,140,250627,1,2,0:0:0:0:
96,140,250715,1,0,0:0:0:0:
96,140,250892,1,2,0:0:0:0:
96,140,250980,1,2,0:0:0:0:
96,140,251068,1,2,0:0:0:0:
224,120,251245,1,0,0:0:0:0:
224,120,251421,1,0,0:0:0:0:
248,88,251509,1,0,0:0:0:0:
240,88,251598,1,2,0:0:0:0:
256,80,251774,1,0,0:0:0:0:
260,88,251862,1,0,0:0:0:0:
260,88,251950,1,2,0:0:0:0:
260,88,252039,1,2,0:0:0:0:
260,88,252127,1,0,0:0:0:0:
120,136,252215,1,0,0:0:0:0:
252,96,252303,1,2,0:0:0:0:
132,148,252480,1,0,0:0:0:0:
132,148,252656,1,0,0:0:0:0:
132,148,252745,1,2,0:0:0:0:
132,148,252833,1,2,0:0:0:0:
132,148,252921,1,2,0:0:0:0:
132,148,253009,1,2,0:0:0:0:
132,148,253186,1,0,0:0:0:0:
132,148,253274,1,0,0:0:0:0:
132,148,253362,1,2,0:0:0:0:
132,148,253450,1,2,0:0:0:0:
132,148,253539,1,0,0:0:0:0:
132,148,253627,1,0,0:0:0:0:
132,148,253715,1,2,0:0:0:0:
276,104,253804,1,2,0:0:0:0:
276,104,253892,1,0,0:0:0:0:
232,144,254068,1,6,0:0:0:0:
192,140,254245,1,0,0:0:0:0:
196,144,254421,1,2,0:0:0:0:
120,128,254509,1,2,0:0:0:0:
200,160,254598,1,2,0:0:0:0:
200,160,254686,1,0,0:0:0:0:
212,80,254774,1,2,0:0:0:0:
212,80,254862,1,0,0:0:0:0:
248,104,254950,1,0,0:0:0:0:
248,96,255127,1,2,0:0:0:0:
248,96,255215,1,2,0:0:0:0:
248,96,255303,1,2,0:0:0:0:
140,148,255392,1,2,0:0:0:0:
248,104,255480,1,0,0:0:0:0:
248,104,255568,1,0,0:0:0:0:
248,104,255656,1,2,0:0:0:0:
248,104,255745,1,0,0:0:0:0:
248,104,255833,1,2,0:0:0:0:
144,88,255921,1,2,0:0:0:0:
248,108,256009,1,0,0:0:0:0:
248,108,256098,1,0,0:0:0:0:
248,108,256186,1,2,0:0:0:0:
248,108,256274,1,2,0:0:0:0:
248,104,256362,1,0,0:0:0:0:
276,128,256539,1,2,0:0:0:0:
276,128,256627,1,2,0:0:0:0:
276,128,256715,1,2,0:0:0:0:
116,100,256804,1,2,0:0:0:0:
260,84,256892,1,0,0:0:0:0:
260,84,257068,1,0,0:0:0:0:
336,80,257245,1,2,0:0:0:0:
336,80,257333,1,0,0:0:0:0:
336,80,257421,1,0,0:0:0:0:
336,80,257509,1,0,0:0:0:0:
336,80,257598,1,2,0:0:0:0:
136,140,257686,1,2,0:0:0:0:
136,140,257774,1,2,0:0:0:0:
136,140,257862,1,2,0:0:0:0:
72,136,257950,1,2,0:0:0:0:
88,128,258039,1,0,0:0:0:0:
88,128,258127,1,2,0:0:0:0:
88,124,258215,1,0,0:0:0:0:
88,128,258304,1,2,0:0:0:0:
208,160,258392,1,2,0:0:0:0:
272,156,258480,1,0,0:0:0:0:
272,156,258539,1,0,0:0:0:0:
272,156,258598,1,0,0:0:0:0:
188,28,258656,1,2,0:0:0:0:
116,112,258745,1,0,0:0:0:0:
116,112,258833,1,2,0:0:0:0:
116,112,258892,1,2,0:0:0:0:
116,112,258950,1,0,0:0:0:0:
116,112,259009,1,2,0:0:0:0:
156,120,259068,1,2,0:0:0:0:
156,120,259127,1,0,0:0:0:0:
156,120,259186,1,2,0:0:0:0:
156,120,259245,1,2,0:0:0:0:
128,156,259303,1,2,0:0:0:0:
156,120,259362,1,0,0:0:0:0:
200,44,259421,1,0,0:0:0:0:
52,144,259480,1,0,0:0:0:0:
224,56,259539,1,2,0:0:0:0:
196,100,259715,1,6,0:0:0:0:
224,156,259892,1,0,0:0:0:0:
268,72,260245,1,0,0:0:0:0:
268,72,260333,1,0,0:0:0:0:
268,72,260421,1,2,0:0:0:0:
120,168,260598,1,0,0:0:0:0:
192,124,260774,1,0,0:0:0:0:
164,152,260862,1,2,0:0:0:0:
148,216,261127,1,2,0:0:0:0:
148,216,261215,1,2,0:0:0:0:
148,216,261304,1,0,0:0:0:0:
148,216,261392,1,0,0:0:0:0:
160,140,261480,1,0,0:0:0:0:
160,140,261539,1,0,0:0:0:0:
160,140,261598,1,0,0:0:0:0:
160,140,261656,1,2,0:0:0:0:
104,128,261745,1,0,0:0:0:0:
108,136,261833,1,2,0:0:0:0:
108,136,261921,1,0,0:0:0:0:
148,148,262009,1,0,0:0:0:0:
148,148,262068,1,0,0:0:0:0:
148,148,262127,1,0,0:0:0:0:
132,136,262186,1,2,0:0:0:0:
240,104,262274,1,2,0:0:0:0:
248,104,262362,1,2,0:0:0:0:
248,104,262451,1,2,0:0:0:0:
248,104,262539,1,0,0:0:0:0:
352,120,262598,1,0,0:0:0:0:
352,120,262656,1,0,0:0:0:0:
352,120,262715,1,0,0:0:0:0:
352,120,262774,1,0,0:0:0:0:
352,120,262833,1,0,0:0:0:0:
344,108,262892,1,2,0:0:0:0:
312,96,263068,1,0,0:0:0:0:
312,96,263127,1,0,0:0:0:0:
312,96,263186,1,0,0:0:0:0:
312,96,263245,1,0,0:0:0:0:
276,120,263421,1,0,0:0:0:0:
276,120,263509,1,2,0:0:0:0:
276,120,263598,1,2,0:0:0:0:
104,136,263686,1,2,0:0:0:0:
104,136,263774,1,2,0:0:0:0:
172,64,263951,1,0,0:0:0:0:
172,64,264039,1,0,0:0:0:0:
172,64,264127,1,2,0:0:0:0:
172,64,264215,1,2,0:0:0:0:
296,96,264304,1,0,0:0:0:0:
296,96,264362,1,0,0:0:0:0:
136,148,264421,1,0,0:0:0:0:
296,96,264480,1,2,0:0:0:0:
296,96,264539,1,2,0:0:0:0:
80,112,264598,1,2,0:0:0:0:
92,112,264656,1,0,0:0:0:0:
352,60,264745,1,0,0:0:0:0:
356,96,264833,1,0,0:0:0:0:
356,96,264892,1,2,0:0:0:0:
356,96,264951,1,2,0:0:0:0:
356,96,265009,1,0,0:0:0:0:
224,144,265098,1,0,0:0:0:0:
168,108,265186,1,2,0:0:0:0:
168,108,265362,1,4,0:0:0:0:
256,208,265715,1,2,0:0:0:0:
188,96,265892,1,2,0:0:0:0:
188,96,265980,1,0,0:0:0:0:
184,92,266068,1,2,0:0:0:0:
184,92,266156,1,0,0:0:0:0:
184,96,266245,1,0,0:0:0:0:
184,96,266304,1,0,0:0:0:0:
140,104,266362,1,0,0:0:0:0:
140,104,266421,1,2,0:0:0:0:
128,124,266480,1,0,0:0:0:0:
128,124,266539,1,0,0:0:0:0:
140,104,266598,1,2,0:0:0:0:
316,72,266774,1,2,0:0:0:0:
316,72,266862,1,0,0:0:0:0:
316,72,266951,1,2,0:0:0:0:
316,72,267039,1,2,0:0:0:0:
316,72,267127,1,0,0:0:0:0:
196,36,267304,1,2,0:0:0:0:
196,36,267362,1,0,0:0:0:0:
336,44,267421,1,0,0:0:0:0:
196,36,267480,1,2,0:0:0:0:
196,36,267568,1,2,0:0:0:0:
196,36,267656,1,0,0:0:0:0:
84,140,267833,1,2,0:0:0:0:
84,140,267892,1,2,0:0:0:0:
84,140,267951,1,2,0:0:0:0:
84,140,268009,1,2,0:0:0:0:
84,140,268186,1,0,0:0:0:0:
84,140,268245,1,0,0:0:0:0:
84,140,268304,1,0,0:0:0:0:
84,140,268362,1,0,0:0:0:0:
84,140,268539,1,0,0:0:0:0:
216,124,268715,1,0,0:0:0:0:
216,124,268804,1,0,0:0:0:0:
216,124,268892,1,2,0:0:0:0:
112,124,268980,1,2,0:0:0:0:
112,124,269068,1,0,0:0:0:0:
140,108,269245,1,6,0:0:0:0:
216,140,269421,1,2,0:0:0:0:
216,140,269598,1,0,0:0:0:0:
216,140,269686,1,0,0:0:0:0:
216,140,269774,1,0,0:0:0:0:
216,140,269862,1,0,0:0:0:0:
216,140,269951,1,2,0:0:0:0:
216,140,270127,1,2,0:0:0:0:
216,140,270215,1,0,0:0:0:0:
216,140,270304,1,2,0:0:0:0:
216,140,270392,1,2,0:0:0:0:
216,140,270480,1,2,0:0:0:0:
216,140,270568,1,0,0:0:0:0:
168,136,270656,1,2,0:0:0:0:
168,136,270715,1,2,0:0:0:0:
168,136,270774,1,2,0:0:0:0:
168,136,270833,1,0,0:0:0:0:
168,136,271009,1,6,0:0:0:0:
136,152,271274,1,0,0:0:0:0:
136,152,271362,1,2,0:0:0:0:
132,140,271539,1,0,0:0:0:0:
132,140,271627,1,2,0:0:0:0:
132,140,271715,1,0,0:0:0:0:
96,128,271804,1,2,0:0:0:0:
96,128,271892,1,0,0:0:0:0:
96,128,272068,1,2,0:0:0:0:
96,128,272156,1,2,0:0:0:0:
96,128,272245,1,0,0:0:0:0:
288,68,272421,1,2,0:0:0:0:
288,68,272480,1,2,0:0:0:0:
276,68,272539,1,2,0:0:0:0:
288,68,272598,1,2,0:0:0:0:
272,68,272774,1,0,0:0:0:0:
176,232,272833,1,0,0:0:0:0:
176,232,272892,1,0,0:0:0:0:
128,128,272951,1,2,0:0:0:0:
128,128,273039,1,0,0:0:0:0:
128,128,273127,1,2,0:0:0:0:
252,64,273304,1,0,0:0:0:0:
252,64,273392,1,0,0:0:0:0:
252,64,273480,1,2,0:0:0:0:
252,64,273539,1,2,0:0:0:0:
252,64,273598,1,2,0:0:0:0:
252,64,273656,1,2,0:0:0:0:
120,124,273715,1,2,0:0:0:0:
148,116,273774,1,2,0:0:0:0:
160,124,273833,1,0,0:0:0:0:
152,144,274009,1,0,0:0:0:0:
152,144,274098,1,0,0:0:0:0:
152,144,274274,1,0,0:0:0:0:
152,144,274362,1,2,0:0:0:0:
356,120,274451,1,2,0:0:0:0:
356,120,274539,1,0,0:0:0:0:
356,120,274627,1,2,0:0:0:0:
356,120,274715,1,0,0:0:0:0:
356,120,274892,1,2,0:0:0:0:
112,140,274951,1,2,0:0:0:0:
112,140,275009,1,0,0:0:0:0:
112,140,275068,1,2,0:0:0:0:
112,140,275127,1,2,0:0:0:0:
112,140,275186,1,0,0:0:0:0:
112,140,275245,1,2,0:0:0:0:
300,88,275333,1,0,0:0:0:0:
300,88,275421,1,2,0:0:0:0:
384,88,275598,1,2,0:0:0:0:
384,88,275656,1,0,0:0:0:0:
384,88,275715,1,0,0:0:0:0:
384,88,275774,1,2,0:0:0:0:
384,88,275833,1,0,0:0:0:0:
384,88,275892,1,0,0:0:0:0:
384,88,275951,1,2,0:0:0:0:
288,92,276039,1,2,0:0:0:0:
288,92,276127,1,0,0:0:0:0:
288,96,276304,1,2,0:0:0:0:
288,96,276362,1,0,0:0:0:0:
288,92,276421,1,0,0:0:0:0:
288,92,276480,1,2,0:0:0:0:
196,80,276656,1,6,0:0:0:0:
148,132,277009,5,0,0:0:0:0:
148,132,277068,1,0,0:0:0:0:
148,132,277127,1,0,0:0:0:0:
148,132,277186,1,2,0:0:0:0:
292,48,277274,1,2,0:0:0:0:
292,48,277362,1,0,0:0:0:0:
292,48,277451,1,2,0:0:0:0:
312,48,277539,1,2,0:0:0:0:
312,48,277627,1,0,0:0:0:0:
332,112,277686,1,0,0:0:0:0:
112,104,277745,1,0,0:0:0:0:
128,104,277804,1,0,0:0:0:0:
160,112,277892,1,2,0:0:0:0:
232,160,278068,5,0,0:0:0:0:
232,160,278156,1,2,0:0:0:0:
232,160,278245,1,2,0:0:0:0:
232,160,278333,1,0,0:0:0:0:
232,160,278421,1,2,0:0:0:0:
208,132,278598,1,0,0:0:0:0:
208,132,278686,1,0,0:0:0:0:
208,132,278774,1,2,0:0:0:0:
208,132,278862,1,2,0:0:0:0:
208,132,278951,1,0,0:0:0:0:
208,132,279127,1,2,0:0:0:0:
332,56,279186,1,2,0:0:0:0:
196,52,279245,1,2,0:0:0:0:
160,132,279304,1,2,0:0:0:0:
160,132,279362,1,2,0:0:0:0:
160,132,279421,1,2,0:0:0:0:
160,132,279480,1,0,0:0:0:0:
160,132,279568,1,2,0:0:0:0:
160,132,279656,1,0,0:0:0:0:
156,128,279833,1,2,0:0:0:0:
156,128,279892,1,2,0:0:0:0:
156,128,279951,1,0,0:0:0:0:
156,128,280009,1,2,0:0:0:0:
156,128,280068,1,2,0:0:0:0:
156,128,280127,1,0,0:0:0:0:
156,128,280186,1,2,0:0:0:0:
156,128,280274,1,2,0:0:0:0:
156,128,280362,1,0,0:0:0:0:
152,124,280539,1,2,0:0:0:0:
152,124,280598,1,0,0:0:0:0:
152,124,280656,1,0,0:0:0:0:
152,124,280715,1,0,0:0:0:0:
152,124,280804,1,0,0:0:0:0:
152,124,280892,1,2,0:0:0:0:
152,124,280951,1,2,0:0:0:0:
152,124,281009,1,2,0:0:0:0:
152,124,281068,1,0,0:0:0:0:
292,80,281156,1,0,0:0:0:0:
152,124,281245,1,0,0:0:0:0:
152,124,281304,1,0,0:0:0:0:
152,124,281362,1,0,0:0:0:0:
152,124,281421,1,2,0:0:0:0:
152,124,281509,1,2,0:0:0:0:
140,148,281598,1,0,0:0:0:0:
140,148,281656,1,2,0:0:0:0:
140,148,281715,1,2,0:0:0:0:
140,148,281774,1,0,0:0:0:0:
144,128,281951,1,2,0:0:0:0:
144,128,282127,1,0,0:0:0:0:
168,128,282304,1,0,0:0:0:0:
168,128,282392,1,0,0:0:0:0:
272,88,282480,1,2,0:0:0:0:
112,112,282568,1,0,0:0:0:0:
112,116,282627,1,0,0:0:0:0:
112,116,282686,1,0,0:0:0:0:
112,116,282745,1,0,0:0:0:0:
120,112,282833,1,0,0:0:0:0:
112,112,282921,1,0,0:0:0:0:
112,112,283009,1,2,0:0:0:0:
160,120,283186,1,0,0:0:0:0:
160,120,283245,1,0,0:0:0:0:
160,120,283304,1,0,0:0:0:0:
160,120,283362,1,2,0:0:0:0:
160,120,283421,1,2,0:0:0:0:
160,120,283480,1,2,0:0:0:0:
160,120,283539,1,0,0:0:0:0:
240,120,283715,1,2,0:0:0:0:
304,72,283804,1,0,0:0:0:0:
284,88,283892,1,0,0:0:0:0:
284,88,283980,1,2,0:0:0:0:
328,104,284039,1,2,0:0:0:0:
328,104,284098,1,2,0:0:0:0:
328,104,284156,1,2,0:0:0:0:
328,104,284245,1,0,0:0:0:0:
284,140,284333,1,2,0:0:0:0:
276,140,284421,1,0,0:0:0:0:
276,140,284480,1,0,0:0:0:0:
128,120,284539,1,0,0:0:0:0:
128,120,284598,1,0,0:0:0:0:
192,144,284686,1,2,0:0:0:0:
224,128,284774,1,0,0:0:0:0:
224,128,284818,1,0,0:0:0:0:
224,128,284862,1,0,0:0:0:0:
224,128,284906,1,0,0:0:0:0:
224,128,284951,1,2,0:0:0:0:
112,184,285039,1,2,0:0:0:0:
208,136,285127,1,0,0:0:0:0:
232,152,285304,1,0,0:0:0:0:
232,152,285392,1,2,0:0:0:0:
232,152,285480,1,2,0:0:0:0:
272,140,285568,1,2,0:0:0:0:
272,140,285656,1,0,0:0:0:0:
272,140,285715,1,0,0:0:0:0:
139,182,285774,1,2,0:0:0:0:
272,140,285833,1,2,0:0:0:0:
212,164,285921,1,0,0:0:0:0:
128,188,286009,1,0,0:0:0:0:
104,128,286068,1,0,0:0:0:0:
120,188,286127,1,0,0:0:0:0:
104,128,286186,1,2,0:0:0:0:
64,148,286274,1,2,0:0:0:0:
208,120,286362,1,0,0:0:0:0:
208,120,286539,1,0,0:0:0:0:
208,120,286627,1,0,0:0:0:0:
124,120,286715,1,2,0:0:0:0:
124,120,286804,1,2,0:0:0:0:
136,92,286892,1,2,0:0:0:0:
136,92,286980,1,2,0:0:0:0:
136,92,287068,1,0,0:0:0:0:
136,92,287127,1,0,0:0:0:0:
136,92,287186,1,0,0:0:0:0:
136,92,287245,1,2,0:0:0:0:
168,84,287304,1,0,0:0:0:0:
140,136,287362,1,0,0:0:0:0:
140,136,287421,1,2,0:0:0:0:
164,120,287509,1,2,0:0:0:0:
164,120,287598,1,0,0:0:0:0:
148,92,287774,1,0,0:0:0:0:
148,92,287833,1,0,0:0:0:0:
148,92,287892,1,0,0:0:0:0:
148,92,287951,1,2,0:0:0:0:
176,124,288127,1,0,0:0:0:0:
176,124,288215,1,2,0:0:0:0:
404,272,288304,1,2,0:0:0:0:
152,96,288480,1,2,0:0:0:0:
152,96,288568,1,2,0:0:0:0:
152,96,288656,1,2,0:0:0:0:
236,132,288745,1,2,0:0:0:0:
68,96,288833,1,0,0:0:0:0:
72,112,288892,1,0,0:0:0:0:
72,112,288951,1,0,0:0:0:0:
72,112,289009,1,2,0:0:0:0:
72,112,289068,1,0,0:0:0:0:
72,112,289127,1,0,0:0:0:0:
72,112,289186,1,2,0:0:0:0:
72,112,289245,1,2,0:0:0:0:
72,112,289304,1,2,0:0:0:0:
72,112,289362,1,0,0:0:0:0:
128,124,289539,1,0,0:0:0:0:
128,124,289627,1,0,0:0:0:0:
128,124,289715,1,2,0:0:0:0:
348,116,289804,1,2,0:0:0:0:
344,108,289892,1,0,0:0:0:0:
336,104,289951,1,0,0:0:0:0:
160,132,290009,1,0,0:0:0:0:
84,116,290068,1,2,0:0:0:0:
196,120,290127,1,0,0:0:0:0:
176,116,290186,1,0,0:0:0:0:
196,120,290245,1,2,0:0:0:0:
196,120,290333,1,2,0:0:0:0:
172,136,290421,1,0,0:0:0:0:
188,48,290480,1,0,0:0:0:0:
172,136,290539,1,0,0:0:0:0:
188,48,290598,1,2,0:0:0:0:
188,48,290686,1,2,0:0:0:0:
312,116,290774,1,0,0:0:0:0:
312,116,290833,1,0,0:0:0:0:
312,116,290892,1,0,0:0:0:0:
312,116,290951,1,0,0:0:0:0:
312,116,291127,1,2,0:0:0:0:
248,136,291215,1,2,0:0:0:0:
248,140,291304,1,0,0:0:0:0:
336,116,291362,1,0,0:0:0:0:
336,116,291421,1,0,0:0:0:0:
284,108,291480,1,2,0:0:0:0:
284,108,291568,1,0,0:0:0:0:
284,108,291656,1,2,0:0:0:0:
264,140,291833,1,2,0:0:0:0:
264,140,291921,1,0,0:0:0:0:
264,140,292009,1,0,0:0:0:0:
264,136,292098,1,2,0:0:0:0:
264,136,292142,1,2,0:0:0:0:
264,136,292186,1,0,0:0:0:0:
128,140,292362,1,0,0:0:0:0:
128,140,292451,1,0,0:0:0:0:
136,136,292539,1,2,0:0:0:0:
160,80,292715,1,2,0:0:0:0:
160,80,292804,1,2,0:0:0:0:
160,80,292892,1,0,0:0:0:0:
176,72,292980,1,0,0:0:0:0:
176,72,293068,1,2,0:0:0:0:
176,72,293127,1,2,0:0:0:0:
32,140,293186,1,2,0:0:0:0:
284,68,293245,1,0,0:0:0:0:
272,80,293333,1,0,0:0:0:0:
272,80,293421,1,2,0:0:0:0:
272,80,293509,1,2,0:0:0:0:
256,192,293598,12,2,294215,0:0:0:0:
256,192,294304,12,0,295186,0:0:0:0:
172,120,295362,5,0,0:0:0:0:
172,120,295539,1,2,0:0:0:0:
172,120,295627,1,2,0:0:0:0:
172,120,295715,1,0,0:0:0:0:
164,100,295804,1,2,0:0:0:0:
228,92,295892,1,0,0:0:0:0:
228,92,295951,1,0,0:0:0:0:
228,92,296009,1,0,0:0:0:0:
228,92,296068,1,2,0:0:0:0:
356,96,296156,1,0,0:0:0:0:
356,96,296245,1,2,0:0:0:0:
116,144,296421,1,2,0:0:0:0:
116,144,296509,1,2,0:0:0:0:
116,144,296598,1,0,0:0:0:0:
268,132,296656,1,0,0:0:0:0:
268,132,296715,1,0,0:0:0:0:
268,132,296774,1,0,0:0:0:0:
272,128,296833,1,0,0:0:0:0:
272,128,296892,1,0,0:0:0:0:
272,128,296951,1,2,0:0:0:0:
364,64,297039,1,2,0:0:0:0:
100,156,297127,1,2,0:0:0:0:
120,80,297215,1,0,0:0:0:0:
76,136,297304,1,2,0:0:0:0:
224,24,297362,1,0,0:0:0:0:
264,88,297421,1,0,0:0:0:0:
248,92,297480,1,2,0:0:0:0:
248,92,297539,1,0,0:0:0:0:
248,92,297598,1,2,0:0:0:0:
248,92,297656,1,0,0:0:0:0:
248,96,297715,1,2,0:0:0:0:
248,96,297774,1,2,0:0:0:0:
248,96,297833,1,0,0:0:0:0:
216,96,298009,1,0,0:0:0:0:
216,96,298098,1,2,0:0:0:0:
216,96,298186,1,0,0:0:0:0:
80,152,298245,1,0,0:0:0:0:
144,116,298304,1,0,0:0:0:0:
144,116,298362,1,2,0:0:0:0:
216,80,298421,1,0,0:0:0:0:
164,108,298480,1,0,0:0:0:0:
236,124,298539,1,2,0:0:0:0:
192,92,298627,1,2,0:0:0:0:
236,124,298715,1,0,0:0:0:0:
236,124,298804,1,0,0:0:0:0:
236,124,298892,1,2,0:0:0:0:
236,124,298951,1,0,0:0:0:0:
236,124,299009,1,0,0:0:0:0:
236,124,299068,1,2,0:0:0:0:
236,124,299156,1,0,0:0:0:0:
156,120,299245,1,2,0:0:0:0:
180,172,299304,1,0,0:0:0:0:
180,172,299362,1,0,0:0:0:0:
40,112,299421,1,0,0:0:0:0:
64,112,299509,1,2,0:0:0:0:
64,112,299598,1,0,0:0:0:0:
144,128,299774,1,2,0:0:0:0:
144,128,299862,1,2,0:0:0:0:
144,128,299951,1,0,0:0:0:0:
144,128,300039,1,0,0:0:0:0:
144,128,300127,1,0,0:0:0:0:
228,128,300215,1,2,0:0:0:0:
188,64,300274,1,2,0:0:0:0:
188,64,300333,1,2,0:0:0:0:
188,64,300392,1,2,0:0:0:0:
188,64,300451,1,2,0:0:0:0:
188,64,300509,1,2,0:0:0:0:
264,144,300568,1,0,0:0:0:0:
160,116,300656,1,0,0:0:0:0:
272,136,300745,1,0,0:0:0:0:
272,136,300833,1,2,0:0:0:0:
272,136,300921,1,0,0:0:0:0:
148,76,301009,1,2,0:0:0:0:
192,128,301186,1,0,0:0:0:0:
192,128,301245,1,0,0:0:0:0:
192,128,301304,1,0,0:0:0:0:
192,136,301362,1,0,0:0:0:0:
192,136,301451,1,0,0:0:0:0:
364,144,301539,1,0,0:0:0:0:
136,136,301715,1,2,0:0:0:0:
136,136,301774,1,0,0:0:0:0:
136,136,301833,1,0,0:0:0:0:
136,136,301892,1,0,0:0:0:0:
136,136,301951,1,0,0:0:0:0:
136,136,302009,1,0,0:0:0:0:
136,136,302068,1,2,0:0:0:0:
220,128,302245,1,2,0:0:0:0:
224,128,302421,1,2,0:0:0:0:
224,128,302480,1,2,0:0:0:0:
224,128,302539,1,2,0:0:0:0:
224,128,302598,1,2,0:0:0:0:
224,128,302656,1,2,0:0:0:0:
224,128,302715,1,2,0:0:0:0:
280,128,302774,1,0,0:0:0:0:
280,132,302862,1,0,0:0:0:0:
360,88,302951,1,2,0:0:0:0:
360,88,303039,1,2,0:0:0:0:
360,88,303127,1,0,0:0:0:0:
264,136,303215,1,0,0:0:0:0:
264,136,303304,1,0,0:0:0:0:
264,136,303392,1,0,0:0:0:0:
264,168,303480,1,2,0:0:0:0:
264,168,303568,1,2,0:0:0:0:
264,168,303656,1,0,0:0:0:0:
264,168,303745,1,0,0:0:0:0:
264,168,303833,1,2,0:0:0:0:
264,176,303921,1,0,0:0:0:0:
264,176,304009,1,2,0:0:0:0:
264,176,304098,1,2,0:0:0:0:
232,160,304186,1,0,0:0:0:0:
232,160,304245,1,0,0:0:0:0:
232,160,304304,1,0,0:0:0:0:
232,160,304362,1,2,0:0:0:0:
232,160,304421,1,0,0:0:0:0:
232,160,304480,1,0,0:0:0:0:
232,160,304539,1,2,0:0:0:0:
152,144,304583,1,2,0:0:0:0:
40,144,304627,1,2,0:0:0:0:
152,144,304715,1,0,0:0:0:0:
40,144,304804,1,0,0:0:0:0:
152,144,304892,1,6,0:0:0:0:
92,172,305245,1,2,0:0:0:0:
92,172,305421,1,0,0:0:0:0:
92,172,305509,1,0,0:0:0:0:
92,172,305598,1,2,0:0:0:0:
92,172,305774,1,0,0:0:0:0:
92,172,305951,1,2,0:0:0:0:
96,168,306304,1,0,0:0:0:0:
96,168,306393,1,2,0:0:0:0:
96,168,306481,1,0,0:0:0:0:
112,120,306656,1,2,0:0:0:0:
128,120,306833,1,0,0:0:0:0:
128,120,306921,1,2,0:0:0:0:
128,120,307009,1,2,0:0:0:0:
128,120,307186,1,0,0:0:0:0:
128,120,307362,1,2,0:0:0:0:
224,160,307715,1,0,0:0:0:0:
144,104,307804,1,0,0:0:0:0:
144,104,307892,1,0,0:0:0:0:
144,104,308068,1,2,0:0:0:0:
144,104,308245,1,0,0:0:0:0:
144,104,308333,1,0,0:0:0:0:
144,104,308421,1,2,0:0:0:0:
144,104,308509,1,2,0:0:0:0:
144,104,308598,1,0,0:0:0:0:
148,100,308774,1,2,0:0:0:0:
148,100,308951,1,0,0:0:0:0:
148,100,309039,1,2,0:0:0:0:
148,100,309127,1,2,0:0:0:0:
148,100,309215,1,0,0:0:0:0:
148,100,309304,1,0,0:0:0:0:
192,116,309480,1,2,0:0:0:0:
180,112,309656,1,0,0:0:0:0:
180,112,309745,1,0,0:0:0:0:
180,112,309833,1,2,0:0:0:0:
180,112,309921,1,2,0:0:0:0:
180,112,310009,1,0,0:0:0:0:
128,104,310098,1,0,0:0:0:0:
132,104,310186,1,2,0:0:0:0:
180,136,310362,1,0,0:0:0:0:
180,132,310539,1,6,0:0:0:0:
208,180,310892,1,2,0:0:0:0:
104,164,311068,1,2,0:0:0:0:
104,164,311156,1,0,0:0:0:0:
104,164,311245,1,2,0:0:0:0:
104,164,311421,1,0,0:0:0:0:
104,164,311598,1,2,0:0:0:0:
80,148,311774,1,2,0:0:0:0:
80,148,311862,1,2,0:0:0:0:
80,148,311951,1,0,0:0:0:0:
80,148,312304,1,2,0:0:0:0:
80,148,312480,1,0,0:0:0:0:
80,148,312656,1,0,0:0:0:0:
80,148,312745,1,2,0:0:0:0:
80,148,312833,1,0,0:0:0:0:
80,148,312921,1,0,0:0:0:0:
80,148,313009,1,2,0:0:0:0:
144,112,313186,1,2,0:0:0:0:
208,144,313362,1,0,0:0:0:0:
208,144,313451,1,0,0:0:0:0:
208,144,313539,1,0,0:0:0:0:
208,144,313715,1,2,0:0:0:0:
128,136,313804,1,2,0:0:0:0:
128,136,313849,1,2,0:0:0:0:
128,136,313893,1,0,0:0:0:0:
96,148,313980,1,0,0:0:0:0:
96,148,314068,1,2,0:0:0:0:
104,144,314156,1,0,0:0:0:0:
104,144,314245,1,0,0:0:0:0:
168,116,314421,1,2,0:0:0:0:
164,144,314598,1,0,0:0:0:0:
164,144,314686,1,0,0:0:0:0:
164,144,314774,1,2,0:0:0:0:
164,144,314862,1,2,0:0:0:0:
164,144,314951,1,0,0:0:0:0:
220,88,315127,1,2,0:0:0:0:
220,88,315304,1,0,0:0:0:0:
220,88,315392,1,2,0:0:0:0:
220,88,315480,1,0,0:0:0:0:
208,68,315568,1,2,0:0:0:0:
208,68,315656,1,0,0:0:0:0:
84,120,315745,1,0,0:0:0:0:
84,120,315833,1,2,0:0:0:0:
160,8,316009,1,0,0:0:0:0:
152,144,316186,1,6,0:0:0:0:
92,172,316539,1,2,0:0:0:0:
92,172,316715,1,0,0:0:0:0:
92,172,316803,1,0,0:0:0:0:
92,172,316892,1,2,0:0:0:0:
92,172,317068,1,0,0:0:0:0:
92,172,317245,1,2,0:0:0:0:
96,168,317598,1,0,0:0:0:0:
96,168,317687,1,2,0:0:0:0:
96,168,317775,1,0,0:0:0:0:
112,120,317950,1,2,0:0:0:0:
128,120,318127,1,0,0:0:0:0:
128,120,318215,1,2,0:0:0:0:
128,120,318303,1,2,0:0:0:0:
128,120,318480,1,0,0:0:0:0:
128,120,318656,1,2,0:0:0:0:
224,160,319009,1,0,0:0:0:0:
144,104,319098,1,0,0:0:0:0:
144,104,319186,1,0,0:0:0:0:
144,104,319362,1,2,0:0:0:0:
144,104,319539,1,0,0:0:0:0:
144,104,319627,1,0,0:0:0:0:
144,104,319715,1,2,0:0:0:0:
144,104,319803,1,2,0:0:0:0:
144,104,319892,1,0,0:0:0:0:
148,100,320068,1,2,0:0:0:0:
148,100,320245,1,0,0:0:0:0:
148,100,320333,1,2,0:0:0:0:
148,100,320421,1,2,0:0:0:0:
148,100,320509,1,0,0:0:0:0:
148,100,320598,1,0,0:0:0:0:
192,116,320774,1,2,0:0:0:0:
180,112,320950,1,0,0:0:0:0:
180,112,321039,1,0,0:0:0:0:
180,112,321127,1,2,0:0:0:0:
180,112,321215,1,2,0:0:0:0:
180,112,321303,1,0,0:0:0:0:
132,104,321480,1,2,0:0:0:0:
180,136,321656,1,0,0:0:0:0:
180,132,321833,1,6,0:0:0:0:
208,180,322186,1,2,0:0:0:0:
104,164,322362,1,2,0:0:0:0:
104,164,322450,1,0,0:0:0:0:
104,164,322539,1,2,0:0:0:0:
104,164,322715,1,0,0:0:0:0:
104,164,322892,1,2,0:0:0:0:
80,148,323068,1,2,0:0:0:0:
80,148,323156,1,2,0:0:0:0:
80,148,323245,1,0,0:0:0:0:
80,148,323598,1,2,0:0:0:0:
80,148,323774,1,0,0:0:0:0:
80,148,323950,1,0,0:0:0:0:
80,148,324039,1,2,0:0:0:0:
80,148,324127,1,0,0:0:0:0:
80,148,324215,1,0,0:0:0:0:
80,148,324303,1,2,0:0:0:0:
144,112,324480,1,2,0:0:0:0:
208,144,324656,1,0,0:0:0:0:
208,144,324745,1,0,0:0:0:0:
208,144,324833,1,0,0:0:0:0:
208,144,325009,1,2,0:0:0:0:
128,136,325187,1,0,0:0:0:0:
96,148,325274,1,0,0:0:0:0:
96,148,325362,1,2,0:0:0:0:
104,144,325450,1,0,0:0:0:0:
104,144,325539,1,0,0:0:0:0:
168,116,325715,1,2,0:0:0:0:
164,144,325892,1,0,0:0:0:0:
164,144,325980,1,0,0:0:0:0:
164,144,326068,1,2,0:0:0:0:
164,144,326156,1,2,0:0:0:0:
164,144,326245,1,0,0:0:0:0:
220,88,326421,1,2,0:0:0:0:
220,88,326598,1,0,0:0:0:0:
220,88,326686,1,2,0:0:0:0:
220,88,326774,1,0,0:0:0:0:
208,68,326862,1,2,0:0:0:0:
208,68,326950,1,2,0:0:0:0:
84,120,327039,1,0,0:0:0:0:
84,120,327127,1,2,0:0:0:0:
160,8,327303,1,0,0:0:0:0:
120,124,327480,1,6,0:0:0:0:
176,108,328186,1,0,0:0:0:0:
176,108,328892,1,0,0:0:0:0:
176,108,328980,1,2,0:0:0:0:
176,108,329068,1,0,0:0:0:0:
176,108,329598,1,0,0:0:0:0:
176,108,330304,1,2,0:0:0:0:
180,112,330480,1,0,0:0:0:0:
180,112,330568,1,0,0:0:0:0:
180,112,330656,1,2,0:0:0:0:
176,108,330833,1,0,0:0:0:0:
52,112,330921,1,2,0:0:0:0:
68,112,331009,1,0,0:0:0:0:
68,112,331098,1,0,0:0:0:0:
68,112,331186,1,0,0:0:0:0:
68,112,331362,1,2,0:0:0:0:
68,112,331539,1,0,0:0:0:0:
68,112,331627,1,0,0:0:0:0:
189,55,331715,1,2,0:0:0:0:
189,55,331759,1,0,0:0:0:0:
189,55,331804,1,2,0:0:0:0:
68,112,331892,1,0,0:0:0:0:
144,96,332068,1,2,0:0:0:0:
288,144,332245,1,0,0:0:0:0:
288,144,332333,1,0,0:0:0:0:
288,144,332421,1,2,0:0:0:0:
288,144,332509,1,0,0:0:0:0:
288,144,332598,1,2,0:0:0:0:
64,144,332774,1,2,0:0:0:0:
72,144,333127,1,4,0:0:0:0:
124,160,334186,1,0,0:0:0:0:
124,160,335245,1,2,0:0:0:0:
132,160,335951,1,0,0:0:0:0:
224,152,336215,1,0,0:0:0:0:
224,152,336304,1,2,0:0:0:0:
208,164,336480,1,0,0:0:0:0:
208,164,336568,1,2,0:0:0:0:
208,164,336656,1,0,0:0:0:0:
208,164,336745,1,0,0:0:0:0:
208,164,336833,1,0,0:0:0:0:
88,128,337009,1,2,0:0:0:0:
112,140,337186,1,2,0:0:0:0:
112,140,337274,1,0,0:0:0:0:
168,144,337362,1,2,0:0:0:0:
168,144,337451,1,0,0:0:0:0:
168,144,337539,1,0,0:0:0:0:
168,136,337715,1,2,0:0:0:0:
116,132,337892,1,0,0:0:0:0:
116,132,337980,1,2,0:0:0:0:
116,132,338068,1,0,0:0:0:0:
116,132,338156,1,2,0:0:0:0:
120,144,338245,1,0,0:0:0:0:
128,140,338421,1,0,0:0:0:0:
176,128,338774,1,6,0:0:0:0:
48,136,339480,1,0,0:0:0:0:
192,120,340186,1,0,0:0:0:0:
272,144,340274,1,2,0:0:0:0:
272,144,340362,1,0,0:0:0:0:
120,128,340892,1,0,0:0:0:0:
176,108,341598,1,0,0:0:0:0:
180,112,341774,1,0,0:0:0:0:
180,112,341862,1,0,0:0:0:0:
180,112,341950,1,2,0:0:0:0:
176,108,342127,1,0,0:0:0:0:
52,112,342215,1,0,0:0:0:0:
68,112,342303,1,2,0:0:0:0:
68,112,342392,1,0,0:0:0:0:
68,112,342480,1,0,0:0:0:0:
68,112,342656,1,2,0:0:0:0:
68,112,342833,1,0,0:0:0:0:
68,112,342921,1,0,0:0:0:0:
68,112,343009,1,2,0:0:0:0:
68,112,343098,1,2,0:0:0:0:
68,112,343186,1,0,0:0:0:0:
144,96,343362,1,0,0:0:0:0:
288,144,343539,1,0,0:0:0:0:
288,144,343627,1,0,0:0:0:0:
288,144,343715,1,2,0:0:0:0:
288,144,343803,1,2,0:0:0:0:
288,144,343892,1,2,0:0:0:0:
64,144,344068,1,2,0:0:0:0:
72,144,344421,1,4,0:0:0:0:
124,160,345480,1,0,0:0:0:0:
124,160,346539,1,2,0:0:0:0:
132,160,347245,1,0,0:0:0:0:
224,152,347509,1,0,0:0:0:0:
224,152,347598,1,2,0:0:0:0:
208,164,347774,1,0,0:0:0:0:
208,164,347862,1,2,0:0:0:0:
208,164,347950,1,0,0:0:0:0:
208,164,348039,1,0,0:0:0:0:
208,164,348127,1,0,0:0:0:0:
88,128,348303,1,2,0:0:0:0:
112,140,348480,1,0,0:0:0:0:
112,140,348568,1,2,0:0:0:0:
168,144,348656,1,2,0:0:0:0:
168,144,348745,1,0,0:0:0:0:
168,144,348833,1,0,0:0:0:0:
168,136,349009,1,2,0:0:0:0:
116,132,349186,1,0,0:0:0:0:
116,132,349274,1,2,0:0:0:0:
116,132,349362,1,0,0:0:0:0:
116,132,349450,1,2,0:0:0:0:
120,144,349539,1,0,0:0:0:0:
128,140,349715,1,0,0:0:0:0:
176,128,350068,1,4,0:0:0:0:
256,192,351215,12,0,353245,0:0:0:0:
256,192,353774,12,0,355362,0:0:0:0:
172,88,355539,6,0,L|136:104,7,35
244,144,356333,5,4,0:0:0:0:
256,192,358802,12,0,361007,0:0:0:0:
256,192,361096,12,0,362066,0:0:0:0:
