osu file format v14

[General]
AudioFilename: audio.mp3
AudioLeadIn: 0
PreviewTime: 118085
Countdown: 0
SampleSet: Normal
StackLeniency: 0.8
Mode: 3
LetterboxInBreaks: 0
SpecialStyle: 1
WidescreenStoryboard: 0

[Editor]
DistanceSpacing: 0.8
BeatDivisor: 4
GridSize: 32
TimelineZoom: 1.5

[Metadata]
Title:TENDER KISS
TitleUnicode:TENDER KISS
Artist:Spy47
ArtistUnicode:Spy47
Creator:Herkkupala
Version:Tender Treat
Source:Ticket To Sweetland
Tags:nursery rhyme ナーサリィ☆ライム ave;new feat.佐倉紗織 true my heart j core happy hardcore remix arrange
BeatmapID:2847133
BeatmapSetID:859429

[Difficulty]
HPDrainRate:8.5
CircleSize:4
OverallDifficulty:8.5
ApproachRate:5
SliderMultiplier:1.4
SliderTickRate:1

[Events]
//Background and Video events
0,0,"bg.png",0,0
//Break Periods
//Storyboard Layer 0 (Background)
//Storyboard Layer 1 (Fail)
//Storyboard Layer 2 (Pass)
//Storyboard Layer 3 (Foreground)
//Storyboard Layer 4 (Overlay)
//Storyboard Sound Samples

[TimingPoints]
176,309.410727,4,1,0,25,1,0
176,-100,4,1,0,25,0,0
261164,326.086957,4,1,0,25,1,0
261164,-95.2380952380952,4,1,0,25,0,0
262142,335.195531,4,1,0,25,1,0
262142,-92.5925925925926,4,1,0,25,0,0
262813,344.827586,4,1,0,25,1,0
262813,-90.0900900900901,4,1,0,25,0,0
263502,357.142857,4,1,0,25,1,0
263502,-86.9565217391304,4,1,0,25,0,0
264217,370.37037,4,1,0,25,1,0
264217,-83.3333333333333,4,1,0,25,0,0
264957,384.615385,4,1,0,25,1,0
264957,-80.6451612903226,4,1,0,25,0,0
265342,375,4,1,0,25,1,0
265342,-82.6446280991736,4,1,0,25,0,0
265904,387.096774,4,1,0,25,1,0
265904,-80,4,1,0,25,0,0
266098,413.793103,4,1,0,25,1,0
266098,-74.6268656716418,4,1,0,25,0,0
266512,400,4,1,0,25,1,0
266512,-77.5193798449612,4,1,0,25,0,0
266912,413.793103,4,1,0,25,1,0
266912,-74.6268656716418,4,1,0,25,0,0
267739,428.571429,4,1,0,25,1,0
267739,-71.9424460431655,4,1,0,25,0,0
268382,444.444444,4,1,0,25,1,0
268382,-69.4444444444444,4,1,0,25,0,0
269049,461.538462,4,1,0,25,1,0
269049,-67.1140939597315,4,1,0,25,0,0
269972,468.75,4,1,0,25,1,0
269972,-65.7894736842105,4,1,0,25,0,0
270206,480,4,1,0,25,1,0
270206,-64.5161290322581,4,1,0,25,0,0
270686,491.803279,4,1,0,25,1,0
270686,-62.8930817610063,4,1,0,25,0,0
271424,500,4,1,0,25,1,0
271424,-61.7283950617284,4,1,0,25,0,0
271674,508.474576,4,1,0,25,1,0
271674,-60.9756097560976,4,1,0,25,0,0
272182,521.73913,4,1,0,25,1,0
272182,-59.1715976331361,4,1,0,25,0,0
272704,545.454545,4,1,0,25,1,0
272704,-56.8181818181818,4,1,0,25,0,0

[HitObjects]
64,192,2032,5,0,0:0:0:0:
448,192,2032,1,0,0:0:0:0:
192,192,2341,1,0,0:0:0:0:
448,192,2419,1,0,0:0:0:0:
192,192,2496,1,0,0:0:0:0:
320,192,2573,1,0,0:0:0:0:
64,192,2651,1,0,0:0:0:0:
320,192,2728,1,0,0:0:0:0:
64,192,2805,1,0,0:0:0:0:
192,192,2805,1,0,0:0:0:0:
320,192,2883,1,0,0:0:0:0:
448,192,2883,1,0,0:0:0:0:
64,192,2960,1,0,0:0:0:0:
192,192,2960,1,0,0:0:0:0:
448,192,3038,1,0,0:0:0:0:
448,192,3115,1,0,0:0:0:0:
64,192,3192,1,0,0:0:0:0:
192,192,3192,1,0,0:0:0:0:
320,192,3270,128,0,3424:0:0:0:0:
448,192,3270,1,0,0:0:0:0:
320,192,3579,128,0,3734:0:0:0:0:
192,192,3811,128,0,3966:0:0:0:0:
64,192,4043,128,0,4198:0:0:0:0:
448,192,4275,128,0,4353:0:0:0:0:
320,192,4430,128,0,4507:0:0:0:0:
64,192,4507,1,0,0:0:0:0:
192,192,4585,1,0,0:0:0:0:
64,192,4662,1,0,0:0:0:0:
320,192,4817,128,0,4971:0:0:0:0:
192,192,5049,128,0,5203:0:0:0:0:
64,192,5281,128,0,5435:0:0:0:0:
448,192,5435,1,0,0:0:0:0:
320,192,5513,1,0,0:0:0:0:
448,192,5590,1,0,0:0:0:0:
320,192,5668,1,0,0:0:0:0:
64,192,5745,1,0,0:0:0:0:
192,192,5745,1,0,0:0:0:0:
320,192,5822,1,0,0:0:0:0:
64,192,5900,1,0,0:0:0:0:
448,192,5977,1,0,0:0:0:0:
192,192,6054,1,0,0:0:0:0:
320,192,6054,1,0,0:0:0:0:
64,192,6132,1,0,0:0:0:0:
448,192,6209,1,0,0:0:0:0:
64,192,6286,1,0,0:0:0:0:
192,192,6286,1,0,0:0:0:0:
320,192,6364,1,0,0:0:0:0:
192,192,6441,1,0,0:0:0:0:
320,192,6518,1,0,0:0:0:0:
448,192,6518,1,0,0:0:0:0:
64,192,6596,1,0,0:0:0:0:
448,192,6673,1,0,0:0:0:0:
192,192,6750,1,0,0:0:0:0:
320,192,6750,1,0,0:0:0:0:
64,192,6828,1,0,0:0:0:0:
192,192,6905,1,0,0:0:0:0:
448,192,6905,1,0,0:0:0:0:
320,192,6983,1,0,0:0:0:0:
448,192,7060,1,0,0:0:0:0:
320,192,7137,1,0,0:0:0:0:
64,192,7215,1,0,0:0:0:0:
192,192,7292,1,0,0:0:0:0:
320,192,7292,1,0,0:0:0:0:
448,192,7369,1,0,0:0:0:0:
64,192,7447,1,0,0:0:0:0:
320,192,7524,1,0,0:0:0:0:
448,192,7524,1,0,0:0:0:0:
192,192,7601,1,0,0:0:0:0:
320,192,7679,1,0,0:0:0:0:
64,192,7756,1,0,0:0:0:0:
192,192,7756,1,0,0:0:0:0:
448,192,7833,1,0,0:0:0:0:
64,192,7911,1,0,0:0:0:0:
192,192,7911,1,0,0:0:0:0:
320,192,7911,1,0,0:0:0:0:
64,192,8220,1,0,0:0:0:0:
192,192,8220,1,0,0:0:0:0:
320,192,8298,1,0,0:0:0:0:
448,192,8298,1,0,0:0:0:0:
192,192,8375,1,0,0:0:0:0:
448,192,8452,1,0,0:0:0:0:
64,192,8530,1,0,0:0:0:0:
320,192,8530,1,0,0:0:0:0:
192,192,8607,1,0,0:0:0:0:
320,192,8684,1,0,0:0:0:0:
192,192,8762,1,0,0:0:0:0:
448,192,8762,1,0,0:0:0:0:
64,192,8839,1,0,0:0:0:0:
320,192,8916,1,0,0:0:0:0:
64,192,8994,1,0,0:0:0:0:
192,192,8994,1,0,0:0:0:0:
448,192,9071,1,0,0:0:0:0:
192,192,9148,1,0,0:0:0:0:
320,192,9148,1,0,0:0:0:0:
64,192,9226,1,0,0:0:0:0:
320,192,9303,1,0,0:0:0:0:
448,192,9303,1,0,0:0:0:0:
192,192,9380,1,0,0:0:0:0:
64,192,9458,1,0,0:0:0:0:
448,192,9458,1,0,0:0:0:0:
320,192,9535,1,0,0:0:0:0:
448,192,9613,1,0,0:0:0:0:
320,192,9690,1,0,0:0:0:0:
64,192,9767,1,0,0:0:0:0:
192,192,9767,1,0,0:0:0:0:
448,192,9845,1,0,0:0:0:0:
192,192,9922,1,0,0:0:0:0:
320,192,9999,1,0,0:0:0:0:
448,192,9999,1,0,0:0:0:0:
64,192,10077,1,0,0:0:0:0:
320,192,10154,1,0,0:0:0:0:
64,192,10231,1,0,0:0:0:0:
192,192,10231,1,0,0:0:0:0:
448,192,10309,1,0,0:0:0:0:
320,192,10386,1,0,0:0:0:0:
192,192,10463,1,0,0:0:0:0:
320,192,10541,1,0,0:0:0:0:
192,192,10618,1,0,0:0:0:0:
320,192,10695,1,0,0:0:0:0:
448,192,10695,1,0,0:0:0:0:
64,192,10773,1,0,0:0:0:0:
192,192,10773,1,0,0:0:0:0:
320,192,10850,1,0,0:0:0:0:
64,192,10928,1,0,0:0:0:0:
192,192,11005,1,0,0:0:0:0:
448,192,11005,1,0,0:0:0:0:
320,192,11082,1,0,0:0:0:0:
192,192,11160,1,0,0:0:0:0:
64,192,11237,1,0,0:0:0:0:
320,192,11237,1,0,0:0:0:0:
448,192,11314,1,0,0:0:0:0:
192,192,11392,1,0,0:0:0:0:
320,192,11469,1,0,0:0:0:0:
448,192,11469,1,0,0:0:0:0:
64,192,11546,1,0,0:0:0:0:
192,192,11624,1,0,0:0:0:0:
320,192,11624,1,0,0:0:0:0:
448,192,11701,1,0,0:0:0:0:
64,192,11778,1,0,0:0:0:0:
192,192,11778,1,0,0:0:0:0:
320,192,11856,1,0,0:0:0:0:
64,192,11933,1,0,0:0:0:0:
448,192,11933,1,0,0:0:0:0:
192,192,12010,1,0,0:0:0:0:
64,192,12088,1,0,0:0:0:0:
192,192,12165,1,0,0:0:0:0:
320,192,12243,1,0,0:0:0:0:
448,192,12243,1,0,0:0:0:0:
192,192,12320,1,0,0:0:0:0:
320,192,12397,1,0,0:0:0:0:
192,192,12475,1,0,0:0:0:0:
448,192,12475,1,0,0:0:0:0:
64,192,12552,1,0,0:0:0:0:
320,192,12629,1,0,0:0:0:0:
64,192,12707,1,0,0:0:0:0:
192,192,12707,1,0,0:0:0:0:
448,192,12784,1,0,0:0:0:0:
64,192,12861,1,0,0:0:0:0:
192,192,12861,1,0,0:0:0:0:
320,192,12939,1,0,0:0:0:0:
448,192,12939,1,0,0:0:0:0:
64,192,13016,1,0,0:0:0:0:
192,192,13016,1,0,0:0:0:0:
320,192,13093,1,0,0:0:0:0:
448,192,13093,1,0,0:0:0:0:
64,192,13171,1,0,0:0:0:0:
192,192,13171,1,0,0:0:0:0:
320,192,13248,1,0,0:0:0:0:
448,192,13248,1,0,0:0:0:0:
192,192,13325,1,0,0:0:0:0:
448,192,13403,1,0,0:0:0:0:
64,192,13480,1,0,0:0:0:0:
320,192,13480,1,0,0:0:0:0:
192,192,13558,1,0,0:0:0:0:
320,192,13635,1,0,0:0:0:0:
192,192,13712,1,0,0:0:0:0:
448,192,13712,1,0,0:0:0:0:
64,192,13790,1,0,0:0:0:0:
320,192,13867,1,0,0:0:0:0:
64,192,13944,1,0,0:0:0:0:
192,192,13944,1,0,0:0:0:0:
448,192,14022,1,0,0:0:0:0:
192,192,14099,1,0,0:0:0:0:
320,192,14099,1,0,0:0:0:0:
64,192,14176,1,0,0:0:0:0:
320,192,14254,1,0,0:0:0:0:
448,192,14254,1,0,0:0:0:0:
192,192,14331,1,0,0:0:0:0:
64,192,14408,1,0,0:0:0:0:
448,192,14408,1,0,0:0:0:0:
320,192,14486,1,0,0:0:0:0:
448,192,14563,1,0,0:0:0:0:
320,192,14640,1,0,0:0:0:0:
64,192,14718,1,0,0:0:0:0:
192,192,14718,1,0,0:0:0:0:
448,192,14795,1,0,0:0:0:0:
192,192,14873,1,0,0:0:0:0:
320,192,14950,1,0,0:0:0:0:
448,192,14950,1,0,0:0:0:0:
64,192,15027,1,0,0:0:0:0:
320,192,15105,1,0,0:0:0:0:
64,192,15182,1,0,0:0:0:0:
192,192,15182,1,0,0:0:0:0:
448,192,15259,1,0,0:0:0:0:
320,192,15337,1,0,0:0:0:0:
192,192,15414,1,0,0:0:0:0:
320,192,15491,1,0,0:0:0:0:
192,192,15569,1,0,0:0:0:0:
320,192,15646,1,0,0:0:0:0:
448,192,15646,1,0,0:0:0:0:
64,192,15723,1,0,0:0:0:0:
192,192,15723,1,0,0:0:0:0:
320,192,15801,1,0,0:0:0:0:
64,192,15878,1,0,0:0:0:0:
192,192,15955,1,0,0:0:0:0:
448,192,15955,1,0,0:0:0:0:
320,192,16033,1,0,0:0:0:0:
192,192,16110,1,0,0:0:0:0:
64,192,16188,1,0,0:0:0:0:
320,192,16188,1,0,0:0:0:0:
448,192,16265,1,0,0:0:0:0:
192,192,16342,1,0,0:0:0:0:
320,192,16420,1,0,0:0:0:0:
448,192,16420,1,0,0:0:0:0:
64,192,16497,1,0,0:0:0:0:
192,192,16574,1,0,0:0:0:0:
320,192,16574,1,0,0:0:0:0:
448,192,16652,1,0,0:0:0:0:
64,192,16729,1,0,0:0:0:0:
192,192,16729,1,0,0:0:0:0:
320,192,16806,1,0,0:0:0:0:
64,192,16884,1,0,0:0:0:0:
448,192,16884,1,0,0:0:0:0:
192,192,16961,1,0,0:0:0:0:
320,192,17038,1,0,0:0:0:0:
448,192,17038,1,0,0:0:0:0:
192,192,17116,1,0,0:0:0:0:
64,192,17193,1,0,0:0:0:0:
448,192,17193,1,0,0:0:0:0:
192,192,17270,1,0,0:0:0:0:
320,192,17348,1,0,0:0:0:0:
448,192,17348,1,0,0:0:0:0:
192,192,17425,1,0,0:0:0:0:
64,192,17503,1,0,0:0:0:0:
448,192,17503,1,0,0:0:0:0:
192,192,17580,1,0,0:0:0:0:
320,192,17580,1,0,0:0:0:0:
64,192,17657,1,0,0:0:0:0:
448,192,17657,1,0,0:0:0:0:
192,192,17735,1,0,0:0:0:0:
320,192,17735,1,0,0:0:0:0:
64,192,17812,1,0,0:0:0:0:
448,192,17812,1,0,0:0:0:0:
320,192,17967,1,0,0:0:0:0:
192,192,17992,1,0,0:0:0:0:
64,192,18121,1,0,0:0:0:0:
320,192,18121,1,0,0:0:0:0:
448,192,18121,1,0,0:0:0:0:
192,192,18199,1,0,0:0:0:0:
320,192,18276,1,0,0:0:0:0:
448,192,18276,1,0,0:0:0:0:
64,192,18353,1,0,0:0:0:0:
192,192,18353,1,0,0:0:0:0:
320,192,18431,1,0,0:0:0:0:
448,192,18431,1,0,0:0:0:0:
192,192,18508,1,0,0:0:0:0:
64,192,18585,1,0,0:0:0:0:
192,192,18663,1,0,0:0:0:0:
448,192,18663,1,0,0:0:0:0:
320,192,18740,1,0,0:0:0:0:
64,192,18817,1,0,0:0:0:0:
192,192,18895,1,0,0:0:0:0:
448,192,18895,1,0,0:0:0:0:
320,192,18972,1,0,0:0:0:0:
192,192,19050,1,0,0:0:0:0:
448,192,19050,1,0,0:0:0:0:
320,192,19127,1,0,0:0:0:0:
64,192,19204,1,0,0:0:0:0:
192,192,19204,1,0,0:0:0:0:
320,192,19282,1,0,0:0:0:0:
448,192,19282,1,0,0:0:0:0:
64,192,19359,1,0,0:0:0:0:
192,192,19359,1,0,0:0:0:0:
448,192,19436,1,0,0:0:0:0:
64,192,19514,1,0,0:0:0:0:
192,192,19591,1,0,0:0:0:0:
320,192,19668,1,0,0:0:0:0:
448,192,19668,1,0,0:0:0:0:
192,192,19746,1,0,0:0:0:0:
64,192,19823,1,0,0:0:0:0:
320,192,19900,1,0,0:0:0:0:
64,192,19978,1,0,0:0:0:0:
192,192,19978,1,0,0:0:0:0:
320,192,20055,1,0,0:0:0:0:
448,192,20055,1,0,0:0:0:0:
64,192,20132,1,0,0:0:0:0:
320,192,20210,1,0,0:0:0:0:
448,192,20210,1,0,0:0:0:0:
64,192,20287,1,0,0:0:0:0:
192,192,20287,1,0,0:0:0:0:
320,192,20365,1,0,0:0:0:0:
192,192,20442,1,0,0:0:0:0:
64,192,20519,1,0,0:0:0:0:
448,192,20519,1,0,0:0:0:0:
192,192,20597,1,0,0:0:0:0:
320,192,20597,1,0,0:0:0:0:
448,192,20674,1,0,0:0:0:0:
64,192,20751,1,0,0:0:0:0:
192,192,20751,1,0,0:0:0:0:
320,192,20829,1,0,0:0:0:0:
64,192,20906,1,0,0:0:0:0:
192,192,20906,1,0,0:0:0:0:
320,192,20983,1,0,0:0:0:0:
448,192,20983,1,0,0:0:0:0:
64,192,21061,1,0,0:0:0:0:
192,192,21138,1,0,0:0:0:0:
448,192,21138,1,0,0:0:0:0:
320,192,21215,1,0,0:0:0:0:
64,192,21293,1,0,0:0:0:0:
192,192,21370,1,0,0:0:0:0:
448,192,21370,1,0,0:0:0:0:
320,192,21447,1,0,0:0:0:0:
192,192,21525,1,0,0:0:0:0:
448,192,21525,1,0,0:0:0:0:
320,192,21602,1,0,0:0:0:0:
64,192,21680,1,0,0:0:0:0:
192,192,21680,1,0,0:0:0:0:
320,192,21757,1,0,0:0:0:0:
448,192,21757,1,0,0:0:0:0:
64,192,21834,1,0,0:0:0:0:
192,192,21834,1,0,0:0:0:0:
448,192,21912,1,0,0:0:0:0:
320,192,21989,1,0,0:0:0:0:
64,192,22066,1,0,0:0:0:0:
192,192,22066,1,0,0:0:0:0:
320,192,22144,1,0,0:0:0:0:
448,192,22144,1,0,0:0:0:0:
192,192,22221,1,0,0:0:0:0:
448,192,22298,1,0,0:0:0:0:
320,192,22376,1,0,0:0:0:0:
64,192,22453,1,0,0:0:0:0:
192,192,22453,1,0,0:0:0:0:
448,192,22530,1,0,0:0:0:0:
64,192,22608,1,0,0:0:0:0:
320,192,22608,1,0,0:0:0:0:
192,192,22685,1,0,0:0:0:0:
320,192,22762,1,0,0:0:0:0:
448,192,22762,1,0,0:0:0:0:
64,192,22840,1,0,0:0:0:0:
192,192,22840,1,0,0:0:0:0:
320,192,22917,1,0,0:0:0:0:
448,192,22917,1,0,0:0:0:0:
64,192,22995,1,0,0:0:0:0:
192,192,22995,1,0,0:0:0:0:
320,192,23072,1,0,0:0:0:0:
448,192,23072,1,0,0:0:0:0:
64,192,23149,1,0,0:0:0:0:
192,192,23227,1,0,0:0:0:0:
448,192,23227,1,0,0:0:0:0:
320,192,23304,1,0,0:0:0:0:
64,192,23381,1,0,0:0:0:0:
192,192,23381,1,0,0:0:0:0:
320,192,23459,1,0,0:0:0:0:
448,192,23459,1,0,0:0:0:0:
64,192,23536,1,0,0:0:0:0:
320,192,23613,1,0,0:0:0:0:
448,192,23613,1,0,0:0:0:0:
64,192,23691,1,0,0:0:0:0:
192,192,23691,1,0,0:0:0:0:
448,192,23768,1,0,0:0:0:0:
64,192,23845,1,0,0:0:0:0:
192,192,23845,1,0,0:0:0:0:
320,192,23923,1,0,0:0:0:0:
64,192,24000,1,0,0:0:0:0:
192,192,24000,1,0,0:0:0:0:
448,192,24077,1,0,0:0:0:0:
64,192,24155,1,0,0:0:0:0:
320,192,24155,1,0,0:0:0:0:
192,192,24232,1,0,0:0:0:0:
448,192,24232,1,0,0:0:0:0:
64,192,24310,1,0,0:0:0:0:
320,192,24310,1,0,0:0:0:0:
192,192,24387,1,0,0:0:0:0:
448,192,24464,1,0,0:0:0:0:
64,192,24542,1,0,0:0:0:0:
192,192,24542,1,0,0:0:0:0:
320,192,24619,1,0,0:0:0:0:
448,192,24619,1,0,0:0:0:0:
64,192,24696,1,0,0:0:0:0:
192,192,24774,1,0,0:0:0:0:
320,192,24851,1,0,0:0:0:0:
448,192,24851,1,0,0:0:0:0:
64,192,24928,1,0,0:0:0:0:
192,192,24928,1,0,0:0:0:0:
320,192,25006,1,0,0:0:0:0:
64,192,25083,1,0,0:0:0:0:
192,192,25083,1,0,0:0:0:0:
448,192,25160,1,0,0:0:0:0:
64,192,25238,1,0,0:0:0:0:
320,192,25238,1,0,0:0:0:0:
192,192,25315,1,0,0:0:0:0:
448,192,25392,1,0,0:0:0:0:
64,192,25470,1,0,0:0:0:0:
320,192,25470,1,0,0:0:0:0:
192,192,25547,1,0,0:0:0:0:
448,192,25547,1,0,0:0:0:0:
64,192,25625,1,0,0:0:0:0:
320,192,25702,1,0,0:0:0:0:
448,192,25702,1,0,0:0:0:0:
192,192,25779,1,0,0:0:0:0:
320,192,25857,1,0,0:0:0:0:
448,192,25857,1,0,0:0:0:0:
64,192,25934,1,0,0:0:0:0:
192,192,25934,1,0,0:0:0:0:
320,192,26011,1,0,0:0:0:0:
64,192,26089,1,0,0:0:0:0:
192,192,26089,1,0,0:0:0:0:
320,192,26166,1,0,0:0:0:0:
448,192,26166,1,0,0:0:0:0:
64,192,26243,1,0,0:0:0:0:
320,192,26321,1,0,0:0:0:0:
448,192,26321,1,0,0:0:0:0:
192,192,26398,1,0,0:0:0:0:
320,192,26475,1,0,0:0:0:0:
448,192,26475,1,0,0:0:0:0:
64,192,26553,1,0,0:0:0:0:
192,192,26630,1,0,0:0:0:0:
448,192,26630,1,0,0:0:0:0:
64,192,26707,1,0,0:0:0:0:
320,192,26707,1,0,0:0:0:0:
192,192,26785,1,0,0:0:0:0:
448,192,26785,1,0,0:0:0:0:
320,192,26862,1,0,0:0:0:0:
64,192,26940,1,0,0:0:0:0:
448,192,26940,1,0,0:0:0:0:
192,192,27017,1,0,0:0:0:0:
64,192,27094,1,0,0:0:0:0:
320,192,27094,1,0,0:0:0:0:
448,192,27172,1,0,0:0:0:0:
192,192,27249,1,0,0:0:0:0:
320,192,27249,1,0,0:0:0:0:
64,192,27326,1,0,0:0:0:0:
320,192,27404,1,0,0:0:0:0:
448,192,27404,1,0,0:0:0:0:
64,192,27481,1,0,0:0:0:0:
192,192,27481,1,0,0:0:0:0:
320,192,27558,1,0,0:0:0:0:
448,192,27558,1,0,0:0:0:0:
64,192,27636,1,0,0:0:0:0:
192,192,27636,1,0,0:0:0:0:
320,192,27713,1,0,0:0:0:0:
448,192,27713,1,0,0:0:0:0:
64,192,27868,1,0,0:0:0:0:
320,192,27894,1,0,0:0:0:0:
64,192,28022,1,0,0:0:0:0:
192,192,28022,1,0,0:0:0:0:
448,192,28022,1,0,0:0:0:0:
320,192,28100,1,0,0:0:0:0:
192,192,28177,1,0,0:0:0:0:
448,192,28177,1,0,0:0:0:0:
64,192,28255,1,0,0:0:0:0:
320,192,28332,1,0,0:0:0:0:
448,192,28332,1,0,0:0:0:0:
192,192,28409,1,0,0:0:0:0:
64,192,28487,1,0,0:0:0:0:
320,192,28564,1,0,0:0:0:0:
448,192,28564,1,0,0:0:0:0:
64,192,28641,1,0,0:0:0:0:
192,192,28641,1,0,0:0:0:0:
448,192,28719,1,0,0:0:0:0:
64,192,28796,1,0,0:0:0:0:
320,192,28796,1,0,0:0:0:0:
192,192,28873,1,0,0:0:0:0:
64,192,28951,1,0,0:0:0:0:
320,192,28951,1,0,0:0:0:0:
192,192,29028,1,0,0:0:0:0:
320,192,29105,1,0,0:0:0:0:
448,192,29105,1,0,0:0:0:0:
64,192,29183,1,0,0:0:0:0:
192,192,29183,1,0,0:0:0:0:
320,192,29260,1,0,0:0:0:0:
448,192,29260,1,0,0:0:0:0:
192,192,29337,1,0,0:0:0:0:
64,192,29415,1,0,0:0:0:0:
320,192,29415,1,0,0:0:0:0:
448,192,29492,1,0,0:0:0:0:
64,192,29570,1,0,0:0:0:0:
192,192,29570,1,0,0:0:0:0:
320,192,29647,1,0,0:0:0:0:
448,192,29647,1,0,0:0:0:0:
64,192,29724,1,0,0:0:0:0:
320,192,29802,1,0,0:0:0:0:
192,192,29879,1,0,0:0:0:0:
448,192,29879,1,0,0:0:0:0:
64,192,29956,1,0,0:0:0:0:
320,192,29956,1,0,0:0:0:0:
192,192,30034,1,0,0:0:0:0:
320,192,30111,1,0,0:0:0:0:
448,192,30111,1,0,0:0:0:0:
64,192,30188,1,0,0:0:0:0:
192,192,30266,1,0,0:0:0:0:
448,192,30266,1,0,0:0:0:0:
320,192,30343,1,0,0:0:0:0:
64,192,30420,1,0,0:0:0:0:
192,192,30420,1,0,0:0:0:0:
320,192,30498,1,0,0:0:0:0:
448,192,30498,1,0,0:0:0:0:
192,192,30575,1,0,0:0:0:0:
64,192,30652,1,0,0:0:0:0:
320,192,30652,1,0,0:0:0:0:
448,192,30730,1,0,0:0:0:0:
64,192,30807,1,0,0:0:0:0:
192,192,30807,1,0,0:0:0:0:
320,192,30885,1,0,0:0:0:0:
448,192,30962,1,0,0:0:0:0:
64,192,31039,1,0,0:0:0:0:
192,192,31039,1,0,0:0:0:0:
320,192,31117,1,0,0:0:0:0:
448,192,31117,1,0,0:0:0:0:
64,192,31194,1,0,0:0:0:0:
192,192,31271,1,0,0:0:0:0:
448,192,31271,1,0,0:0:0:0:
320,192,31349,1,0,0:0:0:0:
192,192,31426,1,0,0:0:0:0:
448,192,31426,1,0,0:0:0:0:
320,192,31503,1,0,0:0:0:0:
64,192,31581,1,0,0:0:0:0:
192,192,31581,1,0,0:0:0:0:
320,192,31658,1,0,0:0:0:0:
448,192,31658,1,0,0:0:0:0:
64,192,31735,1,0,0:0:0:0:
192,192,31735,1,0,0:0:0:0:
320,192,31813,1,0,0:0:0:0:
192,192,31890,1,0,0:0:0:0:
448,192,31890,1,0,0:0:0:0:
64,192,31967,1,0,0:0:0:0:
320,192,32045,1,0,0:0:0:0:
448,192,32045,1,0,0:0:0:0:
64,192,32122,1,0,0:0:0:0:
192,192,32122,1,0,0:0:0:0:
448,192,32200,1,0,0:0:0:0:
192,192,32277,1,0,0:0:0:0:
64,192,32354,1,0,0:0:0:0:
320,192,32354,1,0,0:0:0:0:
192,192,32432,1,0,0:0:0:0:
448,192,32432,1,0,0:0:0:0:
320,192,32509,1,0,0:0:0:0:
64,192,32586,1,0,0:0:0:0:
192,192,32586,1,0,0:0:0:0:
320,192,32664,1,0,0:0:0:0:
448,192,32664,1,0,0:0:0:0:
64,192,32741,1,0,0:0:0:0:
192,192,32741,1,0,0:0:0:0:
320,192,32818,1,0,0:0:0:0:
448,192,32818,1,0,0:0:0:0:
64,192,32896,1,0,0:0:0:0:
192,192,32973,1,0,0:0:0:0:
320,192,32973,1,0,0:0:0:0:
448,192,32973,1,0,0:0:0:0:
64,192,33050,1,0,0:0:0:0:
192,192,33128,1,0,0:0:0:0:
448,192,33128,1,0,0:0:0:0:
320,192,33205,1,0,0:0:0:0:
64,192,33282,1,0,0:0:0:0:
192,192,33282,1,0,0:0:0:0:
448,192,33360,1,0,0:0:0:0:
64,192,33437,1,0,0:0:0:0:
320,192,33515,1,0,0:0:0:0:
448,192,33515,1,0,0:0:0:0:
64,192,33592,1,0,0:0:0:0:
192,192,33592,1,0,0:0:0:0:
448,192,33669,1,0,0:0:0:0:
64,192,33747,1,0,0:0:0:0:
320,192,33747,1,0,0:0:0:0:
192,192,33824,1,0,0:0:0:0:
64,192,33901,1,0,0:0:0:0:
320,192,33901,1,0,0:0:0:0:
192,192,33979,1,0,0:0:0:0:
320,192,34056,1,0,0:0:0:0:
448,192,34056,1,0,0:0:0:0:
64,192,34133,1,0,0:0:0:0:
192,192,34133,1,0,0:0:0:0:
320,192,34211,1,0,0:0:0:0:
448,192,34211,1,0,0:0:0:0:
192,192,34288,1,0,0:0:0:0:
64,192,34365,1,0,0:0:0:0:
320,192,34365,1,0,0:0:0:0:
448,192,34443,1,0,0:0:0:0:
64,192,34520,1,0,0:0:0:0:
192,192,34520,1,0,0:0:0:0:
320,192,34597,1,0,0:0:0:0:
448,192,34597,1,0,0:0:0:0:
64,192,34675,1,0,0:0:0:0:
320,192,34752,1,0,0:0:0:0:
192,192,34830,1,0,0:0:0:0:
448,192,34830,1,0,0:0:0:0:
64,192,34907,1,0,0:0:0:0:
320,192,34907,1,0,0:0:0:0:
192,192,34984,1,0,0:0:0:0:
320,192,35062,1,0,0:0:0:0:
448,192,35062,1,0,0:0:0:0:
64,192,35139,1,0,0:0:0:0:
192,192,35216,1,0,0:0:0:0:
448,192,35216,1,0,0:0:0:0:
320,192,35294,1,0,0:0:0:0:
64,192,35371,1,0,0:0:0:0:
192,192,35371,1,0,0:0:0:0:
320,192,35448,1,0,0:0:0:0:
448,192,35448,1,0,0:0:0:0:
192,192,35526,1,0,0:0:0:0:
64,192,35603,1,0,0:0:0:0:
320,192,35603,1,0,0:0:0:0:
448,192,35680,1,0,0:0:0:0:
64,192,35758,1,0,0:0:0:0:
192,192,35758,1,0,0:0:0:0:
320,192,35835,1,0,0:0:0:0:
448,192,35912,1,0,0:0:0:0:
64,192,35990,1,0,0:0:0:0:
192,192,35990,1,0,0:0:0:0:
320,192,36067,1,0,0:0:0:0:
448,192,36067,1,0,0:0:0:0:
64,192,36144,1,0,0:0:0:0:
192,192,36222,1,0,0:0:0:0:
448,192,36222,1,0,0:0:0:0:
320,192,36299,1,0,0:0:0:0:
192,192,36377,1,0,0:0:0:0:
448,192,36377,1,0,0:0:0:0:
320,192,36454,1,0,0:0:0:0:
64,192,36531,1,0,0:0:0:0:
192,192,36531,1,0,0:0:0:0:
320,192,36609,1,0,0:0:0:0:
448,192,36609,1,0,0:0:0:0:
64,192,36686,1,0,0:0:0:0:
192,192,36686,1,0,0:0:0:0:
320,192,36763,1,0,0:0:0:0:
192,192,36841,1,0,0:0:0:0:
448,192,36841,1,0,0:0:0:0:
64,192,36918,1,0,0:0:0:0:
320,192,36995,1,0,0:0:0:0:
448,192,36995,1,0,0:0:0:0:
64,192,37073,1,0,0:0:0:0:
192,192,37150,1,0,0:0:0:0:
448,192,37150,1,0,0:0:0:0:
320,192,37227,1,0,0:0:0:0:
64,192,37305,1,0,0:0:0:0:
192,192,37305,1,0,0:0:0:0:
320,192,37382,1,0,0:0:0:0:
448,192,37382,1,0,0:0:0:0:
64,192,37459,1,0,0:0:0:0:
192,192,37459,1,0,0:0:0:0:
320,192,37537,1,0,0:0:0:0:
448,192,37537,1,0,0:0:0:0:
64,192,37614,1,0,0:0:0:0:
192,192,37614,1,0,0:0:0:0:
320,192,37769,1,0,0:0:0:0:
192,192,37795,1,0,0:0:0:0:
64,192,37924,1,0,0:0:0:0:
320,192,37924,128,0,38078:0:0:0:0:
192,192,38078,1,0,0:0:0:0:
320,192,38233,128,0,38388:0:0:0:0:
192,192,38388,1,0,0:0:0:0:
320,192,38542,128,0,38620:0:0:0:0:
192,192,38697,128,0,38774:0:0:0:0:
64,192,38852,128,0,38929:0:0:0:0:
192,192,39007,128,0,39161:0:0:0:0:
448,192,39161,1,0,0:0:0:0:
64,192,39316,128,0,39393:0:0:0:0:
192,192,39471,128,0,39548:0:0:0:0:
320,192,39625,128,0,39703:0:0:0:0:
448,192,39780,128,0,39857:0:0:0:0:
448,192,39935,1,0,0:0:0:0:
320,192,40089,128,0,40244:0:0:0:0:
192,192,40244,1,0,0:0:0:0:
64,192,40399,128,0,40554:0:0:0:0:
320,192,40554,1,0,0:0:0:0:
64,192,40708,128,0,40786:0:0:0:0:
192,192,40863,128,0,40940:0:0:0:0:
320,192,41018,128,0,41172:0:0:0:0:
64,192,41172,1,0,0:0:0:0:
448,192,41327,128,0,41404:0:0:0:0:
192,192,41482,128,0,41791:0:0:0:0:
320,192,41791,128,0,41946:0:0:0:0:
448,192,41946,1,0,0:0:0:0:
192,192,42101,128,0,42178:0:0:0:0:
64,192,42255,128,0,42333:0:0:0:0:
192,192,42410,128,0,42487:0:0:0:0:
448,192,42565,128,0,42642:0:0:0:0:
64,192,42719,128,0,42797:0:0:0:0:
448,192,42874,128,0,43029:0:0:0:0:
192,192,43029,1,0,0:0:0:0:
320,192,43184,128,0,43338:0:0:0:0:
64,192,43338,1,0,0:0:0:0:
192,192,43493,128,0,43648:0:0:0:0:
448,192,43648,1,0,0:0:0:0:
64,192,43802,128,0,43880:0:0:0:0:
448,192,43957,1,0,0:0:0:0:
192,192,44034,1,0,0:0:0:0:
64,192,44112,128,0,44189:0:0:0:0:
192,192,44267,128,0,44344:0:0:0:0:
448,192,44267,1,0,0:0:0:0:
320,192,44421,128,0,44499:0:0:0:0:
64,192,44576,1,0,0:0:0:0:
448,192,44576,128,0,44731:0:0:0:0:
192,192,44885,128,0,45040:0:0:0:0:
320,192,44885,128,0,44963:0:0:0:0:
320,192,45195,1,0,0:0:0:0:
192,192,45349,128,0,45427:0:0:0:0:
64,192,45504,128,0,45582:0:0:0:0:
448,192,45504,1,0,0:0:0:0:
320,192,45659,128,0,45736:0:0:0:0:
192,192,45814,1,0,0:0:0:0:
448,192,45814,128,0,45891:0:0:0:0:
64,192,45968,1,0,0:0:0:0:
320,192,46123,128,0,46200:0:0:0:0:
64,192,46200,1,0,0:0:0:0:
64,192,46355,1,0,0:0:0:0:
320,192,46432,128,0,46587:0:0:0:0:
448,192,46587,1,0,0:0:0:0:
192,192,46664,1,0,0:0:0:0:
320,192,46742,1,0,0:0:0:0:
192,192,46819,1,0,0:0:0:0:
64,192,46897,1,0,0:0:0:0:
320,192,46974,1,0,0:0:0:0:
64,192,47051,1,0,0:0:0:0:
192,192,47051,1,0,0:0:0:0:
320,192,47129,1,0,0:0:0:0:
448,192,47129,1,0,0:0:0:0:
64,192,47206,1,0,0:0:0:0:
192,192,47206,1,0,0:0:0:0:
320,192,47283,1,0,0:0:0:0:
448,192,47283,1,0,0:0:0:0:
64,192,47361,1,0,0:0:0:0:
192,192,47361,1,0,0:0:0:0:
320,192,47438,1,0,0:0:0:0:
448,192,47438,1,0,0:0:0:0:
64,192,47515,1,0,0:0:0:0:
192,192,47554,1,0,0:0:0:0:
320,192,47593,1,0,0:0:0:0:
448,192,47631,1,0,0:0:0:0:
64,192,47670,1,0,0:0:0:0:
192,192,47709,1,0,0:0:0:0:
320,192,47747,1,0,0:0:0:0:
448,192,47786,1,0,0:0:0:0:
64,192,47825,1,0,0:0:0:0:
192,192,47825,1,0,0:0:0:0:
320,192,47979,1,0,0:0:0:0:
448,192,47979,1,0,0:0:0:0:
64,192,48134,1,0,0:0:0:0:
320,192,48134,1,0,0:0:0:0:
192,192,48289,1,0,0:0:0:0:
448,192,48289,128,0,48598:0:0:0:0:
320,192,48444,1,0,0:0:0:0:
64,192,48598,1,0,0:0:0:0:
64,192,48753,128,0,49062:0:0:0:0:
320,192,48753,1,0,0:0:0:0:
192,192,48908,1,0,0:0:0:0:
448,192,49062,1,0,0:0:0:0:
64,192,49217,1,0,0:0:0:0:
320,192,49217,1,0,0:0:0:0:
192,192,49372,1,0,0:0:0:0:
320,192,49372,1,0,0:0:0:0:
192,192,49527,1,0,0:0:0:0:
320,192,49681,1,0,0:0:0:0:
448,192,49681,1,0,0:0:0:0:
64,192,49836,1,0,0:0:0:0:
192,192,49991,1,0,0:0:0:0:
448,192,49991,1,0,0:0:0:0:
64,192,50145,1,0,0:0:0:0:
192,192,50300,1,0,0:0:0:0:
448,192,50300,1,0,0:0:0:0:
320,192,50455,1,0,0:0:0:0:
192,192,50532,1,0,0:0:0:0:
64,192,50609,1,0,0:0:0:0:
320,192,50609,1,0,0:0:0:0:
192,192,50764,1,0,0:0:0:0:
448,192,50764,1,0,0:0:0:0:
320,192,50919,128,0,51074:0:0:0:0:
448,192,50919,1,0,0:0:0:0:
64,192,51074,1,0,0:0:0:0:
64,192,51228,1,0,0:0:0:0:
192,192,51228,128,0,51383:0:0:0:0:
448,192,51383,1,0,0:0:0:0:
192,192,51538,1,0,0:0:0:0:
320,192,51538,1,0,0:0:0:0:
64,192,51692,1,0,0:0:0:0:
448,192,51847,1,0,0:0:0:0:
64,192,52002,1,0,0:0:0:0:
320,192,52002,1,0,0:0:0:0:
64,192,52157,128,0,52466:0:0:0:0:
320,192,52157,1,0,0:0:0:0:
192,192,52311,1,0,0:0:0:0:
448,192,52466,1,0,0:0:0:0:
192,192,52621,1,0,0:0:0:0:
320,192,52775,1,0,0:0:0:0:
448,192,52775,1,0,0:0:0:0:
64,192,52930,1,0,0:0:0:0:
192,192,52930,1,0,0:0:0:0:
192,192,53085,1,0,0:0:0:0:
448,192,53085,1,0,0:0:0:0:
64,192,53239,1,0,0:0:0:0:
320,192,53239,1,0,0:0:0:0:
192,192,53394,1,0,0:0:0:0:
320,192,53549,1,0,0:0:0:0:
448,192,53549,1,0,0:0:0:0:
320,192,53704,1,0,0:0:0:0:
448,192,53704,128,0,54013:0:0:0:0:
192,192,53858,1,0,0:0:0:0:
64,192,54013,1,0,0:0:0:0:
320,192,54168,1,0,0:0:0:0:
448,192,54168,1,0,0:0:0:0:
64,192,54322,1,0,0:0:0:0:
192,192,54322,1,0,0:0:0:0:
192,192,54477,128,0,54941:0:0:0:0:
448,192,54477,1,0,0:0:0:0:
320,192,54632,1,0,0:0:0:0:
64,192,54786,1,0,0:0:0:0:
320,192,54941,1,0,0:0:0:0:
64,192,55096,1,0,0:0:0:0:
320,192,55251,1,0,0:0:0:0:
448,192,55251,1,0,0:0:0:0:
192,192,55405,1,0,0:0:0:0:
192,192,55560,1,0,0:0:0:0:
448,192,55560,1,0,0:0:0:0:
64,192,55715,1,0,0:0:0:0:
64,192,55869,1,0,0:0:0:0:
448,192,55869,128,0,55947:0:0:0:0:
192,192,56024,1,0,0:0:0:0:
448,192,56101,128,0,56179:0:0:0:0:
192,192,56334,1,0,0:0:0:0:
448,192,56334,128,0,56488:0:0:0:0:
320,192,56488,128,0,56566:0:0:0:0:
64,192,56643,128,0,56720:0:0:0:0:
448,192,56643,1,0,0:0:0:0:
192,192,56798,128,0,56875:0:0:0:0:
64,192,56952,128,0,57030:0:0:0:0:
448,192,56952,1,0,0:0:0:0:
320,192,57107,128,0,57184:0:0:0:0:
192,192,57262,1,0,0:0:0:0:
64,192,57339,1,0,0:0:0:0:
320,192,57416,128,0,57494:0:0:0:0:
192,192,57571,128,0,57649:0:0:0:0:
448,192,57571,1,0,0:0:0:0:
64,192,57726,128,0,57881:0:0:0:0:
320,192,57726,1,0,0:0:0:0:
448,192,57881,1,0,0:0:0:0:
192,192,58035,1,0,0:0:0:0:
320,192,58035,128,0,58190:0:0:0:0:
64,192,58190,1,0,0:0:0:0:
192,192,58345,128,0,58422:0:0:0:0:
64,192,58499,1,0,0:0:0:0:
320,192,58499,1,0,0:0:0:0:
448,192,58499,1,0,0:0:0:0:
320,192,58654,128,0,58731:0:0:0:0:
64,192,58809,1,0,0:0:0:0:
192,192,58964,1,0,0:0:0:0:
320,192,58964,1,0,0:0:0:0:
448,192,58964,1,0,0:0:0:0:
64,192,59041,1,0,0:0:0:0:
192,192,59118,1,0,0:0:0:0:
64,192,59273,1,0,0:0:0:0:
320,192,59273,1,0,0:0:0:0:
448,192,59350,1,0,0:0:0:0:
320,192,59428,1,0,0:0:0:0:
64,192,59582,1,0,0:0:0:0:
192,192,59582,1,0,0:0:0:0:
192,192,59737,1,0,0:0:0:0:
320,192,59814,1,0,0:0:0:0:
64,192,59892,1,0,0:0:0:0:
192,192,59969,1,0,0:0:0:0:
192,192,60124,1,0,0:0:0:0:
320,192,60201,1,0,0:0:0:0:
448,192,60201,1,0,0:0:0:0:
320,192,60356,1,0,0:0:0:0:
192,192,60511,1,0,0:0:0:0:
448,192,60511,1,0,0:0:0:0:
320,192,60588,1,0,0:0:0:0:
64,192,60743,1,0,0:0:0:0:
192,192,60820,1,0,0:0:0:0:
320,192,60820,1,0,0:0:0:0:
448,192,60897,1,0,0:0:0:0:
64,192,60975,1,0,0:0:0:0:
192,192,61129,1,0,0:0:0:0:
448,192,61129,1,0,0:0:0:0:
320,192,61284,1,0,0:0:0:0:
192,192,61439,1,0,0:0:0:0:
448,192,61439,1,0,0:0:0:0:
320,192,61516,1,0,0:0:0:0:
192,192,61594,1,0,0:0:0:0:
64,192,61748,1,0,0:0:0:0:
320,192,61748,1,0,0:0:0:0:
192,192,61826,1,0,0:0:0:0:
320,192,61903,1,0,0:0:0:0:
64,192,62058,1,0,0:0:0:0:
192,192,62058,1,0,0:0:0:0:
448,192,62135,1,0,0:0:0:0:
448,192,62290,1,0,0:0:0:0:
64,192,62367,1,0,0:0:0:0:
320,192,62367,1,0,0:0:0:0:
448,192,62444,1,0,0:0:0:0:
192,192,62522,1,0,0:0:0:0:
320,192,62599,1,0,0:0:0:0:
64,192,62676,1,0,0:0:0:0:
192,192,62676,1,0,0:0:0:0:
320,192,62831,1,0,0:0:0:0:
64,192,62986,1,0,0:0:0:0:
320,192,62986,1,0,0:0:0:0:
192,192,63141,1,0,0:0:0:0:
320,192,63218,1,0,0:0:0:0:
192,192,63295,1,0,0:0:0:0:
448,192,63295,1,0,0:0:0:0:
64,192,63373,1,0,0:0:0:0:
320,192,63373,1,0,0:0:0:0:
192,192,63450,1,0,0:0:0:0:
448,192,63450,1,0,0:0:0:0:
64,192,63605,1,0,0:0:0:0:
192,192,63605,1,0,0:0:0:0:
320,192,63759,1,0,0:0:0:0:
64,192,63914,1,0,0:0:0:0:
192,192,63914,1,0,0:0:0:0:
320,192,63991,1,0,0:0:0:0:
448,192,63991,1,0,0:0:0:0:
64,192,64069,1,0,0:0:0:0:
192,192,64069,1,0,0:0:0:0:
448,192,64146,1,0,0:0:0:0:
64,192,64224,1,0,0:0:0:0:
192,192,64224,1,0,0:0:0:0:
320,192,64301,1,0,0:0:0:0:
448,192,64301,1,0,0:0:0:0:
64,192,64378,1,0,0:0:0:0:
192,192,64378,1,0,0:0:0:0:
448,192,64456,1,0,0:0:0:0:
64,192,64533,1,0,0:0:0:0:
320,192,64533,1,0,0:0:0:0:
192,192,64610,1,0,0:0:0:0:
64,192,64688,1,0,0:0:0:0:
320,192,64688,1,0,0:0:0:0:
192,192,64765,1,0,0:0:0:0:
448,192,64765,1,0,0:0:0:0:
320,192,64842,1,0,0:0:0:0:
64,192,64920,1,0,0:0:0:0:
320,192,64997,1,0,0:0:0:0:
448,192,64997,1,0,0:0:0:0:
64,192,65074,1,0,0:0:0:0:
192,192,65074,1,0,0:0:0:0:
320,192,65152,1,0,0:0:0:0:
448,192,65152,1,0,0:0:0:0:
192,192,65229,1,0,0:0:0:0:
320,192,65306,1,0,0:0:0:0:
448,192,65306,1,0,0:0:0:0:
64,192,65384,1,0,0:0:0:0:
192,192,65461,1,0,0:0:0:0:
448,192,65461,1,0,0:0:0:0:
64,192,65539,1,0,0:0:0:0:
320,192,65539,1,0,0:0:0:0:
192,192,65616,1,0,0:0:0:0:
320,192,65693,1,0,0:0:0:0:
448,192,65693,1,0,0:0:0:0:
64,192,65771,1,0,0:0:0:0:
192,192,65848,1,0,0:0:0:0:
320,192,65848,1,0,0:0:0:0:
64,192,65925,1,0,0:0:0:0:
448,192,65925,1,0,0:0:0:0:
192,192,66003,1,0,0:0:0:0:
320,192,66080,1,0,0:0:0:0:
448,192,66080,1,0,0:0:0:0:
64,192,66157,1,0,0:0:0:0:
192,192,66235,1,0,0:0:0:0:
448,192,66235,1,0,0:0:0:0:
320,192,66312,1,0,0:0:0:0:
64,192,66389,1,0,0:0:0:0:
192,192,66428,1,0,0:0:0:0:
448,192,66467,1,0,0:0:0:0:
320,192,66505,1,0,0:0:0:0:
64,192,66544,1,0,0:0:0:0:
192,192,66583,1,0,0:0:0:0:
448,192,66621,1,0,0:0:0:0:
320,192,66660,1,0,0:0:0:0:
64,192,66699,1,0,0:0:0:0:
192,192,66737,1,0,0:0:0:0:
448,192,66776,1,0,0:0:0:0:
320,192,66815,1,0,0:0:0:0:
64,192,66854,1,0,0:0:0:0:
192,192,66892,1,0,0:0:0:0:
448,192,66931,1,0,0:0:0:0:
320,192,66970,1,0,0:0:0:0:
64,192,67008,1,0,0:0:0:0:
192,192,67047,1,0,0:0:0:0:
448,192,67086,1,0,0:0:0:0:
320,192,67124,1,0,0:0:0:0:
64,192,67163,1,0,0:0:0:0:
192,192,67202,1,0,0:0:0:0:
448,192,67240,1,0,0:0:0:0:
320,192,67279,1,0,0:0:0:0:
64,192,67318,1,0,0:0:0:0:
192,192,67356,1,0,0:0:0:0:
448,192,67395,1,0,0:0:0:0:
320,192,67434,1,0,0:0:0:0:
64,192,67472,1,0,0:0:0:0:
192,192,67511,1,0,0:0:0:0:
448,192,67550,1,0,0:0:0:0:
320,192,67588,1,0,0:0:0:0:
64,192,67627,128,0,67859:0:0:0:0:
192,192,67627,1,0,0:0:0:0:
320,192,67936,1,0,0:0:0:0:
192,192,68014,1,0,0:0:0:0:
448,192,68091,1,0,0:0:0:0:
192,192,68169,1,0,0:0:0:0:
64,192,68246,1,0,0:0:0:0:
448,192,68323,1,0,0:0:0:0:
320,192,68401,1,0,0:0:0:0:
192,192,68478,1,0,0:0:0:0:
320,192,68555,1,0,0:0:0:0:
448,192,68555,1,0,0:0:0:0:
64,192,68633,1,0,0:0:0:0:
192,192,68710,1,0,0:0:0:0:
448,192,68710,1,0,0:0:0:0:
320,192,68787,1,0,0:0:0:0:
64,192,68865,1,0,0:0:0:0:
192,192,68865,1,0,0:0:0:0:
320,192,68942,1,0,0:0:0:0:
448,192,68942,1,0,0:0:0:0:
64,192,69019,1,0,0:0:0:0:
192,192,69019,1,0,0:0:0:0:
448,192,69097,1,0,0:0:0:0:
64,192,69174,1,0,0:0:0:0:
320,192,69174,1,0,0:0:0:0:
192,192,69251,1,0,0:0:0:0:
448,192,69251,1,0,0:0:0:0:
64,192,69329,1,0,0:0:0:0:
320,192,69329,1,0,0:0:0:0:
192,192,69406,1,0,0:0:0:0:
320,192,69484,1,0,0:0:0:0:
448,192,69484,1,0,0:0:0:0:
64,192,69561,1,0,0:0:0:0:
320,192,69638,1,0,0:0:0:0:
448,192,69638,1,0,0:0:0:0:
64,192,69716,1,0,0:0:0:0:
192,192,69716,1,0,0:0:0:0:
448,192,69793,1,0,0:0:0:0:
64,192,69870,1,0,0:0:0:0:
192,192,69870,1,0,0:0:0:0:
320,192,69948,1,0,0:0:0:0:
448,192,69948,1,0,0:0:0:0:
64,192,70025,1,0,0:0:0:0:
192,192,70025,1,0,0:0:0:0:
320,192,70102,1,0,0:0:0:0:
448,192,70102,1,0,0:0:0:0:
192,192,70180,1,0,0:0:0:0:
320,192,70257,1,0,0:0:0:0:
448,192,70257,1,0,0:0:0:0:
64,192,70334,1,0,0:0:0:0:
192,192,70412,1,0,0:0:0:0:
320,192,70412,1,0,0:0:0:0:
64,192,70489,1,0,0:0:0:0:
448,192,70489,1,0,0:0:0:0:
192,192,70566,1,0,0:0:0:0:
320,192,70644,1,0,0:0:0:0:
448,192,70644,1,0,0:0:0:0:
64,192,70721,1,0,0:0:0:0:
320,192,70798,1,0,0:0:0:0:
448,192,70798,1,0,0:0:0:0:
64,192,70876,1,0,0:0:0:0:
192,192,70876,1,0,0:0:0:0:
448,192,70953,1,0,0:0:0:0:
64,192,71031,1,0,0:0:0:0:
320,192,71031,1,0,0:0:0:0:
192,192,71108,1,0,0:0:0:0:
320,192,71185,1,0,0:0:0:0:
448,192,71185,1,0,0:0:0:0:
64,192,71263,1,0,0:0:0:0:
192,192,71340,1,0,0:0:0:0:
448,192,71340,1,0,0:0:0:0:
64,192,71417,1,0,0:0:0:0:
320,192,71417,1,0,0:0:0:0:
192,192,71495,1,0,0:0:0:0:
448,192,71495,1,0,0:0:0:0:
320,192,71572,1,0,0:0:0:0:
64,192,71649,1,0,0:0:0:0:
192,192,71649,1,0,0:0:0:0:
320,192,71727,1,0,0:0:0:0:
448,192,71727,1,0,0:0:0:0:
64,192,71804,1,0,0:0:0:0:
192,192,71804,1,0,0:0:0:0:
448,192,71881,1,0,0:0:0:0:
64,192,71959,1,0,0:0:0:0:
320,192,71959,1,0,0:0:0:0:
192,192,72036,1,0,0:0:0:0:
448,192,72036,1,0,0:0:0:0:
320,192,72113,1,0,0:0:0:0:
192,192,72191,1,0,0:0:0:0:
448,192,72191,1,0,0:0:0:0:
64,192,72268,1,0,0:0:0:0:
192,192,72346,1,0,0:0:0:0:
448,192,72346,1,0,0:0:0:0:
64,192,72423,1,0,0:0:0:0:
320,192,72423,1,0,0:0:0:0:
192,192,72500,1,0,0:0:0:0:
320,192,72578,1,0,0:0:0:0:
448,192,72578,1,0,0:0:0:0:
64,192,72655,1,0,0:0:0:0:
192,192,72732,1,0,0:0:0:0:
448,192,72732,1,0,0:0:0:0:
320,192,72810,1,0,0:0:0:0:
64,192,72887,1,0,0:0:0:0:
192,192,72887,1,0,0:0:0:0:
448,192,72964,1,0,0:0:0:0:
64,192,73042,1,0,0:0:0:0:
320,192,73042,1,0,0:0:0:0:
192,192,73119,1,0,0:0:0:0:
320,192,73196,1,0,0:0:0:0:
448,192,73196,1,0,0:0:0:0:
64,192,73274,1,0,0:0:0:0:
192,192,73274,1,0,0:0:0:0:
320,192,73351,1,0,0:0:0:0:
448,192,73351,1,0,0:0:0:0:
64,192,73428,1,0,0:0:0:0:
192,192,73506,1,0,0:0:0:0:
448,192,73506,1,0,0:0:0:0:
320,192,73583,1,0,0:0:0:0:
64,192,73661,1,0,0:0:0:0:
192,192,73699,1,0,0:0:0:0:
320,192,73738,1,0,0:0:0:0:
448,192,73777,1,0,0:0:0:0:
64,192,73815,1,0,0:0:0:0:
192,192,73815,1,0,0:0:0:0:
320,192,73893,1,0,0:0:0:0:
448,192,73893,1,0,0:0:0:0:
64,192,73970,1,0,0:0:0:0:
192,192,73970,1,0,0:0:0:0:
448,192,74047,1,0,0:0:0:0:
64,192,74125,1,0,0:0:0:0:
320,192,74125,1,0,0:0:0:0:
192,192,74202,1,0,0:0:0:0:
448,192,74202,1,0,0:0:0:0:
64,192,74279,1,0,0:0:0:0:
320,192,74279,1,0,0:0:0:0:
192,192,74357,1,0,0:0:0:0:
320,192,74434,1,0,0:0:0:0:
448,192,74434,1,0,0:0:0:0:
64,192,74511,1,0,0:0:0:0:
320,192,74589,1,0,0:0:0:0:
448,192,74589,1,0,0:0:0:0:
64,192,74666,1,0,0:0:0:0:
192,192,74666,1,0,0:0:0:0:
448,192,74743,1,0,0:0:0:0:
64,192,74821,1,0,0:0:0:0:
192,192,74821,1,0,0:0:0:0:
320,192,74898,1,0,0:0:0:0:
448,192,74898,1,0,0:0:0:0:
64,192,74976,1,0,0:0:0:0:
192,192,74976,1,0,0:0:0:0:
320,192,75053,1,0,0:0:0:0:
448,192,75053,1,0,0:0:0:0:
192,192,75130,1,0,0:0:0:0:
320,192,75208,1,0,0:0:0:0:
448,192,75208,1,0,0:0:0:0:
64,192,75285,1,0,0:0:0:0:
192,192,75362,1,0,0:0:0:0:
320,192,75362,1,0,0:0:0:0:
64,192,75440,1,0,0:0:0:0:
448,192,75440,1,0,0:0:0:0:
192,192,75517,1,0,0:0:0:0:
320,192,75594,1,0,0:0:0:0:
448,192,75594,1,0,0:0:0:0:
64,192,75672,1,0,0:0:0:0:
320,192,75749,1,0,0:0:0:0:
448,192,75749,1,0,0:0:0:0:
64,192,75826,1,0,0:0:0:0:
192,192,75826,1,0,0:0:0:0:
448,192,75904,1,0,0:0:0:0:
64,192,75981,1,0,0:0:0:0:
320,192,75981,1,0,0:0:0:0:
192,192,76058,1,0,0:0:0:0:
320,192,76136,1,0,0:0:0:0:
448,192,76136,1,0,0:0:0:0:
64,192,76213,1,0,0:0:0:0:
192,192,76291,1,0,0:0:0:0:
448,192,76291,1,0,0:0:0:0:
64,192,76368,1,0,0:0:0:0:
320,192,76368,1,0,0:0:0:0:
192,192,76445,1,0,0:0:0:0:
448,192,76445,1,0,0:0:0:0:
320,192,76523,1,0,0:0:0:0:
64,192,76600,1,0,0:0:0:0:
192,192,76600,1,0,0:0:0:0:
320,192,76677,1,0,0:0:0:0:
448,192,76677,1,0,0:0:0:0:
64,192,76755,1,0,0:0:0:0:
192,192,76755,1,0,0:0:0:0:
448,192,76832,1,0,0:0:0:0:
64,192,76909,1,0,0:0:0:0:
320,192,76909,1,0,0:0:0:0:
192,192,76987,1,0,0:0:0:0:
448,192,76987,1,0,0:0:0:0:
320,192,77064,1,0,0:0:0:0:
192,192,77141,1,0,0:0:0:0:
448,192,77141,1,0,0:0:0:0:
64,192,77219,1,0,0:0:0:0:
192,192,77296,1,0,0:0:0:0:
448,192,77296,1,0,0:0:0:0:
64,192,77373,1,0,0:0:0:0:
320,192,77373,1,0,0:0:0:0:
192,192,77451,1,0,0:0:0:0:
320,192,77528,1,0,0:0:0:0:
448,192,77528,1,0,0:0:0:0:
64,192,77606,1,0,0:0:0:0:
192,192,77683,1,0,0:0:0:0:
448,192,77683,1,0,0:0:0:0:
320,192,77760,1,0,0:0:0:0:
64,192,77838,1,0,0:0:0:0:
192,192,77838,1,0,0:0:0:0:
448,192,77915,1,0,0:0:0:0:
64,192,77992,1,0,0:0:0:0:
320,192,77992,1,0,0:0:0:0:
192,192,78070,1,0,0:0:0:0:
320,192,78147,1,0,0:0:0:0:
448,192,78147,1,0,0:0:0:0:
64,192,78224,1,0,0:0:0:0:
192,192,78224,1,0,0:0:0:0:
320,192,78302,1,0,0:0:0:0:
448,192,78302,1,0,0:0:0:0:
64,192,78379,1,0,0:0:0:0:
192,192,78418,1,0,0:0:0:0:
320,192,78456,1,0,0:0:0:0:
448,192,78456,1,0,0:0:0:0:
64,192,78611,128,0,78766:0:0:0:0:
192,192,78766,1,0,0:0:0:0:
320,192,78766,1,0,0:0:0:0:
448,192,78766,1,0,0:0:0:0:
320,192,78921,1,0,0:0:0:0:
192,192,79075,1,0,0:0:0:0:
448,192,79075,1,0,0:0:0:0:
64,192,79230,1,0,0:0:0:0:
192,192,79230,1,0,0:0:0:0:
448,192,79385,1,0,0:0:0:0:
192,192,79462,1,0,0:0:0:0:
64,192,79539,1,0,0:0:0:0:
320,192,79539,1,0,0:0:0:0:
448,192,79617,1,0,0:0:0:0:
64,192,79694,1,0,0:0:0:0:
320,192,79771,1,0,0:0:0:0:
192,192,79849,1,0,0:0:0:0:
448,192,79849,1,0,0:0:0:0:
64,192,79926,1,0,0:0:0:0:
320,192,80003,1,0,0:0:0:0:
448,192,80003,1,0,0:0:0:0:
320,192,80158,1,0,0:0:0:0:
64,192,80313,1,0,0:0:0:0:
192,192,80313,1,0,0:0:0:0:
192,192,80468,1,0,0:0:0:0:
448,192,80622,1,0,0:0:0:0:
320,192,80700,1,0,0:0:0:0:
64,192,80777,1,0,0:0:0:0:
448,192,80777,1,0,0:0:0:0:
192,192,80854,1,0,0:0:0:0:
64,192,80932,1,0,0:0:0:0:
320,192,80932,1,0,0:0:0:0:
448,192,81009,1,0,0:0:0:0:
192,192,81086,1,0,0:0:0:0:
320,192,81086,1,0,0:0:0:0:
64,192,81164,1,0,0:0:0:0:
320,192,81241,1,0,0:0:0:0:
448,192,81241,1,0,0:0:0:0:
448,192,81396,1,0,0:0:0:0:
64,192,81551,1,0,0:0:0:0:
320,192,81551,1,0,0:0:0:0:
64,192,81705,1,0,0:0:0:0:
192,192,81705,1,0,0:0:0:0:
320,192,81860,1,0,0:0:0:0:
192,192,81937,1,0,0:0:0:0:
64,192,82015,1,0,0:0:0:0:
448,192,82015,1,0,0:0:0:0:
320,192,82092,1,0,0:0:0:0:
64,192,82169,1,0,0:0:0:0:
192,192,82247,1,0,0:0:0:0:
320,192,82324,1,0,0:0:0:0:
448,192,82324,1,0,0:0:0:0:
64,192,82401,1,0,0:0:0:0:
192,192,82479,1,0,0:0:0:0:
448,192,82479,1,0,0:0:0:0:
192,192,82633,1,0,0:0:0:0:
320,192,82788,1,0,0:0:0:0:
448,192,82788,1,0,0:0:0:0:
320,192,82943,1,0,0:0:0:0:
448,192,82943,1,0,0:0:0:0:
192,192,83098,1,0,0:0:0:0:
320,192,83175,1,0,0:0:0:0:
64,192,83252,1,0,0:0:0:0:
448,192,83330,1,0,0:0:0:0:
192,192,83407,1,0,0:0:0:0:
320,192,83407,1,0,0:0:0:0:
64,192,83484,1,0,0:0:0:0:
192,192,83562,1,0,0:0:0:0:
448,192,83639,1,0,0:0:0:0:
64,192,83716,1,0,0:0:0:0:
320,192,83716,1,0,0:0:0:0:
320,192,83871,1,0,0:0:0:0:
64,192,84026,1,0,0:0:0:0:
192,192,84026,1,0,0:0:0:0:
192,192,84181,1,0,0:0:0:0:
448,192,84181,1,0,0:0:0:0:
64,192,84335,1,0,0:0:0:0:
192,192,84413,1,0,0:0:0:0:
320,192,84490,1,0,0:0:0:0:
448,192,84567,1,0,0:0:0:0:
64,192,84645,1,0,0:0:0:0:
192,192,84645,1,0,0:0:0:0:
320,192,84722,1,0,0:0:0:0:
448,192,84799,1,0,0:0:0:0:
320,192,84877,1,0,0:0:0:0:
64,192,84954,1,0,0:0:0:0:
192,192,84954,1,0,0:0:0:0:
192,192,85109,1,0,0:0:0:0:
320,192,85263,1,0,0:0:0:0:
448,192,85263,1,0,0:0:0:0:
64,192,85418,1,0,0:0:0:0:
320,192,85418,1,0,0:0:0:0:
192,192,85573,1,0,0:0:0:0:
448,192,85650,1,0,0:0:0:0:
64,192,85728,1,0,0:0:0:0:
320,192,85805,1,0,0:0:0:0:
192,192,85882,1,0,0:0:0:0:
448,192,85882,1,0,0:0:0:0:
64,192,85960,1,0,0:0:0:0:
320,192,86037,1,0,0:0:0:0:
448,192,86037,1,0,0:0:0:0:
192,192,86114,1,0,0:0:0:0:
64,192,86192,1,0,0:0:0:0:
320,192,86192,1,0,0:0:0:0:
64,192,86346,1,0,0:0:0:0:
192,192,86346,1,0,0:0:0:0:
320,192,86501,1,0,0:0:0:0:
448,192,86501,1,0,0:0:0:0:
320,192,86656,1,0,0:0:0:0:
64,192,86811,1,0,0:0:0:0:
448,192,86888,1,0,0:0:0:0:
192,192,86965,1,0,0:0:0:0:
320,192,87043,1,0,0:0:0:0:
64,192,87120,1,0,0:0:0:0:
448,192,87197,1,0,0:0:0:0:
64,192,87275,1,0,0:0:0:0:
192,192,87275,1,0,0:0:0:0:
320,192,87352,1,0,0:0:0:0:
448,192,87352,1,0,0:0:0:0:
64,192,87429,1,0,0:0:0:0:
192,192,87429,1,0,0:0:0:0:
192,192,87584,1,0,0:0:0:0:
448,192,87584,1,0,0:0:0:0:
320,192,87739,1,0,0:0:0:0:
448,192,87739,1,0,0:0:0:0:
64,192,87893,1,0,0:0:0:0:
320,192,87893,1,0,0:0:0:0:
64,192,88048,1,0,0:0:0:0:
192,192,88048,1,0,0:0:0:0:
448,192,88100,1,0,0:0:0:0:
320,192,88151,1,0,0:0:0:0:
64,192,88203,1,0,0:0:0:0:
448,192,88254,1,0,0:0:0:0:
192,192,88306,1,0,0:0:0:0:
64,192,88358,1,0,0:0:0:0:
320,192,88409,1,0,0:0:0:0:
192,192,88461,1,0,0:0:0:0:
448,192,88512,1,0,0:0:0:0:
64,192,88564,1,0,0:0:0:0:
192,192,88615,1,0,0:0:0:0:
320,192,88667,1,0,0:0:0:0:
448,192,88667,1,0,0:0:0:0:
320,192,88822,1,0,0:0:0:0:
64,192,88976,1,0,0:0:0:0:
192,192,88976,1,0,0:0:0:0:
448,192,88976,1,0,0:0:0:0:
192,192,89131,1,0,0:0:0:0:
320,192,89131,1,0,0:0:0:0:
64,192,89286,1,0,0:0:0:0:
448,192,89286,1,0,0:0:0:0:
320,192,89363,1,0,0:0:0:0:
192,192,89440,1,0,0:0:0:0:
448,192,89440,1,0,0:0:0:0:
64,192,89518,1,0,0:0:0:0:
320,192,89595,1,0,0:0:0:0:
192,192,89673,1,0,0:0:0:0:
320,192,89750,1,0,0:0:0:0:
448,192,89750,1,0,0:0:0:0:
64,192,89827,1,0,0:0:0:0:
192,192,89905,1,0,0:0:0:0:
448,192,89905,1,0,0:0:0:0:
192,192,90059,1,0,0:0:0:0:
64,192,90214,1,0,0:0:0:0:
320,192,90214,1,0,0:0:0:0:
320,192,90369,1,0,0:0:0:0:
192,192,90523,1,0,0:0:0:0:
448,192,90523,1,0,0:0:0:0:
64,192,90601,1,0,0:0:0:0:
192,192,90678,1,0,0:0:0:0:
320,192,90678,1,0,0:0:0:0:
448,192,90755,1,0,0:0:0:0:
64,192,90833,1,0,0:0:0:0:
320,192,90833,1,0,0:0:0:0:
192,192,90910,1,0,0:0:0:0:
64,192,90988,1,0,0:0:0:0:
448,192,90988,1,0,0:0:0:0:
320,192,91065,1,0,0:0:0:0:
64,192,91142,1,0,0:0:0:0:
192,192,91142,1,0,0:0:0:0:
448,192,91142,1,0,0:0:0:0:
192,192,91297,1,0,0:0:0:0:
64,192,91452,1,0,0:0:0:0:
320,192,91452,1,0,0:0:0:0:
448,192,91452,1,0,0:0:0:0:
192,192,91606,1,0,0:0:0:0:
320,192,91606,1,0,0:0:0:0:
64,192,91761,1,0,0:0:0:0:
448,192,91761,1,0,0:0:0:0:
320,192,91838,1,0,0:0:0:0:
64,192,91916,1,0,0:0:0:0:
192,192,91916,1,0,0:0:0:0:
320,192,91993,1,0,0:0:0:0:
192,192,92070,1,0,0:0:0:0:
448,192,92148,1,0,0:0:0:0:
64,192,92225,1,0,0:0:0:0:
320,192,92225,1,0,0:0:0:0:
192,192,92303,1,0,0:0:0:0:
64,192,92380,1,0,0:0:0:0:
320,192,92380,1,0,0:0:0:0:
448,192,92380,1,0,0:0:0:0:
320,192,92535,1,0,0:0:0:0:
64,192,92689,1,0,0:0:0:0:
192,192,92689,1,0,0:0:0:0:
448,192,92689,1,0,0:0:0:0:
192,192,92844,1,0,0:0:0:0:
320,192,92844,1,0,0:0:0:0:
64,192,92999,1,0,0:0:0:0:
448,192,92999,1,0,0:0:0:0:
320,192,93076,1,0,0:0:0:0:
192,192,93153,1,0,0:0:0:0:
448,192,93231,1,0,0:0:0:0:
64,192,93308,1,0,0:0:0:0:
320,192,93308,1,0,0:0:0:0:
192,192,93385,1,0,0:0:0:0:
320,192,93463,1,0,0:0:0:0:
448,192,93540,1,0,0:0:0:0:
64,192,93618,1,0,0:0:0:0:
192,192,93618,1,0,0:0:0:0:
320,192,93618,1,0,0:0:0:0:
64,192,93772,1,0,0:0:0:0:
192,192,93927,1,0,0:0:0:0:
320,192,93927,1,0,0:0:0:0:
448,192,93927,1,0,0:0:0:0:
192,192,94082,1,0,0:0:0:0:
448,192,94082,1,0,0:0:0:0:
64,192,94236,1,0,0:0:0:0:
320,192,94236,1,0,0:0:0:0:
192,192,94314,1,0,0:0:0:0:
320,192,94391,1,0,0:0:0:0:
64,192,94468,1,0,0:0:0:0:
192,192,94546,1,0,0:0:0:0:
448,192,94546,1,0,0:0:0:0:
320,192,94623,1,0,0:0:0:0:
192,192,94700,1,0,0:0:0:0:
320,192,94778,1,0,0:0:0:0:
64,192,94855,1,0,0:0:0:0:
192,192,94855,1,0,0:0:0:0:
448,192,94855,1,0,0:0:0:0:
192,192,95010,1,0,0:0:0:0:
64,192,95165,1,0,0:0:0:0:
320,192,95165,1,0,0:0:0:0:
192,192,95319,1,0,0:0:0:0:
320,192,95319,1,0,0:0:0:0:
448,192,95319,1,0,0:0:0:0:
64,192,95474,1,0,0:0:0:0:
192,192,95551,1,0,0:0:0:0:
448,192,95629,1,0,0:0:0:0:
320,192,95706,1,0,0:0:0:0:
64,192,95783,1,0,0:0:0:0:
192,192,95783,1,0,0:0:0:0:
448,192,95783,1,0,0:0:0:0:
320,192,95861,1,0,0:0:0:0:
64,192,95938,1,0,0:0:0:0:
192,192,95938,1,0,0:0:0:0:
448,192,96015,1,0,0:0:0:0:
64,192,96093,1,0,0:0:0:0:
320,192,96093,1,0,0:0:0:0:
192,192,96248,1,0,0:0:0:0:
320,192,96248,1,0,0:0:0:0:
64,192,96402,1,0,0:0:0:0:
192,192,96402,1,0,0:0:0:0:
448,192,96402,1,0,0:0:0:0:
64,192,96557,1,0,0:0:0:0:
192,192,96712,1,0,0:0:0:0:
320,192,96712,1,0,0:0:0:0:
448,192,96789,1,0,0:0:0:0:
64,192,96866,1,0,0:0:0:0:
192,192,96944,1,0,0:0:0:0:
448,192,97021,1,0,0:0:0:0:
320,192,97098,1,0,0:0:0:0:
64,192,97176,1,0,0:0:0:0:
192,192,97176,1,0,0:0:0:0:
448,192,97253,1,0,0:0:0:0:
64,192,97330,1,0,0:0:0:0:
192,192,97330,1,0,0:0:0:0:
320,192,97330,1,0,0:0:0:0:
320,192,97485,1,0,0:0:0:0:
448,192,97485,1,0,0:0:0:0:
64,192,97640,1,0,0:0:0:0:
192,192,97640,1,0,0:0:0:0:
448,192,97640,1,0,0:0:0:0:
192,192,97795,1,0,0:0:0:0:
320,192,97795,1,0,0:0:0:0:
64,192,97949,1,0,0:0:0:0:
448,192,97949,1,0,0:0:0:0:
192,192,98027,1,0,0:0:0:0:
320,192,98104,1,0,0:0:0:0:
64,192,98181,1,0,0:0:0:0:
192,192,98259,1,0,0:0:0:0:
448,192,98310,1,0,0:0:0:0:
64,192,98362,1,0,0:0:0:0:
320,192,98413,1,0,0:0:0:0:
192,192,98465,1,0,0:0:0:0:
448,192,98517,1,0,0:0:0:0:
64,192,98568,1,0,0:0:0:0:
320,192,98568,1,0,0:0:0:0:
320,192,98723,1,0,0:0:0:0:
64,192,98878,1,0,0:0:0:0:
192,192,98878,1,0,0:0:0:0:
64,192,99032,1,0,0:0:0:0:
448,192,99032,1,0,0:0:0:0:
448,192,99187,1,0,0:0:0:0:
64,192,99342,1,0,0:0:0:0:
192,192,99342,1,0,0:0:0:0:
320,192,99496,1,0,0:0:0:0:
448,192,99496,1,0,0:0:0:0:
192,192,99574,1,0,0:0:0:0:
320,192,99651,1,0,0:0:0:0:
448,192,99651,1,0,0:0:0:0:
192,192,99728,1,0,0:0:0:0:
64,192,99806,1,0,0:0:0:0:
448,192,99806,1,0,0:0:0:0:
192,192,99960,1,0,0:0:0:0:
448,192,99960,1,0,0:0:0:0:
64,192,100115,1,0,0:0:0:0:
320,192,100115,1,0,0:0:0:0:
64,192,100270,1,0,0:0:0:0:
192,192,100270,1,0,0:0:0:0:
192,192,100425,1,0,0:0:0:0:
320,192,100579,1,0,0:0:0:0:
448,192,100579,1,0,0:0:0:0:
320,192,100734,1,0,0:0:0:0:
448,192,100734,1,0,0:0:0:0:
192,192,100811,1,0,0:0:0:0:
448,192,100889,1,0,0:0:0:0:
192,192,100966,1,0,0:0:0:0:
64,192,101043,1,0,0:0:0:0:
320,192,101043,1,0,0:0:0:0:
320,192,101198,1,0,0:0:0:0:
64,192,101353,1,0,0:0:0:0:
192,192,101353,1,0,0:0:0:0:
64,192,101508,1,0,0:0:0:0:
448,192,101508,1,0,0:0:0:0:
448,192,101662,1,0,0:0:0:0:
64,192,101817,1,0,0:0:0:0:
192,192,101817,1,0,0:0:0:0:
320,192,101972,1,0,0:0:0:0:
448,192,101972,1,0,0:0:0:0:
192,192,102049,1,0,0:0:0:0:
320,192,102126,1,0,0:0:0:0:
192,192,102204,1,0,0:0:0:0:
64,192,102281,1,0,0:0:0:0:
448,192,102281,1,0,0:0:0:0:
192,192,102436,1,0,0:0:0:0:
448,192,102436,1,0,0:0:0:0:
64,192,102590,1,0,0:0:0:0:
320,192,102590,1,0,0:0:0:0:
64,192,102745,1,0,0:0:0:0:
192,192,102745,1,0,0:0:0:0:
192,192,102900,1,0,0:0:0:0:
64,192,103055,1,0,0:0:0:0:
448,192,103055,1,0,0:0:0:0:
64,192,103209,1,0,0:0:0:0:
448,192,103209,1,0,0:0:0:0:
192,192,103364,1,0,0:0:0:0:
320,192,103364,1,0,0:0:0:0:
64,192,103519,1,0,0:0:0:0:
320,192,103519,1,0,0:0:0:0:
448,192,103519,1,0,0:0:0:0:
192,192,103673,1,0,0:0:0:0:
448,192,103673,1,0,0:0:0:0:
64,192,103828,1,0,0:0:0:0:
192,192,103828,1,0,0:0:0:0:
320,192,103983,1,0,0:0:0:0:
448,192,103983,1,0,0:0:0:0:
192,192,104138,1,0,0:0:0:0:
448,192,104138,1,0,0:0:0:0:
64,192,104292,1,0,0:0:0:0:
192,192,104292,1,0,0:0:0:0:
320,192,104292,1,0,0:0:0:0:
64,192,104447,1,0,0:0:0:0:
320,192,104447,1,0,0:0:0:0:
192,192,104602,1,0,0:0:0:0:
448,192,104602,1,0,0:0:0:0:
320,192,104679,1,0,0:0:0:0:
64,192,104756,1,0,0:0:0:0:
192,192,104756,1,0,0:0:0:0:
64,192,104911,1,0,0:0:0:0:
192,192,105066,1,0,0:0:0:0:
320,192,105066,1,0,0:0:0:0:
448,192,105066,1,0,0:0:0:0:
64,192,105220,1,0,0:0:0:0:
320,192,105220,1,0,0:0:0:0:
64,192,105375,1,0,0:0:0:0:
192,192,105375,1,0,0:0:0:0:
448,192,105375,1,0,0:0:0:0:
192,192,105530,1,0,0:0:0:0:
320,192,105530,1,0,0:0:0:0:
64,192,105685,1,0,0:0:0:0:
320,192,105685,1,0,0:0:0:0:
448,192,105685,1,0,0:0:0:0:
192,192,105839,1,0,0:0:0:0:
448,192,105839,1,0,0:0:0:0:
192,192,105994,1,0,0:0:0:0:
320,192,105994,1,0,0:0:0:0:
64,192,106149,1,0,0:0:0:0:
448,192,106149,1,0,0:0:0:0:
192,192,106303,1,0,0:0:0:0:
448,192,106303,1,0,0:0:0:0:
320,192,106458,1,0,0:0:0:0:
64,192,106613,1,0,0:0:0:0:
192,192,106613,1,0,0:0:0:0:
320,192,106767,1,0,0:0:0:0:
64,192,106922,1,0,0:0:0:0:
448,192,106922,1,0,0:0:0:0:
64,192,107077,1,0,0:0:0:0:
320,192,107077,1,0,0:0:0:0:
320,192,107232,1,0,0:0:0:0:
448,192,107232,1,0,0:0:0:0:
320,192,107541,1,0,0:0:0:0:
448,192,107541,1,0,0:0:0:0:
64,192,107618,1,0,0:0:0:0:
192,192,107696,1,0,0:0:0:0:
448,192,107773,1,0,0:0:0:0:
64,192,107850,1,0,0:0:0:0:
320,192,107928,1,0,0:0:0:0:
64,192,108005,1,0,0:0:0:0:
320,192,108082,1,0,0:0:0:0:
64,192,108160,1,0,0:0:0:0:
192,192,108160,1,0,0:0:0:0:
448,192,108160,1,0,0:0:0:0:
64,192,108469,1,0,0:0:0:0:
320,192,108469,1,0,0:0:0:0:
448,192,108469,1,0,0:0:0:0:
192,192,108624,1,0,0:0:0:0:
320,192,108624,1,0,0:0:0:0:
64,192,108779,1,0,0:0:0:0:
192,192,108779,1,0,0:0:0:0:
448,192,108779,1,0,0:0:0:0:
64,192,108933,1,0,0:0:0:0:
320,192,108933,1,0,0:0:0:0:
320,192,109088,1,0,0:0:0:0:
448,192,109088,1,0,0:0:0:0:
64,192,109243,1,0,0:0:0:0:
192,192,109243,1,0,0:0:0:0:
64,192,109397,1,0,0:0:0:0:
192,192,109397,1,0,0:0:0:0:
448,192,109397,1,0,0:0:0:0:
192,192,109552,1,0,0:0:0:0:
448,192,109552,1,0,0:0:0:0:
64,192,109707,1,0,0:0:0:0:
320,192,109707,1,0,0:0:0:0:
64,192,109862,1,0,0:0:0:0:
192,192,109862,1,0,0:0:0:0:
192,192,110016,1,0,0:0:0:0:
320,192,110016,1,0,0:0:0:0:
448,192,110016,1,0,0:0:0:0:
320,192,110171,1,0,0:0:0:0:
448,192,110171,1,0,0:0:0:0:
64,192,110326,1,0,0:0:0:0:
192,192,110326,1,0,0:0:0:0:
448,192,110326,1,0,0:0:0:0:
192,192,110480,1,0,0:0:0:0:
64,192,110635,1,0,0:0:0:0:
320,192,110635,1,0,0:0:0:0:
448,192,110635,1,0,0:0:0:0:
192,192,110790,1,0,0:0:0:0:
192,192,110945,1,0,0:0:0:0:
320,192,110945,1,0,0:0:0:0:
448,192,110945,1,0,0:0:0:0:
64,192,111099,1,0,0:0:0:0:
320,192,111099,1,0,0:0:0:0:
448,192,111177,1,0,0:0:0:0:
64,192,111254,1,0,0:0:0:0:
192,192,111254,1,0,0:0:0:0:
320,192,111331,1,0,0:0:0:0:
64,192,111409,1,0,0:0:0:0:
192,192,111409,1,0,0:0:0:0:
64,192,111563,1,0,0:0:0:0:
320,192,111563,1,0,0:0:0:0:
448,192,111563,1,0,0:0:0:0:
320,192,111718,1,0,0:0:0:0:
64,192,111873,1,0,0:0:0:0:
192,192,111873,1,0,0:0:0:0:
448,192,111873,1,0,0:0:0:0:
192,192,112027,1,0,0:0:0:0:
320,192,112027,1,0,0:0:0:0:
64,192,112182,1,0,0:0:0:0:
320,192,112182,1,0,0:0:0:0:
448,192,112182,1,0,0:0:0:0:
192,192,112337,1,0,0:0:0:0:
320,192,112414,1,0,0:0:0:0:
64,192,112492,1,0,0:0:0:0:
448,192,112492,1,0,0:0:0:0:
192,192,112646,1,0,0:0:0:0:
320,192,112646,1,0,0:0:0:0:
320,192,112801,1,0,0:0:0:0:
448,192,112801,1,0,0:0:0:0:
192,192,112878,1,0,0:0:0:0:
320,192,112956,1,0,0:0:0:0:
64,192,113033,1,0,0:0:0:0:
192,192,113110,1,0,0:0:0:0:
448,192,113110,1,0,0:0:0:0:
64,192,113188,1,0,0:0:0:0:
448,192,113265,1,0,0:0:0:0:
320,192,113342,1,0,0:0:0:0:
64,192,113420,1,0,0:0:0:0:
192,192,113420,1,0,0:0:0:0:
448,192,113420,1,0,0:0:0:0:
192,192,113575,1,0,0:0:0:0:
320,192,113575,1,0,0:0:0:0:
64,192,113729,1,0,0:0:0:0:
320,192,113729,1,0,0:0:0:0:
448,192,113729,1,0,0:0:0:0:
192,192,113884,1,0,0:0:0:0:
448,192,113884,1,0,0:0:0:0:
64,192,114039,1,0,0:0:0:0:
192,192,114039,1,0,0:0:0:0:
320,192,114193,1,0,0:0:0:0:
448,192,114193,1,0,0:0:0:0:
64,192,114348,1,0,0:0:0:0:
320,192,114348,1,0,0:0:0:0:
448,192,114348,1,0,0:0:0:0:
64,192,114503,1,0,0:0:0:0:
192,192,114503,1,0,0:0:0:0:
192,192,114657,1,0,0:0:0:0:
448,192,114657,1,0,0:0:0:0:
64,192,114812,1,0,0:0:0:0:
320,192,114812,1,0,0:0:0:0:
192,192,114967,1,0,0:0:0:0:
320,192,114967,1,0,0:0:0:0:
448,192,114967,1,0,0:0:0:0:
64,192,115122,1,0,0:0:0:0:
192,192,115122,1,0,0:0:0:0:
64,192,115276,1,0,0:0:0:0:
320,192,115276,1,0,0:0:0:0:
448,192,115276,1,0,0:0:0:0:
320,192,115431,1,0,0:0:0:0:
64,192,115586,1,0,0:0:0:0:
192,192,115586,1,0,0:0:0:0:
448,192,115586,1,0,0:0:0:0:
192,192,115740,1,0,0:0:0:0:
64,192,115895,1,0,0:0:0:0:
320,192,115895,1,0,0:0:0:0:
448,192,115895,1,0,0:0:0:0:
192,192,116050,128,0,116127:0:0:0:0:
64,192,116205,1,0,0:0:0:0:
192,192,116205,1,0,0:0:0:0:
448,192,116205,1,0,0:0:0:0:
320,192,116359,128,0,116437:0:0:0:0:
64,192,116514,1,0,0:0:0:0:
320,192,116514,1,0,0:0:0:0:
448,192,116514,1,0,0:0:0:0:
192,192,116669,1,0,0:0:0:0:
448,192,116746,1,0,0:0:0:0:
64,192,116823,1,0,0:0:0:0:
320,192,116823,1,0,0:0:0:0:
448,192,116978,1,0,0:0:0:0:
64,192,117133,1,0,0:0:0:0:
192,192,117133,1,0,0:0:0:0:
320,192,117210,1,0,0:0:0:0:
192,192,117287,1,0,0:0:0:0:
320,192,117365,1,0,0:0:0:0:
448,192,117365,1,0,0:0:0:0:
64,192,117442,1,0,0:0:0:0:
192,192,117442,1,0,0:0:0:0:
448,192,117520,1,0,0:0:0:0:
64,192,117597,1,0,0:0:0:0:
320,192,117597,1,0,0:0:0:0:
192,192,117674,1,0,0:0:0:0:
448,192,117752,1,0,0:0:0:0:
192,192,117829,1,0,0:0:0:0:
448,192,117906,1,0,0:0:0:0:
192,192,117984,1,0,0:0:0:0:
320,192,118061,128,0,118216:0:0:0:0:
64,192,118370,1,0,0:0:0:0:
320,192,118370,1,0,0:0:0:0:
448,192,118370,1,0,0:0:0:0:
192,192,118448,1,0,0:0:0:0:
64,192,118525,1,0,0:0:0:0:
448,192,118525,1,0,0:0:0:0:
320,192,118602,1,0,0:0:0:0:
64,192,118680,1,0,0:0:0:0:
192,192,118680,1,0,0:0:0:0:
448,192,118680,1,0,0:0:0:0:
320,192,118757,1,0,0:0:0:0:
64,192,118835,1,0,0:0:0:0:
192,192,118835,1,0,0:0:0:0:
448,192,118912,1,0,0:0:0:0:
64,192,118989,1,0,0:0:0:0:
320,192,118989,1,0,0:0:0:0:
192,192,119067,1,0,0:0:0:0:
320,192,119144,1,0,0:0:0:0:
448,192,119144,1,0,0:0:0:0:
64,192,119221,1,0,0:0:0:0:
320,192,119299,1,0,0:0:0:0:
448,192,119299,1,0,0:0:0:0:
64,192,119376,1,0,0:0:0:0:
192,192,119453,1,0,0:0:0:0:
448,192,119453,1,0,0:0:0:0:
320,192,119531,1,0,0:0:0:0:
192,192,119608,1,0,0:0:0:0:
448,192,119608,1,0,0:0:0:0:
320,192,119685,1,0,0:0:0:0:
64,192,119763,1,0,0:0:0:0:
192,192,119763,1,0,0:0:0:0:
448,192,119840,1,0,0:0:0:0:
64,192,119917,1,0,0:0:0:0:
192,192,119917,1,0,0:0:0:0:
320,192,119917,1,0,0:0:0:0:
448,192,119995,1,0,0:0:0:0:
64,192,120072,1,0,0:0:0:0:
320,192,120072,1,0,0:0:0:0:
192,192,120150,1,0,0:0:0:0:
64,192,120227,1,0,0:0:0:0:
320,192,120227,1,0,0:0:0:0:
448,192,120227,1,0,0:0:0:0:
192,192,120304,1,0,0:0:0:0:
320,192,120382,1,0,0:0:0:0:
448,192,120382,1,0,0:0:0:0:
64,192,120459,1,0,0:0:0:0:
192,192,120536,1,0,0:0:0:0:
320,192,120536,1,0,0:0:0:0:
448,192,120536,1,0,0:0:0:0:
64,192,120614,1,0,0:0:0:0:
192,192,120691,1,0,0:0:0:0:
448,192,120691,1,0,0:0:0:0:
320,192,120768,1,0,0:0:0:0:
64,192,120846,1,0,0:0:0:0:
192,192,120846,1,0,0:0:0:0:
448,192,120846,1,0,0:0:0:0:
320,192,120923,1,0,0:0:0:0:
192,192,121000,1,0,0:0:0:0:
320,192,121078,1,0,0:0:0:0:
448,192,121078,1,0,0:0:0:0:
64,192,121155,1,0,0:0:0:0:
192,192,121155,1,0,0:0:0:0:
448,192,121232,1,0,0:0:0:0:
64,192,121310,1,0,0:0:0:0:
320,192,121310,1,0,0:0:0:0:
192,192,121387,1,0,0:0:0:0:
64,192,121465,1,0,0:0:0:0:
320,192,121465,1,0,0:0:0:0:
448,192,121465,1,0,0:0:0:0:
192,192,121542,1,0,0:0:0:0:
320,192,121619,1,0,0:0:0:0:
448,192,121619,1,0,0:0:0:0:
64,192,121697,1,0,0:0:0:0:
192,192,121774,1,0,0:0:0:0:
448,192,121774,1,0,0:0:0:0:
64,192,121851,1,0,0:0:0:0:
320,192,121929,1,0,0:0:0:0:
192,192,122006,1,0,0:0:0:0:
64,192,122083,1,0,0:0:0:0:
320,192,122083,1,0,0:0:0:0:
448,192,122083,1,0,0:0:0:0:
192,192,122161,1,0,0:0:0:0:
320,192,122238,1,0,0:0:0:0:
448,192,122238,1,0,0:0:0:0:
192,192,122315,1,0,0:0:0:0:
320,192,122393,1,0,0:0:0:0:
448,192,122393,1,0,0:0:0:0:
64,192,122470,1,0,0:0:0:0:
192,192,122547,1,0,0:0:0:0:
448,192,122547,1,0,0:0:0:0:
320,192,122625,1,0,0:0:0:0:
64,192,122702,1,0,0:0:0:0:
192,192,122702,1,0,0:0:0:0:
448,192,122702,1,0,0:0:0:0:
320,192,122780,1,0,0:0:0:0:
64,192,122857,1,0,0:0:0:0:
192,192,122857,1,0,0:0:0:0:
320,192,122934,1,0,0:0:0:0:
64,192,123012,1,0,0:0:0:0:
192,192,123012,1,0,0:0:0:0:
448,192,123089,1,0,0:0:0:0:
64,192,123166,1,0,0:0:0:0:
320,192,123166,1,0,0:0:0:0:
192,192,123244,1,0,0:0:0:0:
64,192,123321,1,0,0:0:0:0:
320,192,123321,1,0,0:0:0:0:
448,192,123321,1,0,0:0:0:0:
192,192,123398,1,0,0:0:0:0:
64,192,123476,1,0,0:0:0:0:
448,192,123476,1,0,0:0:0:0:
320,192,123553,1,0,0:0:0:0:
64,192,123630,1,0,0:0:0:0:
192,192,123630,1,0,0:0:0:0:
448,192,123630,1,0,0:0:0:0:
320,192,123708,1,0,0:0:0:0:
64,192,123785,1,0,0:0:0:0:
192,192,123785,1,0,0:0:0:0:
448,192,123862,1,0,0:0:0:0:
64,192,123940,1,0,0:0:0:0:
320,192,123940,1,0,0:0:0:0:
192,192,124017,1,0,0:0:0:0:
320,192,124094,1,0,0:0:0:0:
448,192,124094,1,0,0:0:0:0:
64,192,124172,1,0,0:0:0:0:
192,192,124249,1,0,0:0:0:0:
320,192,124249,1,0,0:0:0:0:
448,192,124249,1,0,0:0:0:0:
64,192,124327,1,0,0:0:0:0:
320,192,124404,1,0,0:0:0:0:
448,192,124404,1,0,0:0:0:0:
192,192,124481,1,0,0:0:0:0:
64,192,124559,1,0,0:0:0:0:
320,192,124559,1,0,0:0:0:0:
448,192,124559,1,0,0:0:0:0:
192,192,124636,1,0,0:0:0:0:
64,192,124713,1,0,0:0:0:0:
448,192,124713,1,0,0:0:0:0:
320,192,124791,1,0,0:0:0:0:
64,192,124868,1,0,0:0:0:0:
192,192,124868,1,0,0:0:0:0:
448,192,124868,1,0,0:0:0:0:
320,192,124945,1,0,0:0:0:0:
64,192,125023,1,0,0:0:0:0:
192,192,125023,1,0,0:0:0:0:
448,192,125023,1,0,0:0:0:0:
320,192,125100,1,0,0:0:0:0:
64,192,125177,1,0,0:0:0:0:
192,192,125177,1,0,0:0:0:0:
448,192,125255,1,0,0:0:0:0:
192,192,125332,1,0,0:0:0:0:
320,192,125332,1,0,0:0:0:0:
64,192,125409,1,0,0:0:0:0:
320,192,125487,1,0,0:0:0:0:
448,192,125487,1,0,0:0:0:0:
192,192,125564,1,0,0:0:0:0:
64,192,125642,1,0,0:0:0:0:
320,192,125719,1,0,0:0:0:0:
64,192,125796,1,0,0:0:0:0:
192,192,125796,1,0,0:0:0:0:
448,192,125796,1,0,0:0:0:0:
320,192,125874,1,0,0:0:0:0:
64,192,125951,1,0,0:0:0:0:
192,192,125951,1,0,0:0:0:0:
448,192,126028,1,0,0:0:0:0:
64,192,126106,1,0,0:0:0:0:
192,192,126106,1,0,0:0:0:0:
320,192,126106,1,0,0:0:0:0:
448,192,126183,1,0,0:0:0:0:
64,192,126260,1,0,0:0:0:0:
320,192,126260,1,0,0:0:0:0:
192,192,126338,1,0,0:0:0:0:
64,192,126415,1,0,0:0:0:0:
320,192,126415,1,0,0:0:0:0:
448,192,126415,1,0,0:0:0:0:
192,192,126492,1,0,0:0:0:0:
320,192,126570,1,0,0:0:0:0:
448,192,126570,1,0,0:0:0:0:
64,192,126647,1,0,0:0:0:0:
320,192,126724,1,0,0:0:0:0:
448,192,126724,1,0,0:0:0:0:
64,192,126802,1,0,0:0:0:0:
192,192,126879,1,0,0:0:0:0:
448,192,126879,1,0,0:0:0:0:
320,192,126957,1,0,0:0:0:0:
64,192,127034,1,0,0:0:0:0:
192,192,127034,1,0,0:0:0:0:
448,192,127034,1,0,0:0:0:0:
320,192,127111,1,0,0:0:0:0:
192,192,127189,1,0,0:0:0:0:
320,192,127266,1,0,0:0:0:0:
448,192,127266,1,0,0:0:0:0:
64,192,127343,1,0,0:0:0:0:
192,192,127343,1,0,0:0:0:0:
448,192,127421,1,0,0:0:0:0:
64,192,127498,1,0,0:0:0:0:
192,192,127498,1,0,0:0:0:0:
320,192,127498,1,0,0:0:0:0:
448,192,127575,1,0,0:0:0:0:
64,192,127653,1,0,0:0:0:0:
320,192,127653,1,0,0:0:0:0:
192,192,127730,1,0,0:0:0:0:
320,192,127807,1,0,0:0:0:0:
448,192,127807,1,0,0:0:0:0:
64,192,127885,1,0,0:0:0:0:
192,192,127962,1,0,0:0:0:0:
320,192,127962,1,0,0:0:0:0:
448,192,127962,1,0,0:0:0:0:
64,192,128039,1,0,0:0:0:0:
320,192,128117,1,0,0:0:0:0:
448,192,128117,1,0,0:0:0:0:
64,192,128194,1,0,0:0:0:0:
192,192,128272,1,0,0:0:0:0:
448,192,128272,1,0,0:0:0:0:
320,192,128349,1,0,0:0:0:0:
64,192,128426,1,0,0:0:0:0:
192,192,128504,1,0,0:0:0:0:
320,192,128581,1,0,0:0:0:0:
448,192,128581,1,0,0:0:0:0:
192,192,128658,1,0,0:0:0:0:
320,192,128736,1,0,0:0:0:0:
448,192,128736,1,0,0:0:0:0:
64,192,128813,1,0,0:0:0:0:
192,192,128890,1,0,0:0:0:0:
448,192,128942,1,0,0:0:0:0:
64,192,128993,1,0,0:0:0:0:
320,192,129045,1,0,0:0:0:0:
192,192,129097,1,0,0:0:0:0:
448,192,129148,1,0,0:0:0:0:
64,192,129200,1,0,0:0:0:0:
192,192,129238,1,0,0:0:0:0:
320,192,129277,1,0,0:0:0:0:
448,192,129316,1,0,0:0:0:0:
64,192,129354,1,0,0:0:0:0:
192,192,129393,1,0,0:0:0:0:
320,192,129432,1,0,0:0:0:0:
448,192,129471,1,0,0:0:0:0:
64,192,129509,1,0,0:0:0:0:
192,192,129509,1,0,0:0:0:0:
320,192,129587,1,0,0:0:0:0:
448,192,129587,1,0,0:0:0:0:
64,192,129664,1,0,0:0:0:0:
192,192,129664,1,0,0:0:0:0:
448,192,129741,1,0,0:0:0:0:
64,192,129819,1,0,0:0:0:0:
320,192,129819,1,0,0:0:0:0:
192,192,129896,1,0,0:0:0:0:
448,192,129896,1,0,0:0:0:0:
64,192,129973,1,0,0:0:0:0:
320,192,129973,1,0,0:0:0:0:
192,192,130051,1,0,0:0:0:0:
320,192,130128,1,0,0:0:0:0:
448,192,130128,1,0,0:0:0:0:
64,192,130205,1,0,0:0:0:0:
320,192,130283,1,0,0:0:0:0:
448,192,130283,1,0,0:0:0:0:
64,192,130360,1,0,0:0:0:0:
192,192,130360,1,0,0:0:0:0:
448,192,130437,1,0,0:0:0:0:
64,192,130515,1,0,0:0:0:0:
192,192,130515,1,0,0:0:0:0:
320,192,130592,1,0,0:0:0:0:
448,192,130592,1,0,0:0:0:0:
64,192,130669,1,0,0:0:0:0:
192,192,130669,1,0,0:0:0:0:
320,192,130747,1,0,0:0:0:0:
448,192,130747,1,0,0:0:0:0:
192,192,130824,1,0,0:0:0:0:
320,192,130902,1,0,0:0:0:0:
448,192,130902,1,0,0:0:0:0:
64,192,130979,1,0,0:0:0:0:
192,192,131056,1,0,0:0:0:0:
320,192,131056,1,0,0:0:0:0:
64,192,131134,1,0,0:0:0:0:
448,192,131134,1,0,0:0:0:0:
192,192,131211,1,0,0:0:0:0:
320,192,131288,1,0,0:0:0:0:
448,192,131288,1,0,0:0:0:0:
64,192,131366,1,0,0:0:0:0:
320,192,131443,1,0,0:0:0:0:
448,192,131443,1,0,0:0:0:0:
64,192,131520,1,0,0:0:0:0:
192,192,131520,1,0,0:0:0:0:
448,192,131598,1,0,0:0:0:0:
64,192,131675,1,0,0:0:0:0:
320,192,131675,1,0,0:0:0:0:
192,192,131752,1,0,0:0:0:0:
320,192,131830,1,0,0:0:0:0:
448,192,131830,1,0,0:0:0:0:
64,192,131907,1,0,0:0:0:0:
192,192,131984,1,0,0:0:0:0:
448,192,131984,1,0,0:0:0:0:
64,192,132062,1,0,0:0:0:0:
320,192,132062,1,0,0:0:0:0:
192,192,132139,1,0,0:0:0:0:
448,192,132139,1,0,0:0:0:0:
320,192,132217,1,0,0:0:0:0:
64,192,132294,1,0,0:0:0:0:
192,192,132294,1,0,0:0:0:0:
320,192,132371,1,0,0:0:0:0:
448,192,132371,1,0,0:0:0:0:
64,192,132449,1,0,0:0:0:0:
192,192,132449,1,0,0:0:0:0:
448,192,132526,1,0,0:0:0:0:
64,192,132603,1,0,0:0:0:0:
320,192,132603,1,0,0:0:0:0:
192,192,132681,1,0,0:0:0:0:
448,192,132681,1,0,0:0:0:0:
320,192,132758,1,0,0:0:0:0:
192,192,132835,1,0,0:0:0:0:
448,192,132835,1,0,0:0:0:0:
64,192,132913,1,0,0:0:0:0:
192,192,132990,1,0,0:0:0:0:
448,192,132990,1,0,0:0:0:0:
64,192,133067,1,0,0:0:0:0:
320,192,133067,1,0,0:0:0:0:
192,192,133145,1,0,0:0:0:0:
320,192,133222,1,0,0:0:0:0:
448,192,133222,1,0,0:0:0:0:
64,192,133299,1,0,0:0:0:0:
192,192,133377,1,0,0:0:0:0:
448,192,133377,1,0,0:0:0:0:
320,192,133454,1,0,0:0:0:0:
64,192,133532,1,0,0:0:0:0:
192,192,133532,1,0,0:0:0:0:
448,192,133609,1,0,0:0:0:0:
64,192,133686,1,0,0:0:0:0:
320,192,133686,1,0,0:0:0:0:
192,192,133764,1,0,0:0:0:0:
64,192,133841,1,0,0:0:0:0:
320,192,133880,1,0,0:0:0:0:
448,192,133918,1,0,0:0:0:0:
192,192,133996,1,0,0:0:0:0:
320,192,134073,1,0,0:0:0:0:
64,192,134150,1,0,0:0:0:0:
448,192,134150,1,0,0:0:0:0:
192,192,134189,1,0,0:0:0:0:
320,192,134228,1,0,0:0:0:0:
64,192,134305,1,0,0:0:0:0:
192,192,134382,1,0,0:0:0:0:
320,192,134460,1,0,0:0:0:0:
448,192,134460,1,0,0:0:0:0:
64,192,134537,1,0,0:0:0:0:
192,192,134537,1,0,0:0:0:0:
320,192,134614,1,0,0:0:0:0:
448,192,134614,1,0,0:0:0:0:
64,192,134692,1,0,0:0:0:0:
192,192,134769,1,0,0:0:0:0:
448,192,134769,1,0,0:0:0:0:
64,192,134847,1,0,0:0:0:0:
320,192,134847,1,0,0:0:0:0:
192,192,134924,1,0,0:0:0:0:
448,192,134924,1,0,0:0:0:0:
320,192,135001,1,0,0:0:0:0:
64,192,135079,1,0,0:0:0:0:
192,192,135079,1,0,0:0:0:0:
448,192,135156,1,0,0:0:0:0:
64,192,135233,1,0,0:0:0:0:
192,192,135233,1,0,0:0:0:0:
320,192,135311,1,0,0:0:0:0:
448,192,135311,1,0,0:0:0:0:
64,192,135388,1,0,0:0:0:0:
320,192,135465,1,0,0:0:0:0:
448,192,135465,1,0,0:0:0:0:
64,192,135543,1,0,0:0:0:0:
192,192,135543,1,0,0:0:0:0:
320,192,135620,1,0,0:0:0:0:
448,192,135620,1,0,0:0:0:0:
64,192,135697,1,0,0:0:0:0:
192,192,135697,1,0,0:0:0:0:
320,192,135775,1,0,0:0:0:0:
64,192,135852,1,0,0:0:0:0:
192,192,135852,1,0,0:0:0:0:
448,192,135929,1,0,0:0:0:0:
192,192,136007,1,0,0:0:0:0:
320,192,136007,1,0,0:0:0:0:
64,192,136084,1,0,0:0:0:0:
448,192,136084,1,0,0:0:0:0:
320,192,136162,1,0,0:0:0:0:
64,192,136239,1,0,0:0:0:0:
192,192,136239,1,0,0:0:0:0:
448,192,136316,1,0,0:0:0:0:
64,192,136394,1,0,0:0:0:0:
192,192,136394,1,0,0:0:0:0:
320,192,136471,1,0,0:0:0:0:
448,192,136471,1,0,0:0:0:0:
64,192,136548,1,0,0:0:0:0:
192,192,136626,1,0,0:0:0:0:
448,192,136626,1,0,0:0:0:0:
320,192,136703,1,0,0:0:0:0:
64,192,136780,1,0,0:0:0:0:
192,192,136780,1,0,0:0:0:0:
448,192,136858,1,0,0:0:0:0:
64,192,136935,1,0,0:0:0:0:
320,192,136935,1,0,0:0:0:0:
192,192,137012,1,0,0:0:0:0:
448,192,137012,1,0,0:0:0:0:
64,192,137090,1,0,0:0:0:0:
320,192,137090,1,0,0:0:0:0:
192,192,137167,1,0,0:0:0:0:
320,192,137244,1,0,0:0:0:0:
448,192,137244,1,0,0:0:0:0:
64,192,137322,1,0,0:0:0:0:
192,192,137322,1,0,0:0:0:0:
320,192,137399,1,0,0:0:0:0:
448,192,137399,1,0,0:0:0:0:
64,192,137477,1,0,0:0:0:0:
192,192,137554,1,0,0:0:0:0:
448,192,137554,1,0,0:0:0:0:
64,192,137631,1,0,0:0:0:0:
320,192,137631,1,0,0:0:0:0:
192,192,137709,1,0,0:0:0:0:
64,192,137786,1,0,0:0:0:0:
320,192,137786,1,0,0:0:0:0:
448,192,137863,1,0,0:0:0:0:
64,192,137941,1,0,0:0:0:0:
320,192,137941,1,0,0:0:0:0:
192,192,138018,1,0,0:0:0:0:
448,192,138018,1,0,0:0:0:0:
320,192,138095,1,0,0:0:0:0:
64,192,138173,1,0,0:0:0:0:
192,192,138173,1,0,0:0:0:0:
320,192,138250,1,0,0:0:0:0:
448,192,138250,1,0,0:0:0:0:
64,192,138327,1,0,0:0:0:0:
192,192,138405,1,0,0:0:0:0:
448,192,138405,1,0,0:0:0:0:
64,192,138482,1,0,0:0:0:0:
320,192,138482,1,0,0:0:0:0:
192,192,138559,1,0,0:0:0:0:
320,192,138637,1,0,0:0:0:0:
448,192,138637,1,0,0:0:0:0:
64,192,138714,1,0,0:0:0:0:
192,192,138714,1,0,0:0:0:0:
448,192,138792,1,0,0:0:0:0:
64,192,138869,1,0,0:0:0:0:
192,192,138869,1,0,0:0:0:0:
320,192,138946,1,0,0:0:0:0:
448,192,138985,1,0,0:0:0:0:
64,192,139024,1,0,0:0:0:0:
192,192,139062,1,0,0:0:0:0:
320,192,139101,1,0,0:0:0:0:
448,192,139101,1,0,0:0:0:0:
192,192,139256,128,0,139410:0:0:0:0:
64,192,139410,1,0,0:0:0:0:
320,192,139410,1,0,0:0:0:0:
448,192,139410,1,0,0:0:0:0:
320,192,139565,1,0,0:0:0:0:
64,192,139720,1,0,0:0:0:0:
192,192,139720,1,0,0:0:0:0:
448,192,139720,1,0,0:0:0:0:
64,192,139874,1,0,0:0:0:0:
192,192,139874,1,0,0:0:0:0:
448,192,140029,1,0,0:0:0:0:
192,192,140107,1,0,0:0:0:0:
64,192,140184,1,0,0:0:0:0:
320,192,140184,1,0,0:0:0:0:
448,192,140261,1,0,0:0:0:0:
64,192,140339,1,0,0:0:0:0:
320,192,140416,1,0,0:0:0:0:
192,192,140493,1,0,0:0:0:0:
448,192,140493,1,0,0:0:0:0:
64,192,140571,1,0,0:0:0:0:
320,192,140648,1,0,0:0:0:0:
448,192,140648,1,0,0:0:0:0:
320,192,140803,1,0,0:0:0:0:
64,192,140957,1,0,0:0:0:0:
192,192,140957,1,0,0:0:0:0:
192,192,141112,1,0,0:0:0:0:
448,192,141267,1,0,0:0:0:0:
320,192,141344,1,0,0:0:0:0:
64,192,141421,1,0,0:0:0:0:
448,192,141421,1,0,0:0:0:0:
192,192,141499,1,0,0:0:0:0:
64,192,141576,1,0,0:0:0:0:
320,192,141576,1,0,0:0:0:0:
448,192,141654,1,0,0:0:0:0:
192,192,141731,1,0,0:0:0:0:
320,192,141731,1,0,0:0:0:0:
64,192,141808,1,0,0:0:0:0:
192,192,141886,1,0,0:0:0:0:
320,192,141886,1,0,0:0:0:0:
448,192,141886,1,0,0:0:0:0:
448,192,142040,1,0,0:0:0:0:
64,192,142195,1,0,0:0:0:0:
192,192,142195,1,0,0:0:0:0:
320,192,142195,1,0,0:0:0:0:
192,192,142350,1,0,0:0:0:0:
448,192,142350,1,0,0:0:0:0:
320,192,142504,1,0,0:0:0:0:
192,192,142582,1,0,0:0:0:0:
64,192,142659,1,0,0:0:0:0:
448,192,142659,1,0,0:0:0:0:
320,192,142736,1,0,0:0:0:0:
64,192,142814,1,0,0:0:0:0:
192,192,142891,1,0,0:0:0:0:
320,192,142969,1,0,0:0:0:0:
448,192,142969,1,0,0:0:0:0:
64,192,143046,1,0,0:0:0:0:
192,192,143123,1,0,0:0:0:0:
320,192,143123,1,0,0:0:0:0:
448,192,143123,1,0,0:0:0:0:
192,192,143278,1,0,0:0:0:0:
64,192,143433,1,0,0:0:0:0:
320,192,143433,1,0,0:0:0:0:
448,192,143433,1,0,0:0:0:0:
64,192,143587,1,0,0:0:0:0:
320,192,143587,1,0,0:0:0:0:
192,192,143742,1,0,0:0:0:0:
320,192,143742,1,0,0:0:0:0:
448,192,143742,1,0,0:0:0:0:
192,192,143897,1,0,0:0:0:0:
64,192,144051,1,0,0:0:0:0:
320,192,144051,1,0,0:0:0:0:
448,192,144051,1,0,0:0:0:0:
64,192,144206,1,0,0:0:0:0:
192,192,144361,1,0,0:0:0:0:
320,192,144361,1,0,0:0:0:0:
448,192,144361,1,0,0:0:0:0:
320,192,144516,1,0,0:0:0:0:
64,192,144670,1,0,0:0:0:0:
192,192,144670,1,0,0:0:0:0:
448,192,144670,1,0,0:0:0:0:
192,192,144825,1,0,0:0:0:0:
320,192,144825,1,0,0:0:0:0:
448,192,144980,1,0,0:0:0:0:
192,192,145057,1,0,0:0:0:0:
192,192,145212,1,0,0:0:0:0:
64,192,145289,1,0,0:0:0:0:
320,192,145289,1,0,0:0:0:0:
448,192,145289,1,0,0:0:0:0:
192,192,145366,1,0,0:0:0:0:
448,192,145444,1,0,0:0:0:0:
320,192,145521,1,0,0:0:0:0:
64,192,145599,1,0,0:0:0:0:
192,192,145599,1,0,0:0:0:0:
448,192,145599,1,0,0:0:0:0:
64,192,145753,1,0,0:0:0:0:
320,192,145908,1,0,0:0:0:0:
448,192,145908,1,0,0:0:0:0:
64,192,146063,1,0,0:0:0:0:
192,192,146063,1,0,0:0:0:0:
320,192,146063,1,0,0:0:0:0:
192,192,146217,1,0,0:0:0:0:
448,192,146217,1,0,0:0:0:0:
320,192,146295,1,0,0:0:0:0:
64,192,146372,1,0,0:0:0:0:
448,192,146449,1,0,0:0:0:0:
64,192,146527,1,0,0:0:0:0:
192,192,146527,1,0,0:0:0:0:
320,192,146527,1,0,0:0:0:0:
448,192,146604,1,0,0:0:0:0:
64,192,146681,1,0,0:0:0:0:
320,192,146681,1,0,0:0:0:0:
192,192,146759,1,0,0:0:0:0:
320,192,146836,1,0,0:0:0:0:
448,192,146836,1,0,0:0:0:0:
64,192,146991,1,0,0:0:0:0:
320,192,146991,1,0,0:0:0:0:
64,192,147146,1,0,0:0:0:0:
192,192,147146,1,0,0:0:0:0:
448,192,147146,1,0,0:0:0:0:
448,192,147300,1,0,0:0:0:0:
64,192,147455,1,0,0:0:0:0:
320,192,147532,1,0,0:0:0:0:
192,192,147610,1,0,0:0:0:0:
448,192,147687,1,0,0:0:0:0:
64,192,147764,1,0,0:0:0:0:
192,192,147842,1,0,0:0:0:0:
320,192,147919,1,0,0:0:0:0:
448,192,147919,1,0,0:0:0:0:
64,192,147996,1,0,0:0:0:0:
192,192,148074,1,0,0:0:0:0:
320,192,148074,1,0,0:0:0:0:
448,192,148074,1,0,0:0:0:0:
192,192,148229,1,0,0:0:0:0:
448,192,148229,1,0,0:0:0:0:
64,192,148383,1,0,0:0:0:0:
320,192,148383,1,0,0:0:0:0:
448,192,148383,1,0,0:0:0:0:
64,192,148538,1,0,0:0:0:0:
320,192,148538,1,0,0:0:0:0:
64,192,148693,1,0,0:0:0:0:
192,192,148693,1,0,0:0:0:0:
448,192,148693,1,0,0:0:0:0:
320,192,148770,1,0,0:0:0:0:
448,192,148847,1,0,0:0:0:0:
64,192,148925,1,0,0:0:0:0:
192,192,148925,1,0,0:0:0:0:
320,192,149002,1,0,0:0:0:0:
192,192,149054,1,0,0:0:0:0:
448,192,149105,1,0,0:0:0:0:
64,192,149157,1,0,0:0:0:0:
192,192,149208,1,0,0:0:0:0:
448,192,149260,1,0,0:0:0:0:
64,192,149311,1,0,0:0:0:0:
320,192,149311,1,0,0:0:0:0:
320,192,149466,1,0,0:0:0:0:
64,192,149621,1,0,0:0:0:0:
192,192,149621,1,0,0:0:0:0:
64,192,149776,1,0,0:0:0:0:
320,192,149776,1,0,0:0:0:0:
448,192,149776,1,0,0:0:0:0:
320,192,149930,1,0,0:0:0:0:
192,192,150085,1,0,0:0:0:0:
320,192,150085,1,0,0:0:0:0:
64,192,150240,1,0,0:0:0:0:
192,192,150240,1,0,0:0:0:0:
64,192,150394,1,0,0:0:0:0:
448,192,150394,1,0,0:0:0:0:
64,192,150549,1,0,0:0:0:0:
320,192,150549,1,0,0:0:0:0:
448,192,150549,1,0,0:0:0:0:
192,192,150704,1,0,0:0:0:0:
320,192,150704,1,0,0:0:0:0:
192,192,150859,1,0,0:0:0:0:
448,192,150859,1,0,0:0:0:0:
64,192,151013,1,0,0:0:0:0:
320,192,151013,1,0,0:0:0:0:
448,192,151013,1,0,0:0:0:0:
192,192,151168,1,0,0:0:0:0:
320,192,151323,1,0,0:0:0:0:
448,192,151323,1,0,0:0:0:0:
192,192,151477,1,0,0:0:0:0:
448,192,151477,1,0,0:0:0:0:
320,192,151555,1,0,0:0:0:0:
192,192,151632,1,0,0:0:0:0:
320,192,151709,1,0,0:0:0:0:
64,192,151787,1,0,0:0:0:0:
192,192,151787,1,0,0:0:0:0:
448,192,151787,1,0,0:0:0:0:
320,192,151941,1,0,0:0:0:0:
64,192,152019,1,0,0:0:0:0:
192,192,152096,1,0,0:0:0:0:
448,192,152096,1,0,0:0:0:0:
64,192,152251,1,0,0:0:0:0:
192,192,152251,1,0,0:0:0:0:
320,192,152251,1,0,0:0:0:0:
320,192,152406,1,0,0:0:0:0:
64,192,152560,1,0,0:0:0:0:
320,192,152560,1,0,0:0:0:0:
64,192,152715,1,0,0:0:0:0:
448,192,152715,1,0,0:0:0:0:
64,192,152870,1,0,0:0:0:0:
320,192,152870,1,0,0:0:0:0:
448,192,152947,1,0,0:0:0:0:
64,192,153024,1,0,0:0:0:0:
192,192,153024,1,0,0:0:0:0:
320,192,153024,1,0,0:0:0:0:
192,192,153179,1,0,0:0:0:0:
448,192,153179,1,0,0:0:0:0:
64,192,153334,1,0,0:0:0:0:
320,192,153334,1,0,0:0:0:0:
64,192,153489,1,0,0:0:0:0:
192,192,153489,1,0,0:0:0:0:
448,192,153489,1,0,0:0:0:0:
192,192,153643,1,0,0:0:0:0:
64,192,153798,1,0,0:0:0:0:
448,192,153798,1,0,0:0:0:0:
64,192,153953,1,0,0:0:0:0:
448,192,153953,1,0,0:0:0:0:
192,192,154107,1,0,0:0:0:0:
320,192,154107,1,0,0:0:0:0:
64,192,154262,1,0,0:0:0:0:
320,192,154262,1,0,0:0:0:0:
448,192,154262,1,0,0:0:0:0:
192,192,154417,1,0,0:0:0:0:
448,192,154417,1,0,0:0:0:0:
64,192,154571,1,0,0:0:0:0:
192,192,154571,1,0,0:0:0:0:
320,192,154571,1,0,0:0:0:0:
320,192,154726,1,0,0:0:0:0:
448,192,154726,1,0,0:0:0:0:
64,192,154881,1,0,0:0:0:0:
192,192,154881,1,0,0:0:0:0:
448,192,154881,1,0,0:0:0:0:
64,192,155036,1,0,0:0:0:0:
320,192,155036,1,0,0:0:0:0:
320,192,155190,1,0,0:0:0:0:
448,192,155190,1,0,0:0:0:0:
192,192,155345,1,0,0:0:0:0:
448,192,155345,1,0,0:0:0:0:
320,192,155422,1,0,0:0:0:0:
64,192,155500,1,0,0:0:0:0:
192,192,155500,1,0,0:0:0:0:
64,192,155654,1,0,0:0:0:0:
192,192,155809,1,0,0:0:0:0:
320,192,155809,1,0,0:0:0:0:
448,192,155809,1,0,0:0:0:0:
64,192,155964,1,0,0:0:0:0:
320,192,155964,1,0,0:0:0:0:
64,192,156119,1,0,0:0:0:0:
192,192,156119,1,0,0:0:0:0:
448,192,156119,1,0,0:0:0:0:
192,192,156273,1,0,0:0:0:0:
320,192,156273,1,0,0:0:0:0:
64,192,156428,1,0,0:0:0:0:
320,192,156428,1,0,0:0:0:0:
448,192,156428,1,0,0:0:0:0:
192,192,156583,1,0,0:0:0:0:
448,192,156583,1,0,0:0:0:0:
64,192,156737,1,0,0:0:0:0:
320,192,156737,1,0,0:0:0:0:
192,192,156815,1,0,0:0:0:0:
448,192,156892,1,0,0:0:0:0:
320,192,156969,1,0,0:0:0:0:
64,192,157047,1,0,0:0:0:0:
192,192,157047,1,0,0:0:0:0:
448,192,157124,1,0,0:0:0:0:
320,192,157201,1,0,0:0:0:0:
192,192,157279,1,0,0:0:0:0:
64,192,157356,1,0,0:0:0:0:
320,192,157356,1,0,0:0:0:0:
192,192,157434,1,0,0:0:0:0:
448,192,157434,1,0,0:0:0:0:
320,192,157511,1,0,0:0:0:0:
64,192,157588,1,0,0:0:0:0:
320,192,157666,1,0,0:0:0:0:
448,192,157666,1,0,0:0:0:0:
64,192,157743,1,0,0:0:0:0:
192,192,157743,1,0,0:0:0:0:
320,192,157820,1,0,0:0:0:0:
448,192,157820,1,0,0:0:0:0:
192,192,157898,1,0,0:0:0:0:
64,192,157975,1,0,0:0:0:0:
448,192,157975,1,0,0:0:0:0:
320,192,158027,1,0,0:0:0:0:
64,192,158284,1,0,0:0:0:0:
192,192,158284,1,0,0:0:0:0:
448,192,158362,1,0,0:0:0:0:
320,192,158439,1,0,0:0:0:0:
64,192,158516,1,0,0:0:0:0:
448,192,158594,1,0,0:0:0:0:
192,192,158671,1,0,0:0:0:0:
448,192,158748,1,0,0:0:0:0:
192,192,158826,1,0,0:0:0:0:
64,192,158903,1,0,0:0:0:0:
320,192,158903,1,0,0:0:0:0:
448,192,158903,1,0,0:0:0:0:
64,192,159213,1,0,0:0:0:0:
320,192,159213,1,0,0:0:0:0:
448,192,159213,1,0,0:0:0:0:
192,192,159367,1,0,0:0:0:0:
320,192,159367,1,0,0:0:0:0:
64,192,159522,1,0,0:0:0:0:
192,192,159522,1,0,0:0:0:0:
448,192,159522,1,0,0:0:0:0:
64,192,159677,1,0,0:0:0:0:
320,192,159677,1,0,0:0:0:0:
320,192,159831,1,0,0:0:0:0:
448,192,159831,1,0,0:0:0:0:
64,192,159986,1,0,0:0:0:0:
192,192,159986,1,0,0:0:0:0:
64,192,160141,1,0,0:0:0:0:
192,192,160141,1,0,0:0:0:0:
448,192,160141,1,0,0:0:0:0:
192,192,160296,1,0,0:0:0:0:
448,192,160296,1,0,0:0:0:0:
64,192,160450,1,0,0:0:0:0:
320,192,160450,1,0,0:0:0:0:
64,192,160605,1,0,0:0:0:0:
192,192,160605,1,0,0:0:0:0:
192,192,160760,1,0,0:0:0:0:
320,192,160760,1,0,0:0:0:0:
448,192,160760,1,0,0:0:0:0:
320,192,160914,1,0,0:0:0:0:
448,192,160914,1,0,0:0:0:0:
64,192,161069,1,0,0:0:0:0:
192,192,161069,1,0,0:0:0:0:
448,192,161069,1,0,0:0:0:0:
192,192,161224,1,0,0:0:0:0:
64,192,161378,1,0,0:0:0:0:
320,192,161378,1,0,0:0:0:0:
448,192,161378,1,0,0:0:0:0:
192,192,161533,1,0,0:0:0:0:
192,192,161688,1,0,0:0:0:0:
320,192,161688,1,0,0:0:0:0:
448,192,161688,1,0,0:0:0:0:
64,192,161843,1,0,0:0:0:0:
448,192,161843,1,0,0:0:0:0:
320,192,161920,1,0,0:0:0:0:
64,192,161997,1,0,0:0:0:0:
192,192,161997,1,0,0:0:0:0:
320,192,162075,1,0,0:0:0:0:
192,192,162152,1,0,0:0:0:0:
448,192,162152,1,0,0:0:0:0:
64,192,162307,1,0,0:0:0:0:
320,192,162307,1,0,0:0:0:0:
448,192,162307,1,0,0:0:0:0:
320,192,162461,1,0,0:0:0:0:
64,192,162616,1,0,0:0:0:0:
192,192,162616,1,0,0:0:0:0:
448,192,162616,1,0,0:0:0:0:
192,192,162771,1,0,0:0:0:0:
320,192,162771,1,0,0:0:0:0:
64,192,162926,1,0,0:0:0:0:
320,192,162926,1,0,0:0:0:0:
448,192,162926,1,0,0:0:0:0:
192,192,163080,1,0,0:0:0:0:
320,192,163158,1,0,0:0:0:0:
64,192,163235,1,0,0:0:0:0:
448,192,163235,1,0,0:0:0:0:
192,192,163390,1,0,0:0:0:0:
320,192,163390,1,0,0:0:0:0:
320,192,163544,1,0,0:0:0:0:
448,192,163544,1,0,0:0:0:0:
64,192,163699,1,0,0:0:0:0:
320,192,163776,1,0,0:0:0:0:
64,192,163854,1,0,0:0:0:0:
192,192,163854,1,0,0:0:0:0:
448,192,163931,1,0,0:0:0:0:
320,192,164008,1,0,0:0:0:0:
64,192,164086,1,0,0:0:0:0:
192,192,164163,1,0,0:0:0:0:
320,192,164163,1,0,0:0:0:0:
448,192,164163,1,0,0:0:0:0:
64,192,164318,1,0,0:0:0:0:
320,192,164318,1,0,0:0:0:0:
64,192,164473,1,0,0:0:0:0:
192,192,164473,1,0,0:0:0:0:
448,192,164473,1,0,0:0:0:0:
320,192,164627,1,0,0:0:0:0:
448,192,164627,1,0,0:0:0:0:
64,192,164782,1,0,0:0:0:0:
192,192,164782,1,0,0:0:0:0:
64,192,164937,1,0,0:0:0:0:
320,192,164937,1,0,0:0:0:0:
64,192,165091,1,0,0:0:0:0:
320,192,165091,1,0,0:0:0:0:
448,192,165091,1,0,0:0:0:0:
192,192,165246,1,0,0:0:0:0:
320,192,165246,1,0,0:0:0:0:
192,192,165401,1,0,0:0:0:0:
448,192,165401,1,0,0:0:0:0:
64,192,165556,1,0,0:0:0:0:
320,192,165556,1,0,0:0:0:0:
192,192,165710,1,0,0:0:0:0:
320,192,165710,1,0,0:0:0:0:
448,192,165710,1,0,0:0:0:0:
64,192,165865,1,0,0:0:0:0:
192,192,165865,1,0,0:0:0:0:
64,192,166020,1,0,0:0:0:0:
320,192,166020,1,0,0:0:0:0:
448,192,166020,1,0,0:0:0:0:
320,192,166174,1,0,0:0:0:0:
64,192,166329,1,0,0:0:0:0:
192,192,166329,1,0,0:0:0:0:
448,192,166329,1,0,0:0:0:0:
192,192,166484,1,0,0:0:0:0:
64,192,166638,1,0,0:0:0:0:
320,192,166638,1,0,0:0:0:0:
448,192,166638,1,0,0:0:0:0:
192,192,166793,128,0,166871:0:0:0:0:
64,192,166948,1,0,0:0:0:0:
192,192,166948,1,0,0:0:0:0:
448,192,166948,1,0,0:0:0:0:
320,192,167103,128,0,167180:0:0:0:0:
64,192,167257,1,0,0:0:0:0:
320,192,167257,1,0,0:0:0:0:
448,192,167257,1,0,0:0:0:0:
192,192,167412,1,0,0:0:0:0:
448,192,167489,1,0,0:0:0:0:
64,192,167567,1,0,0:0:0:0:
320,192,167567,1,0,0:0:0:0:
192,192,167721,1,0,0:0:0:0:
448,192,167721,1,0,0:0:0:0:
64,192,167876,1,0,0:0:0:0:
320,192,167876,1,0,0:0:0:0:
448,192,167953,1,0,0:0:0:0:
320,192,168031,1,0,0:0:0:0:
64,192,168108,1,0,0:0:0:0:
192,192,168108,1,0,0:0:0:0:
320,192,168186,1,0,0:0:0:0:
448,192,168186,1,0,0:0:0:0:
192,192,168263,1,0,0:0:0:0:
64,192,168340,1,0,0:0:0:0:
448,192,168340,1,0,0:0:0:0:
320,192,168418,1,0,0:0:0:0:
192,192,168495,1,0,0:0:0:0:
448,192,168572,1,0,0:0:0:0:
192,192,168650,1,0,0:0:0:0:
448,192,168727,1,0,0:0:0:0:
320,192,168804,128,0,168959:0:0:0:0:
192,192,168959,1,0,0:0:0:0:
64,192,169114,1,0,0:0:0:0:
192,192,169114,1,0,0:0:0:0:
448,192,169114,1,0,0:0:0:0:
320,192,169191,1,0,0:0:0:0:
64,192,169268,1,0,0:0:0:0:
192,192,169268,1,0,0:0:0:0:
448,192,169346,1,0,0:0:0:0:
64,192,169423,1,0,0:0:0:0:
192,192,169423,1,0,0:0:0:0:
320,192,169423,1,0,0:0:0:0:
448,192,169501,1,0,0:0:0:0:
192,192,169578,1,0,0:0:0:0:
320,192,169578,1,0,0:0:0:0:
64,192,169655,1,0,0:0:0:0:
320,192,169733,1,0,0:0:0:0:
448,192,169733,1,0,0:0:0:0:
64,192,169810,1,0,0:0:0:0:
192,192,169887,1,0,0:0:0:0:
448,192,169887,1,0,0:0:0:0:
320,192,169965,1,0,0:0:0:0:
64,192,170042,1,0,0:0:0:0:
192,192,170042,1,0,0:0:0:0:
448,192,170119,1,0,0:0:0:0:
64,192,170197,1,0,0:0:0:0:
320,192,170197,1,0,0:0:0:0:
192,192,170274,1,0,0:0:0:0:
64,192,170351,1,0,0:0:0:0:
320,192,170351,1,0,0:0:0:0:
192,192,170429,1,0,0:0:0:0:
320,192,170506,1,0,0:0:0:0:
448,192,170506,1,0,0:0:0:0:
64,192,170583,1,0,0:0:0:0:
192,192,170661,1,0,0:0:0:0:
320,192,170661,1,0,0:0:0:0:
448,192,170661,1,0,0:0:0:0:
64,192,170738,1,0,0:0:0:0:
192,192,170816,1,0,0:0:0:0:
448,192,170816,1,0,0:0:0:0:
320,192,170893,1,0,0:0:0:0:
64,192,170970,1,0,0:0:0:0:
192,192,170970,1,0,0:0:0:0:
448,192,170970,1,0,0:0:0:0:
320,192,171048,1,0,0:0:0:0:
64,192,171125,1,0,0:0:0:0:
192,192,171125,1,0,0:0:0:0:
448,192,171202,1,0,0:0:0:0:
64,192,171280,1,0,0:0:0:0:
192,192,171280,1,0,0:0:0:0:
320,192,171280,1,0,0:0:0:0:
448,192,171357,1,0,0:0:0:0:
64,192,171434,1,0,0:0:0:0:
320,192,171434,1,0,0:0:0:0:
192,192,171512,1,0,0:0:0:0:
64,192,171589,1,0,0:0:0:0:
320,192,171589,1,0,0:0:0:0:
448,192,171589,1,0,0:0:0:0:
192,192,171666,1,0,0:0:0:0:
320,192,171744,1,0,0:0:0:0:
64,192,171821,1,0,0:0:0:0:
192,192,171821,1,0,0:0:0:0:
320,192,171898,1,0,0:0:0:0:
448,192,171898,1,0,0:0:0:0:
64,192,171976,1,0,0:0:0:0:
192,192,172053,1,0,0:0:0:0:
448,192,172053,1,0,0:0:0:0:
320,192,172131,1,0,0:0:0:0:
64,192,172208,1,0,0:0:0:0:
192,192,172208,1,0,0:0:0:0:
448,192,172208,1,0,0:0:0:0:
320,192,172285,1,0,0:0:0:0:
64,192,172363,1,0,0:0:0:0:
192,192,172363,1,0,0:0:0:0:
320,192,172440,1,0,0:0:0:0:
64,192,172517,1,0,0:0:0:0:
448,192,172517,1,0,0:0:0:0:
192,192,172595,1,0,0:0:0:0:
64,192,172672,1,0,0:0:0:0:
320,192,172672,1,0,0:0:0:0:
192,192,172749,1,0,0:0:0:0:
64,192,172827,1,0,0:0:0:0:
320,192,172827,1,0,0:0:0:0:
448,192,172827,1,0,0:0:0:0:
192,192,172904,1,0,0:0:0:0:
320,192,172981,1,0,0:0:0:0:
448,192,172981,1,0,0:0:0:0:
192,192,173059,1,0,0:0:0:0:
320,192,173136,1,0,0:0:0:0:
448,192,173136,1,0,0:0:0:0:
64,192,173213,1,0,0:0:0:0:
192,192,173291,1,0,0:0:0:0:
448,192,173291,1,0,0:0:0:0:
320,192,173368,1,0,0:0:0:0:
64,192,173446,1,0,0:0:0:0:
192,192,173446,1,0,0:0:0:0:
448,192,173446,1,0,0:0:0:0:
320,192,173523,1,0,0:0:0:0:
64,192,173600,1,0,0:0:0:0:
192,192,173600,1,0,0:0:0:0:
320,192,173678,1,0,0:0:0:0:
64,192,173755,1,0,0:0:0:0:
192,192,173755,1,0,0:0:0:0:
448,192,173832,1,0,0:0:0:0:
64,192,173910,1,0,0:0:0:0:
320,192,173910,1,0,0:0:0:0:
192,192,173987,1,0,0:0:0:0:
64,192,174064,1,0,0:0:0:0:
320,192,174064,1,0,0:0:0:0:
448,192,174064,1,0,0:0:0:0:
192,192,174142,1,0,0:0:0:0:
320,192,174219,1,0,0:0:0:0:
448,192,174219,1,0,0:0:0:0:
64,192,174296,1,0,0:0:0:0:
192,192,174374,1,0,0:0:0:0:
448,192,174374,1,0,0:0:0:0:
320,192,174451,1,0,0:0:0:0:
64,192,174528,1,0,0:0:0:0:
192,192,174528,1,0,0:0:0:0:
448,192,174606,1,0,0:0:0:0:
64,192,174683,1,0,0:0:0:0:
320,192,174683,1,0,0:0:0:0:
192,192,174761,1,0,0:0:0:0:
320,192,174838,1,0,0:0:0:0:
448,192,174838,1,0,0:0:0:0:
64,192,174915,1,0,0:0:0:0:
192,192,174993,1,0,0:0:0:0:
320,192,174993,1,0,0:0:0:0:
448,192,174993,1,0,0:0:0:0:
64,192,175070,1,0,0:0:0:0:
192,192,175147,1,0,0:0:0:0:
448,192,175147,1,0,0:0:0:0:
320,192,175225,1,0,0:0:0:0:
64,192,175302,1,0,0:0:0:0:
192,192,175302,1,0,0:0:0:0:
448,192,175379,1,0,0:0:0:0:
64,192,175457,1,0,0:0:0:0:
320,192,175457,1,0,0:0:0:0:
192,192,175534,1,0,0:0:0:0:
64,192,175611,1,0,0:0:0:0:
320,192,175611,1,0,0:0:0:0:
448,192,175611,1,0,0:0:0:0:
192,192,175689,1,0,0:0:0:0:
64,192,175766,1,0,0:0:0:0:
320,192,175766,1,0,0:0:0:0:
448,192,175766,1,0,0:0:0:0:
192,192,175843,1,0,0:0:0:0:
320,192,175921,1,0,0:0:0:0:
448,192,175921,1,0,0:0:0:0:
64,192,175998,1,0,0:0:0:0:
192,192,176075,1,0,0:0:0:0:
320,192,176075,1,0,0:0:0:0:
448,192,176153,1,0,0:0:0:0:
64,192,176230,1,0,0:0:0:0:
192,192,176230,1,0,0:0:0:0:
320,192,176308,1,0,0:0:0:0:
448,192,176385,1,0,0:0:0:0:
192,192,176462,1,0,0:0:0:0:
64,192,176540,1,0,0:0:0:0:
320,192,176540,1,0,0:0:0:0:
448,192,176540,1,0,0:0:0:0:
192,192,176617,1,0,0:0:0:0:
320,192,176694,1,0,0:0:0:0:
448,192,176694,1,0,0:0:0:0:
64,192,176772,1,0,0:0:0:0:
192,192,176849,1,0,0:0:0:0:
320,192,176849,1,0,0:0:0:0:
448,192,176849,1,0,0:0:0:0:
64,192,176926,1,0,0:0:0:0:
192,192,177004,1,0,0:0:0:0:
448,192,177004,1,0,0:0:0:0:
320,192,177081,1,0,0:0:0:0:
64,192,177158,1,0,0:0:0:0:
192,192,177158,1,0,0:0:0:0:
448,192,177158,1,0,0:0:0:0:
320,192,177236,1,0,0:0:0:0:
64,192,177313,1,0,0:0:0:0:
192,192,177313,1,0,0:0:0:0:
448,192,177390,1,0,0:0:0:0:
64,192,177468,1,0,0:0:0:0:
192,192,177468,1,0,0:0:0:0:
448,192,177545,1,0,0:0:0:0:
64,192,177623,1,0,0:0:0:0:
320,192,177623,1,0,0:0:0:0:
192,192,177700,1,0,0:0:0:0:
448,192,177700,1,0,0:0:0:0:
64,192,177777,1,0,0:0:0:0:
320,192,177777,1,0,0:0:0:0:
192,192,177855,1,0,0:0:0:0:
320,192,177932,1,0,0:0:0:0:
64,192,178009,1,0,0:0:0:0:
192,192,178009,1,0,0:0:0:0:
448,192,178009,1,0,0:0:0:0:
320,192,178087,1,0,0:0:0:0:
192,192,178164,1,0,0:0:0:0:
64,192,178241,1,0,0:0:0:0:
320,192,178241,1,0,0:0:0:0:
448,192,178241,1,0,0:0:0:0:
192,192,178319,1,0,0:0:0:0:
320,192,178396,1,0,0:0:0:0:
448,192,178396,1,0,0:0:0:0:
64,192,178473,1,0,0:0:0:0:
192,192,178551,1,0,0:0:0:0:
448,192,178551,1,0,0:0:0:0:
320,192,178628,1,0,0:0:0:0:
64,192,178705,1,0,0:0:0:0:
192,192,178705,1,0,0:0:0:0:
448,192,178705,1,0,0:0:0:0:
320,192,178783,1,0,0:0:0:0:
64,192,178860,1,0,0:0:0:0:
192,192,178860,1,0,0:0:0:0:
448,192,178938,1,0,0:0:0:0:
64,192,179015,1,0,0:0:0:0:
320,192,179015,1,0,0:0:0:0:
64,192,179170,1,0,0:0:0:0:
320,192,179170,1,0,0:0:0:0:
192,192,179324,1,0,0:0:0:0:
320,192,179324,1,0,0:0:0:0:
448,192,179324,1,0,0:0:0:0:
64,192,179479,1,0,0:0:0:0:
192,192,179479,1,0,0:0:0:0:
448,192,179479,1,0,0:0:0:0:
64,192,179634,1,0,0:0:0:0:
320,192,179634,1,0,0:0:0:0:
192,192,179711,1,0,0:0:0:0:
64,192,179788,1,0,0:0:0:0:
320,192,179788,1,0,0:0:0:0:
448,192,179866,1,0,0:0:0:0:
192,192,179943,1,0,0:0:0:0:
320,192,179943,1,0,0:0:0:0:
64,192,180020,1,0,0:0:0:0:
192,192,180098,1,0,0:0:0:0:
320,192,180098,1,0,0:0:0:0:
448,192,180175,1,0,0:0:0:0:
64,192,180253,1,0,0:0:0:0:
192,192,180253,1,0,0:0:0:0:
320,192,180330,1,0,0:0:0:0:
448,192,180330,1,0,0:0:0:0:
64,192,180407,1,0,0:0:0:0:
192,192,180407,1,0,0:0:0:0:
448,192,180485,1,0,0:0:0:0:
64,192,180562,1,0,0:0:0:0:
320,192,180562,1,0,0:0:0:0:
192,192,180639,1,0,0:0:0:0:
448,192,180639,1,0,0:0:0:0:
64,192,180717,1,0,0:0:0:0:
320,192,180717,1,0,0:0:0:0:
192,192,180794,1,0,0:0:0:0:
320,192,180871,1,0,0:0:0:0:
448,192,180871,1,0,0:0:0:0:
64,192,180949,1,0,0:0:0:0:
320,192,181026,1,0,0:0:0:0:
448,192,181026,1,0,0:0:0:0:
64,192,181103,1,0,0:0:0:0:
192,192,181103,1,0,0:0:0:0:
448,192,181181,1,0,0:0:0:0:
64,192,181258,1,0,0:0:0:0:
192,192,181258,1,0,0:0:0:0:
320,192,181335,1,0,0:0:0:0:
448,192,181335,1,0,0:0:0:0:
64,192,181413,1,0,0:0:0:0:
192,192,181413,1,0,0:0:0:0:
320,192,181490,1,0,0:0:0:0:
448,192,181490,1,0,0:0:0:0:
192,192,181568,1,0,0:0:0:0:
320,192,181645,1,0,0:0:0:0:
448,192,181645,1,0,0:0:0:0:
64,192,181722,1,0,0:0:0:0:
192,192,181800,1,0,0:0:0:0:
320,192,181800,1,0,0:0:0:0:
64,192,181877,1,0,0:0:0:0:
448,192,181877,1,0,0:0:0:0:
192,192,181954,1,0,0:0:0:0:
320,192,182032,1,0,0:0:0:0:
448,192,182032,1,0,0:0:0:0:
64,192,182109,1,0,0:0:0:0:
320,192,182186,1,0,0:0:0:0:
448,192,182186,1,0,0:0:0:0:
64,192,182264,1,0,0:0:0:0:
192,192,182264,1,0,0:0:0:0:
448,192,182341,1,0,0:0:0:0:
64,192,182418,1,0,0:0:0:0:
320,192,182418,1,0,0:0:0:0:
192,192,182496,1,0,0:0:0:0:
320,192,182573,1,0,0:0:0:0:
448,192,182573,1,0,0:0:0:0:
64,192,182650,1,0,0:0:0:0:
192,192,182728,1,0,0:0:0:0:
448,192,182728,1,0,0:0:0:0:
64,192,182805,1,0,0:0:0:0:
320,192,182805,1,0,0:0:0:0:
192,192,182883,1,0,0:0:0:0:
448,192,182883,1,0,0:0:0:0:
320,192,182960,1,0,0:0:0:0:
64,192,183037,1,0,0:0:0:0:
192,192,183037,1,0,0:0:0:0:
320,192,183115,1,0,0:0:0:0:
448,192,183115,1,0,0:0:0:0:
64,192,183192,1,0,0:0:0:0:
192,192,183192,1,0,0:0:0:0:
448,192,183269,1,0,0:0:0:0:
64,192,183347,1,0,0:0:0:0:
320,192,183347,1,0,0:0:0:0:
192,192,183424,1,0,0:0:0:0:
448,192,183424,1,0,0:0:0:0:
320,192,183501,1,0,0:0:0:0:
192,192,183579,1,0,0:0:0:0:
448,192,183579,1,0,0:0:0:0:
64,192,183656,1,0,0:0:0:0:
192,192,183733,1,0,0:0:0:0:
448,192,183733,1,0,0:0:0:0:
64,192,183811,1,0,0:0:0:0:
320,192,183811,1,0,0:0:0:0:
192,192,183888,1,0,0:0:0:0:
320,192,183965,1,0,0:0:0:0:
448,192,183965,1,0,0:0:0:0:
64,192,184043,1,0,0:0:0:0:
192,192,184120,1,0,0:0:0:0:
448,192,184120,1,0,0:0:0:0:
320,192,184198,1,0,0:0:0:0:
192,192,184275,1,0,0:0:0:0:
448,192,184275,1,0,0:0:0:0:
320,192,184352,1,0,0:0:0:0:
64,192,184430,1,0,0:0:0:0:
192,192,184430,1,0,0:0:0:0:
448,192,184507,1,0,0:0:0:0:
64,192,184584,1,0,0:0:0:0:
320,192,184584,1,0,0:0:0:0:
192,192,184662,1,0,0:0:0:0:
448,192,184662,1,0,0:0:0:0:
64,192,184739,1,0,0:0:0:0:
320,192,184739,1,0,0:0:0:0:
192,192,184816,1,0,0:0:0:0:
320,192,184894,1,0,0:0:0:0:
448,192,184894,1,0,0:0:0:0:
64,192,184971,1,0,0:0:0:0:
192,192,185048,1,0,0:0:0:0:
448,192,185048,1,0,0:0:0:0:
320,192,185126,1,0,0:0:0:0:
64,192,185203,1,0,0:0:0:0:
192,192,185203,1,0,0:0:0:0:
320,192,185280,1,0,0:0:0:0:
448,192,185280,1,0,0:0:0:0:
64,192,185358,1,0,0:0:0:0:
192,192,185358,1,0,0:0:0:0:
448,192,185435,1,0,0:0:0:0:
64,192,185513,1,0,0:0:0:0:
320,192,185513,1,0,0:0:0:0:
192,192,185590,1,0,0:0:0:0:
448,192,185590,1,0,0:0:0:0:
64,192,185667,1,0,0:0:0:0:
320,192,185667,1,0,0:0:0:0:
192,192,185745,1,0,0:0:0:0:
320,192,185822,1,0,0:0:0:0:
448,192,185822,1,0,0:0:0:0:
64,192,185899,1,0,0:0:0:0:
320,192,185977,1,0,0:0:0:0:
448,192,185977,1,0,0:0:0:0:
64,192,186054,1,0,0:0:0:0:
192,192,186054,1,0,0:0:0:0:
448,192,186131,1,0,0:0:0:0:
64,192,186209,1,0,0:0:0:0:
192,192,186209,1,0,0:0:0:0:
320,192,186286,1,0,0:0:0:0:
448,192,186286,1,0,0:0:0:0:
64,192,186363,1,0,0:0:0:0:
192,192,186363,1,0,0:0:0:0:
320,192,186441,1,0,0:0:0:0:
448,192,186441,1,0,0:0:0:0:
192,192,186518,1,0,0:0:0:0:
320,192,186595,1,0,0:0:0:0:
448,192,186595,1,0,0:0:0:0:
64,192,186673,1,0,0:0:0:0:
192,192,186750,1,0,0:0:0:0:
320,192,186750,1,0,0:0:0:0:
64,192,186828,1,0,0:0:0:0:
448,192,186828,1,0,0:0:0:0:
192,192,186905,1,0,0:0:0:0:
320,192,186982,1,0,0:0:0:0:
448,192,186982,1,0,0:0:0:0:
64,192,187060,1,0,0:0:0:0:
320,192,187137,1,0,0:0:0:0:
448,192,187137,1,0,0:0:0:0:
64,192,187214,1,0,0:0:0:0:
192,192,187214,1,0,0:0:0:0:
448,192,187292,1,0,0:0:0:0:
64,192,187369,1,0,0:0:0:0:
320,192,187369,1,0,0:0:0:0:
192,192,187446,1,0,0:0:0:0:
320,192,187524,1,0,0:0:0:0:
448,192,187524,1,0,0:0:0:0:
64,192,187601,1,0,0:0:0:0:
192,192,187678,1,0,0:0:0:0:
320,192,187678,1,0,0:0:0:0:
448,192,187678,1,0,0:0:0:0:
64,192,187756,1,0,0:0:0:0:
192,192,187833,1,0,0:0:0:0:
448,192,187833,1,0,0:0:0:0:
320,192,187910,1,0,0:0:0:0:
64,192,187988,1,0,0:0:0:0:
448,192,187988,1,0,0:0:0:0:
192,192,188065,1,0,0:0:0:0:
64,192,188143,1,0,0:0:0:0:
320,192,188143,1,0,0:0:0:0:
448,192,188220,1,0,0:0:0:0:
64,192,188297,1,0,0:0:0:0:
192,192,188297,1,0,0:0:0:0:
320,192,188375,1,0,0:0:0:0:
448,192,188375,1,0,0:0:0:0:
64,192,188452,1,0,0:0:0:0:
320,192,188529,1,0,0:0:0:0:
448,192,188529,1,0,0:0:0:0:
64,192,188607,1,0,0:0:0:0:
320,192,188684,1,0,0:0:0:0:
448,192,188684,1,0,0:0:0:0:
64,192,188761,1,0,0:0:0:0:
192,192,188761,1,0,0:0:0:0:
448,192,188839,1,0,0:0:0:0:
64,192,188916,1,0,0:0:0:0:
192,192,188916,1,0,0:0:0:0:
320,192,188916,1,0,0:0:0:0:
320,192,189071,1,0,0:0:0:0:
448,192,189071,1,0,0:0:0:0:
64,192,189225,1,0,0:0:0:0:
320,192,189225,1,0,0:0:0:0:
448,192,189225,1,0,0:0:0:0:
64,192,189380,1,0,0:0:0:0:
192,192,189380,1,0,0:0:0:0:
320,192,189458,1,0,0:0:0:0:
448,192,189458,1,0,0:0:0:0:
64,192,189535,1,0,0:0:0:0:
192,192,189535,1,0,0:0:0:0:
320,192,189612,1,0,0:0:0:0:
448,192,189612,1,0,0:0:0:0:
64,192,189690,1,0,0:0:0:0:
192,192,189690,1,0,0:0:0:0:
320,192,189767,1,0,0:0:0:0:
448,192,189767,1,0,0:0:0:0:
64,192,189844,1,0,0:0:0:0:
192,192,189883,1,0,0:0:0:0:
64,192,189999,1,0,0:0:0:0:
320,192,190038,1,0,0:0:0:0:
64,192,190154,128,0,190463:0:0:0:0:
192,192,190154,1,0,0:0:0:0:
448,192,190154,1,0,0:0:0:0:
192,192,190308,1,0,0:0:0:0:
192,192,190618,1,0,0:0:0:0:
320,192,190618,128,0,190927:0:0:0:0:
448,192,190618,1,0,0:0:0:0:
192,192,190927,1,0,0:0:0:0:
448,192,191082,1,0,0:0:0:0:
192,192,191237,1,0,0:0:0:0:
448,192,191237,1,0,0:0:0:0:
64,192,191391,1,0,0:0:0:0:
192,192,191391,1,0,0:0:0:0:
320,192,191391,1,0,0:0:0:0:
64,192,191546,1,0,0:0:0:0:
448,192,191546,1,0,0:0:0:0:
320,192,191701,1,0,0:0:0:0:
64,192,191855,1,0,0:0:0:0:
192,192,191855,128,0,192320:0:0:0:0:
448,192,192165,1,0,0:0:0:0:
448,192,192320,1,0,0:0:0:0:
320,192,192474,1,0,0:0:0:0:
192,192,192526,1,0,0:0:0:0:
448,192,192577,1,0,0:0:0:0:
64,192,192629,1,0,0:0:0:0:
320,192,192629,128,0,192938:0:0:0:0:
192,192,192784,1,0,0:0:0:0:
64,192,193093,128,0,193402:0:0:0:0:
192,192,193093,1,0,0:0:0:0:
448,192,193093,1,0,0:0:0:0:
192,192,193402,1,0,0:0:0:0:
448,192,193480,1,0,0:0:0:0:
320,192,193557,128,0,193867:0:0:0:0:
192,192,193712,1,0,0:0:0:0:
64,192,193867,1,0,0:0:0:0:
192,192,193867,1,0,0:0:0:0:
448,192,193867,1,0,0:0:0:0:
320,192,194021,1,0,0:0:0:0:
448,192,194021,1,0,0:0:0:0:
192,192,194176,1,0,0:0:0:0:
64,192,194331,1,0,0:0:0:0:
448,192,194331,1,0,0:0:0:0:
192,192,194485,1,0,0:0:0:0:
448,192,194563,1,0,0:0:0:0:
64,192,194640,1,0,0:0:0:0:
192,192,194640,1,0,0:0:0:0:
320,192,194717,1,0,0:0:0:0:
64,192,194795,1,0,0:0:0:0:
448,192,194834,1,0,0:0:0:0:
320,192,194872,1,0,0:0:0:0:
192,192,194950,1,0,0:0:0:0:
320,192,195027,1,0,0:0:0:0:
64,192,195104,1,0,0:0:0:0:
192,192,195104,1,0,0:0:0:0:
448,192,195104,1,0,0:0:0:0:
192,192,195259,1,0,0:0:0:0:
320,192,195259,1,0,0:0:0:0:
64,192,195414,1,0,0:0:0:0:
320,192,195414,1,0,0:0:0:0:
448,192,195414,1,0,0:0:0:0:
64,192,195568,1,0,0:0:0:0:
192,192,195568,1,0,0:0:0:0:
320,192,195723,1,0,0:0:0:0:
448,192,195723,1,0,0:0:0:0:
64,192,195878,1,0,0:0:0:0:
192,192,195878,1,0,0:0:0:0:
448,192,195878,1,0,0:0:0:0:
64,192,196032,1,0,0:0:0:0:
192,192,196032,1,0,0:0:0:0:
320,192,196187,1,0,0:0:0:0:
192,192,196265,1,0,0:0:0:0:
320,192,196342,1,0,0:0:0:0:
448,192,196342,1,0,0:0:0:0:
192,192,196497,1,0,0:0:0:0:
64,192,196651,1,0,0:0:0:0:
320,192,196651,1,0,0:0:0:0:
448,192,196651,1,0,0:0:0:0:
192,192,196806,1,0,0:0:0:0:
448,192,196806,1,0,0:0:0:0:
64,192,196961,1,0,0:0:0:0:
192,192,196961,1,0,0:0:0:0:
320,192,196961,1,0,0:0:0:0:
64,192,197115,1,0,0:0:0:0:
320,192,197115,1,0,0:0:0:0:
192,192,197270,1,0,0:0:0:0:
320,192,197270,1,0,0:0:0:0:
448,192,197270,1,0,0:0:0:0:
64,192,197425,1,0,0:0:0:0:
192,192,197425,1,0,0:0:0:0:
64,192,197580,1,0,0:0:0:0:
448,192,197580,1,0,0:0:0:0:
192,192,197734,1,0,0:0:0:0:
320,192,197734,1,0,0:0:0:0:
64,192,197889,1,0,0:0:0:0:
320,192,197889,1,0,0:0:0:0:
448,192,197889,1,0,0:0:0:0:
192,192,198044,1,0,0:0:0:0:
320,192,198198,1,0,0:0:0:0:
448,192,198198,1,0,0:0:0:0:
64,192,198276,1,0,0:0:0:0:
448,192,198353,1,0,0:0:0:0:
192,192,198430,1,0,0:0:0:0:
320,192,198508,1,0,0:0:0:0:
448,192,198508,1,0,0:0:0:0:
64,192,198585,1,0,0:0:0:0:
192,192,198662,1,0,0:0:0:0:
448,192,198662,1,0,0:0:0:0:
320,192,198740,1,0,0:0:0:0:
64,192,198817,1,0,0:0:0:0:
448,192,198817,1,0,0:0:0:0:
192,192,198869,1,0,0:0:0:0:
64,192,199127,1,0,0:0:0:0:
192,192,199127,1,0,0:0:0:0:
448,192,199204,1,0,0:0:0:0:
320,192,199281,1,0,0:0:0:0:
64,192,199359,1,0,0:0:0:0:
320,192,199436,1,0,0:0:0:0:
192,192,199513,1,0,0:0:0:0:
448,192,199591,1,0,0:0:0:0:
192,192,199668,1,0,0:0:0:0:
64,192,199745,1,0,0:0:0:0:
320,192,199745,1,0,0:0:0:0:
448,192,199745,1,0,0:0:0:0:
64,192,200055,1,0,0:0:0:0:
320,192,200055,1,0,0:0:0:0:
448,192,200055,1,0,0:0:0:0:
192,192,200210,1,0,0:0:0:0:
320,192,200210,1,0,0:0:0:0:
64,192,200364,1,0,0:0:0:0:
192,192,200364,1,0,0:0:0:0:
448,192,200364,1,0,0:0:0:0:
64,192,200519,1,0,0:0:0:0:
320,192,200519,1,0,0:0:0:0:
320,192,200674,1,0,0:0:0:0:
448,192,200674,1,0,0:0:0:0:
64,192,200828,1,0,0:0:0:0:
192,192,200828,1,0,0:0:0:0:
64,192,200983,1,0,0:0:0:0:
192,192,200983,1,0,0:0:0:0:
448,192,200983,1,0,0:0:0:0:
192,192,201138,1,0,0:0:0:0:
448,192,201138,1,0,0:0:0:0:
64,192,201292,1,0,0:0:0:0:
320,192,201292,1,0,0:0:0:0:
64,192,201447,1,0,0:0:0:0:
192,192,201447,1,0,0:0:0:0:
192,192,201602,1,0,0:0:0:0:
320,192,201602,1,0,0:0:0:0:
448,192,201602,1,0,0:0:0:0:
320,192,201757,1,0,0:0:0:0:
448,192,201757,1,0,0:0:0:0:
64,192,201911,1,0,0:0:0:0:
192,192,201911,1,0,0:0:0:0:
448,192,201911,1,0,0:0:0:0:
192,192,202066,1,0,0:0:0:0:
192,192,202221,1,0,0:0:0:0:
320,192,202221,1,0,0:0:0:0:
448,192,202221,1,0,0:0:0:0:
320,192,202375,1,0,0:0:0:0:
64,192,202530,1,0,0:0:0:0:
192,192,202530,1,0,0:0:0:0:
448,192,202530,1,0,0:0:0:0:
320,192,202685,1,0,0:0:0:0:
448,192,202685,1,0,0:0:0:0:
192,192,202762,1,0,0:0:0:0:
64,192,202840,1,0,0:0:0:0:
320,192,202840,1,0,0:0:0:0:
448,192,202840,1,0,0:0:0:0:
192,192,202917,1,0,0:0:0:0:
64,192,202994,1,0,0:0:0:0:
448,192,202994,1,0,0:0:0:0:
64,192,203149,1,0,0:0:0:0:
192,192,203149,1,0,0:0:0:0:
320,192,203149,1,0,0:0:0:0:
320,192,203304,1,0,0:0:0:0:
64,192,203458,1,0,0:0:0:0:
192,192,203458,1,0,0:0:0:0:
448,192,203458,1,0,0:0:0:0:
192,192,203613,1,0,0:0:0:0:
320,192,203613,1,0,0:0:0:0:
64,192,203768,1,0,0:0:0:0:
320,192,203768,1,0,0:0:0:0:
448,192,203768,1,0,0:0:0:0:
192,192,203922,1,0,0:0:0:0:
320,192,204000,1,0,0:0:0:0:
64,192,204077,1,0,0:0:0:0:
448,192,204077,1,0,0:0:0:0:
192,192,204232,1,0,0:0:0:0:
320,192,204232,1,0,0:0:0:0:
320,192,204387,1,0,0:0:0:0:
448,192,204387,1,0,0:0:0:0:
64,192,204541,1,0,0:0:0:0:
320,192,204619,1,0,0:0:0:0:
64,192,204696,1,0,0:0:0:0:
192,192,204696,1,0,0:0:0:0:
448,192,204773,1,0,0:0:0:0:
320,192,204851,1,0,0:0:0:0:
64,192,204928,1,0,0:0:0:0:
192,192,205005,1,0,0:0:0:0:
320,192,205005,1,0,0:0:0:0:
448,192,205005,1,0,0:0:0:0:
64,192,205160,1,0,0:0:0:0:
320,192,205160,1,0,0:0:0:0:
64,192,205315,1,0,0:0:0:0:
192,192,205315,1,0,0:0:0:0:
448,192,205315,1,0,0:0:0:0:
320,192,205470,1,0,0:0:0:0:
448,192,205470,1,0,0:0:0:0:
64,192,205624,1,0,0:0:0:0:
192,192,205624,1,0,0:0:0:0:
64,192,205779,1,0,0:0:0:0:
320,192,205779,1,0,0:0:0:0:
64,192,205934,1,0,0:0:0:0:
320,192,205934,1,0,0:0:0:0:
448,192,205934,1,0,0:0:0:0:
192,192,206088,1,0,0:0:0:0:
320,192,206088,1,0,0:0:0:0:
192,192,206243,1,0,0:0:0:0:
448,192,206243,1,0,0:0:0:0:
64,192,206398,1,0,0:0:0:0:
320,192,206398,1,0,0:0:0:0:
192,192,206552,1,0,0:0:0:0:
320,192,206552,1,0,0:0:0:0:
448,192,206552,1,0,0:0:0:0:
64,192,206707,1,0,0:0:0:0:
192,192,206707,1,0,0:0:0:0:
64,192,206862,1,0,0:0:0:0:
320,192,206862,1,0,0:0:0:0:
448,192,206862,1,0,0:0:0:0:
320,192,207017,1,0,0:0:0:0:
64,192,207171,1,0,0:0:0:0:
192,192,207171,1,0,0:0:0:0:
448,192,207171,1,0,0:0:0:0:
192,192,207326,1,0,0:0:0:0:
64,192,207481,1,0,0:0:0:0:
320,192,207481,1,0,0:0:0:0:
448,192,207481,1,0,0:0:0:0:
192,192,207635,128,0,207713:0:0:0:0:
64,192,207790,1,0,0:0:0:0:
192,192,207790,1,0,0:0:0:0:
448,192,207790,1,0,0:0:0:0:
320,192,207945,128,0,208022:0:0:0:0:
64,192,208100,1,0,0:0:0:0:
320,192,208100,1,0,0:0:0:0:
448,192,208100,1,0,0:0:0:0:
192,192,208254,1,0,0:0:0:0:
448,192,208332,1,0,0:0:0:0:
64,192,208409,1,0,0:0:0:0:
320,192,208409,1,0,0:0:0:0:
192,192,208564,1,0,0:0:0:0:
448,192,208564,1,0,0:0:0:0:
64,192,208718,1,0,0:0:0:0:
320,192,208718,1,0,0:0:0:0:
448,192,208796,1,0,0:0:0:0:
320,192,208873,1,0,0:0:0:0:
64,192,208950,1,0,0:0:0:0:
192,192,208950,1,0,0:0:0:0:
320,192,209028,1,0,0:0:0:0:
448,192,209028,1,0,0:0:0:0:
192,192,209105,1,0,0:0:0:0:
64,192,209182,1,0,0:0:0:0:
448,192,209182,1,0,0:0:0:0:
320,192,209260,1,0,0:0:0:0:
192,192,209337,1,0,0:0:0:0:
448,192,209415,1,0,0:0:0:0:
192,192,209492,1,0,0:0:0:0:
448,192,209569,1,0,0:0:0:0:
320,192,209647,128,0,209801:0:0:0:0:
192,192,209801,1,0,0:0:0:0:
64,192,209956,1,0,0:0:0:0:
192,192,209956,1,0,0:0:0:0:
320,192,209956,1,0,0:0:0:0:
448,192,209956,1,0,0:0:0:0:
64,192,210111,1,0,0:0:0:0:
320,192,210111,1,0,0:0:0:0:
192,192,210265,1,0,0:0:0:0:
320,192,210420,1,0,0:0:0:0:
448,192,210420,1,0,0:0:0:0:
192,192,210575,1,0,0:0:0:0:
64,192,210729,1,0,0:0:0:0:
320,192,210729,1,0,0:0:0:0:
192,192,210884,1,0,0:0:0:0:
448,192,210884,1,0,0:0:0:0:
64,192,211039,1,0,0:0:0:0:
320,192,211039,128,0,211271:0:0:0:0:
192,192,211194,1,0,0:0:0:0:
64,192,211348,1,0,0:0:0:0:
448,192,211348,1,0,0:0:0:0:
192,192,211503,1,0,0:0:0:0:
448,192,211503,1,0,0:0:0:0:
192,192,211658,1,0,0:0:0:0:
320,192,211658,1,0,0:0:0:0:
64,192,211812,1,0,0:0:0:0:
448,192,211812,128,0,212044:0:0:0:0:
192,192,211967,1,0,0:0:0:0:
192,192,212122,1,0,0:0:0:0:
320,192,212122,1,0,0:0:0:0:
64,192,212277,1,0,0:0:0:0:
192,192,212431,1,0,0:0:0:0:
448,192,212431,1,0,0:0:0:0:
64,192,212586,1,0,0:0:0:0:
192,192,212663,1,0,0:0:0:0:
448,192,212663,1,0,0:0:0:0:
320,192,212741,128,0,212895:0:0:0:0:
64,192,212895,128,0,213050:0:0:0:0:
192,192,212895,1,0,0:0:0:0:
320,192,213050,1,0,0:0:0:0:
448,192,213050,128,0,213282:0:0:0:0:
192,192,213205,1,0,0:0:0:0:
64,192,213359,128,0,213592:0:0:0:0:
320,192,213359,1,0,0:0:0:0:
192,192,213514,1,0,0:0:0:0:
320,192,213669,1,0,0:0:0:0:
448,192,213669,128,0,213978:0:0:0:0:
64,192,213824,1,0,0:0:0:0:
192,192,213978,1,0,0:0:0:0:
64,192,214133,1,0,0:0:0:0:
320,192,214133,1,0,0:0:0:0:
64,192,214288,1,0,0:0:0:0:
320,192,214288,128,0,214597:0:0:0:0:
192,192,214442,1,0,0:0:0:0:
64,192,214597,1,0,0:0:0:0:
448,192,214597,1,0,0:0:0:0:
192,192,214752,1,0,0:0:0:0:
64,192,214907,1,0,0:0:0:0:
320,192,214907,1,0,0:0:0:0:
448,192,214907,1,0,0:0:0:0:
192,192,214984,1,0,0:0:0:0:
320,192,215061,1,0,0:0:0:0:
448,192,215061,1,0,0:0:0:0:
64,192,215139,1,0,0:0:0:0:
192,192,215216,1,0,0:0:0:0:
448,192,215216,1,0,0:0:0:0:
320,192,215293,1,0,0:0:0:0:
64,192,215371,1,0,0:0:0:0:
192,192,215371,1,0,0:0:0:0:
448,192,215448,1,0,0:0:0:0:
320,192,215525,1,0,0:0:0:0:
64,192,215603,1,0,0:0:0:0:
192,192,215680,1,0,0:0:0:0:
448,192,215680,1,0,0:0:0:0:
320,192,215757,1,0,0:0:0:0:
64,192,215835,1,0,0:0:0:0:
448,192,215835,1,0,0:0:0:0:
192,192,215912,1,0,0:0:0:0:
64,192,215989,1,0,0:0:0:0:
320,192,215989,1,0,0:0:0:0:
448,192,216067,1,0,0:0:0:0:
192,192,216144,1,0,0:0:0:0:
320,192,216222,1,0,0:0:0:0:
64,192,216299,1,0,0:0:0:0:
192,192,216299,1,0,0:0:0:0:
448,192,216376,1,0,0:0:0:0:
64,192,216454,1,0,0:0:0:0:
320,192,216454,1,0,0:0:0:0:
192,192,216531,1,0,0:0:0:0:
448,192,216608,1,0,0:0:0:0:
320,192,216686,1,0,0:0:0:0:
64,192,216763,1,0,0:0:0:0:
192,192,216763,1,0,0:0:0:0:
320,192,216840,1,0,0:0:0:0:
448,192,216918,1,0,0:0:0:0:
64,192,216995,1,0,0:0:0:0:
192,192,217072,1,0,0:0:0:0:
320,192,217072,1,0,0:0:0:0:
448,192,217150,1,0,0:0:0:0:
64,192,217227,1,0,0:0:0:0:
320,192,217304,1,0,0:0:0:0:
64,192,217382,1,0,0:0:0:0:
192,192,217421,1,0,0:0:0:0:
448,192,217459,1,0,0:0:0:0:
320,192,217498,1,0,0:0:0:0:
64,192,217537,1,0,0:0:0:0:
192,192,217575,1,0,0:0:0:0:
448,192,217614,1,0,0:0:0:0:
320,192,217653,1,0,0:0:0:0:
64,192,217691,1,0,0:0:0:0:
192,192,217730,1,0,0:0:0:0:
448,192,217769,1,0,0:0:0:0:
320,192,217807,1,0,0:0:0:0:
64,192,217846,1,0,0:0:0:0:
192,192,217885,1,0,0:0:0:0:
448,192,217923,1,0,0:0:0:0:
320,192,217962,1,0,0:0:0:0:
64,192,218001,1,0,0:0:0:0:
192,192,218039,1,0,0:0:0:0:
448,192,218078,1,0,0:0:0:0:
320,192,218117,1,0,0:0:0:0:
64,192,218155,1,0,0:0:0:0:
192,192,218194,1,0,0:0:0:0:
448,192,218233,1,0,0:0:0:0:
320,192,218271,1,0,0:0:0:0:
64,192,218310,1,0,0:0:0:0:
192,192,218349,1,0,0:0:0:0:
448,192,218387,1,0,0:0:0:0:
320,192,218426,1,0,0:0:0:0:
64,192,218465,1,0,0:0:0:0:
192,192,218503,1,0,0:0:0:0:
448,192,218542,1,0,0:0:0:0:
320,192,218581,1,0,0:0:0:0:
64,192,218619,1,0,0:0:0:0:
192,192,218619,1,0,0:0:0:0:
320,192,218852,1,0,0:0:0:0:
64,192,218929,1,0,0:0:0:0:
448,192,218929,1,0,0:0:0:0:
320,192,219084,1,0,0:0:0:0:
448,192,219084,1,0,0:0:0:0:
192,192,219161,1,0,0:0:0:0:
64,192,219238,1,0,0:0:0:0:
320,192,219238,1,0,0:0:0:0:
192,192,219316,1,0,0:0:0:0:
320,192,219393,1,0,0:0:0:0:
448,192,219393,1,0,0:0:0:0:
64,192,219470,1,0,0:0:0:0:
320,192,219548,1,0,0:0:0:0:
448,192,219548,1,0,0:0:0:0:
320,192,219625,1,0,0:0:0:0:
448,192,219625,1,0,0:0:0:0:
64,192,219702,1,0,0:0:0:0:
192,192,219702,1,0,0:0:0:0:
64,192,219780,1,0,0:0:0:0:
192,192,219780,1,0,0:0:0:0:
320,192,219857,1,0,0:0:0:0:
448,192,219857,1,0,0:0:0:0:
64,192,219934,1,0,0:0:0:0:
192,192,220012,1,0,0:0:0:0:
448,192,220012,1,0,0:0:0:0:
320,192,220089,1,0,0:0:0:0:
64,192,220167,1,0,0:0:0:0:
192,192,220167,1,0,0:0:0:0:
448,192,220167,1,0,0:0:0:0:
320,192,220244,1,0,0:0:0:0:
64,192,220321,1,0,0:0:0:0:
192,192,220321,1,0,0:0:0:0:
448,192,220399,1,0,0:0:0:0:
64,192,220476,1,0,0:0:0:0:
320,192,220476,1,0,0:0:0:0:
192,192,220553,1,0,0:0:0:0:
320,192,220631,1,0,0:0:0:0:
448,192,220631,1,0,0:0:0:0:
64,192,220708,1,0,0:0:0:0:
192,192,220785,1,0,0:0:0:0:
448,192,220785,1,0,0:0:0:0:
320,192,220863,1,0,0:0:0:0:
64,192,220940,1,0,0:0:0:0:
192,192,220940,1,0,0:0:0:0:
320,192,221017,1,0,0:0:0:0:
448,192,221017,1,0,0:0:0:0:
64,192,221095,1,0,0:0:0:0:
192,192,221095,1,0,0:0:0:0:
448,192,221172,1,0,0:0:0:0:
64,192,221249,1,0,0:0:0:0:
320,192,221249,1,0,0:0:0:0:
192,192,221327,1,0,0:0:0:0:
64,192,221404,1,0,0:0:0:0:
320,192,221404,1,0,0:0:0:0:
448,192,221404,1,0,0:0:0:0:
192,192,221482,1,0,0:0:0:0:
320,192,221559,1,0,0:0:0:0:
448,192,221559,1,0,0:0:0:0:
64,192,221636,1,0,0:0:0:0:
192,192,221714,1,0,0:0:0:0:
320,192,221714,1,0,0:0:0:0:
448,192,221714,1,0,0:0:0:0:
64,192,221791,1,0,0:0:0:0:
192,192,221868,1,0,0:0:0:0:
448,192,221868,1,0,0:0:0:0:
320,192,221946,1,0,0:0:0:0:
64,192,222023,1,0,0:0:0:0:
192,192,222023,1,0,0:0:0:0:
448,192,222023,1,0,0:0:0:0:
320,192,222100,1,0,0:0:0:0:
64,192,222178,1,0,0:0:0:0:
192,192,222178,1,0,0:0:0:0:
448,192,222255,1,0,0:0:0:0:
64,192,222332,1,0,0:0:0:0:
192,192,222332,1,0,0:0:0:0:
320,192,222332,1,0,0:0:0:0:
448,192,222410,1,0,0:0:0:0:
320,192,222487,1,0,0:0:0:0:
64,192,222564,1,0,0:0:0:0:
192,192,222564,1,0,0:0:0:0:
320,192,222642,1,0,0:0:0:0:
448,192,222642,1,0,0:0:0:0:
64,192,222719,1,0,0:0:0:0:
192,192,222797,1,0,0:0:0:0:
448,192,222797,1,0,0:0:0:0:
320,192,222874,1,0,0:0:0:0:
64,192,222951,1,0,0:0:0:0:
192,192,222951,1,0,0:0:0:0:
448,192,222951,1,0,0:0:0:0:
320,192,223029,1,0,0:0:0:0:
64,192,223106,1,0,0:0:0:0:
192,192,223106,1,0,0:0:0:0:
448,192,223183,1,0,0:0:0:0:
64,192,223261,1,0,0:0:0:0:
192,192,223261,1,0,0:0:0:0:
320,192,223261,1,0,0:0:0:0:
448,192,223338,1,0,0:0:0:0:
192,192,223415,1,0,0:0:0:0:
320,192,223415,1,0,0:0:0:0:
64,192,223493,1,0,0:0:0:0:
192,192,223570,1,0,0:0:0:0:
320,192,223570,1,0,0:0:0:0:
448,192,223570,1,0,0:0:0:0:
64,192,223647,1,0,0:0:0:0:
320,192,223725,1,0,0:0:0:0:
448,192,223725,1,0,0:0:0:0:
64,192,223802,1,0,0:0:0:0:
320,192,223879,1,0,0:0:0:0:
448,192,223879,1,0,0:0:0:0:
64,192,223957,1,0,0:0:0:0:
192,192,224034,1,0,0:0:0:0:
448,192,224034,1,0,0:0:0:0:
64,192,224112,1,0,0:0:0:0:
320,192,224112,1,0,0:0:0:0:
192,192,224189,1,0,0:0:0:0:
448,192,224189,1,0,0:0:0:0:
320,192,224266,1,0,0:0:0:0:
64,192,224344,1,0,0:0:0:0:
192,192,224344,1,0,0:0:0:0:
320,192,224421,1,0,0:0:0:0:
64,192,224498,1,0,0:0:0:0:
192,192,224498,1,0,0:0:0:0:
448,192,224576,1,0,0:0:0:0:
64,192,224653,1,0,0:0:0:0:
320,192,224653,1,0,0:0:0:0:
192,192,224730,1,0,0:0:0:0:
64,192,224808,1,0,0:0:0:0:
320,192,224808,1,0,0:0:0:0:
448,192,224808,1,0,0:0:0:0:
192,192,224885,1,0,0:0:0:0:
320,192,224962,1,0,0:0:0:0:
448,192,224962,1,0,0:0:0:0:
64,192,225040,1,0,0:0:0:0:
192,192,225117,1,0,0:0:0:0:
320,192,225117,1,0,0:0:0:0:
448,192,225117,1,0,0:0:0:0:
64,192,225194,1,0,0:0:0:0:
192,192,225272,1,0,0:0:0:0:
320,192,225272,1,0,0:0:0:0:
448,192,225349,1,0,0:0:0:0:
64,192,225427,1,0,0:0:0:0:
320,192,225427,1,0,0:0:0:0:
192,192,225504,1,0,0:0:0:0:
320,192,225581,1,0,0:0:0:0:
448,192,225581,1,0,0:0:0:0:
192,192,225659,1,0,0:0:0:0:
320,192,225736,1,0,0:0:0:0:
448,192,225736,1,0,0:0:0:0:
64,192,225813,1,0,0:0:0:0:
192,192,225891,1,0,0:0:0:0:
448,192,225891,1,0,0:0:0:0:
320,192,225968,1,0,0:0:0:0:
64,192,226045,1,0,0:0:0:0:
192,192,226045,1,0,0:0:0:0:
448,192,226123,1,0,0:0:0:0:
64,192,226200,1,0,0:0:0:0:
320,192,226200,1,0,0:0:0:0:
192,192,226277,1,0,0:0:0:0:
64,192,226355,1,0,0:0:0:0:
320,192,226355,1,0,0:0:0:0:
448,192,226355,1,0,0:0:0:0:
192,192,226432,1,0,0:0:0:0:
320,192,226509,1,0,0:0:0:0:
448,192,226509,1,0,0:0:0:0:
64,192,226587,1,0,0:0:0:0:
192,192,226664,1,0,0:0:0:0:
448,192,226664,1,0,0:0:0:0:
320,192,226742,1,0,0:0:0:0:
64,192,226819,1,0,0:0:0:0:
448,192,226819,1,0,0:0:0:0:
192,192,226896,1,0,0:0:0:0:
64,192,226974,1,0,0:0:0:0:
320,192,226974,1,0,0:0:0:0:
448,192,227051,1,0,0:0:0:0:
192,192,227128,1,0,0:0:0:0:
320,192,227128,1,0,0:0:0:0:
64,192,227206,1,0,0:0:0:0:
192,192,227283,1,0,0:0:0:0:
320,192,227283,1,0,0:0:0:0:
448,192,227283,1,0,0:0:0:0:
320,192,227438,1,0,0:0:0:0:
448,192,227438,1,0,0:0:0:0:
64,192,227592,1,0,0:0:0:0:
192,192,227592,1,0,0:0:0:0:
448,192,227592,1,0,0:0:0:0:
64,192,227747,1,0,0:0:0:0:
192,192,227747,1,0,0:0:0:0:
192,192,227902,1,0,0:0:0:0:
448,192,227902,1,0,0:0:0:0:
320,192,227979,1,0,0:0:0:0:
64,192,228057,1,0,0:0:0:0:
192,192,228057,1,0,0:0:0:0:
448,192,228057,1,0,0:0:0:0:
320,192,228134,1,0,0:0:0:0:
64,192,228211,1,0,0:0:0:0:
192,192,228211,1,0,0:0:0:0:
448,192,228211,1,0,0:0:0:0:
320,192,228366,1,0,0:0:0:0:
448,192,228366,1,0,0:0:0:0:
192,192,228443,1,0,0:0:0:0:
64,192,228521,1,0,0:0:0:0:
320,192,228521,1,0,0:0:0:0:
448,192,228521,1,0,0:0:0:0:
192,192,228675,1,0,0:0:0:0:
320,192,228753,1,0,0:0:0:0:
448,192,228753,1,0,0:0:0:0:
64,192,228830,1,0,0:0:0:0:
192,192,228830,1,0,0:0:0:0:
64,192,228985,1,0,0:0:0:0:
320,192,228985,1,0,0:0:0:0:
448,192,228985,1,0,0:0:0:0:
320,192,229139,1,0,0:0:0:0:
448,192,229139,1,0,0:0:0:0:
64,192,229217,1,0,0:0:0:0:
192,192,229217,1,0,0:0:0:0:
320,192,229294,1,0,0:0:0:0:
448,192,229294,1,0,0:0:0:0:
64,192,229371,1,0,0:0:0:0:
192,192,229371,1,0,0:0:0:0:
320,192,229449,1,0,0:0:0:0:
448,192,229449,1,0,0:0:0:0:
64,192,229526,1,0,0:0:0:0:
320,192,229604,1,0,0:0:0:0:
448,192,229604,1,0,0:0:0:0:
64,192,229681,1,0,0:0:0:0:
192,192,229758,1,0,0:0:0:0:
320,192,229758,1,0,0:0:0:0:
448,192,229758,1,0,0:0:0:0:
192,192,229913,1,0,0:0:0:0:
320,192,229913,1,0,0:0:0:0:
64,192,230068,1,0,0:0:0:0:
192,192,230068,1,0,0:0:0:0:
448,192,230068,1,0,0:0:0:0:
64,192,230222,1,0,0:0:0:0:
320,192,230222,1,0,0:0:0:0:
448,192,230222,1,0,0:0:0:0:
64,192,230377,1,0,0:0:0:0:
192,192,230377,1,0,0:0:0:0:
448,192,230377,1,0,0:0:0:0:
320,192,230454,1,0,0:0:0:0:
64,192,230532,1,0,0:0:0:0:
192,192,230532,1,0,0:0:0:0:
448,192,230583,1,0,0:0:0:0:
320,192,230635,1,0,0:0:0:0:
192,192,230686,1,0,0:0:0:0:
64,192,230725,1,0,0:0:0:0:
448,192,230764,1,0,0:0:0:0:
320,192,230803,1,0,0:0:0:0:
192,192,230841,1,0,0:0:0:0:
64,192,230880,1,0,0:0:0:0:
448,192,230919,1,0,0:0:0:0:
320,192,230957,1,0,0:0:0:0:
64,192,230996,1,0,0:0:0:0:
192,192,230996,1,0,0:0:0:0:
320,192,231073,1,0,0:0:0:0:
448,192,231073,1,0,0:0:0:0:
64,192,231151,1,0,0:0:0:0:
192,192,231151,1,0,0:0:0:0:
448,192,231228,1,0,0:0:0:0:
64,192,231305,1,0,0:0:0:0:
320,192,231305,1,0,0:0:0:0:
192,192,231383,1,0,0:0:0:0:
448,192,231383,1,0,0:0:0:0:
64,192,231460,1,0,0:0:0:0:
320,192,231460,1,0,0:0:0:0:
192,192,231537,1,0,0:0:0:0:
320,192,231615,1,0,0:0:0:0:
448,192,231615,1,0,0:0:0:0:
64,192,231692,1,0,0:0:0:0:
320,192,231769,1,0,0:0:0:0:
448,192,231769,1,0,0:0:0:0:
64,192,231847,1,0,0:0:0:0:
192,192,231847,1,0,0:0:0:0:
448,192,231924,1,0,0:0:0:0:
64,192,232001,1,0,0:0:0:0:
192,192,232001,1,0,0:0:0:0:
320,192,232079,1,0,0:0:0:0:
448,192,232079,1,0,0:0:0:0:
64,192,232156,1,0,0:0:0:0:
192,192,232156,1,0,0:0:0:0:
320,192,232234,1,0,0:0:0:0:
448,192,232234,1,0,0:0:0:0:
192,192,232311,1,0,0:0:0:0:
320,192,232388,1,0,0:0:0:0:
448,192,232388,1,0,0:0:0:0:
64,192,232466,1,0,0:0:0:0:
192,192,232543,1,0,0:0:0:0:
320,192,232543,1,0,0:0:0:0:
64,192,232620,1,0,0:0:0:0:
448,192,232620,1,0,0:0:0:0:
192,192,232698,1,0,0:0:0:0:
320,192,232775,1,0,0:0:0:0:
448,192,232775,1,0,0:0:0:0:
64,192,232852,1,0,0:0:0:0:
192,192,232852,1,0,0:0:0:0:
448,192,232930,1,0,0:0:0:0:
64,192,233007,1,0,0:0:0:0:
320,192,233007,1,0,0:0:0:0:
192,192,233084,1,0,0:0:0:0:
64,192,233162,1,0,0:0:0:0:
320,192,233162,1,0,0:0:0:0:
448,192,233162,1,0,0:0:0:0:
192,192,233239,1,0,0:0:0:0:
320,192,233316,1,0,0:0:0:0:
448,192,233316,1,0,0:0:0:0:
64,192,233394,1,0,0:0:0:0:
192,192,233471,1,0,0:0:0:0:
448,192,233471,1,0,0:0:0:0:
64,192,233549,1,0,0:0:0:0:
320,192,233549,1,0,0:0:0:0:
192,192,233626,1,0,0:0:0:0:
448,192,233626,1,0,0:0:0:0:
320,192,233703,1,0,0:0:0:0:
64,192,233781,1,0,0:0:0:0:
192,192,233781,1,0,0:0:0:0:
320,192,233858,1,0,0:0:0:0:
448,192,233858,1,0,0:0:0:0:
64,192,233935,1,0,0:0:0:0:
192,192,233935,1,0,0:0:0:0:
320,192,234013,1,0,0:0:0:0:
192,192,234090,1,0,0:0:0:0:
448,192,234090,1,0,0:0:0:0:
64,192,234167,1,0,0:0:0:0:
320,192,234167,1,0,0:0:0:0:
448,192,234245,1,0,0:0:0:0:
64,192,234322,1,0,0:0:0:0:
320,192,234322,1,0,0:0:0:0:
192,192,234399,1,0,0:0:0:0:
64,192,234477,1,0,0:0:0:0:
320,192,234477,1,0,0:0:0:0:
192,192,234554,1,0,0:0:0:0:
448,192,234554,1,0,0:0:0:0:
320,192,234631,1,0,0:0:0:0:
64,192,234709,1,0,0:0:0:0:
192,192,234709,1,0,0:0:0:0:
448,192,234709,1,0,0:0:0:0:
320,192,234786,1,0,0:0:0:0:
64,192,234864,1,0,0:0:0:0:
192,192,234864,1,0,0:0:0:0:
448,192,234941,1,0,0:0:0:0:
64,192,235018,1,0,0:0:0:0:
192,192,235018,1,0,0:0:0:0:
320,192,235018,1,0,0:0:0:0:
448,192,235096,1,0,0:0:0:0:
64,192,235173,1,0,0:0:0:0:
320,192,235173,1,0,0:0:0:0:
192,192,235250,1,0,0:0:0:0:
64,192,235328,1,0,0:0:0:0:
320,192,235328,1,0,0:0:0:0:
448,192,235328,1,0,0:0:0:0:
192,192,235405,1,0,0:0:0:0:
320,192,235482,1,0,0:0:0:0:
448,192,235482,1,0,0:0:0:0:
64,192,235560,1,0,0:0:0:0:
192,192,235560,1,0,0:0:0:0:
320,192,235637,1,0,0:0:0:0:
448,192,235637,1,0,0:0:0:0:
64,192,235714,1,0,0:0:0:0:
192,192,235714,1,0,0:0:0:0:
448,192,235792,1,0,0:0:0:0:
320,192,235830,1,0,0:0:0:0:
64,192,235869,1,0,0:0:0:0:
192,192,235908,1,0,0:0:0:0:
320,192,235946,1,0,0:0:0:0:
448,192,235946,1,0,0:0:0:0:
64,192,236024,1,0,0:0:0:0:
192,192,236024,1,0,0:0:0:0:
320,192,236101,1,0,0:0:0:0:
448,192,236101,1,0,0:0:0:0:
64,192,236179,1,0,0:0:0:0:
192,192,236256,1,0,0:0:0:0:
448,192,236256,1,0,0:0:0:0:
64,192,236333,1,0,0:0:0:0:
320,192,236333,1,0,0:0:0:0:
192,192,236411,1,0,0:0:0:0:
448,192,236411,1,0,0:0:0:0:
320,192,236488,1,0,0:0:0:0:
64,192,236565,1,0,0:0:0:0:
192,192,236565,1,0,0:0:0:0:
448,192,236565,1,0,0:0:0:0:
320,192,236643,1,0,0:0:0:0:
64,192,236720,1,0,0:0:0:0:
192,192,236720,1,0,0:0:0:0:
320,192,236797,1,0,0:0:0:0:
448,192,236797,1,0,0:0:0:0:
64,192,236875,1,0,0:0:0:0:
320,192,236952,1,0,0:0:0:0:
448,192,236952,1,0,0:0:0:0:
64,192,237029,1,0,0:0:0:0:
192,192,237029,1,0,0:0:0:0:
320,192,237107,1,0,0:0:0:0:
448,192,237107,1,0,0:0:0:0:
64,192,237184,1,0,0:0:0:0:
192,192,237184,1,0,0:0:0:0:
320,192,237261,1,0,0:0:0:0:
64,192,237339,1,0,0:0:0:0:
192,192,237339,1,0,0:0:0:0:
448,192,237416,1,0,0:0:0:0:
192,192,237494,1,0,0:0:0:0:
320,192,237494,1,0,0:0:0:0:
64,192,237571,1,0,0:0:0:0:
448,192,237571,1,0,0:0:0:0:
320,192,237648,1,0,0:0:0:0:
64,192,237726,1,0,0:0:0:0:
192,192,237726,1,0,0:0:0:0:
320,192,237803,1,0,0:0:0:0:
448,192,237803,1,0,0:0:0:0:
64,192,237880,1,0,0:0:0:0:
192,192,237958,1,0,0:0:0:0:
448,192,237958,1,0,0:0:0:0:
320,192,238035,1,0,0:0:0:0:
64,192,238112,1,0,0:0:0:0:
192,192,238112,1,0,0:0:0:0:
448,192,238112,1,0,0:0:0:0:
320,192,238190,1,0,0:0:0:0:
64,192,238267,1,0,0:0:0:0:
192,192,238267,1,0,0:0:0:0:
448,192,238344,1,0,0:0:0:0:
64,192,238422,1,0,0:0:0:0:
192,192,238422,1,0,0:0:0:0:
320,192,238422,1,0,0:0:0:0:
448,192,238499,1,0,0:0:0:0:
64,192,238576,1,0,0:0:0:0:
192,192,238576,1,0,0:0:0:0:
320,192,238654,1,0,0:0:0:0:
64,192,238731,1,0,0:0:0:0:
448,192,238731,1,0,0:0:0:0:
192,192,238809,1,0,0:0:0:0:
320,192,238886,1,0,0:0:0:0:
448,192,238886,1,0,0:0:0:0:
64,192,238963,1,0,0:0:0:0:
192,192,239041,1,0,0:0:0:0:
320,192,239041,1,0,0:0:0:0:
448,192,239041,1,0,0:0:0:0:
64,192,239118,1,0,0:0:0:0:
192,192,239195,1,0,0:0:0:0:
64,192,239273,1,0,0:0:0:0:
320,192,239273,1,0,0:0:0:0:
448,192,239273,1,0,0:0:0:0:
192,192,239350,1,0,0:0:0:0:
448,192,239427,1,0,0:0:0:0:
64,192,239505,1,0,0:0:0:0:
192,192,239505,1,0,0:0:0:0:
320,192,239505,1,0,0:0:0:0:
448,192,239582,1,0,0:0:0:0:
64,192,239659,1,0,0:0:0:0:
320,192,239659,1,0,0:0:0:0:
192,192,239737,1,0,0:0:0:0:
320,192,239814,1,0,0:0:0:0:
448,192,239814,1,0,0:0:0:0:
64,192,239891,1,0,0:0:0:0:
320,192,239969,1,0,0:0:0:0:
448,192,239969,1,0,0:0:0:0:
192,192,240046,1,0,0:0:0:0:
320,192,240124,1,0,0:0:0:0:
448,192,240124,1,0,0:0:0:0:
64,192,240201,1,0,0:0:0:0:
192,192,240201,1,0,0:0:0:0:
320,192,240278,1,0,0:0:0:0:
448,192,240278,1,0,0:0:0:0:
64,192,240356,1,0,0:0:0:0:
192,192,240356,1,0,0:0:0:0:
320,192,240433,1,0,0:0:0:0:
448,192,240433,1,0,0:0:0:0:
64,192,240510,1,0,0:0:0:0:
192,192,240510,1,0,0:0:0:0:
320,192,240588,1,0,0:0:0:0:
448,192,240626,1,0,0:0:0:0:
64,192,240665,1,0,0:0:0:0:
320,192,240742,1,0,0:0:0:0:
192,192,240820,1,0,0:0:0:0:
320,192,240897,1,0,0:0:0:0:
448,192,240897,1,0,0:0:0:0:
64,192,240974,1,0,0:0:0:0:
192,192,240974,1,0,0:0:0:0:
320,192,241052,1,0,0:0:0:0:
448,192,241052,1,0,0:0:0:0:
64,192,241129,1,0,0:0:0:0:
192,192,241206,1,0,0:0:0:0:
448,192,241206,1,0,0:0:0:0:
64,192,241284,1,0,0:0:0:0:
320,192,241284,1,0,0:0:0:0:
192,192,241361,1,0,0:0:0:0:
448,192,241361,1,0,0:0:0:0:
320,192,241439,1,0,0:0:0:0:
64,192,241516,1,0,0:0:0:0:
192,192,241516,1,0,0:0:0:0:
448,192,241593,1,0,0:0:0:0:
64,192,241671,1,0,0:0:0:0:
192,192,241671,1,0,0:0:0:0:
320,192,241748,1,0,0:0:0:0:
448,192,241748,1,0,0:0:0:0:
64,192,241825,1,0,0:0:0:0:
320,192,241903,1,0,0:0:0:0:
448,192,241903,1,0,0:0:0:0:
64,192,241980,1,0,0:0:0:0:
192,192,241980,1,0,0:0:0:0:
320,192,242057,1,0,0:0:0:0:
448,192,242057,1,0,0:0:0:0:
64,192,242135,1,0,0:0:0:0:
192,192,242135,1,0,0:0:0:0:
320,192,242212,1,0,0:0:0:0:
64,192,242289,1,0,0:0:0:0:
192,192,242289,1,0,0:0:0:0:
448,192,242367,1,0,0:0:0:0:
192,192,242444,1,0,0:0:0:0:
320,192,242444,1,0,0:0:0:0:
64,192,242521,1,0,0:0:0:0:
448,192,242521,1,0,0:0:0:0:
320,192,242599,1,0,0:0:0:0:
64,192,242676,1,0,0:0:0:0:
192,192,242676,1,0,0:0:0:0:
448,192,242754,1,0,0:0:0:0:
64,192,242831,1,0,0:0:0:0:
192,192,242831,1,0,0:0:0:0:
320,192,242908,1,0,0:0:0:0:
448,192,242908,1,0,0:0:0:0:
64,192,242986,1,0,0:0:0:0:
192,192,243063,1,0,0:0:0:0:
448,192,243063,1,0,0:0:0:0:
320,192,243140,1,0,0:0:0:0:
64,192,243218,1,0,0:0:0:0:
192,192,243218,1,0,0:0:0:0:
448,192,243295,1,0,0:0:0:0:
64,192,243372,1,0,0:0:0:0:
320,192,243372,1,0,0:0:0:0:
192,192,243450,1,0,0:0:0:0:
448,192,243450,1,0,0:0:0:0:
64,192,243527,1,0,0:0:0:0:
320,192,243527,1,0,0:0:0:0:
192,192,243604,1,0,0:0:0:0:
320,192,243682,1,0,0:0:0:0:
448,192,243682,1,0,0:0:0:0:
64,192,243759,1,0,0:0:0:0:
192,192,243759,1,0,0:0:0:0:
320,192,243836,1,0,0:0:0:0:
448,192,243836,1,0,0:0:0:0:
64,192,243914,1,0,0:0:0:0:
192,192,243991,1,0,0:0:0:0:
448,192,243991,1,0,0:0:0:0:
64,192,244069,1,0,0:0:0:0:
320,192,244069,1,0,0:0:0:0:
192,192,244146,1,0,0:0:0:0:
64,192,244223,1,0,0:0:0:0:
320,192,244223,1,0,0:0:0:0:
448,192,244301,1,0,0:0:0:0:
64,192,244378,1,0,0:0:0:0:
320,192,244378,1,0,0:0:0:0:
192,192,244455,1,0,0:0:0:0:
448,192,244455,1,0,0:0:0:0:
320,192,244533,1,0,0:0:0:0:
64,192,244610,1,0,0:0:0:0:
192,192,244610,1,0,0:0:0:0:
448,192,244687,1,0,0:0:0:0:
64,192,244765,1,0,0:0:0:0:
320,192,244765,1,0,0:0:0:0:
192,192,244842,1,0,0:0:0:0:
320,192,244919,1,0,0:0:0:0:
448,192,244919,1,0,0:0:0:0:
64,192,244997,1,0,0:0:0:0:
192,192,245074,1,0,0:0:0:0:
448,192,245074,1,0,0:0:0:0:
320,192,245151,1,0,0:0:0:0:
64,192,245229,1,0,0:0:0:0:
192,192,245229,1,0,0:0:0:0:
320,192,245306,1,0,0:0:0:0:
448,192,245306,1,0,0:0:0:0:
64,192,245384,1,0,0:0:0:0:
192,192,245384,1,0,0:0:0:0:
448,192,245461,1,0,0:0:0:0:
64,192,245538,1,0,0:0:0:0:
320,192,245538,1,0,0:0:0:0:
192,192,245616,1,0,0:0:0:0:
320,192,245693,1,0,0:0:0:0:
448,192,245693,1,0,0:0:0:0:
192,192,245770,1,0,0:0:0:0:
320,192,245848,1,0,0:0:0:0:
448,192,245848,1,0,0:0:0:0:
64,192,245925,1,0,0:0:0:0:
192,192,245925,1,0,0:0:0:0:
320,192,246002,1,0,0:0:0:0:
448,192,246002,1,0,0:0:0:0:
64,192,246080,1,0,0:0:0:0:
192,192,246157,1,0,0:0:0:0:
448,192,246157,1,0,0:0:0:0:
64,192,246234,1,0,0:0:0:0:
320,192,246234,1,0,0:0:0:0:
192,192,246312,1,0,0:0:0:0:
448,192,246312,1,0,0:0:0:0:
320,192,246389,1,0,0:0:0:0:
64,192,246466,1,0,0:0:0:0:
192,192,246466,1,0,0:0:0:0:
448,192,246544,1,0,0:0:0:0:
64,192,246621,1,0,0:0:0:0:
192,192,246621,1,0,0:0:0:0:
320,192,246698,1,0,0:0:0:0:
448,192,246698,1,0,0:0:0:0:
64,192,246776,1,0,0:0:0:0:
320,192,246853,1,0,0:0:0:0:
448,192,246853,1,0,0:0:0:0:
64,192,246931,1,0,0:0:0:0:
192,192,246931,1,0,0:0:0:0:
320,192,247008,1,0,0:0:0:0:
448,192,247008,1,0,0:0:0:0:
64,192,247085,1,0,0:0:0:0:
192,192,247085,1,0,0:0:0:0:
320,192,247163,1,0,0:0:0:0:
64,192,247240,1,0,0:0:0:0:
192,192,247240,1,0,0:0:0:0:
448,192,247317,1,0,0:0:0:0:
192,192,247395,1,0,0:0:0:0:
320,192,247395,1,0,0:0:0:0:
64,192,247472,1,0,0:0:0:0:
448,192,247472,1,0,0:0:0:0:
320,192,247549,1,0,0:0:0:0:
64,192,247627,1,0,0:0:0:0:
192,192,247627,1,0,0:0:0:0:
320,192,247704,1,0,0:0:0:0:
448,192,247704,1,0,0:0:0:0:
64,192,247781,1,0,0:0:0:0:
192,192,247781,1,0,0:0:0:0:
320,192,247859,1,0,0:0:0:0:
448,192,247859,1,0,0:0:0:0:
64,192,247936,1,0,0:0:0:0:
192,192,248013,1,0,0:0:0:0:
320,192,248013,1,0,0:0:0:0:
448,192,248013,1,0,0:0:0:0:
64,192,248091,1,0,0:0:0:0:
192,192,248168,1,0,0:0:0:0:
448,192,248168,1,0,0:0:0:0:
320,192,248246,1,0,0:0:0:0:
64,192,248323,1,0,0:0:0:0:
192,192,248323,1,0,0:0:0:0:
448,192,248323,1,0,0:0:0:0:
320,192,248400,1,0,0:0:0:0:
64,192,248478,1,0,0:0:0:0:
192,192,248478,1,0,0:0:0:0:
448,192,248555,1,0,0:0:0:0:
192,192,248632,1,0,0:0:0:0:
320,192,248632,1,0,0:0:0:0:
64,192,248710,1,0,0:0:0:0:
320,192,248787,1,0,0:0:0:0:
448,192,248787,1,0,0:0:0:0:
192,192,248864,1,0,0:0:0:0:
64,192,248942,1,0,0:0:0:0:
320,192,248942,1,0,0:0:0:0:
448,192,248942,1,0,0:0:0:0:
192,192,249019,1,0,0:0:0:0:
320,192,249096,1,0,0:0:0:0:
448,192,249096,1,0,0:0:0:0:
64,192,249174,1,0,0:0:0:0:
192,192,249251,1,0,0:0:0:0:
320,192,249251,1,0,0:0:0:0:
448,192,249328,1,0,0:0:0:0:
64,192,249406,1,0,0:0:0:0:
192,192,249406,1,0,0:0:0:0:
448,192,249483,1,0,0:0:0:0:
64,192,249561,1,0,0:0:0:0:
192,192,249561,1,0,0:0:0:0:
320,192,249561,1,0,0:0:0:0:
448,192,249638,1,0,0:0:0:0:
64,192,249715,1,0,0:0:0:0:
320,192,249715,1,0,0:0:0:0:
192,192,249793,1,0,0:0:0:0:
320,192,249870,1,0,0:0:0:0:
448,192,249870,1,0,0:0:0:0:
64,192,249947,1,0,0:0:0:0:
192,192,250025,1,0,0:0:0:0:
448,192,250025,1,0,0:0:0:0:
64,192,250102,1,0,0:0:0:0:
320,192,250102,1,0,0:0:0:0:
192,192,250179,1,0,0:0:0:0:
448,192,250179,1,0,0:0:0:0:
320,192,250257,1,0,0:0:0:0:
64,192,250334,1,0,0:0:0:0:
192,192,250334,1,0,0:0:0:0:
448,192,250411,1,0,0:0:0:0:
64,192,250489,1,0,0:0:0:0:
320,192,250489,1,0,0:0:0:0:
448,192,250566,1,0,0:0:0:0:
64,192,250643,1,0,0:0:0:0:
192,192,250643,1,0,0:0:0:0:
320,192,250721,1,0,0:0:0:0:
64,192,250798,1,0,0:0:0:0:
192,192,250798,1,0,0:0:0:0:
448,192,250798,1,0,0:0:0:0:
320,192,250876,1,0,0:0:0:0:
192,192,250953,1,0,0:0:0:0:
64,192,251108,1,0,0:0:0:0:
320,192,251108,1,0,0:0:0:0:
192,192,251185,1,0,0:0:0:0:
320,192,251262,1,0,0:0:0:0:
64,192,251417,1,0,0:0:0:0:
192,192,251417,1,0,0:0:0:0:
192,192,251572,1,0,0:0:0:0:
320,192,251649,1,0,0:0:0:0:
64,192,251726,1,0,0:0:0:0:
192,192,251804,1,0,0:0:0:0:
192,192,251958,1,0,0:0:0:0:
320,192,252036,1,0,0:0:0:0:
448,192,252036,1,0,0:0:0:0:
320,192,252191,1,0,0:0:0:0:
192,192,252345,1,0,0:0:0:0:
448,192,252345,1,0,0:0:0:0:
320,192,252423,1,0,0:0:0:0:
64,192,252577,1,0,0:0:0:0:
192,192,252655,1,0,0:0:0:0:
320,192,252655,1,0,0:0:0:0:
448,192,252732,1,0,0:0:0:0:
64,192,252809,1,0,0:0:0:0:
192,192,252964,1,0,0:0:0:0:
448,192,252964,1,0,0:0:0:0:
320,192,253119,1,0,0:0:0:0:
192,192,253273,1,0,0:0:0:0:
448,192,253273,1,0,0:0:0:0:
320,192,253351,1,0,0:0:0:0:
192,192,253428,1,0,0:0:0:0:
64,192,253583,1,0,0:0:0:0:
320,192,253583,1,0,0:0:0:0:
192,192,253660,1,0,0:0:0:0:
320,192,253738,1,0,0:0:0:0:
64,192,253892,1,0,0:0:0:0:
192,192,253892,1,0,0:0:0:0:
448,192,253970,1,0,0:0:0:0:
448,192,254124,1,0,0:0:0:0:
64,192,254202,1,0,0:0:0:0:
320,192,254202,1,0,0:0:0:0:
448,192,254279,1,0,0:0:0:0:
192,192,254356,1,0,0:0:0:0:
320,192,254434,1,0,0:0:0:0:
64,192,254511,1,0,0:0:0:0:
192,192,254511,1,0,0:0:0:0:
320,192,254666,1,0,0:0:0:0:
64,192,254821,1,0,0:0:0:0:
320,192,254821,1,0,0:0:0:0:
192,192,254975,1,0,0:0:0:0:
320,192,255053,1,0,0:0:0:0:
192,192,255130,1,0,0:0:0:0:
448,192,255130,1,0,0:0:0:0:
64,192,255207,1,0,0:0:0:0:
320,192,255207,1,0,0:0:0:0:
192,192,255285,1,0,0:0:0:0:
448,192,255285,1,0,0:0:0:0:
64,192,255439,1,0,0:0:0:0:
192,192,255439,1,0,0:0:0:0:
320,192,255594,1,0,0:0:0:0:
64,192,255749,1,0,0:0:0:0:
320,192,255749,1,0,0:0:0:0:
192,192,255826,1,0,0:0:0:0:
320,192,255903,1,0,0:0:0:0:
192,192,256058,1,0,0:0:0:0:
448,192,256058,1,0,0:0:0:0:
320,192,256136,1,0,0:0:0:0:
192,192,256213,1,0,0:0:0:0:
320,192,256368,1,0,0:0:0:0:
448,192,256368,1,0,0:0:0:0:
320,192,256522,1,0,0:0:0:0:
192,192,256600,1,0,0:0:0:0:
448,192,256677,1,0,0:0:0:0:
320,192,256754,1,0,0:0:0:0:
320,192,256909,1,0,0:0:0:0:
64,192,256986,1,0,0:0:0:0:
192,192,256986,1,0,0:0:0:0:
192,192,257141,1,0,0:0:0:0:
64,192,257296,1,0,0:0:0:0:
320,192,257296,1,0,0:0:0:0:
192,192,257373,1,0,0:0:0:0:
448,192,257528,1,0,0:0:0:0:
192,192,257605,1,0,0:0:0:0:
320,192,257605,1,0,0:0:0:0:
64,192,257683,1,0,0:0:0:0:
448,192,257760,1,0,0:0:0:0:
64,192,257915,1,0,0:0:0:0:
320,192,257915,1,0,0:0:0:0:
192,192,258069,1,0,0:0:0:0:
64,192,258224,1,0,0:0:0:0:
320,192,258224,1,0,0:0:0:0:
192,192,258301,1,0,0:0:0:0:
320,192,258379,1,0,0:0:0:0:
192,192,258533,1,0,0:0:0:0:
448,192,258533,1,0,0:0:0:0:
320,192,258611,1,0,0:0:0:0:
192,192,258688,1,0,0:0:0:0:
320,192,258843,1,0,0:0:0:0:
448,192,258843,1,0,0:0:0:0:
64,192,258920,1,0,0:0:0:0:
64,192,259075,1,0,0:0:0:0:
192,192,259152,1,0,0:0:0:0:
448,192,259152,1,0,0:0:0:0:
64,192,259230,1,0,0:0:0:0:
320,192,259307,1,0,0:0:0:0:
192,192,259384,1,0,0:0:0:0:
320,192,259462,1,0,0:0:0:0:
448,192,259462,1,0,0:0:0:0:
192,192,259616,1,0,0:0:0:0:
192,192,259771,1,0,0:0:0:0:
448,192,259771,1,0,0:0:0:0:
320,192,259926,1,0,0:0:0:0:
192,192,260003,128,0,260390:0:0:0:0:
448,192,260081,1,0,0:0:0:0:
64,192,260235,1,0,0:0:0:0:
320,192,260390,1,0,0:0:0:0:
448,192,260390,1,0,0:0:0:0:
64,192,260467,1,0,0:0:0:0:
448,192,260545,1,0,0:0:0:0:
64,192,260622,1,0,0:0:0:0:
192,192,260699,1,0,0:0:0:0:
320,192,260699,1,0,0:0:0:0:
448,192,260699,1,0,0:0:0:0:
64,192,260777,1,0,0:0:0:0:
192,192,260854,1,0,0:0:0:0:
64,192,261009,1,0,0:0:0:0:
320,192,261009,1,0,0:0:0:0:
448,192,261086,1,0,0:0:0:0:
320,192,261164,1,0,0:0:0:0:
64,192,261327,1,0,0:0:0:0:
192,192,261327,1,0,0:0:0:0:
192,192,261490,1,0,0:0:0:0:
320,192,261571,1,0,0:0:0:0:
64,192,261653,1,0,0:0:0:0:
192,192,261734,1,0,0:0:0:0:
192,192,261897,1,0,0:0:0:0:
320,192,261979,1,0,0:0:0:0:
448,192,261979,1,0,0:0:0:0:
320,192,262142,1,0,0:0:0:0:
192,192,262309,1,0,0:0:0:0:
448,192,262309,1,0,0:0:0:0:
320,192,262393,1,0,0:0:0:0:
64,192,262560,1,0,0:0:0:0:
192,192,262644,1,0,0:0:0:0:
320,192,262644,1,0,0:0:0:0:
448,192,262728,1,0,0:0:0:0:
64,192,262813,1,0,0:0:0:0:
192,192,262985,1,0,0:0:0:0:
448,192,262985,1,0,0:0:0:0:
320,192,263157,1,0,0:0:0:0:
192,192,263330,1,0,0:0:0:0:
448,192,263330,1,0,0:0:0:0:
320,192,263416,1,0,0:0:0:0:
192,192,263502,1,0,0:0:0:0:
64,192,263680,1,0,0:0:0:0:
320,192,263680,1,0,0:0:0:0:
192,192,263769,1,0,0:0:0:0:
320,192,263859,1,0,0:0:0:0:
64,192,264037,1,0,0:0:0:0:
192,192,264037,1,0,0:0:0:0:
448,192,264126,1,0,0:0:0:0:
448,192,264309,1,0,0:0:0:0:
64,192,264402,1,0,0:0:0:0:
320,192,264402,1,0,0:0:0:0:
448,192,264494,1,0,0:0:0:0:
192,192,264587,1,0,0:0:0:0:
320,192,264679,1,0,0:0:0:0:
64,192,264772,1,0,0:0:0:0:
192,192,264772,1,0,0:0:0:0:
320,192,264957,1,0,0:0:0:0:
64,192,265149,1,0,0:0:0:0:
320,192,265149,1,0,0:0:0:0:
192,192,265342,1,0,0:0:0:0:
320,192,265435,1,0,0:0:0:0:
192,192,265529,1,0,0:0:0:0:
448,192,265529,1,0,0:0:0:0:
64,192,265623,1,0,0:0:0:0:
320,192,265623,1,0,0:0:0:0:
192,192,265717,1,0,0:0:0:0:
448,192,265717,1,0,0:0:0:0:
64,192,265904,1,0,0:0:0:0:
192,192,265904,1,0,0:0:0:0:
320,192,266098,1,0,0:0:0:0:
192,192,266304,1,0,0:0:0:0:
448,192,266304,1,0,0:0:0:0:
320,192,266408,1,0,0:0:0:0:
192,192,266512,1,0,0:0:0:0:
64,192,266712,1,0,0:0:0:0:
320,192,266712,1,0,0:0:0:0:
192,192,266812,1,0,0:0:0:0:
320,192,266912,1,0,0:0:0:0:
64,192,267118,1,0,0:0:0:0:
192,192,267118,1,0,0:0:0:0:
192,192,267325,1,0,0:0:0:0:
320,192,267429,1,0,0:0:0:0:
64,192,267532,1,0,0:0:0:0:
192,192,267636,1,0,0:0:0:0:
192,192,267846,1,0,0:0:0:0:
320,192,267953,1,0,0:0:0:0:
448,192,267953,1,0,0:0:0:0:
320,192,268167,1,0,0:0:0:0:
192,192,268382,1,0,0:0:0:0:
448,192,268382,1,0,0:0:0:0:
320,192,268493,1,0,0:0:0:0:
64,192,268715,1,0,0:0:0:0:
192,192,268826,1,0,0:0:0:0:
320,192,268826,1,0,0:0:0:0:
448,192,268937,1,0,0:0:0:0:
64,192,269049,1,0,0:0:0:0:
192,192,269279,1,0,0:0:0:0:
448,192,269279,1,0,0:0:0:0:
320,192,269510,1,0,0:0:0:0:
192,192,269741,1,0,0:0:0:0:
448,192,269741,1,0,0:0:0:0:
320,192,269856,1,0,0:0:0:0:
192,192,269972,1,0,0:0:0:0:
64,192,270206,1,0,0:0:0:0:
320,192,270206,1,0,0:0:0:0:
192,192,270326,1,0,0:0:0:0:
320,192,270446,1,0,0:0:0:0:
64,192,270686,1,0,0:0:0:0:
192,192,270686,1,0,0:0:0:0:
448,192,270808,1,0,0:0:0:0:
448,192,271054,1,0,0:0:0:0:
64,192,271177,1,0,0:0:0:0:
320,192,271177,1,0,0:0:0:0:
448,192,271300,1,0,0:0:0:0:
192,192,271424,1,0,0:0:0:0:
320,192,271549,1,0,0:0:0:0:
64,192,271674,1,0,0:0:0:0:
192,192,271674,1,0,0:0:0:0:
320,192,271928,1,0,0:0:0:0:
64,192,272182,1,0,0:0:0:0:
320,192,272182,1,0,0:0:0:0:
192,192,272442,1,0,0:0:0:0:
64,192,272573,1,0,0:0:0:0:
320,192,272573,128,0,273113:0:0:0:0:
448,192,272704,1,0,0:0:0:0:
192,192,272976,1,0,0:0:0:0:
448,192,273249,1,0,0:0:0:0:
64,192,273522,128,0,273794:0:0:0:0:
