osu file format v14

[General]
AudioFilename: audio 1.400x.mp3
AudioLeadIn: 0
PreviewTime: 84346
Countdown: 0
SampleSet: Normal
StackLeniency: 0.8
Mode: 3
LetterboxInBreaks: 0
SpecialStyle: 1
WidescreenStoryboard: 0

[Editor]
DistanceSpacing: 0.8
BeatDivisor: 4
GridSize: 32
TimelineZoom: 1.5

[Metadata]
Title:TENDER KISS
TitleUnicode:TENDER KISS
Artist:Spy47
ArtistUnicode:Spy47
Creator:Herkkupala
Version:Tender Treat 1.4x
Source:Ticket To Sweetland
Tags:nursery rhyme ナーサリィ☆ライム ave;new feat.佐倉紗織 true my heart j core happy hardcore remix arrange osutrainer
BeatmapID:2847132
BeatmapSetID:859429

[Difficulty]
HPDrainRate:8.5
CircleSize:4
OverallDifficulty:8.5
ApproachRate:5
SliderMultiplier:1.4
SliderTickRate:1

[Events]
//Background and Video events
0,0,"bg.png",0,0
//Break Periods
//Storyboard Layer 0 (Background)
//Storyboard Layer 1 (Fail)
//Storyboard Layer 2 (Pass)
//Storyboard Layer 3 (Foreground)
//Storyboard Layer 4 (Overlay)
//Storyboard Sound Samples

[TimingPoints]
153,221.007662142857,4,1,0,25,1,0
153,-100,4,1,0,25,0,0
186545,232.919255,4,1,0,25,1,0
186545,-95.2380952380952,4,1,0,25,0,0
187244,239.425379285714,4,1,0,25,1,0
187244,-92.5925925925926,4,1,0,25,0,0
187723,246.305418571429,4,1,0,25,1,0
187723,-90.0900900900901,4,1,0,25,0,0
188215,255.102040714286,4,1,0,25,1,0
188215,-86.9565217391304,4,1,0,25,0,0
188726,264.550264285714,4,1,0,25,1,0
188726,-83.3333333333333,4,1,0,25,0,0
189255,274.725275,4,1,0,25,1,0
189255,-80.6451612903226,4,1,0,25,0,0
189530,267.857142857143,4,1,0,25,1,0
189530,-82.6446280991736,4,1,0,25,0,0
189931,276.497695714286,4,1,0,25,1,0
189931,-80,4,1,0,25,0,0
190070,295.566502142857,4,1,0,25,1,0
190070,-74.6268656716418,4,1,0,25,0,0
190365,285.714285714286,4,1,0,25,1,0
190365,-77.5193798449612,4,1,0,25,0,0
190651,295.566502142857,4,1,0,25,1,0
190651,-74.6268656716418,4,1,0,25,0,0
191242,306.122449285714,4,1,0,25,1,0
191242,-71.9424460431655,4,1,0,25,0,0
191701,317.460317142857,4,1,0,25,1,0
191701,-69.4444444444444,4,1,0,25,0,0
192177,329.67033,4,1,0,25,1,0
192177,-67.1140939597315,4,1,0,25,0,0
192837,334.821428571429,4,1,0,25,1,0
192837,-65.7894736842105,4,1,0,25,0,0
193004,342.857142857143,4,1,0,25,1,0
193004,-64.5161290322581,4,1,0,25,0,0
193347,351.288056428571,4,1,0,25,1,0
193347,-62.8930817610063,4,1,0,25,0,0
193874,357.142857142857,4,1,0,25,1,0
193874,-61.7283950617284,4,1,0,25,0,0
194052,363.196125714286,4,1,0,25,1,0
194052,-60.9756097560976,4,1,0,25,0,0
194415,372.670807142857,4,1,0,25,1,0
194415,-59.1715976331361,4,1,0,25,0,0
194788,389.610389285714,4,1,0,25,1,0
194788,-56.8181818181818,4,1,0,25,0,0

[HitObjects]
64,192,1479,5,0,0:0:0:0:
448,192,1479,1,0,0:0:0:0:
192,192,1700,1,0,0:0:0:0:
448,192,1755,1,0,0:0:0:0:
192,192,1810,1,0,0:0:0:0:
320,192,1865,1,0,0:0:0:0:
64,192,1921,1,0,0:0:0:0:
320,192,1976,1,0,0:0:0:0:
64,192,2031,1,0,0:0:0:0:
192,192,2031,1,0,0:0:0:0:
320,192,2086,1,0,0:0:0:0:
448,192,2086,1,0,0:0:0:0:
64,192,2142,1,0,0:0:0:0:
192,192,2142,1,0,0:0:0:0:
448,192,2197,1,0,0:0:0:0:
448,192,2252,1,0,0:0:0:0:
64,192,2307,1,0,0:0:0:0:
192,192,2307,1,0,0:0:0:0:
320,192,2363,128,0,2473:0:0:0:0:
448,192,2363,1,0,0:0:0:0:
320,192,2584,128,0,2694:0:0:0:0:
192,192,2749,128,0,2860:0:0:0:0:
64,192,2915,128,0,3026:0:0:0:0:
448,192,3081,128,0,3136:0:0:0:0:
320,192,3191,128,0,3247:0:0:0:0:
64,192,3247,1,0,0:0:0:0:
192,192,3302,1,0,0:0:0:0:
64,192,3357,1,0,0:0:0:0:
320,192,3468,128,0,3578:0:0:0:0:
192,192,3633,128,0,3744:0:0:0:0:
64,192,3799,128,0,3910:0:0:0:0:
448,192,3910,1,0,0:0:0:0:
320,192,3965,1,0,0:0:0:0:
448,192,4020,1,0,0:0:0:0:
320,192,4075,1,0,0:0:0:0:
64,192,4131,1,0,0:0:0:0:
192,192,4131,1,0,0:0:0:0:
320,192,4186,1,0,0:0:0:0:
64,192,4241,1,0,0:0:0:0:
448,192,4296,1,0,0:0:0:0:
192,192,4352,1,0,0:0:0:0:
320,192,4352,1,0,0:0:0:0:
64,192,4407,1,0,0:0:0:0:
448,192,4462,1,0,0:0:0:0:
64,192,4517,1,0,0:0:0:0:
192,192,4517,1,0,0:0:0:0:
320,192,4573,1,0,0:0:0:0:
192,192,4628,1,0,0:0:0:0:
320,192,4683,1,0,0:0:0:0:
448,192,4683,1,0,0:0:0:0:
64,192,4738,1,0,0:0:0:0:
448,192,4794,1,0,0:0:0:0:
192,192,4849,1,0,0:0:0:0:
320,192,4849,1,0,0:0:0:0:
64,192,4904,1,0,0:0:0:0:
192,192,4959,1,0,0:0:0:0:
448,192,4959,1,0,0:0:0:0:
320,192,5015,1,0,0:0:0:0:
448,192,5070,1,0,0:0:0:0:
320,192,5125,1,0,0:0:0:0:
64,192,5180,1,0,0:0:0:0:
192,192,5236,1,0,0:0:0:0:
320,192,5236,1,0,0:0:0:0:
448,192,5291,1,0,0:0:0:0:
64,192,5346,1,0,0:0:0:0:
320,192,5401,1,0,0:0:0:0:
448,192,5401,1,0,0:0:0:0:
192,192,5457,1,0,0:0:0:0:
320,192,5512,1,0,0:0:0:0:
64,192,5567,1,0,0:0:0:0:
192,192,5567,1,0,0:0:0:0:
448,192,5622,1,0,0:0:0:0:
64,192,5678,1,0,0:0:0:0:
192,192,5678,1,0,0:0:0:0:
320,192,5678,1,0,0:0:0:0:
64,192,5899,1,0,0:0:0:0:
192,192,5899,1,0,0:0:0:0:
320,192,5954,1,0,0:0:0:0:
448,192,5954,1,0,0:0:0:0:
192,192,6009,1,0,0:0:0:0:
448,192,6064,1,0,0:0:0:0:
64,192,6120,1,0,0:0:0:0:
320,192,6120,1,0,0:0:0:0:
192,192,6175,1,0,0:0:0:0:
320,192,6230,1,0,0:0:0:0:
192,192,6285,1,0,0:0:0:0:
448,192,6285,1,0,0:0:0:0:
64,192,6341,1,0,0:0:0:0:
320,192,6396,1,0,0:0:0:0:
64,192,6451,1,0,0:0:0:0:
192,192,6451,1,0,0:0:0:0:
448,192,6506,1,0,0:0:0:0:
192,192,6562,1,0,0:0:0:0:
320,192,6562,1,0,0:0:0:0:
64,192,6617,1,0,0:0:0:0:
320,192,6672,1,0,0:0:0:0:
448,192,6672,1,0,0:0:0:0:
192,192,6727,1,0,0:0:0:0:
64,192,6783,1,0,0:0:0:0:
448,192,6783,1,0,0:0:0:0:
320,192,6838,1,0,0:0:0:0:
448,192,6893,1,0,0:0:0:0:
320,192,6948,1,0,0:0:0:0:
64,192,7004,1,0,0:0:0:0:
192,192,7004,1,0,0:0:0:0:
448,192,7059,1,0,0:0:0:0:
192,192,7114,1,0,0:0:0:0:
320,192,7169,1,0,0:0:0:0:
448,192,7169,1,0,0:0:0:0:
64,192,7225,1,0,0:0:0:0:
320,192,7280,1,0,0:0:0:0:
64,192,7335,1,0,0:0:0:0:
192,192,7335,1,0,0:0:0:0:
448,192,7391,1,0,0:0:0:0:
320,192,7446,1,0,0:0:0:0:
192,192,7501,1,0,0:0:0:0:
320,192,7556,1,0,0:0:0:0:
192,192,7612,1,0,0:0:0:0:
320,192,7667,1,0,0:0:0:0:
448,192,7667,1,0,0:0:0:0:
64,192,7722,1,0,0:0:0:0:
192,192,7722,1,0,0:0:0:0:
320,192,7777,1,0,0:0:0:0:
64,192,7833,1,0,0:0:0:0:
192,192,7888,1,0,0:0:0:0:
448,192,7888,1,0,0:0:0:0:
320,192,7943,1,0,0:0:0:0:
192,192,7998,1,0,0:0:0:0:
64,192,8054,1,0,0:0:0:0:
320,192,8054,1,0,0:0:0:0:
448,192,8109,1,0,0:0:0:0:
192,192,8164,1,0,0:0:0:0:
320,192,8219,1,0,0:0:0:0:
448,192,8219,1,0,0:0:0:0:
64,192,8275,1,0,0:0:0:0:
192,192,8330,1,0,0:0:0:0:
320,192,8330,1,0,0:0:0:0:
448,192,8385,1,0,0:0:0:0:
64,192,8440,1,0,0:0:0:0:
192,192,8440,1,0,0:0:0:0:
320,192,8496,1,0,0:0:0:0:
64,192,8551,1,0,0:0:0:0:
448,192,8551,1,0,0:0:0:0:
192,192,8606,1,0,0:0:0:0:
64,192,8661,1,0,0:0:0:0:
192,192,8717,1,0,0:0:0:0:
320,192,8772,1,0,0:0:0:0:
448,192,8772,1,0,0:0:0:0:
192,192,8827,1,0,0:0:0:0:
320,192,8882,1,0,0:0:0:0:
192,192,8938,1,0,0:0:0:0:
448,192,8938,1,0,0:0:0:0:
64,192,8993,1,0,0:0:0:0:
320,192,9048,1,0,0:0:0:0:
64,192,9103,1,0,0:0:0:0:
192,192,9103,1,0,0:0:0:0:
448,192,9159,1,0,0:0:0:0:
64,192,9214,1,0,0:0:0:0:
192,192,9214,1,0,0:0:0:0:
320,192,9269,1,0,0:0:0:0:
448,192,9269,1,0,0:0:0:0:
64,192,9324,1,0,0:0:0:0:
192,192,9324,1,0,0:0:0:0:
320,192,9380,1,0,0:0:0:0:
448,192,9380,1,0,0:0:0:0:
64,192,9435,1,0,0:0:0:0:
192,192,9435,1,0,0:0:0:0:
320,192,9490,1,0,0:0:0:0:
448,192,9490,1,0,0:0:0:0:
192,192,9545,1,0,0:0:0:0:
448,192,9601,1,0,0:0:0:0:
64,192,9656,1,0,0:0:0:0:
320,192,9656,1,0,0:0:0:0:
192,192,9711,1,0,0:0:0:0:
320,192,9766,1,0,0:0:0:0:
192,192,9822,1,0,0:0:0:0:
448,192,9822,1,0,0:0:0:0:
64,192,9877,1,0,0:0:0:0:
320,192,9932,1,0,0:0:0:0:
64,192,9987,1,0,0:0:0:0:
192,192,9987,1,0,0:0:0:0:
448,192,10043,1,0,0:0:0:0:
192,192,10098,1,0,0:0:0:0:
320,192,10098,1,0,0:0:0:0:
64,192,10153,1,0,0:0:0:0:
320,192,10208,1,0,0:0:0:0:
448,192,10208,1,0,0:0:0:0:
192,192,10264,1,0,0:0:0:0:
64,192,10319,1,0,0:0:0:0:
448,192,10319,1,0,0:0:0:0:
320,192,10374,1,0,0:0:0:0:
448,192,10429,1,0,0:0:0:0:
320,192,10485,1,0,0:0:0:0:
64,192,10540,1,0,0:0:0:0:
192,192,10540,1,0,0:0:0:0:
448,192,10595,1,0,0:0:0:0:
192,192,10650,1,0,0:0:0:0:
320,192,10706,1,0,0:0:0:0:
448,192,10706,1,0,0:0:0:0:
64,192,10761,1,0,0:0:0:0:
320,192,10816,1,0,0:0:0:0:
64,192,10871,1,0,0:0:0:0:
192,192,10871,1,0,0:0:0:0:
448,192,10927,1,0,0:0:0:0:
320,192,10982,1,0,0:0:0:0:
192,192,11037,1,0,0:0:0:0:
320,192,11092,1,0,0:0:0:0:
192,192,11148,1,0,0:0:0:0:
320,192,11203,1,0,0:0:0:0:
448,192,11203,1,0,0:0:0:0:
64,192,11258,1,0,0:0:0:0:
192,192,11258,1,0,0:0:0:0:
320,192,11313,1,0,0:0:0:0:
64,192,11369,1,0,0:0:0:0:
192,192,11424,1,0,0:0:0:0:
448,192,11424,1,0,0:0:0:0:
320,192,11479,1,0,0:0:0:0:
192,192,11534,1,0,0:0:0:0:
64,192,11590,1,0,0:0:0:0:
320,192,11590,1,0,0:0:0:0:
448,192,11645,1,0,0:0:0:0:
192,192,11700,1,0,0:0:0:0:
320,192,11755,1,0,0:0:0:0:
448,192,11755,1,0,0:0:0:0:
64,192,11811,1,0,0:0:0:0:
192,192,11866,1,0,0:0:0:0:
320,192,11866,1,0,0:0:0:0:
448,192,11921,1,0,0:0:0:0:
64,192,11976,1,0,0:0:0:0:
192,192,11976,1,0,0:0:0:0:
320,192,12032,1,0,0:0:0:0:
64,192,12087,1,0,0:0:0:0:
448,192,12087,1,0,0:0:0:0:
192,192,12142,1,0,0:0:0:0:
320,192,12197,1,0,0:0:0:0:
448,192,12197,1,0,0:0:0:0:
192,192,12253,1,0,0:0:0:0:
64,192,12308,1,0,0:0:0:0:
448,192,12308,1,0,0:0:0:0:
192,192,12363,1,0,0:0:0:0:
320,192,12418,1,0,0:0:0:0:
448,192,12418,1,0,0:0:0:0:
192,192,12474,1,0,0:0:0:0:
64,192,12529,1,0,0:0:0:0:
448,192,12529,1,0,0:0:0:0:
192,192,12584,1,0,0:0:0:0:
320,192,12584,1,0,0:0:0:0:
64,192,12639,1,0,0:0:0:0:
448,192,12639,1,0,0:0:0:0:
192,192,12695,1,0,0:0:0:0:
320,192,12695,1,0,0:0:0:0:
64,192,12750,1,0,0:0:0:0:
448,192,12750,1,0,0:0:0:0:
320,192,12860,1,0,0:0:0:0:
192,192,12879,1,0,0:0:0:0:
64,192,12971,1,0,0:0:0:0:
320,192,12971,1,0,0:0:0:0:
448,192,12971,1,0,0:0:0:0:
192,192,13026,1,0,0:0:0:0:
320,192,13081,1,0,0:0:0:0:
448,192,13081,1,0,0:0:0:0:
64,192,13137,1,0,0:0:0:0:
192,192,13137,1,0,0:0:0:0:
320,192,13192,1,0,0:0:0:0:
448,192,13192,1,0,0:0:0:0:
192,192,13247,1,0,0:0:0:0:
64,192,13302,1,0,0:0:0:0:
192,192,13358,1,0,0:0:0:0:
448,192,13358,1,0,0:0:0:0:
320,192,13413,1,0,0:0:0:0:
64,192,13468,1,0,0:0:0:0:
192,192,13523,1,0,0:0:0:0:
448,192,13523,1,0,0:0:0:0:
320,192,13579,1,0,0:0:0:0:
192,192,13634,1,0,0:0:0:0:
448,192,13634,1,0,0:0:0:0:
320,192,13689,1,0,0:0:0:0:
64,192,13744,1,0,0:0:0:0:
192,192,13744,1,0,0:0:0:0:
320,192,13800,1,0,0:0:0:0:
448,192,13800,1,0,0:0:0:0:
64,192,13855,1,0,0:0:0:0:
192,192,13855,1,0,0:0:0:0:
448,192,13910,1,0,0:0:0:0:
64,192,13965,1,0,0:0:0:0:
192,192,14021,1,0,0:0:0:0:
320,192,14076,1,0,0:0:0:0:
448,192,14076,1,0,0:0:0:0:
192,192,14131,1,0,0:0:0:0:
64,192,14186,1,0,0:0:0:0:
320,192,14242,1,0,0:0:0:0:
64,192,14297,1,0,0:0:0:0:
192,192,14297,1,0,0:0:0:0:
320,192,14352,1,0,0:0:0:0:
448,192,14352,1,0,0:0:0:0:
64,192,14407,1,0,0:0:0:0:
320,192,14463,1,0,0:0:0:0:
448,192,14463,1,0,0:0:0:0:
64,192,14518,1,0,0:0:0:0:
192,192,14518,1,0,0:0:0:0:
320,192,14573,1,0,0:0:0:0:
192,192,14629,1,0,0:0:0:0:
64,192,14684,1,0,0:0:0:0:
448,192,14684,1,0,0:0:0:0:
192,192,14739,1,0,0:0:0:0:
320,192,14739,1,0,0:0:0:0:
448,192,14794,1,0,0:0:0:0:
64,192,14850,1,0,0:0:0:0:
192,192,14850,1,0,0:0:0:0:
320,192,14905,1,0,0:0:0:0:
64,192,14960,1,0,0:0:0:0:
192,192,14960,1,0,0:0:0:0:
320,192,15015,1,0,0:0:0:0:
448,192,15015,1,0,0:0:0:0:
64,192,15071,1,0,0:0:0:0:
192,192,15126,1,0,0:0:0:0:
448,192,15126,1,0,0:0:0:0:
320,192,15181,1,0,0:0:0:0:
64,192,15236,1,0,0:0:0:0:
192,192,15292,1,0,0:0:0:0:
448,192,15292,1,0,0:0:0:0:
320,192,15347,1,0,0:0:0:0:
192,192,15402,1,0,0:0:0:0:
448,192,15402,1,0,0:0:0:0:
320,192,15457,1,0,0:0:0:0:
64,192,15513,1,0,0:0:0:0:
192,192,15513,1,0,0:0:0:0:
320,192,15568,1,0,0:0:0:0:
448,192,15568,1,0,0:0:0:0:
64,192,15623,1,0,0:0:0:0:
192,192,15623,1,0,0:0:0:0:
448,192,15678,1,0,0:0:0:0:
320,192,15734,1,0,0:0:0:0:
64,192,15789,1,0,0:0:0:0:
192,192,15789,1,0,0:0:0:0:
320,192,15844,1,0,0:0:0:0:
448,192,15844,1,0,0:0:0:0:
192,192,15899,1,0,0:0:0:0:
448,192,15955,1,0,0:0:0:0:
320,192,16010,1,0,0:0:0:0:
64,192,16065,1,0,0:0:0:0:
192,192,16065,1,0,0:0:0:0:
448,192,16120,1,0,0:0:0:0:
64,192,16176,1,0,0:0:0:0:
320,192,16176,1,0,0:0:0:0:
192,192,16231,1,0,0:0:0:0:
320,192,16286,1,0,0:0:0:0:
448,192,16286,1,0,0:0:0:0:
64,192,16341,1,0,0:0:0:0:
192,192,16341,1,0,0:0:0:0:
320,192,16397,1,0,0:0:0:0:
448,192,16397,1,0,0:0:0:0:
64,192,16452,1,0,0:0:0:0:
192,192,16452,1,0,0:0:0:0:
320,192,16507,1,0,0:0:0:0:
448,192,16507,1,0,0:0:0:0:
64,192,16562,1,0,0:0:0:0:
192,192,16618,1,0,0:0:0:0:
448,192,16618,1,0,0:0:0:0:
320,192,16673,1,0,0:0:0:0:
64,192,16728,1,0,0:0:0:0:
192,192,16728,1,0,0:0:0:0:
320,192,16783,1,0,0:0:0:0:
448,192,16783,1,0,0:0:0:0:
64,192,16839,1,0,0:0:0:0:
320,192,16894,1,0,0:0:0:0:
448,192,16894,1,0,0:0:0:0:
64,192,16949,1,0,0:0:0:0:
192,192,16949,1,0,0:0:0:0:
448,192,17004,1,0,0:0:0:0:
64,192,17060,1,0,0:0:0:0:
192,192,17060,1,0,0:0:0:0:
320,192,17115,1,0,0:0:0:0:
64,192,17170,1,0,0:0:0:0:
192,192,17170,1,0,0:0:0:0:
448,192,17225,1,0,0:0:0:0:
64,192,17281,1,0,0:0:0:0:
320,192,17281,1,0,0:0:0:0:
192,192,17336,1,0,0:0:0:0:
448,192,17336,1,0,0:0:0:0:
64,192,17391,1,0,0:0:0:0:
320,192,17391,1,0,0:0:0:0:
192,192,17446,1,0,0:0:0:0:
448,192,17502,1,0,0:0:0:0:
64,192,17557,1,0,0:0:0:0:
192,192,17557,1,0,0:0:0:0:
320,192,17612,1,0,0:0:0:0:
448,192,17612,1,0,0:0:0:0:
64,192,17667,1,0,0:0:0:0:
192,192,17723,1,0,0:0:0:0:
320,192,17778,1,0,0:0:0:0:
448,192,17778,1,0,0:0:0:0:
64,192,17833,1,0,0:0:0:0:
192,192,17833,1,0,0:0:0:0:
320,192,17888,1,0,0:0:0:0:
64,192,17944,1,0,0:0:0:0:
192,192,17944,1,0,0:0:0:0:
448,192,17999,1,0,0:0:0:0:
64,192,18054,1,0,0:0:0:0:
320,192,18054,1,0,0:0:0:0:
192,192,18109,1,0,0:0:0:0:
448,192,18165,1,0,0:0:0:0:
64,192,18220,1,0,0:0:0:0:
320,192,18220,1,0,0:0:0:0:
192,192,18275,1,0,0:0:0:0:
448,192,18275,1,0,0:0:0:0:
64,192,18330,1,0,0:0:0:0:
320,192,18386,1,0,0:0:0:0:
448,192,18386,1,0,0:0:0:0:
192,192,18441,1,0,0:0:0:0:
320,192,18496,1,0,0:0:0:0:
448,192,18496,1,0,0:0:0:0:
64,192,18551,1,0,0:0:0:0:
192,192,18551,1,0,0:0:0:0:
320,192,18607,1,0,0:0:0:0:
64,192,18662,1,0,0:0:0:0:
192,192,18662,1,0,0:0:0:0:
320,192,18717,1,0,0:0:0:0:
448,192,18717,1,0,0:0:0:0:
64,192,18772,1,0,0:0:0:0:
320,192,18828,1,0,0:0:0:0:
448,192,18828,1,0,0:0:0:0:
192,192,18883,1,0,0:0:0:0:
320,192,18938,1,0,0:0:0:0:
448,192,18938,1,0,0:0:0:0:
64,192,18993,1,0,0:0:0:0:
192,192,19049,1,0,0:0:0:0:
448,192,19049,1,0,0:0:0:0:
64,192,19104,1,0,0:0:0:0:
320,192,19104,1,0,0:0:0:0:
192,192,19159,1,0,0:0:0:0:
448,192,19159,1,0,0:0:0:0:
320,192,19214,1,0,0:0:0:0:
64,192,19270,1,0,0:0:0:0:
448,192,19270,1,0,0:0:0:0:
192,192,19325,1,0,0:0:0:0:
64,192,19380,1,0,0:0:0:0:
320,192,19380,1,0,0:0:0:0:
448,192,19435,1,0,0:0:0:0:
192,192,19491,1,0,0:0:0:0:
320,192,19491,1,0,0:0:0:0:
64,192,19546,1,0,0:0:0:0:
320,192,19601,1,0,0:0:0:0:
448,192,19601,1,0,0:0:0:0:
64,192,19656,1,0,0:0:0:0:
192,192,19656,1,0,0:0:0:0:
320,192,19712,1,0,0:0:0:0:
448,192,19712,1,0,0:0:0:0:
64,192,19767,1,0,0:0:0:0:
192,192,19767,1,0,0:0:0:0:
320,192,19822,1,0,0:0:0:0:
448,192,19822,1,0,0:0:0:0:
64,192,19933,1,0,0:0:0:0:
320,192,19951,1,0,0:0:0:0:
64,192,20043,1,0,0:0:0:0:
192,192,20043,1,0,0:0:0:0:
448,192,20043,1,0,0:0:0:0:
320,192,20098,1,0,0:0:0:0:
192,192,20154,1,0,0:0:0:0:
448,192,20154,1,0,0:0:0:0:
64,192,20209,1,0,0:0:0:0:
320,192,20264,1,0,0:0:0:0:
448,192,20264,1,0,0:0:0:0:
192,192,20319,1,0,0:0:0:0:
64,192,20375,1,0,0:0:0:0:
320,192,20430,1,0,0:0:0:0:
448,192,20430,1,0,0:0:0:0:
64,192,20485,1,0,0:0:0:0:
192,192,20485,1,0,0:0:0:0:
448,192,20540,1,0,0:0:0:0:
64,192,20596,1,0,0:0:0:0:
320,192,20596,1,0,0:0:0:0:
192,192,20651,1,0,0:0:0:0:
64,192,20706,1,0,0:0:0:0:
320,192,20706,1,0,0:0:0:0:
192,192,20761,1,0,0:0:0:0:
320,192,20817,1,0,0:0:0:0:
448,192,20817,1,0,0:0:0:0:
64,192,20872,1,0,0:0:0:0:
192,192,20872,1,0,0:0:0:0:
320,192,20927,1,0,0:0:0:0:
448,192,20927,1,0,0:0:0:0:
192,192,20982,1,0,0:0:0:0:
64,192,21038,1,0,0:0:0:0:
320,192,21038,1,0,0:0:0:0:
448,192,21093,1,0,0:0:0:0:
64,192,21148,1,0,0:0:0:0:
192,192,21148,1,0,0:0:0:0:
320,192,21203,1,0,0:0:0:0:
448,192,21203,1,0,0:0:0:0:
64,192,21259,1,0,0:0:0:0:
320,192,21314,1,0,0:0:0:0:
192,192,21369,1,0,0:0:0:0:
448,192,21369,1,0,0:0:0:0:
64,192,21424,1,0,0:0:0:0:
320,192,21424,1,0,0:0:0:0:
192,192,21480,1,0,0:0:0:0:
320,192,21535,1,0,0:0:0:0:
448,192,21535,1,0,0:0:0:0:
64,192,21590,1,0,0:0:0:0:
192,192,21645,1,0,0:0:0:0:
448,192,21645,1,0,0:0:0:0:
320,192,21701,1,0,0:0:0:0:
64,192,21756,1,0,0:0:0:0:
192,192,21756,1,0,0:0:0:0:
320,192,21811,1,0,0:0:0:0:
448,192,21811,1,0,0:0:0:0:
192,192,21867,1,0,0:0:0:0:
64,192,21922,1,0,0:0:0:0:
320,192,21922,1,0,0:0:0:0:
448,192,21977,1,0,0:0:0:0:
64,192,22032,1,0,0:0:0:0:
192,192,22032,1,0,0:0:0:0:
320,192,22088,1,0,0:0:0:0:
448,192,22143,1,0,0:0:0:0:
64,192,22198,1,0,0:0:0:0:
192,192,22198,1,0,0:0:0:0:
320,192,22253,1,0,0:0:0:0:
448,192,22253,1,0,0:0:0:0:
64,192,22309,1,0,0:0:0:0:
192,192,22364,1,0,0:0:0:0:
448,192,22364,1,0,0:0:0:0:
320,192,22419,1,0,0:0:0:0:
192,192,22474,1,0,0:0:0:0:
448,192,22474,1,0,0:0:0:0:
320,192,22530,1,0,0:0:0:0:
64,192,22585,1,0,0:0:0:0:
192,192,22585,1,0,0:0:0:0:
320,192,22640,1,0,0:0:0:0:
448,192,22640,1,0,0:0:0:0:
64,192,22695,1,0,0:0:0:0:
192,192,22695,1,0,0:0:0:0:
320,192,22751,1,0,0:0:0:0:
192,192,22806,1,0,0:0:0:0:
448,192,22806,1,0,0:0:0:0:
64,192,22861,1,0,0:0:0:0:
320,192,22916,1,0,0:0:0:0:
448,192,22916,1,0,0:0:0:0:
64,192,22972,1,0,0:0:0:0:
192,192,22972,1,0,0:0:0:0:
448,192,23027,1,0,0:0:0:0:
192,192,23082,1,0,0:0:0:0:
64,192,23137,1,0,0:0:0:0:
320,192,23137,1,0,0:0:0:0:
192,192,23193,1,0,0:0:0:0:
448,192,23193,1,0,0:0:0:0:
320,192,23248,1,0,0:0:0:0:
64,192,23303,1,0,0:0:0:0:
192,192,23303,1,0,0:0:0:0:
320,192,23358,1,0,0:0:0:0:
448,192,23358,1,0,0:0:0:0:
64,192,23414,1,0,0:0:0:0:
192,192,23414,1,0,0:0:0:0:
320,192,23469,1,0,0:0:0:0:
448,192,23469,1,0,0:0:0:0:
64,192,23524,1,0,0:0:0:0:
192,192,23579,1,0,0:0:0:0:
320,192,23579,1,0,0:0:0:0:
448,192,23579,1,0,0:0:0:0:
64,192,23635,1,0,0:0:0:0:
192,192,23690,1,0,0:0:0:0:
448,192,23690,1,0,0:0:0:0:
320,192,23745,1,0,0:0:0:0:
64,192,23800,1,0,0:0:0:0:
192,192,23800,1,0,0:0:0:0:
448,192,23856,1,0,0:0:0:0:
64,192,23911,1,0,0:0:0:0:
320,192,23966,1,0,0:0:0:0:
448,192,23966,1,0,0:0:0:0:
64,192,24021,1,0,0:0:0:0:
192,192,24021,1,0,0:0:0:0:
448,192,24077,1,0,0:0:0:0:
64,192,24132,1,0,0:0:0:0:
320,192,24132,1,0,0:0:0:0:
192,192,24187,1,0,0:0:0:0:
64,192,24242,1,0,0:0:0:0:
320,192,24242,1,0,0:0:0:0:
192,192,24298,1,0,0:0:0:0:
320,192,24353,1,0,0:0:0:0:
448,192,24353,1,0,0:0:0:0:
64,192,24408,1,0,0:0:0:0:
192,192,24408,1,0,0:0:0:0:
320,192,24463,1,0,0:0:0:0:
448,192,24463,1,0,0:0:0:0:
192,192,24519,1,0,0:0:0:0:
64,192,24574,1,0,0:0:0:0:
320,192,24574,1,0,0:0:0:0:
448,192,24629,1,0,0:0:0:0:
64,192,24684,1,0,0:0:0:0:
192,192,24684,1,0,0:0:0:0:
320,192,24740,1,0,0:0:0:0:
448,192,24740,1,0,0:0:0:0:
64,192,24795,1,0,0:0:0:0:
320,192,24850,1,0,0:0:0:0:
192,192,24905,1,0,0:0:0:0:
448,192,24905,1,0,0:0:0:0:
64,192,24961,1,0,0:0:0:0:
320,192,24961,1,0,0:0:0:0:
192,192,25016,1,0,0:0:0:0:
320,192,25071,1,0,0:0:0:0:
448,192,25071,1,0,0:0:0:0:
64,192,25126,1,0,0:0:0:0:
192,192,25182,1,0,0:0:0:0:
448,192,25182,1,0,0:0:0:0:
320,192,25237,1,0,0:0:0:0:
64,192,25292,1,0,0:0:0:0:
192,192,25292,1,0,0:0:0:0:
320,192,25347,1,0,0:0:0:0:
448,192,25347,1,0,0:0:0:0:
192,192,25403,1,0,0:0:0:0:
64,192,25458,1,0,0:0:0:0:
320,192,25458,1,0,0:0:0:0:
448,192,25513,1,0,0:0:0:0:
64,192,25568,1,0,0:0:0:0:
192,192,25568,1,0,0:0:0:0:
320,192,25624,1,0,0:0:0:0:
448,192,25679,1,0,0:0:0:0:
64,192,25734,1,0,0:0:0:0:
192,192,25734,1,0,0:0:0:0:
320,192,25789,1,0,0:0:0:0:
448,192,25789,1,0,0:0:0:0:
64,192,25845,1,0,0:0:0:0:
192,192,25900,1,0,0:0:0:0:
448,192,25900,1,0,0:0:0:0:
320,192,25955,1,0,0:0:0:0:
192,192,26010,1,0,0:0:0:0:
448,192,26010,1,0,0:0:0:0:
320,192,26066,1,0,0:0:0:0:
64,192,26121,1,0,0:0:0:0:
192,192,26121,1,0,0:0:0:0:
320,192,26176,1,0,0:0:0:0:
448,192,26176,1,0,0:0:0:0:
64,192,26231,1,0,0:0:0:0:
192,192,26231,1,0,0:0:0:0:
320,192,26287,1,0,0:0:0:0:
192,192,26342,1,0,0:0:0:0:
448,192,26342,1,0,0:0:0:0:
64,192,26397,1,0,0:0:0:0:
320,192,26452,1,0,0:0:0:0:
448,192,26452,1,0,0:0:0:0:
64,192,26508,1,0,0:0:0:0:
192,192,26563,1,0,0:0:0:0:
448,192,26563,1,0,0:0:0:0:
320,192,26618,1,0,0:0:0:0:
64,192,26673,1,0,0:0:0:0:
192,192,26673,1,0,0:0:0:0:
320,192,26729,1,0,0:0:0:0:
448,192,26729,1,0,0:0:0:0:
64,192,26784,1,0,0:0:0:0:
192,192,26784,1,0,0:0:0:0:
320,192,26839,1,0,0:0:0:0:
448,192,26839,1,0,0:0:0:0:
64,192,26894,1,0,0:0:0:0:
192,192,26894,1,0,0:0:0:0:
320,192,27005,1,0,0:0:0:0:
192,192,27023,1,0,0:0:0:0:
64,192,27115,1,0,0:0:0:0:
320,192,27115,128,0,27226:0:0:0:0:
192,192,27226,1,0,0:0:0:0:
320,192,27336,128,0,27447:0:0:0:0:
192,192,27447,1,0,0:0:0:0:
320,192,27557,128,0,27613:0:0:0:0:
192,192,27668,128,0,27723:0:0:0:0:
64,192,27778,128,0,27834:0:0:0:0:
192,192,27889,128,0,27999:0:0:0:0:
448,192,27999,1,0,0:0:0:0:
64,192,28110,128,0,28165:0:0:0:0:
192,192,28220,128,0,28276:0:0:0:0:
320,192,28331,128,0,28386:0:0:0:0:
448,192,28441,128,0,28497:0:0:0:0:
448,192,28552,1,0,0:0:0:0:
320,192,28662,128,0,28773:0:0:0:0:
192,192,28773,1,0,0:0:0:0:
64,192,28883,128,0,28994:0:0:0:0:
320,192,28994,1,0,0:0:0:0:
64,192,29105,128,0,29160:0:0:0:0:
192,192,29215,128,0,29270:0:0:0:0:
320,192,29326,128,0,29436:0:0:0:0:
64,192,29436,1,0,0:0:0:0:
448,192,29547,128,0,29602:0:0:0:0:
192,192,29657,128,0,29878:0:0:0:0:
320,192,29878,128,0,29989:0:0:0:0:
448,192,29989,1,0,0:0:0:0:
192,192,30099,128,0,30154:0:0:0:0:
64,192,30210,128,0,30265:0:0:0:0:
192,192,30320,128,0,30375:0:0:0:0:
448,192,30431,128,0,30486:0:0:0:0:
64,192,30541,128,0,30596:0:0:0:0:
448,192,30652,128,0,30762:0:0:0:0:
192,192,30762,1,0,0:0:0:0:
320,192,30873,128,0,30983:0:0:0:0:
64,192,30983,1,0,0:0:0:0:
192,192,31094,128,0,31204:0:0:0:0:
448,192,31204,1,0,0:0:0:0:
64,192,31315,128,0,31370:0:0:0:0:
448,192,31425,1,0,0:0:0:0:
192,192,31480,1,0,0:0:0:0:
64,192,31536,128,0,31591:0:0:0:0:
192,192,31646,128,0,31701:0:0:0:0:
448,192,31646,1,0,0:0:0:0:
320,192,31757,128,0,31812:0:0:0:0:
64,192,31867,1,0,0:0:0:0:
448,192,31867,128,0,31978:0:0:0:0:
192,192,32088,128,0,32199:0:0:0:0:
320,192,32088,128,0,32143:0:0:0:0:
320,192,32309,1,0,0:0:0:0:
192,192,32420,128,0,32475:0:0:0:0:
64,192,32530,128,0,32585:0:0:0:0:
448,192,32530,1,0,0:0:0:0:
320,192,32641,128,0,32696:0:0:0:0:
192,192,32751,1,0,0:0:0:0:
448,192,32751,128,0,32806:0:0:0:0:
64,192,32862,1,0,0:0:0:0:
320,192,32972,128,0,33027:0:0:0:0:
64,192,33027,1,0,0:0:0:0:
64,192,33138,1,0,0:0:0:0:
320,192,33193,128,0,33304:0:0:0:0:
448,192,33304,1,0,0:0:0:0:
192,192,33359,1,0,0:0:0:0:
320,192,33414,1,0,0:0:0:0:
192,192,33469,1,0,0:0:0:0:
64,192,33525,1,0,0:0:0:0:
320,192,33580,1,0,0:0:0:0:
64,192,33635,1,0,0:0:0:0:
192,192,33635,1,0,0:0:0:0:
320,192,33690,1,0,0:0:0:0:
448,192,33690,1,0,0:0:0:0:
64,192,33746,1,0,0:0:0:0:
192,192,33746,1,0,0:0:0:0:
320,192,33801,1,0,0:0:0:0:
448,192,33801,1,0,0:0:0:0:
64,192,33856,1,0,0:0:0:0:
192,192,33856,1,0,0:0:0:0:
320,192,33911,1,0,0:0:0:0:
448,192,33911,1,0,0:0:0:0:
64,192,33967,1,0,0:0:0:0:
192,192,33994,1,0,0:0:0:0:
320,192,34022,1,0,0:0:0:0:
448,192,34050,1,0,0:0:0:0:
64,192,34077,1,0,0:0:0:0:
192,192,34105,1,0,0:0:0:0:
320,192,34132,1,0,0:0:0:0:
448,192,34160,1,0,0:0:0:0:
64,192,34188,1,0,0:0:0:0:
192,192,34188,1,0,0:0:0:0:
320,192,34298,1,0,0:0:0:0:
448,192,34298,1,0,0:0:0:0:
64,192,34409,1,0,0:0:0:0:
320,192,34409,1,0,0:0:0:0:
192,192,34519,1,0,0:0:0:0:
448,192,34519,128,0,34740:0:0:0:0:
320,192,34630,1,0,0:0:0:0:
64,192,34740,1,0,0:0:0:0:
64,192,34851,128,0,35072:0:0:0:0:
320,192,34851,1,0,0:0:0:0:
192,192,34961,1,0,0:0:0:0:
448,192,35072,1,0,0:0:0:0:
64,192,35182,1,0,0:0:0:0:
320,192,35182,1,0,0:0:0:0:
192,192,35293,1,0,0:0:0:0:
320,192,35293,1,0,0:0:0:0:
192,192,35403,1,0,0:0:0:0:
320,192,35514,1,0,0:0:0:0:
448,192,35514,1,0,0:0:0:0:
64,192,35624,1,0,0:0:0:0:
192,192,35735,1,0,0:0:0:0:
448,192,35735,1,0,0:0:0:0:
64,192,35845,1,0,0:0:0:0:
192,192,35956,1,0,0:0:0:0:
448,192,35956,1,0,0:0:0:0:
320,192,36066,1,0,0:0:0:0:
192,192,36121,1,0,0:0:0:0:
64,192,36177,1,0,0:0:0:0:
320,192,36177,1,0,0:0:0:0:
192,192,36287,1,0,0:0:0:0:
448,192,36287,1,0,0:0:0:0:
320,192,36398,128,0,36508:0:0:0:0:
448,192,36398,1,0,0:0:0:0:
64,192,36508,1,0,0:0:0:0:
64,192,36619,1,0,0:0:0:0:
192,192,36619,128,0,36729:0:0:0:0:
448,192,36729,1,0,0:0:0:0:
192,192,36840,1,0,0:0:0:0:
320,192,36840,1,0,0:0:0:0:
64,192,36950,1,0,0:0:0:0:
448,192,37061,1,0,0:0:0:0:
64,192,37171,1,0,0:0:0:0:
320,192,37171,1,0,0:0:0:0:
64,192,37282,128,0,37503:0:0:0:0:
320,192,37282,1,0,0:0:0:0:
192,192,37392,1,0,0:0:0:0:
448,192,37503,1,0,0:0:0:0:
192,192,37613,1,0,0:0:0:0:
320,192,37724,1,0,0:0:0:0:
448,192,37724,1,0,0:0:0:0:
64,192,37834,1,0,0:0:0:0:
192,192,37834,1,0,0:0:0:0:
192,192,37945,1,0,0:0:0:0:
448,192,37945,1,0,0:0:0:0:
64,192,38055,1,0,0:0:0:0:
320,192,38055,1,0,0:0:0:0:
192,192,38166,1,0,0:0:0:0:
320,192,38276,1,0,0:0:0:0:
448,192,38276,1,0,0:0:0:0:
320,192,38387,1,0,0:0:0:0:
448,192,38387,128,0,38608:0:0:0:0:
192,192,38497,1,0,0:0:0:0:
64,192,38608,1,0,0:0:0:0:
320,192,38718,1,0,0:0:0:0:
448,192,38718,1,0,0:0:0:0:
64,192,38829,1,0,0:0:0:0:
192,192,38829,1,0,0:0:0:0:
192,192,38939,128,0,39271:0:0:0:0:
448,192,38939,1,0,0:0:0:0:
320,192,39050,1,0,0:0:0:0:
64,192,39160,1,0,0:0:0:0:
320,192,39271,1,0,0:0:0:0:
64,192,39381,1,0,0:0:0:0:
320,192,39492,1,0,0:0:0:0:
448,192,39492,1,0,0:0:0:0:
192,192,39602,1,0,0:0:0:0:
192,192,39713,1,0,0:0:0:0:
448,192,39713,1,0,0:0:0:0:
64,192,39823,1,0,0:0:0:0:
64,192,39934,1,0,0:0:0:0:
448,192,39934,128,0,39989:0:0:0:0:
192,192,40044,1,0,0:0:0:0:
448,192,40100,128,0,40155:0:0:0:0:
192,192,40265,1,0,0:0:0:0:
448,192,40265,128,0,40376:0:0:0:0:
320,192,40376,128,0,40431:0:0:0:0:
64,192,40486,128,0,40542:0:0:0:0:
448,192,40486,1,0,0:0:0:0:
192,192,40597,128,0,40652:0:0:0:0:
64,192,40707,128,0,40763:0:0:0:0:
448,192,40707,1,0,0:0:0:0:
320,192,40818,128,0,40873:0:0:0:0:
192,192,40928,1,0,0:0:0:0:
64,192,40984,1,0,0:0:0:0:
320,192,41039,128,0,41094:0:0:0:0:
192,192,41149,128,0,41205:0:0:0:0:
448,192,41149,1,0,0:0:0:0:
64,192,41260,128,0,41370:0:0:0:0:
320,192,41260,1,0,0:0:0:0:
448,192,41370,1,0,0:0:0:0:
192,192,41481,1,0,0:0:0:0:
320,192,41481,128,0,41591:0:0:0:0:
64,192,41591,1,0,0:0:0:0:
192,192,41702,128,0,41757:0:0:0:0:
64,192,41812,1,0,0:0:0:0:
320,192,41812,1,0,0:0:0:0:
448,192,41812,1,0,0:0:0:0:
320,192,41923,128,0,41978:0:0:0:0:
64,192,42033,1,0,0:0:0:0:
192,192,42144,1,0,0:0:0:0:
320,192,42144,1,0,0:0:0:0:
448,192,42144,1,0,0:0:0:0:
64,192,42199,1,0,0:0:0:0:
192,192,42254,1,0,0:0:0:0:
64,192,42365,1,0,0:0:0:0:
320,192,42365,1,0,0:0:0:0:
448,192,42420,1,0,0:0:0:0:
320,192,42475,1,0,0:0:0:0:
64,192,42586,1,0,0:0:0:0:
192,192,42586,1,0,0:0:0:0:
192,192,42696,1,0,0:0:0:0:
320,192,42752,1,0,0:0:0:0:
64,192,42807,1,0,0:0:0:0:
192,192,42862,1,0,0:0:0:0:
192,192,42973,1,0,0:0:0:0:
320,192,43028,1,0,0:0:0:0:
448,192,43028,1,0,0:0:0:0:
320,192,43138,1,0,0:0:0:0:
192,192,43249,1,0,0:0:0:0:
448,192,43249,1,0,0:0:0:0:
320,192,43304,1,0,0:0:0:0:
64,192,43415,1,0,0:0:0:0:
192,192,43470,1,0,0:0:0:0:
320,192,43470,1,0,0:0:0:0:
448,192,43525,1,0,0:0:0:0:
64,192,43581,1,0,0:0:0:0:
192,192,43691,1,0,0:0:0:0:
448,192,43691,1,0,0:0:0:0:
320,192,43802,1,0,0:0:0:0:
192,192,43912,1,0,0:0:0:0:
448,192,43912,1,0,0:0:0:0:
320,192,43967,1,0,0:0:0:0:
192,192,44023,1,0,0:0:0:0:
64,192,44133,1,0,0:0:0:0:
320,192,44133,1,0,0:0:0:0:
192,192,44188,1,0,0:0:0:0:
320,192,44244,1,0,0:0:0:0:
64,192,44354,1,0,0:0:0:0:
192,192,44354,1,0,0:0:0:0:
448,192,44409,1,0,0:0:0:0:
448,192,44520,1,0,0:0:0:0:
64,192,44575,1,0,0:0:0:0:
320,192,44575,1,0,0:0:0:0:
448,192,44630,1,0,0:0:0:0:
192,192,44686,1,0,0:0:0:0:
320,192,44741,1,0,0:0:0:0:
64,192,44796,1,0,0:0:0:0:
192,192,44796,1,0,0:0:0:0:
320,192,44907,1,0,0:0:0:0:
64,192,45017,1,0,0:0:0:0:
320,192,45017,1,0,0:0:0:0:
192,192,45128,1,0,0:0:0:0:
320,192,45183,1,0,0:0:0:0:
192,192,45238,1,0,0:0:0:0:
448,192,45238,1,0,0:0:0:0:
64,192,45293,1,0,0:0:0:0:
320,192,45293,1,0,0:0:0:0:
192,192,45349,1,0,0:0:0:0:
448,192,45349,1,0,0:0:0:0:
64,192,45459,1,0,0:0:0:0:
192,192,45459,1,0,0:0:0:0:
320,192,45570,1,0,0:0:0:0:
64,192,45680,1,0,0:0:0:0:
192,192,45680,1,0,0:0:0:0:
320,192,45735,1,0,0:0:0:0:
448,192,45735,1,0,0:0:0:0:
64,192,45791,1,0,0:0:0:0:
192,192,45791,1,0,0:0:0:0:
448,192,45846,1,0,0:0:0:0:
64,192,45901,1,0,0:0:0:0:
192,192,45901,1,0,0:0:0:0:
320,192,45956,1,0,0:0:0:0:
448,192,45956,1,0,0:0:0:0:
64,192,46012,1,0,0:0:0:0:
192,192,46012,1,0,0:0:0:0:
448,192,46067,1,0,0:0:0:0:
64,192,46122,1,0,0:0:0:0:
320,192,46122,1,0,0:0:0:0:
192,192,46177,1,0,0:0:0:0:
64,192,46233,1,0,0:0:0:0:
320,192,46233,1,0,0:0:0:0:
192,192,46288,1,0,0:0:0:0:
448,192,46288,1,0,0:0:0:0:
320,192,46343,1,0,0:0:0:0:
64,192,46398,1,0,0:0:0:0:
320,192,46454,1,0,0:0:0:0:
448,192,46454,1,0,0:0:0:0:
64,192,46509,1,0,0:0:0:0:
192,192,46509,1,0,0:0:0:0:
320,192,46564,1,0,0:0:0:0:
448,192,46564,1,0,0:0:0:0:
192,192,46619,1,0,0:0:0:0:
320,192,46675,1,0,0:0:0:0:
448,192,46675,1,0,0:0:0:0:
64,192,46730,1,0,0:0:0:0:
192,192,46785,1,0,0:0:0:0:
448,192,46785,1,0,0:0:0:0:
64,192,46840,1,0,0:0:0:0:
320,192,46840,1,0,0:0:0:0:
192,192,46896,1,0,0:0:0:0:
320,192,46951,1,0,0:0:0:0:
448,192,46951,1,0,0:0:0:0:
64,192,47006,1,0,0:0:0:0:
192,192,47061,1,0,0:0:0:0:
320,192,47061,1,0,0:0:0:0:
64,192,47117,1,0,0:0:0:0:
448,192,47117,1,0,0:0:0:0:
192,192,47172,1,0,0:0:0:0:
320,192,47227,1,0,0:0:0:0:
448,192,47227,1,0,0:0:0:0:
64,192,47282,1,0,0:0:0:0:
192,192,47338,1,0,0:0:0:0:
448,192,47338,1,0,0:0:0:0:
320,192,47393,1,0,0:0:0:0:
64,192,47448,1,0,0:0:0:0:
192,192,47476,1,0,0:0:0:0:
448,192,47503,1,0,0:0:0:0:
320,192,47531,1,0,0:0:0:0:
64,192,47559,1,0,0:0:0:0:
192,192,47586,1,0,0:0:0:0:
448,192,47614,1,0,0:0:0:0:
320,192,47642,1,0,0:0:0:0:
64,192,47669,1,0,0:0:0:0:
192,192,47697,1,0,0:0:0:0:
448,192,47724,1,0,0:0:0:0:
320,192,47752,1,0,0:0:0:0:
64,192,47780,1,0,0:0:0:0:
192,192,47807,1,0,0:0:0:0:
448,192,47835,1,0,0:0:0:0:
320,192,47863,1,0,0:0:0:0:
64,192,47890,1,0,0:0:0:0:
192,192,47918,1,0,0:0:0:0:
448,192,47945,1,0,0:0:0:0:
320,192,47973,1,0,0:0:0:0:
64,192,48001,1,0,0:0:0:0:
192,192,48028,1,0,0:0:0:0:
448,192,48056,1,0,0:0:0:0:
320,192,48084,1,0,0:0:0:0:
64,192,48111,1,0,0:0:0:0:
192,192,48139,1,0,0:0:0:0:
448,192,48166,1,0,0:0:0:0:
320,192,48194,1,0,0:0:0:0:
64,192,48222,1,0,0:0:0:0:
192,192,48249,1,0,0:0:0:0:
448,192,48277,1,0,0:0:0:0:
320,192,48305,1,0,0:0:0:0:
64,192,48332,128,0,48498:0:0:0:0:
192,192,48332,1,0,0:0:0:0:
320,192,48553,1,0,0:0:0:0:
192,192,48608,1,0,0:0:0:0:
448,192,48664,1,0,0:0:0:0:
192,192,48719,1,0,0:0:0:0:
64,192,48774,1,0,0:0:0:0:
448,192,48829,1,0,0:0:0:0:
320,192,48885,1,0,0:0:0:0:
192,192,48940,1,0,0:0:0:0:
320,192,48995,1,0,0:0:0:0:
448,192,48995,1,0,0:0:0:0:
64,192,49050,1,0,0:0:0:0:
192,192,49106,1,0,0:0:0:0:
448,192,49106,1,0,0:0:0:0:
320,192,49161,1,0,0:0:0:0:
64,192,49216,1,0,0:0:0:0:
192,192,49216,1,0,0:0:0:0:
320,192,49271,1,0,0:0:0:0:
448,192,49271,1,0,0:0:0:0:
64,192,49327,1,0,0:0:0:0:
192,192,49327,1,0,0:0:0:0:
448,192,49382,1,0,0:0:0:0:
64,192,49437,1,0,0:0:0:0:
320,192,49437,1,0,0:0:0:0:
192,192,49492,1,0,0:0:0:0:
448,192,49492,1,0,0:0:0:0:
64,192,49548,1,0,0:0:0:0:
320,192,49548,1,0,0:0:0:0:
192,192,49603,1,0,0:0:0:0:
320,192,49658,1,0,0:0:0:0:
448,192,49658,1,0,0:0:0:0:
64,192,49713,1,0,0:0:0:0:
320,192,49769,1,0,0:0:0:0:
448,192,49769,1,0,0:0:0:0:
64,192,49824,1,0,0:0:0:0:
192,192,49824,1,0,0:0:0:0:
448,192,49879,1,0,0:0:0:0:
64,192,49934,1,0,0:0:0:0:
192,192,49934,1,0,0:0:0:0:
320,192,49990,1,0,0:0:0:0:
448,192,49990,1,0,0:0:0:0:
64,192,50045,1,0,0:0:0:0:
192,192,50045,1,0,0:0:0:0:
320,192,50100,1,0,0:0:0:0:
448,192,50100,1,0,0:0:0:0:
192,192,50155,1,0,0:0:0:0:
320,192,50211,1,0,0:0:0:0:
448,192,50211,1,0,0:0:0:0:
64,192,50266,1,0,0:0:0:0:
192,192,50321,1,0,0:0:0:0:
320,192,50321,1,0,0:0:0:0:
64,192,50376,1,0,0:0:0:0:
448,192,50376,1,0,0:0:0:0:
192,192,50432,1,0,0:0:0:0:
320,192,50487,1,0,0:0:0:0:
448,192,50487,1,0,0:0:0:0:
64,192,50542,1,0,0:0:0:0:
320,192,50597,1,0,0:0:0:0:
448,192,50597,1,0,0:0:0:0:
64,192,50653,1,0,0:0:0:0:
192,192,50653,1,0,0:0:0:0:
448,192,50708,1,0,0:0:0:0:
64,192,50763,1,0,0:0:0:0:
320,192,50763,1,0,0:0:0:0:
192,192,50819,1,0,0:0:0:0:
320,192,50874,1,0,0:0:0:0:
448,192,50874,1,0,0:0:0:0:
64,192,50929,1,0,0:0:0:0:
192,192,50984,1,0,0:0:0:0:
448,192,50984,1,0,0:0:0:0:
64,192,51040,1,0,0:0:0:0:
320,192,51040,1,0,0:0:0:0:
192,192,51095,1,0,0:0:0:0:
448,192,51095,1,0,0:0:0:0:
320,192,51150,1,0,0:0:0:0:
64,192,51205,1,0,0:0:0:0:
192,192,51205,1,0,0:0:0:0:
320,192,51261,1,0,0:0:0:0:
448,192,51261,1,0,0:0:0:0:
64,192,51316,1,0,0:0:0:0:
192,192,51316,1,0,0:0:0:0:
448,192,51371,1,0,0:0:0:0:
64,192,51426,1,0,0:0:0:0:
320,192,51426,1,0,0:0:0:0:
192,192,51482,1,0,0:0:0:0:
448,192,51482,1,0,0:0:0:0:
320,192,51537,1,0,0:0:0:0:
192,192,51592,1,0,0:0:0:0:
448,192,51592,1,0,0:0:0:0:
64,192,51647,1,0,0:0:0:0:
192,192,51703,1,0,0:0:0:0:
448,192,51703,1,0,0:0:0:0:
64,192,51758,1,0,0:0:0:0:
320,192,51758,1,0,0:0:0:0:
192,192,51813,1,0,0:0:0:0:
320,192,51868,1,0,0:0:0:0:
448,192,51868,1,0,0:0:0:0:
64,192,51924,1,0,0:0:0:0:
192,192,51979,1,0,0:0:0:0:
448,192,51979,1,0,0:0:0:0:
320,192,52034,1,0,0:0:0:0:
64,192,52089,1,0,0:0:0:0:
192,192,52089,1,0,0:0:0:0:
448,192,52145,1,0,0:0:0:0:
64,192,52200,1,0,0:0:0:0:
320,192,52200,1,0,0:0:0:0:
192,192,52255,1,0,0:0:0:0:
320,192,52310,1,0,0:0:0:0:
448,192,52310,1,0,0:0:0:0:
64,192,52366,1,0,0:0:0:0:
192,192,52366,1,0,0:0:0:0:
320,192,52421,1,0,0:0:0:0:
448,192,52421,1,0,0:0:0:0:
64,192,52476,1,0,0:0:0:0:
192,192,52531,1,0,0:0:0:0:
448,192,52531,1,0,0:0:0:0:
320,192,52587,1,0,0:0:0:0:
64,192,52642,1,0,0:0:0:0:
192,192,52669,1,0,0:0:0:0:
320,192,52697,1,0,0:0:0:0:
448,192,52725,1,0,0:0:0:0:
64,192,52752,1,0,0:0:0:0:
192,192,52752,1,0,0:0:0:0:
320,192,52808,1,0,0:0:0:0:
448,192,52808,1,0,0:0:0:0:
64,192,52863,1,0,0:0:0:0:
192,192,52863,1,0,0:0:0:0:
448,192,52918,1,0,0:0:0:0:
64,192,52973,1,0,0:0:0:0:
320,192,52973,1,0,0:0:0:0:
192,192,53029,1,0,0:0:0:0:
448,192,53029,1,0,0:0:0:0:
64,192,53084,1,0,0:0:0:0:
320,192,53084,1,0,0:0:0:0:
192,192,53139,1,0,0:0:0:0:
320,192,53194,1,0,0:0:0:0:
448,192,53194,1,0,0:0:0:0:
64,192,53250,1,0,0:0:0:0:
320,192,53305,1,0,0:0:0:0:
448,192,53305,1,0,0:0:0:0:
64,192,53360,1,0,0:0:0:0:
192,192,53360,1,0,0:0:0:0:
448,192,53415,1,0,0:0:0:0:
64,192,53471,1,0,0:0:0:0:
192,192,53471,1,0,0:0:0:0:
320,192,53526,1,0,0:0:0:0:
448,192,53526,1,0,0:0:0:0:
64,192,53581,1,0,0:0:0:0:
192,192,53581,1,0,0:0:0:0:
320,192,53636,1,0,0:0:0:0:
448,192,53636,1,0,0:0:0:0:
192,192,53692,1,0,0:0:0:0:
320,192,53747,1,0,0:0:0:0:
448,192,53747,1,0,0:0:0:0:
64,192,53802,1,0,0:0:0:0:
192,192,53857,1,0,0:0:0:0:
320,192,53857,1,0,0:0:0:0:
64,192,53913,1,0,0:0:0:0:
448,192,53913,1,0,0:0:0:0:
192,192,53968,1,0,0:0:0:0:
320,192,54023,1,0,0:0:0:0:
448,192,54023,1,0,0:0:0:0:
64,192,54078,1,0,0:0:0:0:
320,192,54134,1,0,0:0:0:0:
448,192,54134,1,0,0:0:0:0:
64,192,54189,1,0,0:0:0:0:
192,192,54189,1,0,0:0:0:0:
448,192,54244,1,0,0:0:0:0:
64,192,54299,1,0,0:0:0:0:
320,192,54299,1,0,0:0:0:0:
192,192,54355,1,0,0:0:0:0:
320,192,54410,1,0,0:0:0:0:
448,192,54410,1,0,0:0:0:0:
64,192,54465,1,0,0:0:0:0:
192,192,54520,1,0,0:0:0:0:
448,192,54520,1,0,0:0:0:0:
64,192,54576,1,0,0:0:0:0:
320,192,54576,1,0,0:0:0:0:
192,192,54631,1,0,0:0:0:0:
448,192,54631,1,0,0:0:0:0:
320,192,54686,1,0,0:0:0:0:
64,192,54741,1,0,0:0:0:0:
192,192,54741,1,0,0:0:0:0:
320,192,54797,1,0,0:0:0:0:
448,192,54797,1,0,0:0:0:0:
64,192,54852,1,0,0:0:0:0:
192,192,54852,1,0,0:0:0:0:
448,192,54907,1,0,0:0:0:0:
64,192,54962,1,0,0:0:0:0:
320,192,54962,1,0,0:0:0:0:
192,192,55018,1,0,0:0:0:0:
448,192,55018,1,0,0:0:0:0:
320,192,55073,1,0,0:0:0:0:
192,192,55128,1,0,0:0:0:0:
448,192,55128,1,0,0:0:0:0:
64,192,55183,1,0,0:0:0:0:
192,192,55239,1,0,0:0:0:0:
448,192,55239,1,0,0:0:0:0:
64,192,55294,1,0,0:0:0:0:
320,192,55294,1,0,0:0:0:0:
192,192,55349,1,0,0:0:0:0:
320,192,55404,1,0,0:0:0:0:
448,192,55404,1,0,0:0:0:0:
64,192,55460,1,0,0:0:0:0:
192,192,55515,1,0,0:0:0:0:
448,192,55515,1,0,0:0:0:0:
320,192,55570,1,0,0:0:0:0:
64,192,55625,1,0,0:0:0:0:
192,192,55625,1,0,0:0:0:0:
448,192,55681,1,0,0:0:0:0:
64,192,55736,1,0,0:0:0:0:
320,192,55736,1,0,0:0:0:0:
192,192,55791,1,0,0:0:0:0:
320,192,55846,1,0,0:0:0:0:
448,192,55846,1,0,0:0:0:0:
64,192,55902,1,0,0:0:0:0:
192,192,55902,1,0,0:0:0:0:
320,192,55957,1,0,0:0:0:0:
448,192,55957,1,0,0:0:0:0:
64,192,56012,1,0,0:0:0:0:
192,192,56040,1,0,0:0:0:0:
320,192,56067,1,0,0:0:0:0:
448,192,56067,1,0,0:0:0:0:
64,192,56178,128,0,56288:0:0:0:0:
192,192,56288,1,0,0:0:0:0:
320,192,56288,1,0,0:0:0:0:
448,192,56288,1,0,0:0:0:0:
320,192,56399,1,0,0:0:0:0:
192,192,56509,1,0,0:0:0:0:
448,192,56509,1,0,0:0:0:0:
64,192,56620,1,0,0:0:0:0:
192,192,56620,1,0,0:0:0:0:
448,192,56730,1,0,0:0:0:0:
192,192,56786,1,0,0:0:0:0:
64,192,56841,1,0,0:0:0:0:
320,192,56841,1,0,0:0:0:0:
448,192,56896,1,0,0:0:0:0:
64,192,56951,1,0,0:0:0:0:
320,192,57007,1,0,0:0:0:0:
192,192,57062,1,0,0:0:0:0:
448,192,57062,1,0,0:0:0:0:
64,192,57117,1,0,0:0:0:0:
320,192,57172,1,0,0:0:0:0:
448,192,57172,1,0,0:0:0:0:
320,192,57283,1,0,0:0:0:0:
64,192,57393,1,0,0:0:0:0:
192,192,57393,1,0,0:0:0:0:
192,192,57504,1,0,0:0:0:0:
448,192,57614,1,0,0:0:0:0:
320,192,57670,1,0,0:0:0:0:
64,192,57725,1,0,0:0:0:0:
448,192,57725,1,0,0:0:0:0:
192,192,57780,1,0,0:0:0:0:
64,192,57835,1,0,0:0:0:0:
320,192,57835,1,0,0:0:0:0:
448,192,57891,1,0,0:0:0:0:
192,192,57946,1,0,0:0:0:0:
320,192,57946,1,0,0:0:0:0:
64,192,58001,1,0,0:0:0:0:
320,192,58057,1,0,0:0:0:0:
448,192,58057,1,0,0:0:0:0:
448,192,58167,1,0,0:0:0:0:
64,192,58278,1,0,0:0:0:0:
320,192,58278,1,0,0:0:0:0:
64,192,58388,1,0,0:0:0:0:
192,192,58388,1,0,0:0:0:0:
320,192,58499,1,0,0:0:0:0:
192,192,58554,1,0,0:0:0:0:
64,192,58609,1,0,0:0:0:0:
448,192,58609,1,0,0:0:0:0:
320,192,58664,1,0,0:0:0:0:
64,192,58720,1,0,0:0:0:0:
192,192,58775,1,0,0:0:0:0:
320,192,58830,1,0,0:0:0:0:
448,192,58830,1,0,0:0:0:0:
64,192,58885,1,0,0:0:0:0:
192,192,58941,1,0,0:0:0:0:
448,192,58941,1,0,0:0:0:0:
192,192,59051,1,0,0:0:0:0:
320,192,59162,1,0,0:0:0:0:
448,192,59162,1,0,0:0:0:0:
320,192,59272,1,0,0:0:0:0:
448,192,59272,1,0,0:0:0:0:
192,192,59383,1,0,0:0:0:0:
320,192,59438,1,0,0:0:0:0:
64,192,59493,1,0,0:0:0:0:
448,192,59548,1,0,0:0:0:0:
192,192,59604,1,0,0:0:0:0:
320,192,59604,1,0,0:0:0:0:
64,192,59659,1,0,0:0:0:0:
192,192,59714,1,0,0:0:0:0:
448,192,59769,1,0,0:0:0:0:
64,192,59825,1,0,0:0:0:0:
320,192,59825,1,0,0:0:0:0:
320,192,59935,1,0,0:0:0:0:
64,192,60046,1,0,0:0:0:0:
192,192,60046,1,0,0:0:0:0:
192,192,60156,1,0,0:0:0:0:
448,192,60156,1,0,0:0:0:0:
64,192,60267,1,0,0:0:0:0:
192,192,60322,1,0,0:0:0:0:
320,192,60377,1,0,0:0:0:0:
448,192,60432,1,0,0:0:0:0:
64,192,60488,1,0,0:0:0:0:
192,192,60488,1,0,0:0:0:0:
320,192,60543,1,0,0:0:0:0:
448,192,60598,1,0,0:0:0:0:
320,192,60653,1,0,0:0:0:0:
64,192,60709,1,0,0:0:0:0:
192,192,60709,1,0,0:0:0:0:
192,192,60819,1,0,0:0:0:0:
320,192,60930,1,0,0:0:0:0:
448,192,60930,1,0,0:0:0:0:
64,192,61040,1,0,0:0:0:0:
320,192,61040,1,0,0:0:0:0:
192,192,61151,1,0,0:0:0:0:
448,192,61206,1,0,0:0:0:0:
64,192,61261,1,0,0:0:0:0:
320,192,61316,1,0,0:0:0:0:
192,192,61372,1,0,0:0:0:0:
448,192,61372,1,0,0:0:0:0:
64,192,61427,1,0,0:0:0:0:
320,192,61482,1,0,0:0:0:0:
448,192,61482,1,0,0:0:0:0:
192,192,61537,1,0,0:0:0:0:
64,192,61593,1,0,0:0:0:0:
320,192,61593,1,0,0:0:0:0:
64,192,61703,1,0,0:0:0:0:
192,192,61703,1,0,0:0:0:0:
320,192,61814,1,0,0:0:0:0:
448,192,61814,1,0,0:0:0:0:
320,192,61924,1,0,0:0:0:0:
64,192,62035,1,0,0:0:0:0:
448,192,62090,1,0,0:0:0:0:
192,192,62145,1,0,0:0:0:0:
320,192,62200,1,0,0:0:0:0:
64,192,62256,1,0,0:0:0:0:
448,192,62311,1,0,0:0:0:0:
64,192,62366,1,0,0:0:0:0:
192,192,62366,1,0,0:0:0:0:
320,192,62421,1,0,0:0:0:0:
448,192,62421,1,0,0:0:0:0:
64,192,62477,1,0,0:0:0:0:
192,192,62477,1,0,0:0:0:0:
192,192,62587,1,0,0:0:0:0:
448,192,62587,1,0,0:0:0:0:
320,192,62698,1,0,0:0:0:0:
448,192,62698,1,0,0:0:0:0:
64,192,62808,1,0,0:0:0:0:
320,192,62808,1,0,0:0:0:0:
64,192,62919,1,0,0:0:0:0:
192,192,62919,1,0,0:0:0:0:
448,192,62956,1,0,0:0:0:0:
320,192,62992,1,0,0:0:0:0:
64,192,63029,1,0,0:0:0:0:
448,192,63066,1,0,0:0:0:0:
192,192,63103,1,0,0:0:0:0:
64,192,63140,1,0,0:0:0:0:
320,192,63177,1,0,0:0:0:0:
192,192,63213,1,0,0:0:0:0:
448,192,63250,1,0,0:0:0:0:
64,192,63287,1,0,0:0:0:0:
192,192,63324,1,0,0:0:0:0:
320,192,63361,1,0,0:0:0:0:
448,192,63361,1,0,0:0:0:0:
320,192,63471,1,0,0:0:0:0:
64,192,63582,1,0,0:0:0:0:
192,192,63582,1,0,0:0:0:0:
448,192,63582,1,0,0:0:0:0:
192,192,63692,1,0,0:0:0:0:
320,192,63692,1,0,0:0:0:0:
64,192,63803,1,0,0:0:0:0:
448,192,63803,1,0,0:0:0:0:
320,192,63858,1,0,0:0:0:0:
192,192,63913,1,0,0:0:0:0:
448,192,63913,1,0,0:0:0:0:
64,192,63968,1,0,0:0:0:0:
320,192,64024,1,0,0:0:0:0:
192,192,64079,1,0,0:0:0:0:
320,192,64134,1,0,0:0:0:0:
448,192,64134,1,0,0:0:0:0:
64,192,64189,1,0,0:0:0:0:
192,192,64245,1,0,0:0:0:0:
448,192,64245,1,0,0:0:0:0:
192,192,64355,1,0,0:0:0:0:
64,192,64466,1,0,0:0:0:0:
320,192,64466,1,0,0:0:0:0:
320,192,64576,1,0,0:0:0:0:
192,192,64687,1,0,0:0:0:0:
448,192,64687,1,0,0:0:0:0:
64,192,64742,1,0,0:0:0:0:
192,192,64797,1,0,0:0:0:0:
320,192,64797,1,0,0:0:0:0:
448,192,64852,1,0,0:0:0:0:
64,192,64908,1,0,0:0:0:0:
320,192,64908,1,0,0:0:0:0:
192,192,64963,1,0,0:0:0:0:
64,192,65018,1,0,0:0:0:0:
448,192,65018,1,0,0:0:0:0:
320,192,65074,1,0,0:0:0:0:
64,192,65129,1,0,0:0:0:0:
192,192,65129,1,0,0:0:0:0:
448,192,65129,1,0,0:0:0:0:
192,192,65239,1,0,0:0:0:0:
64,192,65350,1,0,0:0:0:0:
320,192,65350,1,0,0:0:0:0:
448,192,65350,1,0,0:0:0:0:
192,192,65460,1,0,0:0:0:0:
320,192,65460,1,0,0:0:0:0:
64,192,65571,1,0,0:0:0:0:
448,192,65571,1,0,0:0:0:0:
320,192,65626,1,0,0:0:0:0:
64,192,65681,1,0,0:0:0:0:
192,192,65681,1,0,0:0:0:0:
320,192,65737,1,0,0:0:0:0:
192,192,65792,1,0,0:0:0:0:
448,192,65847,1,0,0:0:0:0:
64,192,65902,1,0,0:0:0:0:
320,192,65902,1,0,0:0:0:0:
192,192,65958,1,0,0:0:0:0:
64,192,66013,1,0,0:0:0:0:
320,192,66013,1,0,0:0:0:0:
448,192,66013,1,0,0:0:0:0:
320,192,66123,1,0,0:0:0:0:
64,192,66234,1,0,0:0:0:0:
192,192,66234,1,0,0:0:0:0:
448,192,66234,1,0,0:0:0:0:
192,192,66344,1,0,0:0:0:0:
320,192,66344,1,0,0:0:0:0:
64,192,66455,1,0,0:0:0:0:
448,192,66455,1,0,0:0:0:0:
320,192,66510,1,0,0:0:0:0:
192,192,66565,1,0,0:0:0:0:
448,192,66621,1,0,0:0:0:0:
64,192,66676,1,0,0:0:0:0:
320,192,66676,1,0,0:0:0:0:
192,192,66731,1,0,0:0:0:0:
320,192,66786,1,0,0:0:0:0:
448,192,66842,1,0,0:0:0:0:
64,192,66897,1,0,0:0:0:0:
192,192,66897,1,0,0:0:0:0:
320,192,66897,1,0,0:0:0:0:
64,192,67007,1,0,0:0:0:0:
192,192,67118,1,0,0:0:0:0:
320,192,67118,1,0,0:0:0:0:
448,192,67118,1,0,0:0:0:0:
192,192,67228,1,0,0:0:0:0:
448,192,67228,1,0,0:0:0:0:
64,192,67339,1,0,0:0:0:0:
320,192,67339,1,0,0:0:0:0:
192,192,67394,1,0,0:0:0:0:
320,192,67449,1,0,0:0:0:0:
64,192,67505,1,0,0:0:0:0:
192,192,67560,1,0,0:0:0:0:
448,192,67560,1,0,0:0:0:0:
320,192,67615,1,0,0:0:0:0:
192,192,67670,1,0,0:0:0:0:
320,192,67726,1,0,0:0:0:0:
64,192,67781,1,0,0:0:0:0:
192,192,67781,1,0,0:0:0:0:
448,192,67781,1,0,0:0:0:0:
192,192,67891,1,0,0:0:0:0:
64,192,68002,1,0,0:0:0:0:
320,192,68002,1,0,0:0:0:0:
192,192,68112,1,0,0:0:0:0:
320,192,68112,1,0,0:0:0:0:
448,192,68112,1,0,0:0:0:0:
64,192,68223,1,0,0:0:0:0:
192,192,68278,1,0,0:0:0:0:
448,192,68333,1,0,0:0:0:0:
320,192,68389,1,0,0:0:0:0:
64,192,68444,1,0,0:0:0:0:
192,192,68444,1,0,0:0:0:0:
448,192,68444,1,0,0:0:0:0:
320,192,68499,1,0,0:0:0:0:
64,192,68554,1,0,0:0:0:0:
192,192,68554,1,0,0:0:0:0:
448,192,68610,1,0,0:0:0:0:
64,192,68665,1,0,0:0:0:0:
320,192,68665,1,0,0:0:0:0:
192,192,68775,1,0,0:0:0:0:
320,192,68775,1,0,0:0:0:0:
64,192,68886,1,0,0:0:0:0:
192,192,68886,1,0,0:0:0:0:
448,192,68886,1,0,0:0:0:0:
64,192,68996,1,0,0:0:0:0:
192,192,69107,1,0,0:0:0:0:
320,192,69107,1,0,0:0:0:0:
448,192,69162,1,0,0:0:0:0:
64,192,69217,1,0,0:0:0:0:
192,192,69273,1,0,0:0:0:0:
448,192,69328,1,0,0:0:0:0:
320,192,69383,1,0,0:0:0:0:
64,192,69438,1,0,0:0:0:0:
192,192,69438,1,0,0:0:0:0:
448,192,69494,1,0,0:0:0:0:
64,192,69549,1,0,0:0:0:0:
192,192,69549,1,0,0:0:0:0:
320,192,69549,1,0,0:0:0:0:
320,192,69659,1,0,0:0:0:0:
448,192,69659,1,0,0:0:0:0:
64,192,69770,1,0,0:0:0:0:
192,192,69770,1,0,0:0:0:0:
448,192,69770,1,0,0:0:0:0:
192,192,69880,1,0,0:0:0:0:
320,192,69880,1,0,0:0:0:0:
64,192,69991,1,0,0:0:0:0:
448,192,69991,1,0,0:0:0:0:
192,192,70046,1,0,0:0:0:0:
320,192,70101,1,0,0:0:0:0:
64,192,70157,1,0,0:0:0:0:
192,192,70212,1,0,0:0:0:0:
448,192,70249,1,0,0:0:0:0:
64,192,70286,1,0,0:0:0:0:
320,192,70322,1,0,0:0:0:0:
192,192,70359,1,0,0:0:0:0:
448,192,70396,1,0,0:0:0:0:
64,192,70433,1,0,0:0:0:0:
320,192,70433,1,0,0:0:0:0:
320,192,70543,1,0,0:0:0:0:
64,192,70654,1,0,0:0:0:0:
192,192,70654,1,0,0:0:0:0:
64,192,70764,1,0,0:0:0:0:
448,192,70764,1,0,0:0:0:0:
448,192,70875,1,0,0:0:0:0:
64,192,70985,1,0,0:0:0:0:
192,192,70985,1,0,0:0:0:0:
320,192,71096,1,0,0:0:0:0:
448,192,71096,1,0,0:0:0:0:
192,192,71151,1,0,0:0:0:0:
320,192,71206,1,0,0:0:0:0:
448,192,71206,1,0,0:0:0:0:
192,192,71262,1,0,0:0:0:0:
64,192,71317,1,0,0:0:0:0:
448,192,71317,1,0,0:0:0:0:
192,192,71427,1,0,0:0:0:0:
448,192,71427,1,0,0:0:0:0:
64,192,71538,1,0,0:0:0:0:
320,192,71538,1,0,0:0:0:0:
64,192,71648,1,0,0:0:0:0:
192,192,71648,1,0,0:0:0:0:
192,192,71759,1,0,0:0:0:0:
320,192,71869,1,0,0:0:0:0:
448,192,71869,1,0,0:0:0:0:
320,192,71980,1,0,0:0:0:0:
448,192,71980,1,0,0:0:0:0:
192,192,72035,1,0,0:0:0:0:
448,192,72090,1,0,0:0:0:0:
192,192,72146,1,0,0:0:0:0:
64,192,72201,1,0,0:0:0:0:
320,192,72201,1,0,0:0:0:0:
320,192,72312,1,0,0:0:0:0:
64,192,72422,1,0,0:0:0:0:
192,192,72422,1,0,0:0:0:0:
64,192,72533,1,0,0:0:0:0:
448,192,72533,1,0,0:0:0:0:
448,192,72643,1,0,0:0:0:0:
64,192,72754,1,0,0:0:0:0:
192,192,72754,1,0,0:0:0:0:
320,192,72864,1,0,0:0:0:0:
448,192,72864,1,0,0:0:0:0:
192,192,72919,1,0,0:0:0:0:
320,192,72975,1,0,0:0:0:0:
192,192,73030,1,0,0:0:0:0:
64,192,73085,1,0,0:0:0:0:
448,192,73085,1,0,0:0:0:0:
192,192,73196,1,0,0:0:0:0:
448,192,73196,1,0,0:0:0:0:
64,192,73306,1,0,0:0:0:0:
320,192,73306,1,0,0:0:0:0:
64,192,73417,1,0,0:0:0:0:
192,192,73417,1,0,0:0:0:0:
192,192,73527,1,0,0:0:0:0:
64,192,73638,1,0,0:0:0:0:
448,192,73638,1,0,0:0:0:0:
64,192,73748,1,0,0:0:0:0:
448,192,73748,1,0,0:0:0:0:
192,192,73859,1,0,0:0:0:0:
320,192,73859,1,0,0:0:0:0:
64,192,73969,1,0,0:0:0:0:
320,192,73969,1,0,0:0:0:0:
448,192,73969,1,0,0:0:0:0:
192,192,74080,1,0,0:0:0:0:
448,192,74080,1,0,0:0:0:0:
64,192,74190,1,0,0:0:0:0:
192,192,74190,1,0,0:0:0:0:
320,192,74301,1,0,0:0:0:0:
448,192,74301,1,0,0:0:0:0:
192,192,74411,1,0,0:0:0:0:
448,192,74411,1,0,0:0:0:0:
64,192,74522,1,0,0:0:0:0:
192,192,74522,1,0,0:0:0:0:
320,192,74522,1,0,0:0:0:0:
64,192,74632,1,0,0:0:0:0:
320,192,74632,1,0,0:0:0:0:
192,192,74743,1,0,0:0:0:0:
448,192,74743,1,0,0:0:0:0:
320,192,74798,1,0,0:0:0:0:
64,192,74853,1,0,0:0:0:0:
192,192,74853,1,0,0:0:0:0:
64,192,74964,1,0,0:0:0:0:
192,192,75074,1,0,0:0:0:0:
320,192,75074,1,0,0:0:0:0:
448,192,75074,1,0,0:0:0:0:
64,192,75185,1,0,0:0:0:0:
320,192,75185,1,0,0:0:0:0:
64,192,75295,1,0,0:0:0:0:
192,192,75295,1,0,0:0:0:0:
448,192,75295,1,0,0:0:0:0:
192,192,75406,1,0,0:0:0:0:
320,192,75406,1,0,0:0:0:0:
64,192,75516,1,0,0:0:0:0:
320,192,75516,1,0,0:0:0:0:
448,192,75516,1,0,0:0:0:0:
192,192,75627,1,0,0:0:0:0:
448,192,75627,1,0,0:0:0:0:
192,192,75737,1,0,0:0:0:0:
320,192,75737,1,0,0:0:0:0:
64,192,75848,1,0,0:0:0:0:
448,192,75848,1,0,0:0:0:0:
192,192,75958,1,0,0:0:0:0:
448,192,75958,1,0,0:0:0:0:
320,192,76069,1,0,0:0:0:0:
64,192,76179,1,0,0:0:0:0:
192,192,76179,1,0,0:0:0:0:
320,192,76290,1,0,0:0:0:0:
64,192,76400,1,0,0:0:0:0:
448,192,76400,1,0,0:0:0:0:
64,192,76511,1,0,0:0:0:0:
320,192,76511,1,0,0:0:0:0:
320,192,76621,1,0,0:0:0:0:
448,192,76621,1,0,0:0:0:0:
320,192,76842,1,0,0:0:0:0:
448,192,76842,1,0,0:0:0:0:
64,192,76897,1,0,0:0:0:0:
192,192,76953,1,0,0:0:0:0:
448,192,77008,1,0,0:0:0:0:
64,192,77063,1,0,0:0:0:0:
320,192,77118,1,0,0:0:0:0:
64,192,77174,1,0,0:0:0:0:
320,192,77229,1,0,0:0:0:0:
64,192,77284,1,0,0:0:0:0:
192,192,77284,1,0,0:0:0:0:
448,192,77284,1,0,0:0:0:0:
64,192,77505,1,0,0:0:0:0:
320,192,77505,1,0,0:0:0:0:
448,192,77505,1,0,0:0:0:0:
192,192,77616,1,0,0:0:0:0:
320,192,77616,1,0,0:0:0:0:
64,192,77726,1,0,0:0:0:0:
192,192,77726,1,0,0:0:0:0:
448,192,77726,1,0,0:0:0:0:
64,192,77837,1,0,0:0:0:0:
320,192,77837,1,0,0:0:0:0:
320,192,77947,1,0,0:0:0:0:
448,192,77947,1,0,0:0:0:0:
64,192,78058,1,0,0:0:0:0:
192,192,78058,1,0,0:0:0:0:
64,192,78168,1,0,0:0:0:0:
192,192,78168,1,0,0:0:0:0:
448,192,78168,1,0,0:0:0:0:
192,192,78279,1,0,0:0:0:0:
448,192,78279,1,0,0:0:0:0:
64,192,78389,1,0,0:0:0:0:
320,192,78389,1,0,0:0:0:0:
64,192,78500,1,0,0:0:0:0:
192,192,78500,1,0,0:0:0:0:
192,192,78610,1,0,0:0:0:0:
320,192,78610,1,0,0:0:0:0:
448,192,78610,1,0,0:0:0:0:
320,192,78721,1,0,0:0:0:0:
448,192,78721,1,0,0:0:0:0:
64,192,78831,1,0,0:0:0:0:
192,192,78831,1,0,0:0:0:0:
448,192,78831,1,0,0:0:0:0:
192,192,78942,1,0,0:0:0:0:
64,192,79052,1,0,0:0:0:0:
320,192,79052,1,0,0:0:0:0:
448,192,79052,1,0,0:0:0:0:
192,192,79163,1,0,0:0:0:0:
192,192,79273,1,0,0:0:0:0:
320,192,79273,1,0,0:0:0:0:
448,192,79273,1,0,0:0:0:0:
64,192,79384,1,0,0:0:0:0:
320,192,79384,1,0,0:0:0:0:
448,192,79439,1,0,0:0:0:0:
64,192,79494,1,0,0:0:0:0:
192,192,79494,1,0,0:0:0:0:
320,192,79550,1,0,0:0:0:0:
64,192,79605,1,0,0:0:0:0:
192,192,79605,1,0,0:0:0:0:
64,192,79715,1,0,0:0:0:0:
320,192,79715,1,0,0:0:0:0:
448,192,79715,1,0,0:0:0:0:
320,192,79826,1,0,0:0:0:0:
64,192,79936,1,0,0:0:0:0:
192,192,79936,1,0,0:0:0:0:
448,192,79936,1,0,0:0:0:0:
192,192,80047,1,0,0:0:0:0:
320,192,80047,1,0,0:0:0:0:
64,192,80157,1,0,0:0:0:0:
320,192,80157,1,0,0:0:0:0:
448,192,80157,1,0,0:0:0:0:
192,192,80268,1,0,0:0:0:0:
320,192,80323,1,0,0:0:0:0:
64,192,80378,1,0,0:0:0:0:
448,192,80378,1,0,0:0:0:0:
192,192,80489,1,0,0:0:0:0:
320,192,80489,1,0,0:0:0:0:
320,192,80599,1,0,0:0:0:0:
448,192,80599,1,0,0:0:0:0:
192,192,80655,1,0,0:0:0:0:
320,192,80710,1,0,0:0:0:0:
64,192,80765,1,0,0:0:0:0:
192,192,80820,1,0,0:0:0:0:
448,192,80820,1,0,0:0:0:0:
64,192,80876,1,0,0:0:0:0:
448,192,80931,1,0,0:0:0:0:
320,192,80986,1,0,0:0:0:0:
64,192,81041,1,0,0:0:0:0:
192,192,81041,1,0,0:0:0:0:
448,192,81041,1,0,0:0:0:0:
192,192,81152,1,0,0:0:0:0:
320,192,81152,1,0,0:0:0:0:
64,192,81262,1,0,0:0:0:0:
320,192,81262,1,0,0:0:0:0:
448,192,81262,1,0,0:0:0:0:
192,192,81373,1,0,0:0:0:0:
448,192,81373,1,0,0:0:0:0:
64,192,81483,1,0,0:0:0:0:
192,192,81483,1,0,0:0:0:0:
320,192,81594,1,0,0:0:0:0:
448,192,81594,1,0,0:0:0:0:
64,192,81704,1,0,0:0:0:0:
320,192,81704,1,0,0:0:0:0:
448,192,81704,1,0,0:0:0:0:
64,192,81815,1,0,0:0:0:0:
192,192,81815,1,0,0:0:0:0:
192,192,81925,1,0,0:0:0:0:
448,192,81925,1,0,0:0:0:0:
64,192,82036,1,0,0:0:0:0:
320,192,82036,1,0,0:0:0:0:
192,192,82146,1,0,0:0:0:0:
320,192,82146,1,0,0:0:0:0:
448,192,82146,1,0,0:0:0:0:
64,192,82257,1,0,0:0:0:0:
192,192,82257,1,0,0:0:0:0:
64,192,82367,1,0,0:0:0:0:
320,192,82367,1,0,0:0:0:0:
448,192,82367,1,0,0:0:0:0:
320,192,82478,1,0,0:0:0:0:
64,192,82588,1,0,0:0:0:0:
192,192,82588,1,0,0:0:0:0:
448,192,82588,1,0,0:0:0:0:
192,192,82699,1,0,0:0:0:0:
64,192,82809,1,0,0:0:0:0:
320,192,82809,1,0,0:0:0:0:
448,192,82809,1,0,0:0:0:0:
192,192,82920,128,0,82975:0:0:0:0:
64,192,83030,1,0,0:0:0:0:
192,192,83030,1,0,0:0:0:0:
448,192,83030,1,0,0:0:0:0:
320,192,83141,128,0,83196:0:0:0:0:
64,192,83251,1,0,0:0:0:0:
320,192,83251,1,0,0:0:0:0:
448,192,83251,1,0,0:0:0:0:
192,192,83362,1,0,0:0:0:0:
448,192,83417,1,0,0:0:0:0:
64,192,83472,1,0,0:0:0:0:
320,192,83472,1,0,0:0:0:0:
448,192,83583,1,0,0:0:0:0:
64,192,83693,1,0,0:0:0:0:
192,192,83693,1,0,0:0:0:0:
320,192,83749,1,0,0:0:0:0:
192,192,83804,1,0,0:0:0:0:
320,192,83859,1,0,0:0:0:0:
448,192,83859,1,0,0:0:0:0:
64,192,83914,1,0,0:0:0:0:
192,192,83914,1,0,0:0:0:0:
448,192,83970,1,0,0:0:0:0:
64,192,84025,1,0,0:0:0:0:
320,192,84025,1,0,0:0:0:0:
192,192,84080,1,0,0:0:0:0:
448,192,84135,1,0,0:0:0:0:
192,192,84191,1,0,0:0:0:0:
448,192,84246,1,0,0:0:0:0:
192,192,84301,1,0,0:0:0:0:
320,192,84356,128,0,84467:0:0:0:0:
64,192,84577,1,0,0:0:0:0:
320,192,84577,1,0,0:0:0:0:
448,192,84577,1,0,0:0:0:0:
192,192,84633,1,0,0:0:0:0:
64,192,84688,1,0,0:0:0:0:
448,192,84688,1,0,0:0:0:0:
320,192,84743,1,0,0:0:0:0:
64,192,84798,1,0,0:0:0:0:
192,192,84798,1,0,0:0:0:0:
448,192,84798,1,0,0:0:0:0:
320,192,84854,1,0,0:0:0:0:
64,192,84909,1,0,0:0:0:0:
192,192,84909,1,0,0:0:0:0:
448,192,84964,1,0,0:0:0:0:
64,192,85019,1,0,0:0:0:0:
320,192,85019,1,0,0:0:0:0:
192,192,85075,1,0,0:0:0:0:
320,192,85130,1,0,0:0:0:0:
448,192,85130,1,0,0:0:0:0:
64,192,85185,1,0,0:0:0:0:
320,192,85240,1,0,0:0:0:0:
448,192,85240,1,0,0:0:0:0:
64,192,85296,1,0,0:0:0:0:
192,192,85351,1,0,0:0:0:0:
448,192,85351,1,0,0:0:0:0:
320,192,85406,1,0,0:0:0:0:
192,192,85461,1,0,0:0:0:0:
448,192,85461,1,0,0:0:0:0:
320,192,85517,1,0,0:0:0:0:
64,192,85572,1,0,0:0:0:0:
192,192,85572,1,0,0:0:0:0:
448,192,85627,1,0,0:0:0:0:
64,192,85682,1,0,0:0:0:0:
192,192,85682,1,0,0:0:0:0:
320,192,85682,1,0,0:0:0:0:
448,192,85738,1,0,0:0:0:0:
64,192,85793,1,0,0:0:0:0:
320,192,85793,1,0,0:0:0:0:
192,192,85848,1,0,0:0:0:0:
64,192,85903,1,0,0:0:0:0:
320,192,85903,1,0,0:0:0:0:
448,192,85903,1,0,0:0:0:0:
192,192,85959,1,0,0:0:0:0:
320,192,86014,1,0,0:0:0:0:
448,192,86014,1,0,0:0:0:0:
64,192,86069,1,0,0:0:0:0:
192,192,86124,1,0,0:0:0:0:
320,192,86124,1,0,0:0:0:0:
448,192,86124,1,0,0:0:0:0:
64,192,86180,1,0,0:0:0:0:
192,192,86235,1,0,0:0:0:0:
448,192,86235,1,0,0:0:0:0:
320,192,86290,1,0,0:0:0:0:
64,192,86345,1,0,0:0:0:0:
192,192,86345,1,0,0:0:0:0:
448,192,86345,1,0,0:0:0:0:
320,192,86401,1,0,0:0:0:0:
192,192,86456,1,0,0:0:0:0:
320,192,86511,1,0,0:0:0:0:
448,192,86511,1,0,0:0:0:0:
64,192,86566,1,0,0:0:0:0:
192,192,86566,1,0,0:0:0:0:
448,192,86622,1,0,0:0:0:0:
64,192,86677,1,0,0:0:0:0:
320,192,86677,1,0,0:0:0:0:
192,192,86732,1,0,0:0:0:0:
64,192,86788,1,0,0:0:0:0:
320,192,86788,1,0,0:0:0:0:
448,192,86788,1,0,0:0:0:0:
192,192,86843,1,0,0:0:0:0:
320,192,86898,1,0,0:0:0:0:
448,192,86898,1,0,0:0:0:0:
64,192,86953,1,0,0:0:0:0:
192,192,87009,1,0,0:0:0:0:
448,192,87009,1,0,0:0:0:0:
64,192,87064,1,0,0:0:0:0:
320,192,87119,1,0,0:0:0:0:
192,192,87174,1,0,0:0:0:0:
64,192,87230,1,0,0:0:0:0:
320,192,87230,1,0,0:0:0:0:
448,192,87230,1,0,0:0:0:0:
192,192,87285,1,0,0:0:0:0:
320,192,87340,1,0,0:0:0:0:
448,192,87340,1,0,0:0:0:0:
192,192,87395,1,0,0:0:0:0:
320,192,87451,1,0,0:0:0:0:
448,192,87451,1,0,0:0:0:0:
64,192,87506,1,0,0:0:0:0:
192,192,87561,1,0,0:0:0:0:
448,192,87561,1,0,0:0:0:0:
320,192,87616,1,0,0:0:0:0:
64,192,87672,1,0,0:0:0:0:
192,192,87672,1,0,0:0:0:0:
448,192,87672,1,0,0:0:0:0:
320,192,87727,1,0,0:0:0:0:
64,192,87782,1,0,0:0:0:0:
192,192,87782,1,0,0:0:0:0:
320,192,87837,1,0,0:0:0:0:
64,192,87893,1,0,0:0:0:0:
192,192,87893,1,0,0:0:0:0:
448,192,87948,1,0,0:0:0:0:
64,192,88003,1,0,0:0:0:0:
320,192,88003,1,0,0:0:0:0:
192,192,88058,1,0,0:0:0:0:
64,192,88114,1,0,0:0:0:0:
320,192,88114,1,0,0:0:0:0:
448,192,88114,1,0,0:0:0:0:
192,192,88169,1,0,0:0:0:0:
64,192,88224,1,0,0:0:0:0:
448,192,88224,1,0,0:0:0:0:
320,192,88279,1,0,0:0:0:0:
64,192,88335,1,0,0:0:0:0:
192,192,88335,1,0,0:0:0:0:
448,192,88335,1,0,0:0:0:0:
320,192,88390,1,0,0:0:0:0:
64,192,88445,1,0,0:0:0:0:
192,192,88445,1,0,0:0:0:0:
448,192,88500,1,0,0:0:0:0:
64,192,88556,1,0,0:0:0:0:
320,192,88556,1,0,0:0:0:0:
192,192,88611,1,0,0:0:0:0:
320,192,88666,1,0,0:0:0:0:
448,192,88666,1,0,0:0:0:0:
64,192,88721,1,0,0:0:0:0:
192,192,88777,1,0,0:0:0:0:
320,192,88777,1,0,0:0:0:0:
448,192,88777,1,0,0:0:0:0:
64,192,88832,1,0,0:0:0:0:
320,192,88887,1,0,0:0:0:0:
448,192,88887,1,0,0:0:0:0:
192,192,88942,1,0,0:0:0:0:
64,192,88998,1,0,0:0:0:0:
320,192,88998,1,0,0:0:0:0:
448,192,88998,1,0,0:0:0:0:
192,192,89053,1,0,0:0:0:0:
64,192,89108,1,0,0:0:0:0:
448,192,89108,1,0,0:0:0:0:
320,192,89163,1,0,0:0:0:0:
64,192,89219,1,0,0:0:0:0:
192,192,89219,1,0,0:0:0:0:
448,192,89219,1,0,0:0:0:0:
320,192,89274,1,0,0:0:0:0:
64,192,89329,1,0,0:0:0:0:
192,192,89329,1,0,0:0:0:0:
448,192,89329,1,0,0:0:0:0:
320,192,89384,1,0,0:0:0:0:
64,192,89440,1,0,0:0:0:0:
192,192,89440,1,0,0:0:0:0:
448,192,89495,1,0,0:0:0:0:
192,192,89550,1,0,0:0:0:0:
320,192,89550,1,0,0:0:0:0:
64,192,89605,1,0,0:0:0:0:
320,192,89661,1,0,0:0:0:0:
448,192,89661,1,0,0:0:0:0:
192,192,89716,1,0,0:0:0:0:
64,192,89771,1,0,0:0:0:0:
320,192,89826,1,0,0:0:0:0:
64,192,89882,1,0,0:0:0:0:
192,192,89882,1,0,0:0:0:0:
448,192,89882,1,0,0:0:0:0:
320,192,89937,1,0,0:0:0:0:
64,192,89992,1,0,0:0:0:0:
192,192,89992,1,0,0:0:0:0:
448,192,90047,1,0,0:0:0:0:
64,192,90103,1,0,0:0:0:0:
192,192,90103,1,0,0:0:0:0:
320,192,90103,1,0,0:0:0:0:
448,192,90158,1,0,0:0:0:0:
64,192,90213,1,0,0:0:0:0:
320,192,90213,1,0,0:0:0:0:
192,192,90268,1,0,0:0:0:0:
64,192,90324,1,0,0:0:0:0:
320,192,90324,1,0,0:0:0:0:
448,192,90324,1,0,0:0:0:0:
192,192,90379,1,0,0:0:0:0:
320,192,90434,1,0,0:0:0:0:
448,192,90434,1,0,0:0:0:0:
64,192,90489,1,0,0:0:0:0:
320,192,90545,1,0,0:0:0:0:
448,192,90545,1,0,0:0:0:0:
64,192,90600,1,0,0:0:0:0:
192,192,90655,1,0,0:0:0:0:
448,192,90655,1,0,0:0:0:0:
320,192,90710,1,0,0:0:0:0:
64,192,90766,1,0,0:0:0:0:
192,192,90766,1,0,0:0:0:0:
448,192,90766,1,0,0:0:0:0:
320,192,90821,1,0,0:0:0:0:
192,192,90876,1,0,0:0:0:0:
320,192,90931,1,0,0:0:0:0:
448,192,90931,1,0,0:0:0:0:
64,192,90987,1,0,0:0:0:0:
192,192,90987,1,0,0:0:0:0:
448,192,91042,1,0,0:0:0:0:
64,192,91097,1,0,0:0:0:0:
192,192,91097,1,0,0:0:0:0:
320,192,91097,1,0,0:0:0:0:
448,192,91152,1,0,0:0:0:0:
64,192,91208,1,0,0:0:0:0:
320,192,91208,1,0,0:0:0:0:
192,192,91263,1,0,0:0:0:0:
320,192,91318,1,0,0:0:0:0:
448,192,91318,1,0,0:0:0:0:
64,192,91373,1,0,0:0:0:0:
192,192,91429,1,0,0:0:0:0:
320,192,91429,1,0,0:0:0:0:
448,192,91429,1,0,0:0:0:0:
64,192,91484,1,0,0:0:0:0:
320,192,91539,1,0,0:0:0:0:
448,192,91539,1,0,0:0:0:0:
64,192,91594,1,0,0:0:0:0:
192,192,91650,1,0,0:0:0:0:
448,192,91650,1,0,0:0:0:0:
320,192,91705,1,0,0:0:0:0:
64,192,91760,1,0,0:0:0:0:
192,192,91815,1,0,0:0:0:0:
320,192,91871,1,0,0:0:0:0:
448,192,91871,1,0,0:0:0:0:
192,192,91926,1,0,0:0:0:0:
320,192,91981,1,0,0:0:0:0:
448,192,91981,1,0,0:0:0:0:
64,192,92036,1,0,0:0:0:0:
192,192,92092,1,0,0:0:0:0:
448,192,92129,1,0,0:0:0:0:
64,192,92165,1,0,0:0:0:0:
320,192,92202,1,0,0:0:0:0:
192,192,92239,1,0,0:0:0:0:
448,192,92276,1,0,0:0:0:0:
64,192,92313,1,0,0:0:0:0:
192,192,92340,1,0,0:0:0:0:
320,192,92368,1,0,0:0:0:0:
448,192,92396,1,0,0:0:0:0:
64,192,92423,1,0,0:0:0:0:
192,192,92451,1,0,0:0:0:0:
320,192,92478,1,0,0:0:0:0:
448,192,92506,1,0,0:0:0:0:
64,192,92534,1,0,0:0:0:0:
192,192,92534,1,0,0:0:0:0:
320,192,92589,1,0,0:0:0:0:
448,192,92589,1,0,0:0:0:0:
64,192,92644,1,0,0:0:0:0:
192,192,92644,1,0,0:0:0:0:
448,192,92699,1,0,0:0:0:0:
64,192,92755,1,0,0:0:0:0:
320,192,92755,1,0,0:0:0:0:
192,192,92810,1,0,0:0:0:0:
448,192,92810,1,0,0:0:0:0:
64,192,92865,1,0,0:0:0:0:
320,192,92865,1,0,0:0:0:0:
192,192,92920,1,0,0:0:0:0:
320,192,92976,1,0,0:0:0:0:
448,192,92976,1,0,0:0:0:0:
64,192,93031,1,0,0:0:0:0:
320,192,93086,1,0,0:0:0:0:
448,192,93086,1,0,0:0:0:0:
64,192,93141,1,0,0:0:0:0:
192,192,93141,1,0,0:0:0:0:
448,192,93197,1,0,0:0:0:0:
64,192,93252,1,0,0:0:0:0:
192,192,93252,1,0,0:0:0:0:
320,192,93307,1,0,0:0:0:0:
448,192,93307,1,0,0:0:0:0:
64,192,93362,1,0,0:0:0:0:
192,192,93362,1,0,0:0:0:0:
320,192,93418,1,0,0:0:0:0:
448,192,93418,1,0,0:0:0:0:
192,192,93473,1,0,0:0:0:0:
320,192,93528,1,0,0:0:0:0:
448,192,93528,1,0,0:0:0:0:
64,192,93583,1,0,0:0:0:0:
192,192,93639,1,0,0:0:0:0:
320,192,93639,1,0,0:0:0:0:
64,192,93694,1,0,0:0:0:0:
448,192,93694,1,0,0:0:0:0:
192,192,93749,1,0,0:0:0:0:
320,192,93804,1,0,0:0:0:0:
448,192,93804,1,0,0:0:0:0:
64,192,93860,1,0,0:0:0:0:
320,192,93915,1,0,0:0:0:0:
448,192,93915,1,0,0:0:0:0:
64,192,93970,1,0,0:0:0:0:
192,192,93970,1,0,0:0:0:0:
448,192,94026,1,0,0:0:0:0:
64,192,94081,1,0,0:0:0:0:
320,192,94081,1,0,0:0:0:0:
192,192,94136,1,0,0:0:0:0:
320,192,94191,1,0,0:0:0:0:
448,192,94191,1,0,0:0:0:0:
64,192,94247,1,0,0:0:0:0:
192,192,94302,1,0,0:0:0:0:
448,192,94302,1,0,0:0:0:0:
64,192,94357,1,0,0:0:0:0:
320,192,94357,1,0,0:0:0:0:
192,192,94412,1,0,0:0:0:0:
448,192,94412,1,0,0:0:0:0:
320,192,94468,1,0,0:0:0:0:
64,192,94523,1,0,0:0:0:0:
192,192,94523,1,0,0:0:0:0:
320,192,94578,1,0,0:0:0:0:
448,192,94578,1,0,0:0:0:0:
64,192,94633,1,0,0:0:0:0:
192,192,94633,1,0,0:0:0:0:
448,192,94689,1,0,0:0:0:0:
64,192,94744,1,0,0:0:0:0:
320,192,94744,1,0,0:0:0:0:
192,192,94799,1,0,0:0:0:0:
448,192,94799,1,0,0:0:0:0:
320,192,94854,1,0,0:0:0:0:
192,192,94910,1,0,0:0:0:0:
448,192,94910,1,0,0:0:0:0:
64,192,94965,1,0,0:0:0:0:
192,192,95020,1,0,0:0:0:0:
448,192,95020,1,0,0:0:0:0:
64,192,95075,1,0,0:0:0:0:
320,192,95075,1,0,0:0:0:0:
192,192,95131,1,0,0:0:0:0:
320,192,95186,1,0,0:0:0:0:
448,192,95186,1,0,0:0:0:0:
64,192,95241,1,0,0:0:0:0:
192,192,95296,1,0,0:0:0:0:
448,192,95296,1,0,0:0:0:0:
320,192,95352,1,0,0:0:0:0:
64,192,95407,1,0,0:0:0:0:
192,192,95407,1,0,0:0:0:0:
448,192,95462,1,0,0:0:0:0:
64,192,95517,1,0,0:0:0:0:
320,192,95517,1,0,0:0:0:0:
192,192,95573,1,0,0:0:0:0:
64,192,95628,1,0,0:0:0:0:
320,192,95655,1,0,0:0:0:0:
448,192,95683,1,0,0:0:0:0:
192,192,95738,1,0,0:0:0:0:
320,192,95794,1,0,0:0:0:0:
64,192,95849,1,0,0:0:0:0:
448,192,95849,1,0,0:0:0:0:
192,192,95876,1,0,0:0:0:0:
320,192,95904,1,0,0:0:0:0:
64,192,95959,1,0,0:0:0:0:
192,192,96015,1,0,0:0:0:0:
320,192,96070,1,0,0:0:0:0:
448,192,96070,1,0,0:0:0:0:
64,192,96125,1,0,0:0:0:0:
192,192,96125,1,0,0:0:0:0:
320,192,96180,1,0,0:0:0:0:
448,192,96180,1,0,0:0:0:0:
64,192,96236,1,0,0:0:0:0:
192,192,96291,1,0,0:0:0:0:
448,192,96291,1,0,0:0:0:0:
64,192,96346,1,0,0:0:0:0:
320,192,96346,1,0,0:0:0:0:
192,192,96401,1,0,0:0:0:0:
448,192,96401,1,0,0:0:0:0:
320,192,96457,1,0,0:0:0:0:
64,192,96512,1,0,0:0:0:0:
192,192,96512,1,0,0:0:0:0:
448,192,96567,1,0,0:0:0:0:
64,192,96622,1,0,0:0:0:0:
192,192,96622,1,0,0:0:0:0:
320,192,96678,1,0,0:0:0:0:
448,192,96678,1,0,0:0:0:0:
64,192,96733,1,0,0:0:0:0:
320,192,96788,1,0,0:0:0:0:
448,192,96788,1,0,0:0:0:0:
64,192,96843,1,0,0:0:0:0:
192,192,96843,1,0,0:0:0:0:
320,192,96899,1,0,0:0:0:0:
448,192,96899,1,0,0:0:0:0:
64,192,96954,1,0,0:0:0:0:
192,192,96954,1,0,0:0:0:0:
320,192,97009,1,0,0:0:0:0:
64,192,97064,1,0,0:0:0:0:
192,192,97064,1,0,0:0:0:0:
448,192,97120,1,0,0:0:0:0:
192,192,97175,1,0,0:0:0:0:
320,192,97175,1,0,0:0:0:0:
64,192,97230,1,0,0:0:0:0:
448,192,97230,1,0,0:0:0:0:
320,192,97285,1,0,0:0:0:0:
64,192,97341,1,0,0:0:0:0:
192,192,97341,1,0,0:0:0:0:
448,192,97396,1,0,0:0:0:0:
64,192,97451,1,0,0:0:0:0:
192,192,97451,1,0,0:0:0:0:
320,192,97506,1,0,0:0:0:0:
448,192,97506,1,0,0:0:0:0:
64,192,97562,1,0,0:0:0:0:
192,192,97617,1,0,0:0:0:0:
448,192,97617,1,0,0:0:0:0:
320,192,97672,1,0,0:0:0:0:
64,192,97727,1,0,0:0:0:0:
192,192,97727,1,0,0:0:0:0:
448,192,97783,1,0,0:0:0:0:
64,192,97838,1,0,0:0:0:0:
320,192,97838,1,0,0:0:0:0:
192,192,97893,1,0,0:0:0:0:
448,192,97893,1,0,0:0:0:0:
64,192,97948,1,0,0:0:0:0:
320,192,97948,1,0,0:0:0:0:
192,192,98004,1,0,0:0:0:0:
320,192,98059,1,0,0:0:0:0:
448,192,98059,1,0,0:0:0:0:
64,192,98114,1,0,0:0:0:0:
192,192,98114,1,0,0:0:0:0:
320,192,98169,1,0,0:0:0:0:
448,192,98169,1,0,0:0:0:0:
64,192,98225,1,0,0:0:0:0:
192,192,98280,1,0,0:0:0:0:
448,192,98280,1,0,0:0:0:0:
64,192,98335,1,0,0:0:0:0:
320,192,98335,1,0,0:0:0:0:
192,192,98390,1,0,0:0:0:0:
64,192,98446,1,0,0:0:0:0:
320,192,98446,1,0,0:0:0:0:
448,192,98501,1,0,0:0:0:0:
64,192,98556,1,0,0:0:0:0:
320,192,98556,1,0,0:0:0:0:
192,192,98611,1,0,0:0:0:0:
448,192,98611,1,0,0:0:0:0:
320,192,98667,1,0,0:0:0:0:
64,192,98722,1,0,0:0:0:0:
192,192,98722,1,0,0:0:0:0:
320,192,98777,1,0,0:0:0:0:
448,192,98777,1,0,0:0:0:0:
64,192,98832,1,0,0:0:0:0:
192,192,98888,1,0,0:0:0:0:
448,192,98888,1,0,0:0:0:0:
64,192,98943,1,0,0:0:0:0:
320,192,98943,1,0,0:0:0:0:
192,192,98998,1,0,0:0:0:0:
320,192,99053,1,0,0:0:0:0:
448,192,99053,1,0,0:0:0:0:
64,192,99109,1,0,0:0:0:0:
192,192,99109,1,0,0:0:0:0:
448,192,99164,1,0,0:0:0:0:
64,192,99219,1,0,0:0:0:0:
192,192,99219,1,0,0:0:0:0:
320,192,99274,1,0,0:0:0:0:
448,192,99302,1,0,0:0:0:0:
64,192,99330,1,0,0:0:0:0:
192,192,99357,1,0,0:0:0:0:
320,192,99385,1,0,0:0:0:0:
448,192,99385,1,0,0:0:0:0:
192,192,99495,128,0,99606:0:0:0:0:
64,192,99606,1,0,0:0:0:0:
320,192,99606,1,0,0:0:0:0:
448,192,99606,1,0,0:0:0:0:
320,192,99716,1,0,0:0:0:0:
64,192,99827,1,0,0:0:0:0:
192,192,99827,1,0,0:0:0:0:
448,192,99827,1,0,0:0:0:0:
64,192,99937,1,0,0:0:0:0:
192,192,99937,1,0,0:0:0:0:
448,192,100048,1,0,0:0:0:0:
192,192,100103,1,0,0:0:0:0:
64,192,100158,1,0,0:0:0:0:
320,192,100158,1,0,0:0:0:0:
448,192,100214,1,0,0:0:0:0:
64,192,100269,1,0,0:0:0:0:
320,192,100324,1,0,0:0:0:0:
192,192,100379,1,0,0:0:0:0:
448,192,100379,1,0,0:0:0:0:
64,192,100435,1,0,0:0:0:0:
320,192,100490,1,0,0:0:0:0:
448,192,100490,1,0,0:0:0:0:
320,192,100600,1,0,0:0:0:0:
64,192,100711,1,0,0:0:0:0:
192,192,100711,1,0,0:0:0:0:
192,192,100821,1,0,0:0:0:0:
448,192,100932,1,0,0:0:0:0:
320,192,100987,1,0,0:0:0:0:
64,192,101042,1,0,0:0:0:0:
448,192,101042,1,0,0:0:0:0:
192,192,101098,1,0,0:0:0:0:
64,192,101153,1,0,0:0:0:0:
320,192,101153,1,0,0:0:0:0:
448,192,101208,1,0,0:0:0:0:
192,192,101264,1,0,0:0:0:0:
320,192,101264,1,0,0:0:0:0:
64,192,101319,1,0,0:0:0:0:
192,192,101374,1,0,0:0:0:0:
320,192,101374,1,0,0:0:0:0:
448,192,101374,1,0,0:0:0:0:
448,192,101485,1,0,0:0:0:0:
64,192,101595,1,0,0:0:0:0:
192,192,101595,1,0,0:0:0:0:
320,192,101595,1,0,0:0:0:0:
192,192,101706,1,0,0:0:0:0:
448,192,101706,1,0,0:0:0:0:
320,192,101816,1,0,0:0:0:0:
192,192,101871,1,0,0:0:0:0:
64,192,101927,1,0,0:0:0:0:
448,192,101927,1,0,0:0:0:0:
320,192,101982,1,0,0:0:0:0:
64,192,102037,1,0,0:0:0:0:
192,192,102092,1,0,0:0:0:0:
320,192,102148,1,0,0:0:0:0:
448,192,102148,1,0,0:0:0:0:
64,192,102203,1,0,0:0:0:0:
192,192,102258,1,0,0:0:0:0:
320,192,102258,1,0,0:0:0:0:
448,192,102258,1,0,0:0:0:0:
192,192,102369,1,0,0:0:0:0:
64,192,102479,1,0,0:0:0:0:
320,192,102479,1,0,0:0:0:0:
448,192,102479,1,0,0:0:0:0:
64,192,102590,1,0,0:0:0:0:
320,192,102590,1,0,0:0:0:0:
192,192,102700,1,0,0:0:0:0:
320,192,102700,1,0,0:0:0:0:
448,192,102700,1,0,0:0:0:0:
192,192,102811,1,0,0:0:0:0:
64,192,102921,1,0,0:0:0:0:
320,192,102921,1,0,0:0:0:0:
448,192,102921,1,0,0:0:0:0:
64,192,103032,1,0,0:0:0:0:
192,192,103142,1,0,0:0:0:0:
320,192,103142,1,0,0:0:0:0:
448,192,103142,1,0,0:0:0:0:
320,192,103253,1,0,0:0:0:0:
64,192,103363,1,0,0:0:0:0:
192,192,103363,1,0,0:0:0:0:
448,192,103363,1,0,0:0:0:0:
192,192,103474,1,0,0:0:0:0:
320,192,103474,1,0,0:0:0:0:
448,192,103584,1,0,0:0:0:0:
192,192,103639,1,0,0:0:0:0:
192,192,103750,1,0,0:0:0:0:
64,192,103805,1,0,0:0:0:0:
320,192,103805,1,0,0:0:0:0:
448,192,103805,1,0,0:0:0:0:
192,192,103860,1,0,0:0:0:0:
448,192,103916,1,0,0:0:0:0:
320,192,103971,1,0,0:0:0:0:
64,192,104026,1,0,0:0:0:0:
192,192,104026,1,0,0:0:0:0:
448,192,104026,1,0,0:0:0:0:
64,192,104137,1,0,0:0:0:0:
320,192,104247,1,0,0:0:0:0:
448,192,104247,1,0,0:0:0:0:
64,192,104358,1,0,0:0:0:0:
192,192,104358,1,0,0:0:0:0:
320,192,104358,1,0,0:0:0:0:
192,192,104468,1,0,0:0:0:0:
448,192,104468,1,0,0:0:0:0:
320,192,104523,1,0,0:0:0:0:
64,192,104579,1,0,0:0:0:0:
448,192,104634,1,0,0:0:0:0:
64,192,104689,1,0,0:0:0:0:
192,192,104689,1,0,0:0:0:0:
320,192,104689,1,0,0:0:0:0:
448,192,104744,1,0,0:0:0:0:
64,192,104800,1,0,0:0:0:0:
320,192,104800,1,0,0:0:0:0:
192,192,104855,1,0,0:0:0:0:
320,192,104910,1,0,0:0:0:0:
448,192,104910,1,0,0:0:0:0:
64,192,105021,1,0,0:0:0:0:
320,192,105021,1,0,0:0:0:0:
64,192,105131,1,0,0:0:0:0:
192,192,105131,1,0,0:0:0:0:
448,192,105131,1,0,0:0:0:0:
448,192,105242,1,0,0:0:0:0:
64,192,105352,1,0,0:0:0:0:
320,192,105407,1,0,0:0:0:0:
192,192,105463,1,0,0:0:0:0:
448,192,105518,1,0,0:0:0:0:
64,192,105573,1,0,0:0:0:0:
192,192,105628,1,0,0:0:0:0:
320,192,105684,1,0,0:0:0:0:
448,192,105684,1,0,0:0:0:0:
64,192,105739,1,0,0:0:0:0:
192,192,105794,1,0,0:0:0:0:
320,192,105794,1,0,0:0:0:0:
448,192,105794,1,0,0:0:0:0:
192,192,105905,1,0,0:0:0:0:
448,192,105905,1,0,0:0:0:0:
64,192,106015,1,0,0:0:0:0:
320,192,106015,1,0,0:0:0:0:
448,192,106015,1,0,0:0:0:0:
64,192,106126,1,0,0:0:0:0:
320,192,106126,1,0,0:0:0:0:
64,192,106236,1,0,0:0:0:0:
192,192,106236,1,0,0:0:0:0:
448,192,106236,1,0,0:0:0:0:
320,192,106291,1,0,0:0:0:0:
448,192,106347,1,0,0:0:0:0:
64,192,106402,1,0,0:0:0:0:
192,192,106402,1,0,0:0:0:0:
320,192,106457,1,0,0:0:0:0:
192,192,106494,1,0,0:0:0:0:
448,192,106531,1,0,0:0:0:0:
64,192,106568,1,0,0:0:0:0:
192,192,106605,1,0,0:0:0:0:
448,192,106641,1,0,0:0:0:0:
64,192,106678,1,0,0:0:0:0:
320,192,106678,1,0,0:0:0:0:
320,192,106789,1,0,0:0:0:0:
64,192,106899,1,0,0:0:0:0:
192,192,106899,1,0,0:0:0:0:
64,192,107010,1,0,0:0:0:0:
320,192,107010,1,0,0:0:0:0:
448,192,107010,1,0,0:0:0:0:
320,192,107120,1,0,0:0:0:0:
192,192,107231,1,0,0:0:0:0:
320,192,107231,1,0,0:0:0:0:
64,192,107341,1,0,0:0:0:0:
192,192,107341,1,0,0:0:0:0:
64,192,107452,1,0,0:0:0:0:
448,192,107452,1,0,0:0:0:0:
64,192,107562,1,0,0:0:0:0:
320,192,107562,1,0,0:0:0:0:
448,192,107562,1,0,0:0:0:0:
192,192,107673,1,0,0:0:0:0:
320,192,107673,1,0,0:0:0:0:
192,192,107783,1,0,0:0:0:0:
448,192,107783,1,0,0:0:0:0:
64,192,107894,1,0,0:0:0:0:
320,192,107894,1,0,0:0:0:0:
448,192,107894,1,0,0:0:0:0:
192,192,108004,1,0,0:0:0:0:
320,192,108115,1,0,0:0:0:0:
448,192,108115,1,0,0:0:0:0:
192,192,108225,1,0,0:0:0:0:
448,192,108225,1,0,0:0:0:0:
320,192,108280,1,0,0:0:0:0:
192,192,108336,1,0,0:0:0:0:
320,192,108391,1,0,0:0:0:0:
64,192,108446,1,0,0:0:0:0:
192,192,108446,1,0,0:0:0:0:
448,192,108446,1,0,0:0:0:0:
320,192,108557,1,0,0:0:0:0:
64,192,108612,1,0,0:0:0:0:
192,192,108667,1,0,0:0:0:0:
448,192,108667,1,0,0:0:0:0:
64,192,108778,1,0,0:0:0:0:
192,192,108778,1,0,0:0:0:0:
320,192,108778,1,0,0:0:0:0:
320,192,108888,1,0,0:0:0:0:
64,192,108999,1,0,0:0:0:0:
320,192,108999,1,0,0:0:0:0:
64,192,109109,1,0,0:0:0:0:
448,192,109109,1,0,0:0:0:0:
64,192,109220,1,0,0:0:0:0:
320,192,109220,1,0,0:0:0:0:
448,192,109275,1,0,0:0:0:0:
64,192,109330,1,0,0:0:0:0:
192,192,109330,1,0,0:0:0:0:
320,192,109330,1,0,0:0:0:0:
192,192,109441,1,0,0:0:0:0:
448,192,109441,1,0,0:0:0:0:
64,192,109551,1,0,0:0:0:0:
320,192,109551,1,0,0:0:0:0:
64,192,109662,1,0,0:0:0:0:
192,192,109662,1,0,0:0:0:0:
448,192,109662,1,0,0:0:0:0:
192,192,109772,1,0,0:0:0:0:
64,192,109883,1,0,0:0:0:0:
448,192,109883,1,0,0:0:0:0:
64,192,109993,1,0,0:0:0:0:
448,192,109993,1,0,0:0:0:0:
192,192,110104,1,0,0:0:0:0:
320,192,110104,1,0,0:0:0:0:
64,192,110214,1,0,0:0:0:0:
320,192,110214,1,0,0:0:0:0:
448,192,110214,1,0,0:0:0:0:
192,192,110325,1,0,0:0:0:0:
448,192,110325,1,0,0:0:0:0:
64,192,110435,1,0,0:0:0:0:
192,192,110435,1,0,0:0:0:0:
320,192,110435,1,0,0:0:0:0:
320,192,110546,1,0,0:0:0:0:
448,192,110546,1,0,0:0:0:0:
64,192,110656,1,0,0:0:0:0:
192,192,110656,1,0,0:0:0:0:
448,192,110656,1,0,0:0:0:0:
64,192,110767,1,0,0:0:0:0:
320,192,110767,1,0,0:0:0:0:
320,192,110877,1,0,0:0:0:0:
448,192,110877,1,0,0:0:0:0:
192,192,110988,1,0,0:0:0:0:
448,192,110988,1,0,0:0:0:0:
320,192,111043,1,0,0:0:0:0:
64,192,111098,1,0,0:0:0:0:
192,192,111098,1,0,0:0:0:0:
64,192,111209,1,0,0:0:0:0:
192,192,111319,1,0,0:0:0:0:
320,192,111319,1,0,0:0:0:0:
448,192,111319,1,0,0:0:0:0:
64,192,111430,1,0,0:0:0:0:
320,192,111430,1,0,0:0:0:0:
64,192,111540,1,0,0:0:0:0:
192,192,111540,1,0,0:0:0:0:
448,192,111540,1,0,0:0:0:0:
192,192,111651,1,0,0:0:0:0:
320,192,111651,1,0,0:0:0:0:
64,192,111761,1,0,0:0:0:0:
320,192,111761,1,0,0:0:0:0:
448,192,111761,1,0,0:0:0:0:
192,192,111872,1,0,0:0:0:0:
448,192,111872,1,0,0:0:0:0:
64,192,111982,1,0,0:0:0:0:
320,192,111982,1,0,0:0:0:0:
192,192,112038,1,0,0:0:0:0:
448,192,112093,1,0,0:0:0:0:
320,192,112148,1,0,0:0:0:0:
64,192,112203,1,0,0:0:0:0:
192,192,112203,1,0,0:0:0:0:
448,192,112259,1,0,0:0:0:0:
320,192,112314,1,0,0:0:0:0:
192,192,112369,1,0,0:0:0:0:
64,192,112424,1,0,0:0:0:0:
320,192,112424,1,0,0:0:0:0:
192,192,112480,1,0,0:0:0:0:
448,192,112480,1,0,0:0:0:0:
320,192,112535,1,0,0:0:0:0:
64,192,112590,1,0,0:0:0:0:
320,192,112645,1,0,0:0:0:0:
448,192,112645,1,0,0:0:0:0:
64,192,112701,1,0,0:0:0:0:
192,192,112701,1,0,0:0:0:0:
320,192,112756,1,0,0:0:0:0:
448,192,112756,1,0,0:0:0:0:
192,192,112811,1,0,0:0:0:0:
64,192,112866,1,0,0:0:0:0:
448,192,112866,1,0,0:0:0:0:
320,192,112903,1,0,0:0:0:0:
64,192,113087,1,0,0:0:0:0:
192,192,113087,1,0,0:0:0:0:
448,192,113143,1,0,0:0:0:0:
320,192,113198,1,0,0:0:0:0:
64,192,113253,1,0,0:0:0:0:
448,192,113308,1,0,0:0:0:0:
192,192,113364,1,0,0:0:0:0:
448,192,113419,1,0,0:0:0:0:
192,192,113474,1,0,0:0:0:0:
64,192,113529,1,0,0:0:0:0:
320,192,113529,1,0,0:0:0:0:
448,192,113529,1,0,0:0:0:0:
64,192,113750,1,0,0:0:0:0:
320,192,113750,1,0,0:0:0:0:
448,192,113750,1,0,0:0:0:0:
192,192,113861,1,0,0:0:0:0:
320,192,113861,1,0,0:0:0:0:
64,192,113971,1,0,0:0:0:0:
192,192,113971,1,0,0:0:0:0:
448,192,113971,1,0,0:0:0:0:
64,192,114082,1,0,0:0:0:0:
320,192,114082,1,0,0:0:0:0:
320,192,114192,1,0,0:0:0:0:
448,192,114192,1,0,0:0:0:0:
64,192,114303,1,0,0:0:0:0:
192,192,114303,1,0,0:0:0:0:
64,192,114413,1,0,0:0:0:0:
192,192,114413,1,0,0:0:0:0:
448,192,114413,1,0,0:0:0:0:
192,192,114524,1,0,0:0:0:0:
448,192,114524,1,0,0:0:0:0:
64,192,114634,1,0,0:0:0:0:
320,192,114634,1,0,0:0:0:0:
64,192,114745,1,0,0:0:0:0:
192,192,114745,1,0,0:0:0:0:
192,192,114855,1,0,0:0:0:0:
320,192,114855,1,0,0:0:0:0:
448,192,114855,1,0,0:0:0:0:
320,192,114966,1,0,0:0:0:0:
448,192,114966,1,0,0:0:0:0:
64,192,115076,1,0,0:0:0:0:
192,192,115076,1,0,0:0:0:0:
448,192,115076,1,0,0:0:0:0:
192,192,115187,1,0,0:0:0:0:
64,192,115297,1,0,0:0:0:0:
320,192,115297,1,0,0:0:0:0:
448,192,115297,1,0,0:0:0:0:
192,192,115408,1,0,0:0:0:0:
192,192,115518,1,0,0:0:0:0:
320,192,115518,1,0,0:0:0:0:
448,192,115518,1,0,0:0:0:0:
64,192,115629,1,0,0:0:0:0:
448,192,115629,1,0,0:0:0:0:
320,192,115684,1,0,0:0:0:0:
64,192,115740,1,0,0:0:0:0:
192,192,115740,1,0,0:0:0:0:
320,192,115795,1,0,0:0:0:0:
192,192,115850,1,0,0:0:0:0:
448,192,115850,1,0,0:0:0:0:
64,192,115961,1,0,0:0:0:0:
320,192,115961,1,0,0:0:0:0:
448,192,115961,1,0,0:0:0:0:
320,192,116071,1,0,0:0:0:0:
64,192,116182,1,0,0:0:0:0:
192,192,116182,1,0,0:0:0:0:
448,192,116182,1,0,0:0:0:0:
192,192,116292,1,0,0:0:0:0:
320,192,116292,1,0,0:0:0:0:
64,192,116403,1,0,0:0:0:0:
320,192,116403,1,0,0:0:0:0:
448,192,116403,1,0,0:0:0:0:
192,192,116513,1,0,0:0:0:0:
320,192,116568,1,0,0:0:0:0:
64,192,116624,1,0,0:0:0:0:
448,192,116624,1,0,0:0:0:0:
192,192,116734,1,0,0:0:0:0:
320,192,116734,1,0,0:0:0:0:
320,192,116845,1,0,0:0:0:0:
448,192,116845,1,0,0:0:0:0:
64,192,116955,1,0,0:0:0:0:
320,192,117010,1,0,0:0:0:0:
64,192,117066,1,0,0:0:0:0:
192,192,117066,1,0,0:0:0:0:
448,192,117121,1,0,0:0:0:0:
320,192,117176,1,0,0:0:0:0:
64,192,117231,1,0,0:0:0:0:
192,192,117287,1,0,0:0:0:0:
320,192,117287,1,0,0:0:0:0:
448,192,117287,1,0,0:0:0:0:
64,192,117397,1,0,0:0:0:0:
320,192,117397,1,0,0:0:0:0:
64,192,117508,1,0,0:0:0:0:
192,192,117508,1,0,0:0:0:0:
448,192,117508,1,0,0:0:0:0:
320,192,117618,1,0,0:0:0:0:
448,192,117618,1,0,0:0:0:0:
64,192,117729,1,0,0:0:0:0:
192,192,117729,1,0,0:0:0:0:
64,192,117839,1,0,0:0:0:0:
320,192,117839,1,0,0:0:0:0:
64,192,117950,1,0,0:0:0:0:
320,192,117950,1,0,0:0:0:0:
448,192,117950,1,0,0:0:0:0:
192,192,118060,1,0,0:0:0:0:
320,192,118060,1,0,0:0:0:0:
192,192,118171,1,0,0:0:0:0:
448,192,118171,1,0,0:0:0:0:
64,192,118281,1,0,0:0:0:0:
320,192,118281,1,0,0:0:0:0:
192,192,118392,1,0,0:0:0:0:
320,192,118392,1,0,0:0:0:0:
448,192,118392,1,0,0:0:0:0:
64,192,118502,1,0,0:0:0:0:
192,192,118502,1,0,0:0:0:0:
64,192,118613,1,0,0:0:0:0:
320,192,118613,1,0,0:0:0:0:
448,192,118613,1,0,0:0:0:0:
320,192,118723,1,0,0:0:0:0:
64,192,118834,1,0,0:0:0:0:
192,192,118834,1,0,0:0:0:0:
448,192,118834,1,0,0:0:0:0:
192,192,118944,1,0,0:0:0:0:
64,192,119055,1,0,0:0:0:0:
320,192,119055,1,0,0:0:0:0:
448,192,119055,1,0,0:0:0:0:
192,192,119165,128,0,119220:0:0:0:0:
64,192,119276,1,0,0:0:0:0:
192,192,119276,1,0,0:0:0:0:
448,192,119276,1,0,0:0:0:0:
320,192,119386,128,0,119441:0:0:0:0:
64,192,119497,1,0,0:0:0:0:
320,192,119497,1,0,0:0:0:0:
448,192,119497,1,0,0:0:0:0:
192,192,119607,1,0,0:0:0:0:
448,192,119662,1,0,0:0:0:0:
64,192,119718,1,0,0:0:0:0:
320,192,119718,1,0,0:0:0:0:
192,192,119828,1,0,0:0:0:0:
448,192,119828,1,0,0:0:0:0:
64,192,119939,1,0,0:0:0:0:
320,192,119939,1,0,0:0:0:0:
448,192,119994,1,0,0:0:0:0:
320,192,120049,1,0,0:0:0:0:
64,192,120104,1,0,0:0:0:0:
192,192,120104,1,0,0:0:0:0:
320,192,120160,1,0,0:0:0:0:
448,192,120160,1,0,0:0:0:0:
192,192,120215,1,0,0:0:0:0:
64,192,120270,1,0,0:0:0:0:
448,192,120270,1,0,0:0:0:0:
320,192,120325,1,0,0:0:0:0:
192,192,120381,1,0,0:0:0:0:
448,192,120436,1,0,0:0:0:0:
192,192,120491,1,0,0:0:0:0:
448,192,120546,1,0,0:0:0:0:
320,192,120602,128,0,120712:0:0:0:0:
192,192,120712,1,0,0:0:0:0:
64,192,120823,1,0,0:0:0:0:
192,192,120823,1,0,0:0:0:0:
448,192,120823,1,0,0:0:0:0:
320,192,120878,1,0,0:0:0:0:
64,192,120933,1,0,0:0:0:0:
192,192,120933,1,0,0:0:0:0:
448,192,120988,1,0,0:0:0:0:
64,192,121044,1,0,0:0:0:0:
192,192,121044,1,0,0:0:0:0:
320,192,121044,1,0,0:0:0:0:
448,192,121099,1,0,0:0:0:0:
192,192,121154,1,0,0:0:0:0:
320,192,121154,1,0,0:0:0:0:
64,192,121209,1,0,0:0:0:0:
320,192,121265,1,0,0:0:0:0:
448,192,121265,1,0,0:0:0:0:
64,192,121320,1,0,0:0:0:0:
192,192,121375,1,0,0:0:0:0:
448,192,121375,1,0,0:0:0:0:
320,192,121430,1,0,0:0:0:0:
64,192,121486,1,0,0:0:0:0:
192,192,121486,1,0,0:0:0:0:
448,192,121541,1,0,0:0:0:0:
64,192,121596,1,0,0:0:0:0:
320,192,121596,1,0,0:0:0:0:
192,192,121651,1,0,0:0:0:0:
64,192,121707,1,0,0:0:0:0:
320,192,121707,1,0,0:0:0:0:
192,192,121762,1,0,0:0:0:0:
320,192,121817,1,0,0:0:0:0:
448,192,121817,1,0,0:0:0:0:
64,192,121872,1,0,0:0:0:0:
192,192,121928,1,0,0:0:0:0:
320,192,121928,1,0,0:0:0:0:
448,192,121928,1,0,0:0:0:0:
64,192,121983,1,0,0:0:0:0:
192,192,122038,1,0,0:0:0:0:
448,192,122038,1,0,0:0:0:0:
320,192,122093,1,0,0:0:0:0:
64,192,122149,1,0,0:0:0:0:
192,192,122149,1,0,0:0:0:0:
448,192,122149,1,0,0:0:0:0:
320,192,122204,1,0,0:0:0:0:
64,192,122259,1,0,0:0:0:0:
192,192,122259,1,0,0:0:0:0:
448,192,122314,1,0,0:0:0:0:
64,192,122370,1,0,0:0:0:0:
192,192,122370,1,0,0:0:0:0:
320,192,122370,1,0,0:0:0:0:
448,192,122425,1,0,0:0:0:0:
64,192,122480,1,0,0:0:0:0:
320,192,122480,1,0,0:0:0:0:
192,192,122535,1,0,0:0:0:0:
64,192,122591,1,0,0:0:0:0:
320,192,122591,1,0,0:0:0:0:
448,192,122591,1,0,0:0:0:0:
192,192,122646,1,0,0:0:0:0:
320,192,122701,1,0,0:0:0:0:
64,192,122757,1,0,0:0:0:0:
192,192,122757,1,0,0:0:0:0:
320,192,122812,1,0,0:0:0:0:
448,192,122812,1,0,0:0:0:0:
64,192,122867,1,0,0:0:0:0:
192,192,122922,1,0,0:0:0:0:
448,192,122922,1,0,0:0:0:0:
320,192,122978,1,0,0:0:0:0:
64,192,123033,1,0,0:0:0:0:
192,192,123033,1,0,0:0:0:0:
448,192,123033,1,0,0:0:0:0:
320,192,123088,1,0,0:0:0:0:
64,192,123143,1,0,0:0:0:0:
192,192,123143,1,0,0:0:0:0:
320,192,123199,1,0,0:0:0:0:
64,192,123254,1,0,0:0:0:0:
448,192,123254,1,0,0:0:0:0:
192,192,123309,1,0,0:0:0:0:
64,192,123364,1,0,0:0:0:0:
320,192,123364,1,0,0:0:0:0:
192,192,123420,1,0,0:0:0:0:
64,192,123475,1,0,0:0:0:0:
320,192,123475,1,0,0:0:0:0:
448,192,123475,1,0,0:0:0:0:
192,192,123530,1,0,0:0:0:0:
320,192,123585,1,0,0:0:0:0:
448,192,123585,1,0,0:0:0:0:
192,192,123641,1,0,0:0:0:0:
320,192,123696,1,0,0:0:0:0:
448,192,123696,1,0,0:0:0:0:
64,192,123751,1,0,0:0:0:0:
192,192,123806,1,0,0:0:0:0:
448,192,123806,1,0,0:0:0:0:
320,192,123862,1,0,0:0:0:0:
64,192,123917,1,0,0:0:0:0:
192,192,123917,1,0,0:0:0:0:
448,192,123917,1,0,0:0:0:0:
320,192,123972,1,0,0:0:0:0:
64,192,124027,1,0,0:0:0:0:
192,192,124027,1,0,0:0:0:0:
320,192,124083,1,0,0:0:0:0:
64,192,124138,1,0,0:0:0:0:
192,192,124138,1,0,0:0:0:0:
448,192,124193,1,0,0:0:0:0:
64,192,124248,1,0,0:0:0:0:
320,192,124248,1,0,0:0:0:0:
192,192,124304,1,0,0:0:0:0:
64,192,124359,1,0,0:0:0:0:
320,192,124359,1,0,0:0:0:0:
448,192,124359,1,0,0:0:0:0:
192,192,124414,1,0,0:0:0:0:
320,192,124469,1,0,0:0:0:0:
448,192,124469,1,0,0:0:0:0:
64,192,124525,1,0,0:0:0:0:
192,192,124580,1,0,0:0:0:0:
448,192,124580,1,0,0:0:0:0:
320,192,124635,1,0,0:0:0:0:
64,192,124690,1,0,0:0:0:0:
192,192,124690,1,0,0:0:0:0:
448,192,124746,1,0,0:0:0:0:
64,192,124801,1,0,0:0:0:0:
320,192,124801,1,0,0:0:0:0:
192,192,124856,1,0,0:0:0:0:
320,192,124911,1,0,0:0:0:0:
448,192,124911,1,0,0:0:0:0:
64,192,124967,1,0,0:0:0:0:
192,192,125022,1,0,0:0:0:0:
320,192,125022,1,0,0:0:0:0:
448,192,125022,1,0,0:0:0:0:
64,192,125077,1,0,0:0:0:0:
192,192,125132,1,0,0:0:0:0:
448,192,125132,1,0,0:0:0:0:
320,192,125188,1,0,0:0:0:0:
64,192,125243,1,0,0:0:0:0:
192,192,125243,1,0,0:0:0:0:
448,192,125298,1,0,0:0:0:0:
64,192,125353,1,0,0:0:0:0:
320,192,125353,1,0,0:0:0:0:
192,192,125409,1,0,0:0:0:0:
64,192,125464,1,0,0:0:0:0:
320,192,125464,1,0,0:0:0:0:
448,192,125464,1,0,0:0:0:0:
192,192,125519,1,0,0:0:0:0:
64,192,125574,1,0,0:0:0:0:
320,192,125574,1,0,0:0:0:0:
448,192,125574,1,0,0:0:0:0:
192,192,125630,1,0,0:0:0:0:
320,192,125685,1,0,0:0:0:0:
448,192,125685,1,0,0:0:0:0:
64,192,125740,1,0,0:0:0:0:
192,192,125795,1,0,0:0:0:0:
320,192,125795,1,0,0:0:0:0:
448,192,125851,1,0,0:0:0:0:
64,192,125906,1,0,0:0:0:0:
192,192,125906,1,0,0:0:0:0:
320,192,125961,1,0,0:0:0:0:
448,192,126016,1,0,0:0:0:0:
192,192,126072,1,0,0:0:0:0:
64,192,126127,1,0,0:0:0:0:
320,192,126127,1,0,0:0:0:0:
448,192,126127,1,0,0:0:0:0:
192,192,126182,1,0,0:0:0:0:
320,192,126237,1,0,0:0:0:0:
448,192,126237,1,0,0:0:0:0:
64,192,126293,1,0,0:0:0:0:
192,192,126348,1,0,0:0:0:0:
320,192,126348,1,0,0:0:0:0:
448,192,126348,1,0,0:0:0:0:
64,192,126403,1,0,0:0:0:0:
192,192,126458,1,0,0:0:0:0:
448,192,126458,1,0,0:0:0:0:
320,192,126514,1,0,0:0:0:0:
64,192,126569,1,0,0:0:0:0:
192,192,126569,1,0,0:0:0:0:
448,192,126569,1,0,0:0:0:0:
320,192,126624,1,0,0:0:0:0:
64,192,126679,1,0,0:0:0:0:
192,192,126679,1,0,0:0:0:0:
448,192,126735,1,0,0:0:0:0:
64,192,126790,1,0,0:0:0:0:
192,192,126790,1,0,0:0:0:0:
448,192,126845,1,0,0:0:0:0:
64,192,126900,1,0,0:0:0:0:
320,192,126900,1,0,0:0:0:0:
192,192,126956,1,0,0:0:0:0:
448,192,126956,1,0,0:0:0:0:
64,192,127011,1,0,0:0:0:0:
320,192,127011,1,0,0:0:0:0:
192,192,127066,1,0,0:0:0:0:
320,192,127121,1,0,0:0:0:0:
64,192,127177,1,0,0:0:0:0:
192,192,127177,1,0,0:0:0:0:
448,192,127177,1,0,0:0:0:0:
320,192,127232,1,0,0:0:0:0:
192,192,127287,1,0,0:0:0:0:
64,192,127342,1,0,0:0:0:0:
320,192,127342,1,0,0:0:0:0:
448,192,127342,1,0,0:0:0:0:
192,192,127398,1,0,0:0:0:0:
320,192,127453,1,0,0:0:0:0:
448,192,127453,1,0,0:0:0:0:
64,192,127508,1,0,0:0:0:0:
192,192,127563,1,0,0:0:0:0:
448,192,127563,1,0,0:0:0:0:
320,192,127619,1,0,0:0:0:0:
64,192,127674,1,0,0:0:0:0:
192,192,127674,1,0,0:0:0:0:
448,192,127674,1,0,0:0:0:0:
320,192,127729,1,0,0:0:0:0:
64,192,127784,1,0,0:0:0:0:
192,192,127784,1,0,0:0:0:0:
448,192,127840,1,0,0:0:0:0:
64,192,127895,1,0,0:0:0:0:
320,192,127895,1,0,0:0:0:0:
64,192,128005,1,0,0:0:0:0:
320,192,128005,1,0,0:0:0:0:
192,192,128116,1,0,0:0:0:0:
320,192,128116,1,0,0:0:0:0:
448,192,128116,1,0,0:0:0:0:
64,192,128226,1,0,0:0:0:0:
192,192,128226,1,0,0:0:0:0:
448,192,128226,1,0,0:0:0:0:
64,192,128337,1,0,0:0:0:0:
320,192,128337,1,0,0:0:0:0:
192,192,128392,1,0,0:0:0:0:
64,192,128447,1,0,0:0:0:0:
320,192,128447,1,0,0:0:0:0:
448,192,128503,1,0,0:0:0:0:
192,192,128558,1,0,0:0:0:0:
320,192,128558,1,0,0:0:0:0:
64,192,128613,1,0,0:0:0:0:
192,192,128668,1,0,0:0:0:0:
320,192,128668,1,0,0:0:0:0:
448,192,128724,1,0,0:0:0:0:
64,192,128779,1,0,0:0:0:0:
192,192,128779,1,0,0:0:0:0:
320,192,128834,1,0,0:0:0:0:
448,192,128834,1,0,0:0:0:0:
64,192,128889,1,0,0:0:0:0:
192,192,128889,1,0,0:0:0:0:
448,192,128945,1,0,0:0:0:0:
64,192,129000,1,0,0:0:0:0:
320,192,129000,1,0,0:0:0:0:
192,192,129055,1,0,0:0:0:0:
448,192,129055,1,0,0:0:0:0:
64,192,129110,1,0,0:0:0:0:
320,192,129110,1,0,0:0:0:0:
192,192,129166,1,0,0:0:0:0:
320,192,129221,1,0,0:0:0:0:
448,192,129221,1,0,0:0:0:0:
64,192,129276,1,0,0:0:0:0:
320,192,129331,1,0,0:0:0:0:
448,192,129331,1,0,0:0:0:0:
64,192,129387,1,0,0:0:0:0:
192,192,129387,1,0,0:0:0:0:
448,192,129442,1,0,0:0:0:0:
64,192,129497,1,0,0:0:0:0:
192,192,129497,1,0,0:0:0:0:
320,192,129552,1,0,0:0:0:0:
448,192,129552,1,0,0:0:0:0:
64,192,129608,1,0,0:0:0:0:
192,192,129608,1,0,0:0:0:0:
320,192,129663,1,0,0:0:0:0:
448,192,129663,1,0,0:0:0:0:
192,192,129718,1,0,0:0:0:0:
320,192,129773,1,0,0:0:0:0:
448,192,129773,1,0,0:0:0:0:
64,192,129829,1,0,0:0:0:0:
192,192,129884,1,0,0:0:0:0:
320,192,129884,1,0,0:0:0:0:
64,192,129939,1,0,0:0:0:0:
448,192,129939,1,0,0:0:0:0:
192,192,129995,1,0,0:0:0:0:
320,192,130050,1,0,0:0:0:0:
448,192,130050,1,0,0:0:0:0:
64,192,130105,1,0,0:0:0:0:
320,192,130160,1,0,0:0:0:0:
448,192,130160,1,0,0:0:0:0:
64,192,130216,1,0,0:0:0:0:
192,192,130216,1,0,0:0:0:0:
448,192,130271,1,0,0:0:0:0:
64,192,130326,1,0,0:0:0:0:
320,192,130326,1,0,0:0:0:0:
192,192,130381,1,0,0:0:0:0:
320,192,130437,1,0,0:0:0:0:
448,192,130437,1,0,0:0:0:0:
64,192,130492,1,0,0:0:0:0:
192,192,130547,1,0,0:0:0:0:
448,192,130547,1,0,0:0:0:0:
64,192,130602,1,0,0:0:0:0:
320,192,130602,1,0,0:0:0:0:
192,192,130658,1,0,0:0:0:0:
448,192,130658,1,0,0:0:0:0:
320,192,130713,1,0,0:0:0:0:
64,192,130768,1,0,0:0:0:0:
192,192,130768,1,0,0:0:0:0:
320,192,130823,1,0,0:0:0:0:
448,192,130823,1,0,0:0:0:0:
64,192,130879,1,0,0:0:0:0:
192,192,130879,1,0,0:0:0:0:
448,192,130934,1,0,0:0:0:0:
64,192,130989,1,0,0:0:0:0:
320,192,130989,1,0,0:0:0:0:
192,192,131044,1,0,0:0:0:0:
448,192,131044,1,0,0:0:0:0:
320,192,131100,1,0,0:0:0:0:
192,192,131155,1,0,0:0:0:0:
448,192,131155,1,0,0:0:0:0:
64,192,131210,1,0,0:0:0:0:
192,192,131265,1,0,0:0:0:0:
448,192,131265,1,0,0:0:0:0:
64,192,131321,1,0,0:0:0:0:
320,192,131321,1,0,0:0:0:0:
192,192,131376,1,0,0:0:0:0:
320,192,131431,1,0,0:0:0:0:
448,192,131431,1,0,0:0:0:0:
64,192,131486,1,0,0:0:0:0:
192,192,131542,1,0,0:0:0:0:
448,192,131542,1,0,0:0:0:0:
320,192,131597,1,0,0:0:0:0:
192,192,131652,1,0,0:0:0:0:
448,192,131652,1,0,0:0:0:0:
320,192,131707,1,0,0:0:0:0:
64,192,131763,1,0,0:0:0:0:
192,192,131763,1,0,0:0:0:0:
448,192,131818,1,0,0:0:0:0:
64,192,131873,1,0,0:0:0:0:
320,192,131873,1,0,0:0:0:0:
192,192,131928,1,0,0:0:0:0:
448,192,131928,1,0,0:0:0:0:
64,192,131984,1,0,0:0:0:0:
320,192,131984,1,0,0:0:0:0:
192,192,132039,1,0,0:0:0:0:
320,192,132094,1,0,0:0:0:0:
448,192,132094,1,0,0:0:0:0:
64,192,132149,1,0,0:0:0:0:
192,192,132205,1,0,0:0:0:0:
448,192,132205,1,0,0:0:0:0:
320,192,132260,1,0,0:0:0:0:
64,192,132315,1,0,0:0:0:0:
192,192,132315,1,0,0:0:0:0:
320,192,132370,1,0,0:0:0:0:
448,192,132370,1,0,0:0:0:0:
64,192,132426,1,0,0:0:0:0:
192,192,132426,1,0,0:0:0:0:
448,192,132481,1,0,0:0:0:0:
64,192,132536,1,0,0:0:0:0:
320,192,132536,1,0,0:0:0:0:
192,192,132591,1,0,0:0:0:0:
448,192,132591,1,0,0:0:0:0:
64,192,132647,1,0,0:0:0:0:
320,192,132647,1,0,0:0:0:0:
192,192,132702,1,0,0:0:0:0:
320,192,132757,1,0,0:0:0:0:
448,192,132757,1,0,0:0:0:0:
64,192,132812,1,0,0:0:0:0:
320,192,132868,1,0,0:0:0:0:
448,192,132868,1,0,0:0:0:0:
64,192,132923,1,0,0:0:0:0:
192,192,132923,1,0,0:0:0:0:
448,192,132978,1,0,0:0:0:0:
64,192,133033,1,0,0:0:0:0:
192,192,133033,1,0,0:0:0:0:
320,192,133089,1,0,0:0:0:0:
448,192,133089,1,0,0:0:0:0:
64,192,133144,1,0,0:0:0:0:
192,192,133144,1,0,0:0:0:0:
320,192,133199,1,0,0:0:0:0:
448,192,133199,1,0,0:0:0:0:
192,192,133254,1,0,0:0:0:0:
320,192,133310,1,0,0:0:0:0:
448,192,133310,1,0,0:0:0:0:
64,192,133365,1,0,0:0:0:0:
192,192,133420,1,0,0:0:0:0:
320,192,133420,1,0,0:0:0:0:
64,192,133475,1,0,0:0:0:0:
448,192,133475,1,0,0:0:0:0:
192,192,133531,1,0,0:0:0:0:
320,192,133586,1,0,0:0:0:0:
448,192,133586,1,0,0:0:0:0:
64,192,133641,1,0,0:0:0:0:
320,192,133696,1,0,0:0:0:0:
448,192,133696,1,0,0:0:0:0:
64,192,133752,1,0,0:0:0:0:
192,192,133752,1,0,0:0:0:0:
448,192,133807,1,0,0:0:0:0:
64,192,133862,1,0,0:0:0:0:
320,192,133862,1,0,0:0:0:0:
192,192,133917,1,0,0:0:0:0:
320,192,133973,1,0,0:0:0:0:
448,192,133973,1,0,0:0:0:0:
64,192,134028,1,0,0:0:0:0:
192,192,134083,1,0,0:0:0:0:
320,192,134083,1,0,0:0:0:0:
448,192,134083,1,0,0:0:0:0:
64,192,134138,1,0,0:0:0:0:
192,192,134194,1,0,0:0:0:0:
448,192,134194,1,0,0:0:0:0:
320,192,134249,1,0,0:0:0:0:
64,192,134304,1,0,0:0:0:0:
448,192,134304,1,0,0:0:0:0:
192,192,134359,1,0,0:0:0:0:
64,192,134415,1,0,0:0:0:0:
320,192,134415,1,0,0:0:0:0:
448,192,134470,1,0,0:0:0:0:
64,192,134525,1,0,0:0:0:0:
192,192,134525,1,0,0:0:0:0:
320,192,134580,1,0,0:0:0:0:
448,192,134580,1,0,0:0:0:0:
64,192,134636,1,0,0:0:0:0:
320,192,134691,1,0,0:0:0:0:
448,192,134691,1,0,0:0:0:0:
64,192,134746,1,0,0:0:0:0:
320,192,134801,1,0,0:0:0:0:
448,192,134801,1,0,0:0:0:0:
64,192,134857,1,0,0:0:0:0:
192,192,134857,1,0,0:0:0:0:
448,192,134912,1,0,0:0:0:0:
64,192,134967,1,0,0:0:0:0:
192,192,134967,1,0,0:0:0:0:
320,192,134967,1,0,0:0:0:0:
320,192,135078,1,0,0:0:0:0:
448,192,135078,1,0,0:0:0:0:
64,192,135188,1,0,0:0:0:0:
320,192,135188,1,0,0:0:0:0:
448,192,135188,1,0,0:0:0:0:
64,192,135299,1,0,0:0:0:0:
192,192,135299,1,0,0:0:0:0:
320,192,135354,1,0,0:0:0:0:
448,192,135354,1,0,0:0:0:0:
64,192,135409,1,0,0:0:0:0:
192,192,135409,1,0,0:0:0:0:
320,192,135464,1,0,0:0:0:0:
448,192,135464,1,0,0:0:0:0:
64,192,135520,1,0,0:0:0:0:
192,192,135520,1,0,0:0:0:0:
320,192,135575,1,0,0:0:0:0:
448,192,135575,1,0,0:0:0:0:
64,192,135630,1,0,0:0:0:0:
192,192,135658,1,0,0:0:0:0:
64,192,135741,1,0,0:0:0:0:
320,192,135768,1,0,0:0:0:0:
64,192,135851,128,0,136072:0:0:0:0:
192,192,135851,1,0,0:0:0:0:
448,192,135851,1,0,0:0:0:0:
192,192,135962,1,0,0:0:0:0:
192,192,136183,1,0,0:0:0:0:
320,192,136183,128,0,136404:0:0:0:0:
448,192,136183,1,0,0:0:0:0:
192,192,136404,1,0,0:0:0:0:
448,192,136514,1,0,0:0:0:0:
192,192,136625,1,0,0:0:0:0:
448,192,136625,1,0,0:0:0:0:
64,192,136735,1,0,0:0:0:0:
192,192,136735,1,0,0:0:0:0:
320,192,136735,1,0,0:0:0:0:
64,192,136846,1,0,0:0:0:0:
448,192,136846,1,0,0:0:0:0:
320,192,136956,1,0,0:0:0:0:
64,192,137067,1,0,0:0:0:0:
192,192,137067,128,0,137398:0:0:0:0:
448,192,137288,1,0,0:0:0:0:
448,192,137398,1,0,0:0:0:0:
320,192,137509,1,0,0:0:0:0:
192,192,137546,1,0,0:0:0:0:
448,192,137582,1,0,0:0:0:0:
64,192,137619,1,0,0:0:0:0:
320,192,137619,128,0,137840:0:0:0:0:
192,192,137730,1,0,0:0:0:0:
64,192,137951,128,0,138172:0:0:0:0:
192,192,137951,1,0,0:0:0:0:
448,192,137951,1,0,0:0:0:0:
192,192,138172,1,0,0:0:0:0:
448,192,138227,1,0,0:0:0:0:
320,192,138282,128,0,138503:0:0:0:0:
192,192,138393,1,0,0:0:0:0:
64,192,138503,1,0,0:0:0:0:
192,192,138503,1,0,0:0:0:0:
448,192,138503,1,0,0:0:0:0:
320,192,138614,1,0,0:0:0:0:
448,192,138614,1,0,0:0:0:0:
192,192,138724,1,0,0:0:0:0:
64,192,138835,1,0,0:0:0:0:
448,192,138835,1,0,0:0:0:0:
192,192,138945,1,0,0:0:0:0:
448,192,139001,1,0,0:0:0:0:
64,192,139056,1,0,0:0:0:0:
192,192,139056,1,0,0:0:0:0:
320,192,139111,1,0,0:0:0:0:
64,192,139166,1,0,0:0:0:0:
448,192,139194,1,0,0:0:0:0:
320,192,139222,1,0,0:0:0:0:
192,192,139277,1,0,0:0:0:0:
320,192,139332,1,0,0:0:0:0:
64,192,139387,1,0,0:0:0:0:
192,192,139387,1,0,0:0:0:0:
448,192,139387,1,0,0:0:0:0:
192,192,139498,1,0,0:0:0:0:
320,192,139498,1,0,0:0:0:0:
64,192,139608,1,0,0:0:0:0:
320,192,139608,1,0,0:0:0:0:
448,192,139608,1,0,0:0:0:0:
64,192,139719,1,0,0:0:0:0:
192,192,139719,1,0,0:0:0:0:
320,192,139829,1,0,0:0:0:0:
448,192,139829,1,0,0:0:0:0:
64,192,139940,1,0,0:0:0:0:
192,192,139940,1,0,0:0:0:0:
448,192,139940,1,0,0:0:0:0:
64,192,140050,1,0,0:0:0:0:
192,192,140050,1,0,0:0:0:0:
320,192,140161,1,0,0:0:0:0:
192,192,140216,1,0,0:0:0:0:
320,192,140271,1,0,0:0:0:0:
448,192,140271,1,0,0:0:0:0:
192,192,140382,1,0,0:0:0:0:
64,192,140492,1,0,0:0:0:0:
320,192,140492,1,0,0:0:0:0:
448,192,140492,1,0,0:0:0:0:
192,192,140603,1,0,0:0:0:0:
448,192,140603,1,0,0:0:0:0:
64,192,140713,1,0,0:0:0:0:
192,192,140713,1,0,0:0:0:0:
320,192,140713,1,0,0:0:0:0:
64,192,140824,1,0,0:0:0:0:
320,192,140824,1,0,0:0:0:0:
192,192,140934,1,0,0:0:0:0:
320,192,140934,1,0,0:0:0:0:
448,192,140934,1,0,0:0:0:0:
64,192,141045,1,0,0:0:0:0:
192,192,141045,1,0,0:0:0:0:
64,192,141155,1,0,0:0:0:0:
448,192,141155,1,0,0:0:0:0:
192,192,141266,1,0,0:0:0:0:
320,192,141266,1,0,0:0:0:0:
64,192,141376,1,0,0:0:0:0:
320,192,141376,1,0,0:0:0:0:
448,192,141376,1,0,0:0:0:0:
192,192,141487,1,0,0:0:0:0:
320,192,141597,1,0,0:0:0:0:
448,192,141597,1,0,0:0:0:0:
64,192,141653,1,0,0:0:0:0:
448,192,141708,1,0,0:0:0:0:
192,192,141763,1,0,0:0:0:0:
320,192,141818,1,0,0:0:0:0:
448,192,141818,1,0,0:0:0:0:
64,192,141874,1,0,0:0:0:0:
192,192,141929,1,0,0:0:0:0:
448,192,141929,1,0,0:0:0:0:
320,192,141984,1,0,0:0:0:0:
64,192,142039,1,0,0:0:0:0:
448,192,142039,1,0,0:0:0:0:
192,192,142076,1,0,0:0:0:0:
64,192,142260,1,0,0:0:0:0:
192,192,142260,1,0,0:0:0:0:
448,192,142316,1,0,0:0:0:0:
320,192,142371,1,0,0:0:0:0:
64,192,142426,1,0,0:0:0:0:
320,192,142481,1,0,0:0:0:0:
192,192,142537,1,0,0:0:0:0:
448,192,142592,1,0,0:0:0:0:
192,192,142647,1,0,0:0:0:0:
64,192,142702,1,0,0:0:0:0:
320,192,142702,1,0,0:0:0:0:
448,192,142702,1,0,0:0:0:0:
64,192,142923,1,0,0:0:0:0:
320,192,142923,1,0,0:0:0:0:
448,192,142923,1,0,0:0:0:0:
192,192,143034,1,0,0:0:0:0:
320,192,143034,1,0,0:0:0:0:
64,192,143144,1,0,0:0:0:0:
192,192,143144,1,0,0:0:0:0:
448,192,143144,1,0,0:0:0:0:
64,192,143255,1,0,0:0:0:0:
320,192,143255,1,0,0:0:0:0:
320,192,143365,1,0,0:0:0:0:
448,192,143365,1,0,0:0:0:0:
64,192,143476,1,0,0:0:0:0:
192,192,143476,1,0,0:0:0:0:
64,192,143586,1,0,0:0:0:0:
192,192,143586,1,0,0:0:0:0:
448,192,143586,1,0,0:0:0:0:
192,192,143697,1,0,0:0:0:0:
448,192,143697,1,0,0:0:0:0:
64,192,143807,1,0,0:0:0:0:
320,192,143807,1,0,0:0:0:0:
64,192,143918,1,0,0:0:0:0:
192,192,143918,1,0,0:0:0:0:
192,192,144028,1,0,0:0:0:0:
320,192,144028,1,0,0:0:0:0:
448,192,144028,1,0,0:0:0:0:
320,192,144139,1,0,0:0:0:0:
448,192,144139,1,0,0:0:0:0:
64,192,144249,1,0,0:0:0:0:
192,192,144249,1,0,0:0:0:0:
448,192,144249,1,0,0:0:0:0:
192,192,144360,1,0,0:0:0:0:
192,192,144471,1,0,0:0:0:0:
320,192,144471,1,0,0:0:0:0:
448,192,144471,1,0,0:0:0:0:
320,192,144581,1,0,0:0:0:0:
64,192,144692,1,0,0:0:0:0:
192,192,144692,1,0,0:0:0:0:
448,192,144692,1,0,0:0:0:0:
320,192,144802,1,0,0:0:0:0:
448,192,144802,1,0,0:0:0:0:
192,192,144857,1,0,0:0:0:0:
64,192,144913,1,0,0:0:0:0:
320,192,144913,1,0,0:0:0:0:
448,192,144913,1,0,0:0:0:0:
192,192,144968,1,0,0:0:0:0:
64,192,145023,1,0,0:0:0:0:
448,192,145023,1,0,0:0:0:0:
64,192,145134,1,0,0:0:0:0:
192,192,145134,1,0,0:0:0:0:
320,192,145134,1,0,0:0:0:0:
320,192,145244,1,0,0:0:0:0:
64,192,145355,1,0,0:0:0:0:
192,192,145355,1,0,0:0:0:0:
448,192,145355,1,0,0:0:0:0:
192,192,145465,1,0,0:0:0:0:
320,192,145465,1,0,0:0:0:0:
64,192,145576,1,0,0:0:0:0:
320,192,145576,1,0,0:0:0:0:
448,192,145576,1,0,0:0:0:0:
192,192,145686,1,0,0:0:0:0:
320,192,145741,1,0,0:0:0:0:
64,192,145797,1,0,0:0:0:0:
448,192,145797,1,0,0:0:0:0:
192,192,145907,1,0,0:0:0:0:
320,192,145907,1,0,0:0:0:0:
320,192,146018,1,0,0:0:0:0:
448,192,146018,1,0,0:0:0:0:
64,192,146128,1,0,0:0:0:0:
320,192,146183,1,0,0:0:0:0:
64,192,146239,1,0,0:0:0:0:
192,192,146239,1,0,0:0:0:0:
448,192,146294,1,0,0:0:0:0:
320,192,146349,1,0,0:0:0:0:
64,192,146404,1,0,0:0:0:0:
192,192,146460,1,0,0:0:0:0:
320,192,146460,1,0,0:0:0:0:
448,192,146460,1,0,0:0:0:0:
64,192,146570,1,0,0:0:0:0:
320,192,146570,1,0,0:0:0:0:
64,192,146681,1,0,0:0:0:0:
192,192,146681,1,0,0:0:0:0:
448,192,146681,1,0,0:0:0:0:
320,192,146791,1,0,0:0:0:0:
448,192,146791,1,0,0:0:0:0:
64,192,146902,1,0,0:0:0:0:
192,192,146902,1,0,0:0:0:0:
64,192,147012,1,0,0:0:0:0:
320,192,147012,1,0,0:0:0:0:
64,192,147123,1,0,0:0:0:0:
320,192,147123,1,0,0:0:0:0:
448,192,147123,1,0,0:0:0:0:
192,192,147233,1,0,0:0:0:0:
320,192,147233,1,0,0:0:0:0:
192,192,147344,1,0,0:0:0:0:
448,192,147344,1,0,0:0:0:0:
64,192,147454,1,0,0:0:0:0:
320,192,147454,1,0,0:0:0:0:
192,192,147565,1,0,0:0:0:0:
320,192,147565,1,0,0:0:0:0:
448,192,147565,1,0,0:0:0:0:
64,192,147675,1,0,0:0:0:0:
192,192,147675,1,0,0:0:0:0:
64,192,147786,1,0,0:0:0:0:
320,192,147786,1,0,0:0:0:0:
448,192,147786,1,0,0:0:0:0:
320,192,147896,1,0,0:0:0:0:
64,192,148007,1,0,0:0:0:0:
192,192,148007,1,0,0:0:0:0:
448,192,148007,1,0,0:0:0:0:
192,192,148117,1,0,0:0:0:0:
64,192,148228,1,0,0:0:0:0:
320,192,148228,1,0,0:0:0:0:
448,192,148228,1,0,0:0:0:0:
192,192,148338,128,0,148393:0:0:0:0:
64,192,148449,1,0,0:0:0:0:
192,192,148449,1,0,0:0:0:0:
448,192,148449,1,0,0:0:0:0:
320,192,148559,128,0,148614:0:0:0:0:
64,192,148670,1,0,0:0:0:0:
320,192,148670,1,0,0:0:0:0:
448,192,148670,1,0,0:0:0:0:
192,192,148780,1,0,0:0:0:0:
448,192,148835,1,0,0:0:0:0:
64,192,148891,1,0,0:0:0:0:
320,192,148891,1,0,0:0:0:0:
192,192,149001,1,0,0:0:0:0:
448,192,149001,1,0,0:0:0:0:
64,192,149112,1,0,0:0:0:0:
320,192,149112,1,0,0:0:0:0:
448,192,149167,1,0,0:0:0:0:
320,192,149222,1,0,0:0:0:0:
64,192,149277,1,0,0:0:0:0:
192,192,149277,1,0,0:0:0:0:
320,192,149333,1,0,0:0:0:0:
448,192,149333,1,0,0:0:0:0:
192,192,149388,1,0,0:0:0:0:
64,192,149443,1,0,0:0:0:0:
448,192,149443,1,0,0:0:0:0:
320,192,149498,1,0,0:0:0:0:
192,192,149554,1,0,0:0:0:0:
448,192,149609,1,0,0:0:0:0:
192,192,149664,1,0,0:0:0:0:
448,192,149719,1,0,0:0:0:0:
320,192,149775,128,0,149885:0:0:0:0:
192,192,149885,1,0,0:0:0:0:
64,192,149996,1,0,0:0:0:0:
192,192,149996,1,0,0:0:0:0:
320,192,149996,1,0,0:0:0:0:
448,192,149996,1,0,0:0:0:0:
64,192,150106,1,0,0:0:0:0:
320,192,150106,1,0,0:0:0:0:
192,192,150217,1,0,0:0:0:0:
320,192,150327,1,0,0:0:0:0:
448,192,150327,1,0,0:0:0:0:
192,192,150438,1,0,0:0:0:0:
64,192,150548,1,0,0:0:0:0:
320,192,150548,1,0,0:0:0:0:
192,192,150659,1,0,0:0:0:0:
448,192,150659,1,0,0:0:0:0:
64,192,150769,1,0,0:0:0:0:
320,192,150769,128,0,150935:0:0:0:0:
192,192,150880,1,0,0:0:0:0:
64,192,150990,1,0,0:0:0:0:
448,192,150990,1,0,0:0:0:0:
192,192,151101,1,0,0:0:0:0:
448,192,151101,1,0,0:0:0:0:
192,192,151211,1,0,0:0:0:0:
320,192,151211,1,0,0:0:0:0:
64,192,151322,1,0,0:0:0:0:
448,192,151322,128,0,151487:0:0:0:0:
192,192,151432,1,0,0:0:0:0:
192,192,151543,1,0,0:0:0:0:
320,192,151543,1,0,0:0:0:0:
64,192,151653,1,0,0:0:0:0:
192,192,151764,1,0,0:0:0:0:
448,192,151764,1,0,0:0:0:0:
64,192,151874,1,0,0:0:0:0:
192,192,151930,1,0,0:0:0:0:
448,192,151930,1,0,0:0:0:0:
320,192,151985,128,0,152095:0:0:0:0:
64,192,152095,128,0,152206:0:0:0:0:
192,192,152095,1,0,0:0:0:0:
320,192,152206,1,0,0:0:0:0:
448,192,152206,128,0,152372:0:0:0:0:
192,192,152316,1,0,0:0:0:0:
64,192,152427,128,0,152593:0:0:0:0:
320,192,152427,1,0,0:0:0:0:
192,192,152537,1,0,0:0:0:0:
320,192,152648,1,0,0:0:0:0:
448,192,152648,128,0,152869:0:0:0:0:
64,192,152758,1,0,0:0:0:0:
192,192,152869,1,0,0:0:0:0:
64,192,152979,1,0,0:0:0:0:
320,192,152979,1,0,0:0:0:0:
64,192,153090,1,0,0:0:0:0:
320,192,153090,128,0,153311:0:0:0:0:
192,192,153200,1,0,0:0:0:0:
64,192,153311,1,0,0:0:0:0:
448,192,153311,1,0,0:0:0:0:
192,192,153421,1,0,0:0:0:0:
64,192,153532,1,0,0:0:0:0:
320,192,153532,1,0,0:0:0:0:
448,192,153532,1,0,0:0:0:0:
192,192,153587,1,0,0:0:0:0:
320,192,153642,1,0,0:0:0:0:
448,192,153642,1,0,0:0:0:0:
64,192,153698,1,0,0:0:0:0:
192,192,153753,1,0,0:0:0:0:
448,192,153753,1,0,0:0:0:0:
320,192,153808,1,0,0:0:0:0:
64,192,153863,1,0,0:0:0:0:
192,192,153863,1,0,0:0:0:0:
448,192,153919,1,0,0:0:0:0:
320,192,153974,1,0,0:0:0:0:
64,192,154029,1,0,0:0:0:0:
192,192,154084,1,0,0:0:0:0:
448,192,154084,1,0,0:0:0:0:
320,192,154140,1,0,0:0:0:0:
64,192,154195,1,0,0:0:0:0:
448,192,154195,1,0,0:0:0:0:
192,192,154250,1,0,0:0:0:0:
64,192,154305,1,0,0:0:0:0:
320,192,154305,1,0,0:0:0:0:
448,192,154361,1,0,0:0:0:0:
192,192,154416,1,0,0:0:0:0:
320,192,154471,1,0,0:0:0:0:
64,192,154526,1,0,0:0:0:0:
192,192,154526,1,0,0:0:0:0:
448,192,154582,1,0,0:0:0:0:
64,192,154637,1,0,0:0:0:0:
320,192,154637,1,0,0:0:0:0:
192,192,154692,1,0,0:0:0:0:
448,192,154747,1,0,0:0:0:0:
320,192,154803,1,0,0:0:0:0:
64,192,154858,1,0,0:0:0:0:
192,192,154858,1,0,0:0:0:0:
320,192,154913,1,0,0:0:0:0:
448,192,154968,1,0,0:0:0:0:
64,192,155024,1,0,0:0:0:0:
192,192,155079,1,0,0:0:0:0:
320,192,155079,1,0,0:0:0:0:
448,192,155134,1,0,0:0:0:0:
64,192,155189,1,0,0:0:0:0:
320,192,155245,1,0,0:0:0:0:
64,192,155300,1,0,0:0:0:0:
192,192,155328,1,0,0:0:0:0:
448,192,155355,1,0,0:0:0:0:
320,192,155383,1,0,0:0:0:0:
64,192,155410,1,0,0:0:0:0:
192,192,155438,1,0,0:0:0:0:
448,192,155466,1,0,0:0:0:0:
320,192,155493,1,0,0:0:0:0:
64,192,155521,1,0,0:0:0:0:
192,192,155549,1,0,0:0:0:0:
448,192,155576,1,0,0:0:0:0:
320,192,155604,1,0,0:0:0:0:
64,192,155631,1,0,0:0:0:0:
192,192,155659,1,0,0:0:0:0:
448,192,155687,1,0,0:0:0:0:
320,192,155714,1,0,0:0:0:0:
64,192,155742,1,0,0:0:0:0:
192,192,155770,1,0,0:0:0:0:
448,192,155797,1,0,0:0:0:0:
320,192,155825,1,0,0:0:0:0:
64,192,155852,1,0,0:0:0:0:
192,192,155880,1,0,0:0:0:0:
448,192,155908,1,0,0:0:0:0:
320,192,155935,1,0,0:0:0:0:
64,192,155963,1,0,0:0:0:0:
192,192,155991,1,0,0:0:0:0:
448,192,156018,1,0,0:0:0:0:
320,192,156046,1,0,0:0:0:0:
64,192,156073,1,0,0:0:0:0:
192,192,156101,1,0,0:0:0:0:
448,192,156129,1,0,0:0:0:0:
320,192,156156,1,0,0:0:0:0:
64,192,156184,1,0,0:0:0:0:
192,192,156184,1,0,0:0:0:0:
320,192,156350,1,0,0:0:0:0:
64,192,156405,1,0,0:0:0:0:
448,192,156405,1,0,0:0:0:0:
320,192,156515,1,0,0:0:0:0:
448,192,156515,1,0,0:0:0:0:
192,192,156571,1,0,0:0:0:0:
64,192,156626,1,0,0:0:0:0:
320,192,156626,1,0,0:0:0:0:
192,192,156681,1,0,0:0:0:0:
320,192,156736,1,0,0:0:0:0:
448,192,156736,1,0,0:0:0:0:
64,192,156792,1,0,0:0:0:0:
320,192,156847,1,0,0:0:0:0:
448,192,156847,1,0,0:0:0:0:
320,192,156902,1,0,0:0:0:0:
448,192,156902,1,0,0:0:0:0:
64,192,156957,1,0,0:0:0:0:
192,192,156957,1,0,0:0:0:0:
64,192,157013,1,0,0:0:0:0:
192,192,157013,1,0,0:0:0:0:
320,192,157068,1,0,0:0:0:0:
448,192,157068,1,0,0:0:0:0:
64,192,157123,1,0,0:0:0:0:
192,192,157178,1,0,0:0:0:0:
448,192,157178,1,0,0:0:0:0:
320,192,157234,1,0,0:0:0:0:
64,192,157289,1,0,0:0:0:0:
192,192,157289,1,0,0:0:0:0:
448,192,157289,1,0,0:0:0:0:
320,192,157344,1,0,0:0:0:0:
64,192,157399,1,0,0:0:0:0:
192,192,157399,1,0,0:0:0:0:
448,192,157455,1,0,0:0:0:0:
64,192,157510,1,0,0:0:0:0:
320,192,157510,1,0,0:0:0:0:
192,192,157565,1,0,0:0:0:0:
320,192,157620,1,0,0:0:0:0:
448,192,157620,1,0,0:0:0:0:
64,192,157676,1,0,0:0:0:0:
192,192,157731,1,0,0:0:0:0:
448,192,157731,1,0,0:0:0:0:
320,192,157786,1,0,0:0:0:0:
64,192,157841,1,0,0:0:0:0:
192,192,157841,1,0,0:0:0:0:
320,192,157897,1,0,0:0:0:0:
448,192,157897,1,0,0:0:0:0:
64,192,157952,1,0,0:0:0:0:
192,192,157952,1,0,0:0:0:0:
448,192,158007,1,0,0:0:0:0:
64,192,158062,1,0,0:0:0:0:
320,192,158062,1,0,0:0:0:0:
192,192,158118,1,0,0:0:0:0:
64,192,158173,1,0,0:0:0:0:
320,192,158173,1,0,0:0:0:0:
448,192,158173,1,0,0:0:0:0:
192,192,158228,1,0,0:0:0:0:
320,192,158283,1,0,0:0:0:0:
448,192,158283,1,0,0:0:0:0:
64,192,158339,1,0,0:0:0:0:
192,192,158394,1,0,0:0:0:0:
320,192,158394,1,0,0:0:0:0:
448,192,158394,1,0,0:0:0:0:
64,192,158449,1,0,0:0:0:0:
192,192,158504,1,0,0:0:0:0:
448,192,158504,1,0,0:0:0:0:
320,192,158560,1,0,0:0:0:0:
64,192,158615,1,0,0:0:0:0:
192,192,158615,1,0,0:0:0:0:
448,192,158615,1,0,0:0:0:0:
320,192,158670,1,0,0:0:0:0:
64,192,158725,1,0,0:0:0:0:
192,192,158725,1,0,0:0:0:0:
448,192,158781,1,0,0:0:0:0:
64,192,158836,1,0,0:0:0:0:
192,192,158836,1,0,0:0:0:0:
320,192,158836,1,0,0:0:0:0:
448,192,158891,1,0,0:0:0:0:
320,192,158947,1,0,0:0:0:0:
64,192,159002,1,0,0:0:0:0:
192,192,159002,1,0,0:0:0:0:
320,192,159057,1,0,0:0:0:0:
448,192,159057,1,0,0:0:0:0:
64,192,159112,1,0,0:0:0:0:
192,192,159168,1,0,0:0:0:0:
448,192,159168,1,0,0:0:0:0:
320,192,159223,1,0,0:0:0:0:
64,192,159278,1,0,0:0:0:0:
192,192,159278,1,0,0:0:0:0:
448,192,159278,1,0,0:0:0:0:
320,192,159333,1,0,0:0:0:0:
64,192,159389,1,0,0:0:0:0:
192,192,159389,1,0,0:0:0:0:
448,192,159444,1,0,0:0:0:0:
64,192,159499,1,0,0:0:0:0:
192,192,159499,1,0,0:0:0:0:
320,192,159499,1,0,0:0:0:0:
448,192,159554,1,0,0:0:0:0:
192,192,159610,1,0,0:0:0:0:
320,192,159610,1,0,0:0:0:0:
64,192,159665,1,0,0:0:0:0:
192,192,159720,1,0,0:0:0:0:
320,192,159720,1,0,0:0:0:0:
448,192,159720,1,0,0:0:0:0:
64,192,159775,1,0,0:0:0:0:
320,192,159831,1,0,0:0:0:0:
448,192,159831,1,0,0:0:0:0:
64,192,159886,1,0,0:0:0:0:
320,192,159941,1,0,0:0:0:0:
448,192,159941,1,0,0:0:0:0:
64,192,159996,1,0,0:0:0:0:
192,192,160052,1,0,0:0:0:0:
448,192,160052,1,0,0:0:0:0:
64,192,160107,1,0,0:0:0:0:
320,192,160107,1,0,0:0:0:0:
192,192,160162,1,0,0:0:0:0:
448,192,160162,1,0,0:0:0:0:
320,192,160217,1,0,0:0:0:0:
64,192,160273,1,0,0:0:0:0:
192,192,160273,1,0,0:0:0:0:
320,192,160328,1,0,0:0:0:0:
64,192,160383,1,0,0:0:0:0:
192,192,160383,1,0,0:0:0:0:
448,192,160438,1,0,0:0:0:0:
64,192,160494,1,0,0:0:0:0:
320,192,160494,1,0,0:0:0:0:
192,192,160549,1,0,0:0:0:0:
64,192,160604,1,0,0:0:0:0:
320,192,160604,1,0,0:0:0:0:
448,192,160604,1,0,0:0:0:0:
192,192,160659,1,0,0:0:0:0:
320,192,160715,1,0,0:0:0:0:
448,192,160715,1,0,0:0:0:0:
64,192,160770,1,0,0:0:0:0:
192,192,160825,1,0,0:0:0:0:
320,192,160825,1,0,0:0:0:0:
448,192,160825,1,0,0:0:0:0:
64,192,160880,1,0,0:0:0:0:
192,192,160936,1,0,0:0:0:0:
320,192,160936,1,0,0:0:0:0:
448,192,160991,1,0,0:0:0:0:
64,192,161046,1,0,0:0:0:0:
320,192,161046,1,0,0:0:0:0:
192,192,161101,1,0,0:0:0:0:
320,192,161157,1,0,0:0:0:0:
448,192,161157,1,0,0:0:0:0:
192,192,161212,1,0,0:0:0:0:
320,192,161267,1,0,0:0:0:0:
448,192,161267,1,0,0:0:0:0:
64,192,161322,1,0,0:0:0:0:
192,192,161378,1,0,0:0:0:0:
448,192,161378,1,0,0:0:0:0:
320,192,161433,1,0,0:0:0:0:
64,192,161488,1,0,0:0:0:0:
192,192,161488,1,0,0:0:0:0:
448,192,161543,1,0,0:0:0:0:
64,192,161599,1,0,0:0:0:0:
320,192,161599,1,0,0:0:0:0:
192,192,161654,1,0,0:0:0:0:
64,192,161709,1,0,0:0:0:0:
320,192,161709,1,0,0:0:0:0:
448,192,161709,1,0,0:0:0:0:
192,192,161764,1,0,0:0:0:0:
320,192,161820,1,0,0:0:0:0:
448,192,161820,1,0,0:0:0:0:
64,192,161875,1,0,0:0:0:0:
192,192,161930,1,0,0:0:0:0:
448,192,161930,1,0,0:0:0:0:
320,192,161985,1,0,0:0:0:0:
64,192,162041,1,0,0:0:0:0:
448,192,162041,1,0,0:0:0:0:
192,192,162096,1,0,0:0:0:0:
64,192,162151,1,0,0:0:0:0:
320,192,162151,1,0,0:0:0:0:
448,192,162206,1,0,0:0:0:0:
192,192,162262,1,0,0:0:0:0:
320,192,162262,1,0,0:0:0:0:
64,192,162317,1,0,0:0:0:0:
192,192,162372,1,0,0:0:0:0:
320,192,162372,1,0,0:0:0:0:
448,192,162372,1,0,0:0:0:0:
320,192,162483,1,0,0:0:0:0:
448,192,162483,1,0,0:0:0:0:
64,192,162593,1,0,0:0:0:0:
192,192,162593,1,0,0:0:0:0:
448,192,162593,1,0,0:0:0:0:
64,192,162704,1,0,0:0:0:0:
192,192,162704,1,0,0:0:0:0:
192,192,162814,1,0,0:0:0:0:
448,192,162814,1,0,0:0:0:0:
320,192,162869,1,0,0:0:0:0:
64,192,162925,1,0,0:0:0:0:
192,192,162925,1,0,0:0:0:0:
448,192,162925,1,0,0:0:0:0:
320,192,162980,1,0,0:0:0:0:
64,192,163035,1,0,0:0:0:0:
192,192,163035,1,0,0:0:0:0:
448,192,163035,1,0,0:0:0:0:
320,192,163146,1,0,0:0:0:0:
448,192,163146,1,0,0:0:0:0:
192,192,163201,1,0,0:0:0:0:
64,192,163256,1,0,0:0:0:0:
320,192,163256,1,0,0:0:0:0:
448,192,163256,1,0,0:0:0:0:
192,192,163367,1,0,0:0:0:0:
320,192,163422,1,0,0:0:0:0:
448,192,163422,1,0,0:0:0:0:
64,192,163477,1,0,0:0:0:0:
192,192,163477,1,0,0:0:0:0:
64,192,163588,1,0,0:0:0:0:
320,192,163588,1,0,0:0:0:0:
448,192,163588,1,0,0:0:0:0:
320,192,163698,1,0,0:0:0:0:
448,192,163698,1,0,0:0:0:0:
64,192,163753,1,0,0:0:0:0:
192,192,163753,1,0,0:0:0:0:
320,192,163809,1,0,0:0:0:0:
448,192,163809,1,0,0:0:0:0:
64,192,163864,1,0,0:0:0:0:
192,192,163864,1,0,0:0:0:0:
320,192,163919,1,0,0:0:0:0:
448,192,163919,1,0,0:0:0:0:
64,192,163974,1,0,0:0:0:0:
320,192,164030,1,0,0:0:0:0:
448,192,164030,1,0,0:0:0:0:
64,192,164085,1,0,0:0:0:0:
192,192,164140,1,0,0:0:0:0:
320,192,164140,1,0,0:0:0:0:
448,192,164140,1,0,0:0:0:0:
192,192,164251,1,0,0:0:0:0:
320,192,164251,1,0,0:0:0:0:
64,192,164361,1,0,0:0:0:0:
192,192,164361,1,0,0:0:0:0:
448,192,164361,1,0,0:0:0:0:
64,192,164472,1,0,0:0:0:0:
320,192,164472,1,0,0:0:0:0:
448,192,164472,1,0,0:0:0:0:
64,192,164582,1,0,0:0:0:0:
192,192,164582,1,0,0:0:0:0:
448,192,164582,1,0,0:0:0:0:
320,192,164637,1,0,0:0:0:0:
64,192,164693,1,0,0:0:0:0:
192,192,164693,1,0,0:0:0:0:
448,192,164730,1,0,0:0:0:0:
320,192,164766,1,0,0:0:0:0:
192,192,164803,1,0,0:0:0:0:
64,192,164831,1,0,0:0:0:0:
448,192,164858,1,0,0:0:0:0:
320,192,164886,1,0,0:0:0:0:
192,192,164914,1,0,0:0:0:0:
64,192,164941,1,0,0:0:0:0:
448,192,164969,1,0,0:0:0:0:
320,192,164997,1,0,0:0:0:0:
64,192,165024,1,0,0:0:0:0:
192,192,165024,1,0,0:0:0:0:
320,192,165079,1,0,0:0:0:0:
448,192,165079,1,0,0:0:0:0:
64,192,165135,1,0,0:0:0:0:
192,192,165135,1,0,0:0:0:0:
448,192,165190,1,0,0:0:0:0:
64,192,165245,1,0,0:0:0:0:
320,192,165245,1,0,0:0:0:0:
192,192,165300,1,0,0:0:0:0:
448,192,165300,1,0,0:0:0:0:
64,192,165356,1,0,0:0:0:0:
320,192,165356,1,0,0:0:0:0:
192,192,165411,1,0,0:0:0:0:
320,192,165466,1,0,0:0:0:0:
448,192,165466,1,0,0:0:0:0:
64,192,165521,1,0,0:0:0:0:
320,192,165577,1,0,0:0:0:0:
448,192,165577,1,0,0:0:0:0:
64,192,165632,1,0,0:0:0:0:
192,192,165632,1,0,0:0:0:0:
448,192,165687,1,0,0:0:0:0:
64,192,165742,1,0,0:0:0:0:
192,192,165742,1,0,0:0:0:0:
320,192,165798,1,0,0:0:0:0:
448,192,165798,1,0,0:0:0:0:
64,192,165853,1,0,0:0:0:0:
192,192,165853,1,0,0:0:0:0:
320,192,165908,1,0,0:0:0:0:
448,192,165908,1,0,0:0:0:0:
192,192,165963,1,0,0:0:0:0:
320,192,166019,1,0,0:0:0:0:
448,192,166019,1,0,0:0:0:0:
64,192,166074,1,0,0:0:0:0:
192,192,166129,1,0,0:0:0:0:
320,192,166129,1,0,0:0:0:0:
64,192,166185,1,0,0:0:0:0:
448,192,166185,1,0,0:0:0:0:
192,192,166240,1,0,0:0:0:0:
320,192,166295,1,0,0:0:0:0:
448,192,166295,1,0,0:0:0:0:
64,192,166350,1,0,0:0:0:0:
192,192,166350,1,0,0:0:0:0:
448,192,166406,1,0,0:0:0:0:
64,192,166461,1,0,0:0:0:0:
320,192,166461,1,0,0:0:0:0:
192,192,166516,1,0,0:0:0:0:
64,192,166571,1,0,0:0:0:0:
320,192,166571,1,0,0:0:0:0:
448,192,166571,1,0,0:0:0:0:
192,192,166627,1,0,0:0:0:0:
320,192,166682,1,0,0:0:0:0:
448,192,166682,1,0,0:0:0:0:
64,192,166737,1,0,0:0:0:0:
192,192,166792,1,0,0:0:0:0:
448,192,166792,1,0,0:0:0:0:
64,192,166848,1,0,0:0:0:0:
320,192,166848,1,0,0:0:0:0:
192,192,166903,1,0,0:0:0:0:
448,192,166903,1,0,0:0:0:0:
320,192,166958,1,0,0:0:0:0:
64,192,167013,1,0,0:0:0:0:
192,192,167013,1,0,0:0:0:0:
320,192,167069,1,0,0:0:0:0:
448,192,167069,1,0,0:0:0:0:
64,192,167124,1,0,0:0:0:0:
192,192,167124,1,0,0:0:0:0:
320,192,167179,1,0,0:0:0:0:
192,192,167234,1,0,0:0:0:0:
448,192,167234,1,0,0:0:0:0:
64,192,167290,1,0,0:0:0:0:
320,192,167290,1,0,0:0:0:0:
448,192,167345,1,0,0:0:0:0:
64,192,167400,1,0,0:0:0:0:
320,192,167400,1,0,0:0:0:0:
192,192,167455,1,0,0:0:0:0:
64,192,167511,1,0,0:0:0:0:
320,192,167511,1,0,0:0:0:0:
192,192,167566,1,0,0:0:0:0:
448,192,167566,1,0,0:0:0:0:
320,192,167621,1,0,0:0:0:0:
64,192,167676,1,0,0:0:0:0:
192,192,167676,1,0,0:0:0:0:
448,192,167676,1,0,0:0:0:0:
320,192,167732,1,0,0:0:0:0:
64,192,167787,1,0,0:0:0:0:
192,192,167787,1,0,0:0:0:0:
448,192,167842,1,0,0:0:0:0:
64,192,167897,1,0,0:0:0:0:
192,192,167897,1,0,0:0:0:0:
320,192,167897,1,0,0:0:0:0:
448,192,167953,1,0,0:0:0:0:
64,192,168008,1,0,0:0:0:0:
320,192,168008,1,0,0:0:0:0:
192,192,168063,1,0,0:0:0:0:
64,192,168118,1,0,0:0:0:0:
320,192,168118,1,0,0:0:0:0:
448,192,168118,1,0,0:0:0:0:
192,192,168174,1,0,0:0:0:0:
320,192,168229,1,0,0:0:0:0:
448,192,168229,1,0,0:0:0:0:
64,192,168284,1,0,0:0:0:0:
192,192,168284,1,0,0:0:0:0:
320,192,168339,1,0,0:0:0:0:
448,192,168339,1,0,0:0:0:0:
64,192,168395,1,0,0:0:0:0:
192,192,168395,1,0,0:0:0:0:
448,192,168450,1,0,0:0:0:0:
320,192,168477,1,0,0:0:0:0:
64,192,168505,1,0,0:0:0:0:
192,192,168533,1,0,0:0:0:0:
320,192,168560,1,0,0:0:0:0:
448,192,168560,1,0,0:0:0:0:
64,192,168616,1,0,0:0:0:0:
192,192,168616,1,0,0:0:0:0:
320,192,168671,1,0,0:0:0:0:
448,192,168671,1,0,0:0:0:0:
64,192,168726,1,0,0:0:0:0:
192,192,168781,1,0,0:0:0:0:
448,192,168781,1,0,0:0:0:0:
64,192,168837,1,0,0:0:0:0:
320,192,168837,1,0,0:0:0:0:
192,192,168892,1,0,0:0:0:0:
448,192,168892,1,0,0:0:0:0:
320,192,168947,1,0,0:0:0:0:
64,192,169002,1,0,0:0:0:0:
192,192,169002,1,0,0:0:0:0:
448,192,169002,1,0,0:0:0:0:
320,192,169058,1,0,0:0:0:0:
64,192,169113,1,0,0:0:0:0:
192,192,169113,1,0,0:0:0:0:
320,192,169168,1,0,0:0:0:0:
448,192,169168,1,0,0:0:0:0:
64,192,169223,1,0,0:0:0:0:
320,192,169279,1,0,0:0:0:0:
448,192,169279,1,0,0:0:0:0:
64,192,169334,1,0,0:0:0:0:
192,192,169334,1,0,0:0:0:0:
320,192,169389,1,0,0:0:0:0:
448,192,169389,1,0,0:0:0:0:
64,192,169444,1,0,0:0:0:0:
192,192,169444,1,0,0:0:0:0:
320,192,169500,1,0,0:0:0:0:
64,192,169555,1,0,0:0:0:0:
192,192,169555,1,0,0:0:0:0:
448,192,169610,1,0,0:0:0:0:
192,192,169665,1,0,0:0:0:0:
320,192,169665,1,0,0:0:0:0:
64,192,169721,1,0,0:0:0:0:
448,192,169721,1,0,0:0:0:0:
320,192,169776,1,0,0:0:0:0:
64,192,169831,1,0,0:0:0:0:
192,192,169831,1,0,0:0:0:0:
320,192,169886,1,0,0:0:0:0:
448,192,169886,1,0,0:0:0:0:
64,192,169942,1,0,0:0:0:0:
192,192,169997,1,0,0:0:0:0:
448,192,169997,1,0,0:0:0:0:
320,192,170052,1,0,0:0:0:0:
64,192,170107,1,0,0:0:0:0:
192,192,170107,1,0,0:0:0:0:
448,192,170107,1,0,0:0:0:0:
320,192,170163,1,0,0:0:0:0:
64,192,170218,1,0,0:0:0:0:
192,192,170218,1,0,0:0:0:0:
448,192,170273,1,0,0:0:0:0:
64,192,170328,1,0,0:0:0:0:
192,192,170328,1,0,0:0:0:0:
320,192,170328,1,0,0:0:0:0:
448,192,170384,1,0,0:0:0:0:
64,192,170439,1,0,0:0:0:0:
192,192,170439,1,0,0:0:0:0:
320,192,170494,1,0,0:0:0:0:
64,192,170549,1,0,0:0:0:0:
448,192,170549,1,0,0:0:0:0:
192,192,170605,1,0,0:0:0:0:
320,192,170660,1,0,0:0:0:0:
448,192,170660,1,0,0:0:0:0:
64,192,170715,1,0,0:0:0:0:
192,192,170770,1,0,0:0:0:0:
320,192,170770,1,0,0:0:0:0:
448,192,170770,1,0,0:0:0:0:
64,192,170826,1,0,0:0:0:0:
192,192,170881,1,0,0:0:0:0:
64,192,170936,1,0,0:0:0:0:
320,192,170936,1,0,0:0:0:0:
448,192,170936,1,0,0:0:0:0:
192,192,170991,1,0,0:0:0:0:
448,192,171047,1,0,0:0:0:0:
64,192,171102,1,0,0:0:0:0:
192,192,171102,1,0,0:0:0:0:
320,192,171102,1,0,0:0:0:0:
448,192,171157,1,0,0:0:0:0:
64,192,171212,1,0,0:0:0:0:
320,192,171212,1,0,0:0:0:0:
192,192,171268,1,0,0:0:0:0:
320,192,171323,1,0,0:0:0:0:
448,192,171323,1,0,0:0:0:0:
64,192,171378,1,0,0:0:0:0:
320,192,171433,1,0,0:0:0:0:
448,192,171433,1,0,0:0:0:0:
192,192,171489,1,0,0:0:0:0:
320,192,171544,1,0,0:0:0:0:
448,192,171544,1,0,0:0:0:0:
64,192,171599,1,0,0:0:0:0:
192,192,171599,1,0,0:0:0:0:
320,192,171654,1,0,0:0:0:0:
448,192,171654,1,0,0:0:0:0:
64,192,171710,1,0,0:0:0:0:
192,192,171710,1,0,0:0:0:0:
320,192,171765,1,0,0:0:0:0:
448,192,171765,1,0,0:0:0:0:
64,192,171820,1,0,0:0:0:0:
192,192,171820,1,0,0:0:0:0:
320,192,171875,1,0,0:0:0:0:
448,192,171903,1,0,0:0:0:0:
64,192,171931,1,0,0:0:0:0:
320,192,171986,1,0,0:0:0:0:
192,192,172041,1,0,0:0:0:0:
320,192,172096,1,0,0:0:0:0:
448,192,172096,1,0,0:0:0:0:
64,192,172152,1,0,0:0:0:0:
192,192,172152,1,0,0:0:0:0:
320,192,172207,1,0,0:0:0:0:
448,192,172207,1,0,0:0:0:0:
64,192,172262,1,0,0:0:0:0:
192,192,172317,1,0,0:0:0:0:
448,192,172317,1,0,0:0:0:0:
64,192,172373,1,0,0:0:0:0:
320,192,172373,1,0,0:0:0:0:
192,192,172428,1,0,0:0:0:0:
448,192,172428,1,0,0:0:0:0:
320,192,172483,1,0,0:0:0:0:
64,192,172538,1,0,0:0:0:0:
192,192,172538,1,0,0:0:0:0:
448,192,172594,1,0,0:0:0:0:
64,192,172649,1,0,0:0:0:0:
192,192,172649,1,0,0:0:0:0:
320,192,172704,1,0,0:0:0:0:
448,192,172704,1,0,0:0:0:0:
64,192,172759,1,0,0:0:0:0:
320,192,172815,1,0,0:0:0:0:
448,192,172815,1,0,0:0:0:0:
64,192,172870,1,0,0:0:0:0:
192,192,172870,1,0,0:0:0:0:
320,192,172925,1,0,0:0:0:0:
448,192,172925,1,0,0:0:0:0:
64,192,172980,1,0,0:0:0:0:
192,192,172980,1,0,0:0:0:0:
320,192,173036,1,0,0:0:0:0:
64,192,173091,1,0,0:0:0:0:
192,192,173091,1,0,0:0:0:0:
448,192,173146,1,0,0:0:0:0:
192,192,173201,1,0,0:0:0:0:
320,192,173201,1,0,0:0:0:0:
64,192,173257,1,0,0:0:0:0:
448,192,173257,1,0,0:0:0:0:
320,192,173312,1,0,0:0:0:0:
64,192,173367,1,0,0:0:0:0:
192,192,173367,1,0,0:0:0:0:
448,192,173423,1,0,0:0:0:0:
64,192,173478,1,0,0:0:0:0:
192,192,173478,1,0,0:0:0:0:
320,192,173533,1,0,0:0:0:0:
448,192,173533,1,0,0:0:0:0:
64,192,173588,1,0,0:0:0:0:
192,192,173644,1,0,0:0:0:0:
448,192,173644,1,0,0:0:0:0:
320,192,173699,1,0,0:0:0:0:
64,192,173754,1,0,0:0:0:0:
192,192,173754,1,0,0:0:0:0:
448,192,173809,1,0,0:0:0:0:
64,192,173865,1,0,0:0:0:0:
320,192,173865,1,0,0:0:0:0:
192,192,173920,1,0,0:0:0:0:
448,192,173920,1,0,0:0:0:0:
64,192,173975,1,0,0:0:0:0:
320,192,173975,1,0,0:0:0:0:
192,192,174030,1,0,0:0:0:0:
320,192,174086,1,0,0:0:0:0:
448,192,174086,1,0,0:0:0:0:
64,192,174141,1,0,0:0:0:0:
192,192,174141,1,0,0:0:0:0:
320,192,174196,1,0,0:0:0:0:
448,192,174196,1,0,0:0:0:0:
64,192,174251,1,0,0:0:0:0:
192,192,174307,1,0,0:0:0:0:
448,192,174307,1,0,0:0:0:0:
64,192,174362,1,0,0:0:0:0:
320,192,174362,1,0,0:0:0:0:
192,192,174417,1,0,0:0:0:0:
64,192,174472,1,0,0:0:0:0:
320,192,174472,1,0,0:0:0:0:
448,192,174528,1,0,0:0:0:0:
64,192,174583,1,0,0:0:0:0:
320,192,174583,1,0,0:0:0:0:
192,192,174638,1,0,0:0:0:0:
448,192,174638,1,0,0:0:0:0:
320,192,174693,1,0,0:0:0:0:
64,192,174749,1,0,0:0:0:0:
192,192,174749,1,0,0:0:0:0:
448,192,174804,1,0,0:0:0:0:
64,192,174859,1,0,0:0:0:0:
320,192,174859,1,0,0:0:0:0:
192,192,174914,1,0,0:0:0:0:
320,192,174970,1,0,0:0:0:0:
448,192,174970,1,0,0:0:0:0:
64,192,175025,1,0,0:0:0:0:
192,192,175080,1,0,0:0:0:0:
448,192,175080,1,0,0:0:0:0:
320,192,175135,1,0,0:0:0:0:
64,192,175191,1,0,0:0:0:0:
192,192,175191,1,0,0:0:0:0:
320,192,175246,1,0,0:0:0:0:
448,192,175246,1,0,0:0:0:0:
64,192,175301,1,0,0:0:0:0:
192,192,175301,1,0,0:0:0:0:
448,192,175356,1,0,0:0:0:0:
64,192,175412,1,0,0:0:0:0:
320,192,175412,1,0,0:0:0:0:
192,192,175467,1,0,0:0:0:0:
320,192,175522,1,0,0:0:0:0:
448,192,175522,1,0,0:0:0:0:
192,192,175577,1,0,0:0:0:0:
320,192,175633,1,0,0:0:0:0:
448,192,175633,1,0,0:0:0:0:
64,192,175688,1,0,0:0:0:0:
192,192,175688,1,0,0:0:0:0:
320,192,175743,1,0,0:0:0:0:
448,192,175743,1,0,0:0:0:0:
64,192,175798,1,0,0:0:0:0:
192,192,175854,1,0,0:0:0:0:
448,192,175854,1,0,0:0:0:0:
64,192,175909,1,0,0:0:0:0:
320,192,175909,1,0,0:0:0:0:
192,192,175964,1,0,0:0:0:0:
448,192,175964,1,0,0:0:0:0:
320,192,176019,1,0,0:0:0:0:
64,192,176075,1,0,0:0:0:0:
192,192,176075,1,0,0:0:0:0:
448,192,176130,1,0,0:0:0:0:
64,192,176185,1,0,0:0:0:0:
192,192,176185,1,0,0:0:0:0:
320,192,176240,1,0,0:0:0:0:
448,192,176240,1,0,0:0:0:0:
64,192,176296,1,0,0:0:0:0:
320,192,176351,1,0,0:0:0:0:
448,192,176351,1,0,0:0:0:0:
64,192,176406,1,0,0:0:0:0:
192,192,176406,1,0,0:0:0:0:
320,192,176461,1,0,0:0:0:0:
448,192,176461,1,0,0:0:0:0:
64,192,176517,1,0,0:0:0:0:
192,192,176517,1,0,0:0:0:0:
320,192,176572,1,0,0:0:0:0:
64,192,176627,1,0,0:0:0:0:
192,192,176627,1,0,0:0:0:0:
448,192,176682,1,0,0:0:0:0:
192,192,176738,1,0,0:0:0:0:
320,192,176738,1,0,0:0:0:0:
64,192,176793,1,0,0:0:0:0:
448,192,176793,1,0,0:0:0:0:
320,192,176848,1,0,0:0:0:0:
64,192,176903,1,0,0:0:0:0:
192,192,176903,1,0,0:0:0:0:
320,192,176959,1,0,0:0:0:0:
448,192,176959,1,0,0:0:0:0:
64,192,177014,1,0,0:0:0:0:
192,192,177014,1,0,0:0:0:0:
320,192,177069,1,0,0:0:0:0:
448,192,177069,1,0,0:0:0:0:
64,192,177124,1,0,0:0:0:0:
192,192,177180,1,0,0:0:0:0:
320,192,177180,1,0,0:0:0:0:
448,192,177180,1,0,0:0:0:0:
64,192,177235,1,0,0:0:0:0:
192,192,177290,1,0,0:0:0:0:
448,192,177290,1,0,0:0:0:0:
320,192,177345,1,0,0:0:0:0:
64,192,177401,1,0,0:0:0:0:
192,192,177401,1,0,0:0:0:0:
448,192,177401,1,0,0:0:0:0:
320,192,177456,1,0,0:0:0:0:
64,192,177511,1,0,0:0:0:0:
192,192,177511,1,0,0:0:0:0:
448,192,177566,1,0,0:0:0:0:
192,192,177622,1,0,0:0:0:0:
320,192,177622,1,0,0:0:0:0:
64,192,177677,1,0,0:0:0:0:
320,192,177732,1,0,0:0:0:0:
448,192,177732,1,0,0:0:0:0:
192,192,177787,1,0,0:0:0:0:
64,192,177843,1,0,0:0:0:0:
320,192,177843,1,0,0:0:0:0:
448,192,177843,1,0,0:0:0:0:
192,192,177898,1,0,0:0:0:0:
320,192,177953,1,0,0:0:0:0:
448,192,177953,1,0,0:0:0:0:
64,192,178008,1,0,0:0:0:0:
192,192,178064,1,0,0:0:0:0:
320,192,178064,1,0,0:0:0:0:
448,192,178119,1,0,0:0:0:0:
64,192,178174,1,0,0:0:0:0:
192,192,178174,1,0,0:0:0:0:
448,192,178229,1,0,0:0:0:0:
64,192,178285,1,0,0:0:0:0:
192,192,178285,1,0,0:0:0:0:
320,192,178285,1,0,0:0:0:0:
448,192,178340,1,0,0:0:0:0:
64,192,178395,1,0,0:0:0:0:
320,192,178395,1,0,0:0:0:0:
192,192,178450,1,0,0:0:0:0:
320,192,178506,1,0,0:0:0:0:
448,192,178506,1,0,0:0:0:0:
64,192,178561,1,0,0:0:0:0:
192,192,178616,1,0,0:0:0:0:
448,192,178616,1,0,0:0:0:0:
64,192,178671,1,0,0:0:0:0:
320,192,178671,1,0,0:0:0:0:
192,192,178727,1,0,0:0:0:0:
448,192,178727,1,0,0:0:0:0:
320,192,178782,1,0,0:0:0:0:
64,192,178837,1,0,0:0:0:0:
192,192,178837,1,0,0:0:0:0:
448,192,178892,1,0,0:0:0:0:
64,192,178948,1,0,0:0:0:0:
320,192,178948,1,0,0:0:0:0:
448,192,179003,1,0,0:0:0:0:
64,192,179058,1,0,0:0:0:0:
192,192,179058,1,0,0:0:0:0:
320,192,179113,1,0,0:0:0:0:
64,192,179169,1,0,0:0:0:0:
192,192,179169,1,0,0:0:0:0:
448,192,179169,1,0,0:0:0:0:
320,192,179224,1,0,0:0:0:0:
192,192,179279,1,0,0:0:0:0:
64,192,179390,1,0,0:0:0:0:
320,192,179390,1,0,0:0:0:0:
192,192,179445,1,0,0:0:0:0:
320,192,179500,1,0,0:0:0:0:
64,192,179611,1,0,0:0:0:0:
192,192,179611,1,0,0:0:0:0:
192,192,179721,1,0,0:0:0:0:
320,192,179776,1,0,0:0:0:0:
64,192,179832,1,0,0:0:0:0:
192,192,179887,1,0,0:0:0:0:
192,192,179997,1,0,0:0:0:0:
320,192,180053,1,0,0:0:0:0:
448,192,180053,1,0,0:0:0:0:
320,192,180163,1,0,0:0:0:0:
192,192,180274,1,0,0:0:0:0:
448,192,180274,1,0,0:0:0:0:
320,192,180329,1,0,0:0:0:0:
64,192,180440,1,0,0:0:0:0:
192,192,180495,1,0,0:0:0:0:
320,192,180495,1,0,0:0:0:0:
448,192,180550,1,0,0:0:0:0:
64,192,180605,1,0,0:0:0:0:
192,192,180716,1,0,0:0:0:0:
448,192,180716,1,0,0:0:0:0:
320,192,180826,1,0,0:0:0:0:
192,192,180937,1,0,0:0:0:0:
448,192,180937,1,0,0:0:0:0:
320,192,180992,1,0,0:0:0:0:
192,192,181047,1,0,0:0:0:0:
64,192,181158,1,0,0:0:0:0:
320,192,181158,1,0,0:0:0:0:
192,192,181213,1,0,0:0:0:0:
320,192,181268,1,0,0:0:0:0:
64,192,181379,1,0,0:0:0:0:
192,192,181379,1,0,0:0:0:0:
448,192,181434,1,0,0:0:0:0:
448,192,181545,1,0,0:0:0:0:
64,192,181600,1,0,0:0:0:0:
320,192,181600,1,0,0:0:0:0:
448,192,181655,1,0,0:0:0:0:
192,192,181710,1,0,0:0:0:0:
320,192,181766,1,0,0:0:0:0:
64,192,181821,1,0,0:0:0:0:
192,192,181821,1,0,0:0:0:0:
320,192,181931,1,0,0:0:0:0:
64,192,182042,1,0,0:0:0:0:
320,192,182042,1,0,0:0:0:0:
192,192,182152,1,0,0:0:0:0:
320,192,182208,1,0,0:0:0:0:
192,192,182263,1,0,0:0:0:0:
448,192,182263,1,0,0:0:0:0:
64,192,182318,1,0,0:0:0:0:
320,192,182318,1,0,0:0:0:0:
192,192,182373,1,0,0:0:0:0:
448,192,182373,1,0,0:0:0:0:
64,192,182484,1,0,0:0:0:0:
192,192,182484,1,0,0:0:0:0:
320,192,182594,1,0,0:0:0:0:
64,192,182705,1,0,0:0:0:0:
320,192,182705,1,0,0:0:0:0:
192,192,182760,1,0,0:0:0:0:
320,192,182815,1,0,0:0:0:0:
192,192,182926,1,0,0:0:0:0:
448,192,182926,1,0,0:0:0:0:
320,192,182981,1,0,0:0:0:0:
192,192,183036,1,0,0:0:0:0:
320,192,183147,1,0,0:0:0:0:
448,192,183147,1,0,0:0:0:0:
320,192,183257,1,0,0:0:0:0:
192,192,183313,1,0,0:0:0:0:
448,192,183368,1,0,0:0:0:0:
320,192,183423,1,0,0:0:0:0:
320,192,183534,1,0,0:0:0:0:
64,192,183589,1,0,0:0:0:0:
192,192,183589,1,0,0:0:0:0:
192,192,183699,1,0,0:0:0:0:
64,192,183810,1,0,0:0:0:0:
320,192,183810,1,0,0:0:0:0:
192,192,183865,1,0,0:0:0:0:
448,192,183976,1,0,0:0:0:0:
192,192,184031,1,0,0:0:0:0:
320,192,184031,1,0,0:0:0:0:
64,192,184086,1,0,0:0:0:0:
448,192,184141,1,0,0:0:0:0:
64,192,184252,1,0,0:0:0:0:
320,192,184252,1,0,0:0:0:0:
192,192,184362,1,0,0:0:0:0:
64,192,184473,1,0,0:0:0:0:
320,192,184473,1,0,0:0:0:0:
192,192,184528,1,0,0:0:0:0:
320,192,184583,1,0,0:0:0:0:
192,192,184694,1,0,0:0:0:0:
448,192,184694,1,0,0:0:0:0:
320,192,184749,1,0,0:0:0:0:
192,192,184804,1,0,0:0:0:0:
320,192,184915,1,0,0:0:0:0:
448,192,184915,1,0,0:0:0:0:
64,192,184970,1,0,0:0:0:0:
64,192,185081,1,0,0:0:0:0:
192,192,185136,1,0,0:0:0:0:
448,192,185136,1,0,0:0:0:0:
64,192,185191,1,0,0:0:0:0:
320,192,185246,1,0,0:0:0:0:
192,192,185302,1,0,0:0:0:0:
320,192,185357,1,0,0:0:0:0:
448,192,185357,1,0,0:0:0:0:
192,192,185467,1,0,0:0:0:0:
192,192,185578,1,0,0:0:0:0:
448,192,185578,1,0,0:0:0:0:
320,192,185688,1,0,0:0:0:0:
192,192,185744,128,0,186020:0:0:0:0:
448,192,185799,1,0,0:0:0:0:
64,192,185909,1,0,0:0:0:0:
320,192,186020,1,0,0:0:0:0:
448,192,186020,1,0,0:0:0:0:
64,192,186075,1,0,0:0:0:0:
448,192,186130,1,0,0:0:0:0:
64,192,186186,1,0,0:0:0:0:
192,192,186241,1,0,0:0:0:0:
320,192,186241,1,0,0:0:0:0:
448,192,186241,1,0,0:0:0:0:
64,192,186296,1,0,0:0:0:0:
192,192,186351,1,0,0:0:0:0:
64,192,186462,1,0,0:0:0:0:
320,192,186462,1,0,0:0:0:0:
448,192,186517,1,0,0:0:0:0:
320,192,186545,1,0,0:0:0:0:
64,192,186661,1,0,0:0:0:0:
192,192,186661,1,0,0:0:0:0:
192,192,186777,1,0,0:0:0:0:
320,192,186836,1,0,0:0:0:0:
64,192,186894,1,0,0:0:0:0:
192,192,186952,1,0,0:0:0:0:
192,192,187069,1,0,0:0:0:0:
320,192,187127,1,0,0:0:0:0:
448,192,187127,1,0,0:0:0:0:
320,192,187244,1,0,0:0:0:0:
192,192,187363,1,0,0:0:0:0:
448,192,187363,1,0,0:0:0:0:
320,192,187423,1,0,0:0:0:0:
64,192,187543,1,0,0:0:0:0:
192,192,187603,1,0,0:0:0:0:
320,192,187603,1,0,0:0:0:0:
448,192,187662,1,0,0:0:0:0:
64,192,187723,1,0,0:0:0:0:
192,192,187846,1,0,0:0:0:0:
448,192,187846,1,0,0:0:0:0:
320,192,187969,1,0,0:0:0:0:
192,192,188092,1,0,0:0:0:0:
448,192,188092,1,0,0:0:0:0:
320,192,188154,1,0,0:0:0:0:
192,192,188215,1,0,0:0:0:0:
64,192,188342,1,0,0:0:0:0:
320,192,188342,1,0,0:0:0:0:
192,192,188406,1,0,0:0:0:0:
320,192,188470,1,0,0:0:0:0:
64,192,188597,1,0,0:0:0:0:
192,192,188597,1,0,0:0:0:0:
448,192,188661,1,0,0:0:0:0:
448,192,188792,1,0,0:0:0:0:
64,192,188858,1,0,0:0:0:0:
320,192,188858,1,0,0:0:0:0:
448,192,188924,1,0,0:0:0:0:
192,192,188990,1,0,0:0:0:0:
320,192,189056,1,0,0:0:0:0:
64,192,189122,1,0,0:0:0:0:
192,192,189122,1,0,0:0:0:0:
320,192,189255,1,0,0:0:0:0:
64,192,189392,1,0,0:0:0:0:
320,192,189392,1,0,0:0:0:0:
192,192,189530,1,0,0:0:0:0:
320,192,189596,1,0,0:0:0:0:
192,192,189663,1,0,0:0:0:0:
448,192,189663,1,0,0:0:0:0:
64,192,189730,1,0,0:0:0:0:
320,192,189730,1,0,0:0:0:0:
192,192,189797,1,0,0:0:0:0:
448,192,189797,1,0,0:0:0:0:
64,192,189931,1,0,0:0:0:0:
192,192,189931,1,0,0:0:0:0:
320,192,190070,1,0,0:0:0:0:
192,192,190217,1,0,0:0:0:0:
448,192,190217,1,0,0:0:0:0:
320,192,190291,1,0,0:0:0:0:
192,192,190365,1,0,0:0:0:0:
64,192,190507,1,0,0:0:0:0:
320,192,190507,1,0,0:0:0:0:
192,192,190579,1,0,0:0:0:0:
320,192,190651,1,0,0:0:0:0:
64,192,190798,1,0,0:0:0:0:
192,192,190798,1,0,0:0:0:0:
192,192,190946,1,0,0:0:0:0:
320,192,191020,1,0,0:0:0:0:
64,192,191094,1,0,0:0:0:0:
192,192,191168,1,0,0:0:0:0:
192,192,191318,1,0,0:0:0:0:
320,192,191395,1,0,0:0:0:0:
448,192,191395,1,0,0:0:0:0:
320,192,191548,1,0,0:0:0:0:
192,192,191701,1,0,0:0:0:0:
448,192,191701,1,0,0:0:0:0:
320,192,191780,1,0,0:0:0:0:
64,192,191939,1,0,0:0:0:0:
192,192,192018,1,0,0:0:0:0:
320,192,192018,1,0,0:0:0:0:
448,192,192097,1,0,0:0:0:0:
64,192,192177,1,0,0:0:0:0:
192,192,192341,1,0,0:0:0:0:
448,192,192341,1,0,0:0:0:0:
320,192,192506,1,0,0:0:0:0:
192,192,192671,1,0,0:0:0:0:
448,192,192671,1,0,0:0:0:0:
320,192,192753,1,0,0:0:0:0:
192,192,192837,1,0,0:0:0:0:
64,192,193004,1,0,0:0:0:0:
320,192,193004,1,0,0:0:0:0:
192,192,193089,1,0,0:0:0:0:
320,192,193175,1,0,0:0:0:0:
64,192,193347,1,0,0:0:0:0:
192,192,193347,1,0,0:0:0:0:
448,192,193434,1,0,0:0:0:0:
448,192,193610,1,0,0:0:0:0:
64,192,193698,1,0,0:0:0:0:
320,192,193698,1,0,0:0:0:0:
448,192,193786,1,0,0:0:0:0:
192,192,193874,1,0,0:0:0:0:
320,192,193963,1,0,0:0:0:0:
64,192,194052,1,0,0:0:0:0:
192,192,194052,1,0,0:0:0:0:
320,192,194233,1,0,0:0:0:0:
64,192,194415,1,0,0:0:0:0:
320,192,194415,1,0,0:0:0:0:
192,192,194601,1,0,0:0:0:0:
64,192,194694,1,0,0:0:0:0:
320,192,194694,128,0,195080:0:0:0:0:
448,192,194788,1,0,0:0:0:0:
192,192,194982,1,0,0:0:0:0:
448,192,195177,1,0,0:0:0:0:
64,192,195372,128,0,195567:0:0:0:0:
