osu file format v14

[General]
AudioFilename: audio 1.300x.mp3
AudioLeadIn: 0
PreviewTime: 90834
Countdown: 0
SampleSet: Normal
StackLeniency: 0.8
Mode: 3
LetterboxInBreaks: 0
SpecialStyle: 1
WidescreenStoryboard: 0

[Editor]
DistanceSpacing: 0.8
BeatDivisor: 4
GridSize: 32
TimelineZoom: 1.5

[Metadata]
Title:TENDER KISS
TitleUnicode:TENDER KISS
Artist:Spy47
ArtistUnicode:Spy47
Creator:Herkkupala
Version:Tender Treat 1.3x
Source:Ticket To Sweetland
Tags:nursery rhyme ナーサリィ☆ライム ave;new feat.佐倉紗織 true my heart j core happy hardcore remix arrange osutrainer
BeatmapID:2847131
BeatmapSetID:859429

[Difficulty]
HPDrainRate:8.5
CircleSize:4
OverallDifficulty:8.5
ApproachRate:5
SliderMultiplier:1.4
SliderTickRate:1

[Events]
//Background and Video events
0,0,"bg.png",0,0
//Break Periods
//Storyboard Layer 0 (Background)
//Storyboard Layer 1 (Fail)
//Storyboard Layer 2 (Pass)
//Storyboard Layer 3 (Foreground)
//Storyboard Layer 4 (Overlay)
//Storyboard Sound Samples

[TimingPoints]
153,238.008251538462,4,1,0,25,1,0
153,-100,4,1,0,25,0,0
200895,250.836120769231,4,1,0,25,1,0
200895,-95.2380952380952,4,1,0,25,0,0
201647,257.842716153846,4,1,0,25,1,0
201647,-92.5925925925926,4,1,0,25,0,0
202163,265.251989230769,4,1,0,25,1,0
202163,-90.0900900900901,4,1,0,25,0,0
202693,274.725274615385,4,1,0,25,1,0
202693,-86.9565217391304,4,1,0,25,0,0
203243,284.900284615385,4,1,0,25,1,0
203243,-83.3333333333333,4,1,0,25,0,0
203813,295.857988461538,4,1,0,25,1,0
203813,-80.6451612903226,4,1,0,25,0,0
204109,288.461538461538,4,1,0,25,1,0
204109,-82.6446280991736,4,1,0,25,0,0
204541,297.766749230769,4,1,0,25,1,0
204541,-80,4,1,0,25,0,0
204690,318.302386923077,4,1,0,25,1,0
204690,-74.6268656716418,4,1,0,25,0,0
205009,307.692307692308,4,1,0,25,1,0
205009,-77.5193798449612,4,1,0,25,0,0
205316,318.302386923077,4,1,0,25,1,0
205316,-74.6268656716418,4,1,0,25,0,0
205953,329.67033,4,1,0,25,1,0
205953,-71.9424460431655,4,1,0,25,0,0
206447,341.880341538462,4,1,0,25,1,0
206447,-69.4444444444444,4,1,0,25,0,0
206960,355.029586153846,4,1,0,25,1,0
206960,-67.1140939597315,4,1,0,25,0,0
207670,360.576923076923,4,1,0,25,1,0
207670,-65.7894736842105,4,1,0,25,0,0
207850,369.230769230769,4,1,0,25,1,0
207850,-64.5161290322581,4,1,0,25,0,0
208220,378.310214615385,4,1,0,25,1,0
208220,-62.8930817610063,4,1,0,25,0,0
208787,384.615384615385,4,1,0,25,1,0
208787,-61.7283950617284,4,1,0,25,0,0
208980,391.134289230769,4,1,0,25,1,0
208980,-60.9756097560976,4,1,0,25,0,0
209370,401.337792307692,4,1,0,25,1,0
209370,-59.1715976331361,4,1,0,25,0,0
209772,419.580419230769,4,1,0,25,1,0
209772,-56.8181818181818,4,1,0,25,0,0

[HitObjects]
64,192,1581,5,0,0:0:0:0:
448,192,1581,1,0,0:0:0:0:
192,192,1819,1,0,0:0:0:0:
448,192,1878,1,0,0:0:0:0:
192,192,1938,1,0,0:0:0:0:
320,192,1997,1,0,0:0:0:0:
64,192,2057,1,0,0:0:0:0:
320,192,2116,1,0,0:0:0:0:
64,192,2176,1,0,0:0:0:0:
192,192,2176,1,0,0:0:0:0:
320,192,2235,1,0,0:0:0:0:
448,192,2235,1,0,0:0:0:0:
64,192,2295,1,0,0:0:0:0:
192,192,2295,1,0,0:0:0:0:
448,192,2354,1,0,0:0:0:0:
448,192,2414,1,0,0:0:0:0:
64,192,2473,1,0,0:0:0:0:
192,192,2473,1,0,0:0:0:0:
320,192,2533,128,0,2652:0:0:0:0:
448,192,2533,1,0,0:0:0:0:
320,192,2771,128,0,2890:0:0:0:0:
192,192,2949,128,0,3068:0:0:0:0:
64,192,3128,128,0,3247:0:0:0:0:
448,192,3306,128,0,3366:0:0:0:0:
320,192,3425,128,0,3485:0:0:0:0:
64,192,3485,1,0,0:0:0:0:
192,192,3544,1,0,0:0:0:0:
64,192,3604,1,0,0:0:0:0:
320,192,3723,128,0,3842:0:0:0:0:
192,192,3901,128,0,4020:0:0:0:0:
64,192,4080,128,0,4199:0:0:0:0:
448,192,4199,1,0,0:0:0:0:
320,192,4258,1,0,0:0:0:0:
448,192,4318,1,0,0:0:0:0:
320,192,4377,1,0,0:0:0:0:
64,192,4437,1,0,0:0:0:0:
192,192,4437,1,0,0:0:0:0:
320,192,4496,1,0,0:0:0:0:
64,192,4556,1,0,0:0:0:0:
448,192,4615,1,0,0:0:0:0:
192,192,4675,1,0,0:0:0:0:
320,192,4675,1,0,0:0:0:0:
64,192,4734,1,0,0:0:0:0:
448,192,4794,1,0,0:0:0:0:
64,192,4853,1,0,0:0:0:0:
192,192,4853,1,0,0:0:0:0:
320,192,4913,1,0,0:0:0:0:
192,192,4972,1,0,0:0:0:0:
320,192,5032,1,0,0:0:0:0:
448,192,5032,1,0,0:0:0:0:
64,192,5091,1,0,0:0:0:0:
448,192,5151,1,0,0:0:0:0:
192,192,5210,1,0,0:0:0:0:
320,192,5210,1,0,0:0:0:0:
64,192,5270,1,0,0:0:0:0:
192,192,5329,1,0,0:0:0:0:
448,192,5329,1,0,0:0:0:0:
320,192,5389,1,0,0:0:0:0:
448,192,5448,1,0,0:0:0:0:
320,192,5508,1,0,0:0:0:0:
64,192,5567,1,0,0:0:0:0:
192,192,5627,1,0,0:0:0:0:
320,192,5627,1,0,0:0:0:0:
448,192,5686,1,0,0:0:0:0:
64,192,5746,1,0,0:0:0:0:
320,192,5805,1,0,0:0:0:0:
448,192,5805,1,0,0:0:0:0:
192,192,5865,1,0,0:0:0:0:
320,192,5924,1,0,0:0:0:0:
64,192,5984,1,0,0:0:0:0:
192,192,5984,1,0,0:0:0:0:
448,192,6043,1,0,0:0:0:0:
64,192,6103,1,0,0:0:0:0:
192,192,6103,1,0,0:0:0:0:
320,192,6103,1,0,0:0:0:0:
64,192,6341,1,0,0:0:0:0:
192,192,6341,1,0,0:0:0:0:
320,192,6400,1,0,0:0:0:0:
448,192,6400,1,0,0:0:0:0:
192,192,6460,1,0,0:0:0:0:
448,192,6519,1,0,0:0:0:0:
64,192,6579,1,0,0:0:0:0:
320,192,6579,1,0,0:0:0:0:
192,192,6638,1,0,0:0:0:0:
320,192,6698,1,0,0:0:0:0:
192,192,6757,1,0,0:0:0:0:
448,192,6757,1,0,0:0:0:0:
64,192,6817,1,0,0:0:0:0:
320,192,6876,1,0,0:0:0:0:
64,192,6936,1,0,0:0:0:0:
192,192,6936,1,0,0:0:0:0:
448,192,6995,1,0,0:0:0:0:
192,192,7055,1,0,0:0:0:0:
320,192,7055,1,0,0:0:0:0:
64,192,7114,1,0,0:0:0:0:
320,192,7174,1,0,0:0:0:0:
448,192,7174,1,0,0:0:0:0:
192,192,7233,1,0,0:0:0:0:
64,192,7293,1,0,0:0:0:0:
448,192,7293,1,0,0:0:0:0:
320,192,7352,1,0,0:0:0:0:
448,192,7412,1,0,0:0:0:0:
320,192,7471,1,0,0:0:0:0:
64,192,7531,1,0,0:0:0:0:
192,192,7531,1,0,0:0:0:0:
448,192,7590,1,0,0:0:0:0:
192,192,7650,1,0,0:0:0:0:
320,192,7709,1,0,0:0:0:0:
448,192,7709,1,0,0:0:0:0:
64,192,7769,1,0,0:0:0:0:
320,192,7828,1,0,0:0:0:0:
64,192,7888,1,0,0:0:0:0:
192,192,7888,1,0,0:0:0:0:
448,192,7947,1,0,0:0:0:0:
320,192,8007,1,0,0:0:0:0:
192,192,8066,1,0,0:0:0:0:
320,192,8126,1,0,0:0:0:0:
192,192,8185,1,0,0:0:0:0:
320,192,8245,1,0,0:0:0:0:
448,192,8245,1,0,0:0:0:0:
64,192,8304,1,0,0:0:0:0:
192,192,8304,1,0,0:0:0:0:
320,192,8364,1,0,0:0:0:0:
64,192,8423,1,0,0:0:0:0:
192,192,8483,1,0,0:0:0:0:
448,192,8483,1,0,0:0:0:0:
320,192,8542,1,0,0:0:0:0:
192,192,8602,1,0,0:0:0:0:
64,192,8661,1,0,0:0:0:0:
320,192,8661,1,0,0:0:0:0:
448,192,8721,1,0,0:0:0:0:
192,192,8780,1,0,0:0:0:0:
320,192,8840,1,0,0:0:0:0:
448,192,8840,1,0,0:0:0:0:
64,192,8899,1,0,0:0:0:0:
192,192,8959,1,0,0:0:0:0:
320,192,8959,1,0,0:0:0:0:
448,192,9018,1,0,0:0:0:0:
64,192,9078,1,0,0:0:0:0:
192,192,9078,1,0,0:0:0:0:
320,192,9137,1,0,0:0:0:0:
64,192,9197,1,0,0:0:0:0:
448,192,9197,1,0,0:0:0:0:
192,192,9256,1,0,0:0:0:0:
64,192,9316,1,0,0:0:0:0:
192,192,9375,1,0,0:0:0:0:
320,192,9435,1,0,0:0:0:0:
448,192,9435,1,0,0:0:0:0:
192,192,9494,1,0,0:0:0:0:
320,192,9554,1,0,0:0:0:0:
192,192,9613,1,0,0:0:0:0:
448,192,9613,1,0,0:0:0:0:
64,192,9673,1,0,0:0:0:0:
320,192,9732,1,0,0:0:0:0:
64,192,9792,1,0,0:0:0:0:
192,192,9792,1,0,0:0:0:0:
448,192,9851,1,0,0:0:0:0:
64,192,9911,1,0,0:0:0:0:
192,192,9911,1,0,0:0:0:0:
320,192,9970,1,0,0:0:0:0:
448,192,9970,1,0,0:0:0:0:
64,192,10030,1,0,0:0:0:0:
192,192,10030,1,0,0:0:0:0:
320,192,10089,1,0,0:0:0:0:
448,192,10089,1,0,0:0:0:0:
64,192,10149,1,0,0:0:0:0:
192,192,10149,1,0,0:0:0:0:
320,192,10208,1,0,0:0:0:0:
448,192,10208,1,0,0:0:0:0:
192,192,10268,1,0,0:0:0:0:
448,192,10327,1,0,0:0:0:0:
64,192,10387,1,0,0:0:0:0:
320,192,10387,1,0,0:0:0:0:
192,192,10446,1,0,0:0:0:0:
320,192,10506,1,0,0:0:0:0:
192,192,10565,1,0,0:0:0:0:
448,192,10565,1,0,0:0:0:0:
64,192,10625,1,0,0:0:0:0:
320,192,10684,1,0,0:0:0:0:
64,192,10744,1,0,0:0:0:0:
192,192,10744,1,0,0:0:0:0:
448,192,10803,1,0,0:0:0:0:
192,192,10863,1,0,0:0:0:0:
320,192,10863,1,0,0:0:0:0:
64,192,10922,1,0,0:0:0:0:
320,192,10982,1,0,0:0:0:0:
448,192,10982,1,0,0:0:0:0:
192,192,11041,1,0,0:0:0:0:
64,192,11101,1,0,0:0:0:0:
448,192,11101,1,0,0:0:0:0:
320,192,11160,1,0,0:0:0:0:
448,192,11220,1,0,0:0:0:0:
320,192,11279,1,0,0:0:0:0:
64,192,11339,1,0,0:0:0:0:
192,192,11339,1,0,0:0:0:0:
448,192,11398,1,0,0:0:0:0:
192,192,11458,1,0,0:0:0:0:
320,192,11517,1,0,0:0:0:0:
448,192,11517,1,0,0:0:0:0:
64,192,11577,1,0,0:0:0:0:
320,192,11636,1,0,0:0:0:0:
64,192,11696,1,0,0:0:0:0:
192,192,11696,1,0,0:0:0:0:
448,192,11755,1,0,0:0:0:0:
320,192,11815,1,0,0:0:0:0:
192,192,11874,1,0,0:0:0:0:
320,192,11934,1,0,0:0:0:0:
192,192,11993,1,0,0:0:0:0:
320,192,12053,1,0,0:0:0:0:
448,192,12053,1,0,0:0:0:0:
64,192,12112,1,0,0:0:0:0:
192,192,12112,1,0,0:0:0:0:
320,192,12172,1,0,0:0:0:0:
64,192,12231,1,0,0:0:0:0:
192,192,12291,1,0,0:0:0:0:
448,192,12291,1,0,0:0:0:0:
320,192,12350,1,0,0:0:0:0:
192,192,12410,1,0,0:0:0:0:
64,192,12469,1,0,0:0:0:0:
320,192,12469,1,0,0:0:0:0:
448,192,12529,1,0,0:0:0:0:
192,192,12588,1,0,0:0:0:0:
320,192,12648,1,0,0:0:0:0:
448,192,12648,1,0,0:0:0:0:
64,192,12707,1,0,0:0:0:0:
192,192,12767,1,0,0:0:0:0:
320,192,12767,1,0,0:0:0:0:
448,192,12826,1,0,0:0:0:0:
64,192,12886,1,0,0:0:0:0:
192,192,12886,1,0,0:0:0:0:
320,192,12945,1,0,0:0:0:0:
64,192,13005,1,0,0:0:0:0:
448,192,13005,1,0,0:0:0:0:
192,192,13064,1,0,0:0:0:0:
320,192,13124,1,0,0:0:0:0:
448,192,13124,1,0,0:0:0:0:
192,192,13183,1,0,0:0:0:0:
64,192,13243,1,0,0:0:0:0:
448,192,13243,1,0,0:0:0:0:
192,192,13302,1,0,0:0:0:0:
320,192,13362,1,0,0:0:0:0:
448,192,13362,1,0,0:0:0:0:
192,192,13421,1,0,0:0:0:0:
64,192,13481,1,0,0:0:0:0:
448,192,13481,1,0,0:0:0:0:
192,192,13540,1,0,0:0:0:0:
320,192,13540,1,0,0:0:0:0:
64,192,13600,1,0,0:0:0:0:
448,192,13600,1,0,0:0:0:0:
192,192,13659,1,0,0:0:0:0:
320,192,13659,1,0,0:0:0:0:
64,192,13719,1,0,0:0:0:0:
448,192,13719,1,0,0:0:0:0:
320,192,13838,1,0,0:0:0:0:
192,192,13858,1,0,0:0:0:0:
64,192,13957,1,0,0:0:0:0:
320,192,13957,1,0,0:0:0:0:
448,192,13957,1,0,0:0:0:0:
192,192,14016,1,0,0:0:0:0:
320,192,14076,1,0,0:0:0:0:
448,192,14076,1,0,0:0:0:0:
64,192,14135,1,0,0:0:0:0:
192,192,14135,1,0,0:0:0:0:
320,192,14195,1,0,0:0:0:0:
448,192,14195,1,0,0:0:0:0:
192,192,14254,1,0,0:0:0:0:
64,192,14314,1,0,0:0:0:0:
192,192,14373,1,0,0:0:0:0:
448,192,14373,1,0,0:0:0:0:
320,192,14433,1,0,0:0:0:0:
64,192,14492,1,0,0:0:0:0:
192,192,14552,1,0,0:0:0:0:
448,192,14552,1,0,0:0:0:0:
320,192,14612,1,0,0:0:0:0:
192,192,14671,1,0,0:0:0:0:
448,192,14671,1,0,0:0:0:0:
320,192,14731,1,0,0:0:0:0:
64,192,14790,1,0,0:0:0:0:
192,192,14790,1,0,0:0:0:0:
320,192,14850,1,0,0:0:0:0:
448,192,14850,1,0,0:0:0:0:
64,192,14909,1,0,0:0:0:0:
192,192,14909,1,0,0:0:0:0:
448,192,14969,1,0,0:0:0:0:
64,192,15028,1,0,0:0:0:0:
192,192,15088,1,0,0:0:0:0:
320,192,15147,1,0,0:0:0:0:
448,192,15147,1,0,0:0:0:0:
192,192,15207,1,0,0:0:0:0:
64,192,15266,1,0,0:0:0:0:
320,192,15326,1,0,0:0:0:0:
64,192,15385,1,0,0:0:0:0:
192,192,15385,1,0,0:0:0:0:
320,192,15445,1,0,0:0:0:0:
448,192,15445,1,0,0:0:0:0:
64,192,15504,1,0,0:0:0:0:
320,192,15564,1,0,0:0:0:0:
448,192,15564,1,0,0:0:0:0:
64,192,15623,1,0,0:0:0:0:
192,192,15623,1,0,0:0:0:0:
320,192,15683,1,0,0:0:0:0:
192,192,15742,1,0,0:0:0:0:
64,192,15802,1,0,0:0:0:0:
448,192,15802,1,0,0:0:0:0:
192,192,15861,1,0,0:0:0:0:
320,192,15861,1,0,0:0:0:0:
448,192,15921,1,0,0:0:0:0:
64,192,15980,1,0,0:0:0:0:
192,192,15980,1,0,0:0:0:0:
320,192,16040,1,0,0:0:0:0:
64,192,16099,1,0,0:0:0:0:
192,192,16099,1,0,0:0:0:0:
320,192,16159,1,0,0:0:0:0:
448,192,16159,1,0,0:0:0:0:
64,192,16218,1,0,0:0:0:0:
192,192,16278,1,0,0:0:0:0:
448,192,16278,1,0,0:0:0:0:
320,192,16337,1,0,0:0:0:0:
64,192,16397,1,0,0:0:0:0:
192,192,16456,1,0,0:0:0:0:
448,192,16456,1,0,0:0:0:0:
320,192,16516,1,0,0:0:0:0:
192,192,16575,1,0,0:0:0:0:
448,192,16575,1,0,0:0:0:0:
320,192,16635,1,0,0:0:0:0:
64,192,16694,1,0,0:0:0:0:
192,192,16694,1,0,0:0:0:0:
320,192,16754,1,0,0:0:0:0:
448,192,16754,1,0,0:0:0:0:
64,192,16813,1,0,0:0:0:0:
192,192,16813,1,0,0:0:0:0:
448,192,16873,1,0,0:0:0:0:
320,192,16932,1,0,0:0:0:0:
64,192,16992,1,0,0:0:0:0:
192,192,16992,1,0,0:0:0:0:
320,192,17051,1,0,0:0:0:0:
448,192,17051,1,0,0:0:0:0:
192,192,17111,1,0,0:0:0:0:
448,192,17170,1,0,0:0:0:0:
320,192,17230,1,0,0:0:0:0:
64,192,17289,1,0,0:0:0:0:
192,192,17289,1,0,0:0:0:0:
448,192,17349,1,0,0:0:0:0:
64,192,17408,1,0,0:0:0:0:
320,192,17408,1,0,0:0:0:0:
192,192,17468,1,0,0:0:0:0:
320,192,17527,1,0,0:0:0:0:
448,192,17527,1,0,0:0:0:0:
64,192,17587,1,0,0:0:0:0:
192,192,17587,1,0,0:0:0:0:
320,192,17646,1,0,0:0:0:0:
448,192,17646,1,0,0:0:0:0:
64,192,17706,1,0,0:0:0:0:
192,192,17706,1,0,0:0:0:0:
320,192,17765,1,0,0:0:0:0:
448,192,17765,1,0,0:0:0:0:
64,192,17825,1,0,0:0:0:0:
192,192,17884,1,0,0:0:0:0:
448,192,17884,1,0,0:0:0:0:
320,192,17944,1,0,0:0:0:0:
64,192,18003,1,0,0:0:0:0:
192,192,18003,1,0,0:0:0:0:
320,192,18063,1,0,0:0:0:0:
448,192,18063,1,0,0:0:0:0:
64,192,18122,1,0,0:0:0:0:
320,192,18182,1,0,0:0:0:0:
448,192,18182,1,0,0:0:0:0:
64,192,18241,1,0,0:0:0:0:
192,192,18241,1,0,0:0:0:0:
448,192,18301,1,0,0:0:0:0:
64,192,18360,1,0,0:0:0:0:
192,192,18360,1,0,0:0:0:0:
320,192,18420,1,0,0:0:0:0:
64,192,18479,1,0,0:0:0:0:
192,192,18479,1,0,0:0:0:0:
448,192,18539,1,0,0:0:0:0:
64,192,18598,1,0,0:0:0:0:
320,192,18598,1,0,0:0:0:0:
192,192,18658,1,0,0:0:0:0:
448,192,18658,1,0,0:0:0:0:
64,192,18717,1,0,0:0:0:0:
320,192,18717,1,0,0:0:0:0:
192,192,18777,1,0,0:0:0:0:
448,192,18836,1,0,0:0:0:0:
64,192,18896,1,0,0:0:0:0:
192,192,18896,1,0,0:0:0:0:
320,192,18955,1,0,0:0:0:0:
448,192,18955,1,0,0:0:0:0:
64,192,19015,1,0,0:0:0:0:
192,192,19074,1,0,0:0:0:0:
320,192,19134,1,0,0:0:0:0:
448,192,19134,1,0,0:0:0:0:
64,192,19193,1,0,0:0:0:0:
192,192,19193,1,0,0:0:0:0:
320,192,19253,1,0,0:0:0:0:
64,192,19312,1,0,0:0:0:0:
192,192,19312,1,0,0:0:0:0:
448,192,19372,1,0,0:0:0:0:
64,192,19431,1,0,0:0:0:0:
320,192,19431,1,0,0:0:0:0:
192,192,19491,1,0,0:0:0:0:
448,192,19550,1,0,0:0:0:0:
64,192,19610,1,0,0:0:0:0:
320,192,19610,1,0,0:0:0:0:
192,192,19669,1,0,0:0:0:0:
448,192,19669,1,0,0:0:0:0:
64,192,19729,1,0,0:0:0:0:
320,192,19788,1,0,0:0:0:0:
448,192,19788,1,0,0:0:0:0:
192,192,19848,1,0,0:0:0:0:
320,192,19907,1,0,0:0:0:0:
448,192,19907,1,0,0:0:0:0:
64,192,19967,1,0,0:0:0:0:
192,192,19967,1,0,0:0:0:0:
320,192,20026,1,0,0:0:0:0:
64,192,20086,1,0,0:0:0:0:
192,192,20086,1,0,0:0:0:0:
320,192,20145,1,0,0:0:0:0:
448,192,20145,1,0,0:0:0:0:
64,192,20205,1,0,0:0:0:0:
320,192,20264,1,0,0:0:0:0:
448,192,20264,1,0,0:0:0:0:
192,192,20324,1,0,0:0:0:0:
320,192,20383,1,0,0:0:0:0:
448,192,20383,1,0,0:0:0:0:
64,192,20443,1,0,0:0:0:0:
192,192,20502,1,0,0:0:0:0:
448,192,20502,1,0,0:0:0:0:
64,192,20562,1,0,0:0:0:0:
320,192,20562,1,0,0:0:0:0:
192,192,20621,1,0,0:0:0:0:
448,192,20621,1,0,0:0:0:0:
320,192,20681,1,0,0:0:0:0:
64,192,20740,1,0,0:0:0:0:
448,192,20740,1,0,0:0:0:0:
192,192,20800,1,0,0:0:0:0:
64,192,20859,1,0,0:0:0:0:
320,192,20859,1,0,0:0:0:0:
448,192,20919,1,0,0:0:0:0:
192,192,20978,1,0,0:0:0:0:
320,192,20978,1,0,0:0:0:0:
64,192,21038,1,0,0:0:0:0:
320,192,21097,1,0,0:0:0:0:
448,192,21097,1,0,0:0:0:0:
64,192,21157,1,0,0:0:0:0:
192,192,21157,1,0,0:0:0:0:
320,192,21216,1,0,0:0:0:0:
448,192,21216,1,0,0:0:0:0:
64,192,21276,1,0,0:0:0:0:
192,192,21276,1,0,0:0:0:0:
320,192,21335,1,0,0:0:0:0:
448,192,21335,1,0,0:0:0:0:
64,192,21454,1,0,0:0:0:0:
320,192,21474,1,0,0:0:0:0:
64,192,21573,1,0,0:0:0:0:
192,192,21573,1,0,0:0:0:0:
448,192,21573,1,0,0:0:0:0:
320,192,21633,1,0,0:0:0:0:
192,192,21692,1,0,0:0:0:0:
448,192,21692,1,0,0:0:0:0:
64,192,21752,1,0,0:0:0:0:
320,192,21811,1,0,0:0:0:0:
448,192,21811,1,0,0:0:0:0:
192,192,21871,1,0,0:0:0:0:
64,192,21930,1,0,0:0:0:0:
320,192,21990,1,0,0:0:0:0:
448,192,21990,1,0,0:0:0:0:
64,192,22049,1,0,0:0:0:0:
192,192,22049,1,0,0:0:0:0:
448,192,22109,1,0,0:0:0:0:
64,192,22168,1,0,0:0:0:0:
320,192,22168,1,0,0:0:0:0:
192,192,22228,1,0,0:0:0:0:
64,192,22287,1,0,0:0:0:0:
320,192,22287,1,0,0:0:0:0:
192,192,22347,1,0,0:0:0:0:
320,192,22406,1,0,0:0:0:0:
448,192,22406,1,0,0:0:0:0:
64,192,22466,1,0,0:0:0:0:
192,192,22466,1,0,0:0:0:0:
320,192,22525,1,0,0:0:0:0:
448,192,22525,1,0,0:0:0:0:
192,192,22585,1,0,0:0:0:0:
64,192,22644,1,0,0:0:0:0:
320,192,22644,1,0,0:0:0:0:
448,192,22704,1,0,0:0:0:0:
64,192,22763,1,0,0:0:0:0:
192,192,22763,1,0,0:0:0:0:
320,192,22823,1,0,0:0:0:0:
448,192,22823,1,0,0:0:0:0:
64,192,22882,1,0,0:0:0:0:
320,192,22942,1,0,0:0:0:0:
192,192,23001,1,0,0:0:0:0:
448,192,23001,1,0,0:0:0:0:
64,192,23061,1,0,0:0:0:0:
320,192,23061,1,0,0:0:0:0:
192,192,23120,1,0,0:0:0:0:
320,192,23180,1,0,0:0:0:0:
448,192,23180,1,0,0:0:0:0:
64,192,23239,1,0,0:0:0:0:
192,192,23299,1,0,0:0:0:0:
448,192,23299,1,0,0:0:0:0:
320,192,23358,1,0,0:0:0:0:
64,192,23418,1,0,0:0:0:0:
192,192,23418,1,0,0:0:0:0:
320,192,23477,1,0,0:0:0:0:
448,192,23477,1,0,0:0:0:0:
192,192,23537,1,0,0:0:0:0:
64,192,23596,1,0,0:0:0:0:
320,192,23596,1,0,0:0:0:0:
448,192,23656,1,0,0:0:0:0:
64,192,23715,1,0,0:0:0:0:
192,192,23715,1,0,0:0:0:0:
320,192,23775,1,0,0:0:0:0:
448,192,23834,1,0,0:0:0:0:
64,192,23894,1,0,0:0:0:0:
192,192,23894,1,0,0:0:0:0:
320,192,23953,1,0,0:0:0:0:
448,192,23953,1,0,0:0:0:0:
64,192,24013,1,0,0:0:0:0:
192,192,24072,1,0,0:0:0:0:
448,192,24072,1,0,0:0:0:0:
320,192,24132,1,0,0:0:0:0:
192,192,24191,1,0,0:0:0:0:
448,192,24191,1,0,0:0:0:0:
320,192,24251,1,0,0:0:0:0:
64,192,24310,1,0,0:0:0:0:
192,192,24310,1,0,0:0:0:0:
320,192,24370,1,0,0:0:0:0:
448,192,24370,1,0,0:0:0:0:
64,192,24429,1,0,0:0:0:0:
192,192,24429,1,0,0:0:0:0:
320,192,24489,1,0,0:0:0:0:
192,192,24548,1,0,0:0:0:0:
448,192,24548,1,0,0:0:0:0:
64,192,24608,1,0,0:0:0:0:
320,192,24667,1,0,0:0:0:0:
448,192,24667,1,0,0:0:0:0:
64,192,24727,1,0,0:0:0:0:
192,192,24727,1,0,0:0:0:0:
448,192,24786,1,0,0:0:0:0:
192,192,24846,1,0,0:0:0:0:
64,192,24905,1,0,0:0:0:0:
320,192,24905,1,0,0:0:0:0:
192,192,24965,1,0,0:0:0:0:
448,192,24965,1,0,0:0:0:0:
320,192,25024,1,0,0:0:0:0:
64,192,25084,1,0,0:0:0:0:
192,192,25084,1,0,0:0:0:0:
320,192,25143,1,0,0:0:0:0:
448,192,25143,1,0,0:0:0:0:
64,192,25203,1,0,0:0:0:0:
192,192,25203,1,0,0:0:0:0:
320,192,25262,1,0,0:0:0:0:
448,192,25262,1,0,0:0:0:0:
64,192,25322,1,0,0:0:0:0:
192,192,25381,1,0,0:0:0:0:
320,192,25381,1,0,0:0:0:0:
448,192,25381,1,0,0:0:0:0:
64,192,25441,1,0,0:0:0:0:
192,192,25500,1,0,0:0:0:0:
448,192,25500,1,0,0:0:0:0:
320,192,25560,1,0,0:0:0:0:
64,192,25619,1,0,0:0:0:0:
192,192,25619,1,0,0:0:0:0:
448,192,25679,1,0,0:0:0:0:
64,192,25738,1,0,0:0:0:0:
320,192,25798,1,0,0:0:0:0:
448,192,25798,1,0,0:0:0:0:
64,192,25857,1,0,0:0:0:0:
192,192,25857,1,0,0:0:0:0:
448,192,25917,1,0,0:0:0:0:
64,192,25976,1,0,0:0:0:0:
320,192,25976,1,0,0:0:0:0:
192,192,26036,1,0,0:0:0:0:
64,192,26095,1,0,0:0:0:0:
320,192,26095,1,0,0:0:0:0:
192,192,26155,1,0,0:0:0:0:
320,192,26214,1,0,0:0:0:0:
448,192,26214,1,0,0:0:0:0:
64,192,26274,1,0,0:0:0:0:
192,192,26274,1,0,0:0:0:0:
320,192,26333,1,0,0:0:0:0:
448,192,26333,1,0,0:0:0:0:
192,192,26393,1,0,0:0:0:0:
64,192,26452,1,0,0:0:0:0:
320,192,26452,1,0,0:0:0:0:
448,192,26512,1,0,0:0:0:0:
64,192,26571,1,0,0:0:0:0:
192,192,26571,1,0,0:0:0:0:
320,192,26631,1,0,0:0:0:0:
448,192,26631,1,0,0:0:0:0:
64,192,26690,1,0,0:0:0:0:
320,192,26750,1,0,0:0:0:0:
192,192,26809,1,0,0:0:0:0:
448,192,26809,1,0,0:0:0:0:
64,192,26869,1,0,0:0:0:0:
320,192,26869,1,0,0:0:0:0:
192,192,26928,1,0,0:0:0:0:
320,192,26988,1,0,0:0:0:0:
448,192,26988,1,0,0:0:0:0:
64,192,27047,1,0,0:0:0:0:
192,192,27107,1,0,0:0:0:0:
448,192,27107,1,0,0:0:0:0:
320,192,27166,1,0,0:0:0:0:
64,192,27226,1,0,0:0:0:0:
192,192,27226,1,0,0:0:0:0:
320,192,27285,1,0,0:0:0:0:
448,192,27285,1,0,0:0:0:0:
192,192,27345,1,0,0:0:0:0:
64,192,27404,1,0,0:0:0:0:
320,192,27404,1,0,0:0:0:0:
448,192,27464,1,0,0:0:0:0:
64,192,27523,1,0,0:0:0:0:
192,192,27523,1,0,0:0:0:0:
320,192,27583,1,0,0:0:0:0:
448,192,27642,1,0,0:0:0:0:
64,192,27702,1,0,0:0:0:0:
192,192,27702,1,0,0:0:0:0:
320,192,27761,1,0,0:0:0:0:
448,192,27761,1,0,0:0:0:0:
64,192,27821,1,0,0:0:0:0:
192,192,27880,1,0,0:0:0:0:
448,192,27880,1,0,0:0:0:0:
320,192,27940,1,0,0:0:0:0:
192,192,27999,1,0,0:0:0:0:
448,192,27999,1,0,0:0:0:0:
320,192,28059,1,0,0:0:0:0:
64,192,28118,1,0,0:0:0:0:
192,192,28118,1,0,0:0:0:0:
320,192,28178,1,0,0:0:0:0:
448,192,28178,1,0,0:0:0:0:
64,192,28237,1,0,0:0:0:0:
192,192,28237,1,0,0:0:0:0:
320,192,28297,1,0,0:0:0:0:
192,192,28356,1,0,0:0:0:0:
448,192,28356,1,0,0:0:0:0:
64,192,28416,1,0,0:0:0:0:
320,192,28475,1,0,0:0:0:0:
448,192,28475,1,0,0:0:0:0:
64,192,28535,1,0,0:0:0:0:
192,192,28594,1,0,0:0:0:0:
448,192,28594,1,0,0:0:0:0:
320,192,28654,1,0,0:0:0:0:
64,192,28713,1,0,0:0:0:0:
192,192,28713,1,0,0:0:0:0:
320,192,28773,1,0,0:0:0:0:
448,192,28773,1,0,0:0:0:0:
64,192,28832,1,0,0:0:0:0:
192,192,28832,1,0,0:0:0:0:
320,192,28892,1,0,0:0:0:0:
448,192,28892,1,0,0:0:0:0:
64,192,28951,1,0,0:0:0:0:
192,192,28951,1,0,0:0:0:0:
320,192,29071,1,0,0:0:0:0:
192,192,29090,1,0,0:0:0:0:
64,192,29190,1,0,0:0:0:0:
320,192,29190,128,0,29309:0:0:0:0:
192,192,29309,1,0,0:0:0:0:
320,192,29428,128,0,29547:0:0:0:0:
192,192,29547,1,0,0:0:0:0:
320,192,29666,128,0,29725:0:0:0:0:
192,192,29785,128,0,29844:0:0:0:0:
64,192,29904,128,0,29963:0:0:0:0:
192,192,30023,128,0,30142:0:0:0:0:
448,192,30142,1,0,0:0:0:0:
64,192,30261,128,0,30320:0:0:0:0:
192,192,30380,128,0,30439:0:0:0:0:
320,192,30499,128,0,30558:0:0:0:0:
448,192,30618,128,0,30677:0:0:0:0:
448,192,30737,1,0,0:0:0:0:
320,192,30856,128,0,30975:0:0:0:0:
192,192,30975,1,0,0:0:0:0:
64,192,31094,128,0,31213:0:0:0:0:
320,192,31213,1,0,0:0:0:0:
64,192,31332,128,0,31391:0:0:0:0:
192,192,31451,128,0,31510:0:0:0:0:
320,192,31570,128,0,31689:0:0:0:0:
64,192,31689,1,0,0:0:0:0:
448,192,31808,128,0,31867:0:0:0:0:
192,192,31927,128,0,32165:0:0:0:0:
320,192,32165,128,0,32284:0:0:0:0:
448,192,32284,1,0,0:0:0:0:
192,192,32403,128,0,32462:0:0:0:0:
64,192,32522,128,0,32581:0:0:0:0:
192,192,32641,128,0,32700:0:0:0:0:
448,192,32760,128,0,32819:0:0:0:0:
64,192,32879,128,0,32938:0:0:0:0:
448,192,32998,128,0,33117:0:0:0:0:
192,192,33117,1,0,0:0:0:0:
320,192,33236,128,0,33355:0:0:0:0:
64,192,33355,1,0,0:0:0:0:
192,192,33474,128,0,33593:0:0:0:0:
448,192,33593,1,0,0:0:0:0:
64,192,33712,128,0,33771:0:0:0:0:
448,192,33831,1,0,0:0:0:0:
192,192,33890,1,0,0:0:0:0:
64,192,33950,128,0,34009:0:0:0:0:
192,192,34069,128,0,34128:0:0:0:0:
448,192,34069,1,0,0:0:0:0:
320,192,34188,128,0,34247:0:0:0:0:
64,192,34307,1,0,0:0:0:0:
448,192,34307,128,0,34426:0:0:0:0:
192,192,34545,128,0,34664:0:0:0:0:
320,192,34545,128,0,34604:0:0:0:0:
320,192,34783,1,0,0:0:0:0:
192,192,34902,128,0,34961:0:0:0:0:
64,192,35021,128,0,35080:0:0:0:0:
448,192,35021,1,0,0:0:0:0:
320,192,35140,128,0,35199:0:0:0:0:
192,192,35259,1,0,0:0:0:0:
448,192,35259,128,0,35318:0:0:0:0:
64,192,35378,1,0,0:0:0:0:
320,192,35497,128,0,35556:0:0:0:0:
64,192,35556,1,0,0:0:0:0:
64,192,35675,1,0,0:0:0:0:
320,192,35735,128,0,35854:0:0:0:0:
448,192,35854,1,0,0:0:0:0:
192,192,35913,1,0,0:0:0:0:
320,192,35973,1,0,0:0:0:0:
192,192,36032,1,0,0:0:0:0:
64,192,36092,1,0,0:0:0:0:
320,192,36151,1,0,0:0:0:0:
64,192,36211,1,0,0:0:0:0:
192,192,36211,1,0,0:0:0:0:
320,192,36270,1,0,0:0:0:0:
448,192,36270,1,0,0:0:0:0:
64,192,36330,1,0,0:0:0:0:
192,192,36330,1,0,0:0:0:0:
320,192,36389,1,0,0:0:0:0:
448,192,36389,1,0,0:0:0:0:
64,192,36449,1,0,0:0:0:0:
192,192,36449,1,0,0:0:0:0:
320,192,36508,1,0,0:0:0:0:
448,192,36508,1,0,0:0:0:0:
64,192,36568,1,0,0:0:0:0:
192,192,36598,1,0,0:0:0:0:
320,192,36627,1,0,0:0:0:0:
448,192,36657,1,0,0:0:0:0:
64,192,36687,1,0,0:0:0:0:
192,192,36717,1,0,0:0:0:0:
320,192,36746,1,0,0:0:0:0:
448,192,36776,1,0,0:0:0:0:
64,192,36806,1,0,0:0:0:0:
192,192,36806,1,0,0:0:0:0:
320,192,36925,1,0,0:0:0:0:
448,192,36925,1,0,0:0:0:0:
64,192,37044,1,0,0:0:0:0:
320,192,37044,1,0,0:0:0:0:
192,192,37163,1,0,0:0:0:0:
448,192,37163,128,0,37401:0:0:0:0:
320,192,37282,1,0,0:0:0:0:
64,192,37401,1,0,0:0:0:0:
64,192,37520,128,0,37758:0:0:0:0:
320,192,37520,1,0,0:0:0:0:
192,192,37639,1,0,0:0:0:0:
448,192,37758,1,0,0:0:0:0:
64,192,37877,1,0,0:0:0:0:
320,192,37877,1,0,0:0:0:0:
192,192,37996,1,0,0:0:0:0:
320,192,37996,1,0,0:0:0:0:
192,192,38115,1,0,0:0:0:0:
320,192,38234,1,0,0:0:0:0:
448,192,38234,1,0,0:0:0:0:
64,192,38353,1,0,0:0:0:0:
192,192,38472,1,0,0:0:0:0:
448,192,38472,1,0,0:0:0:0:
64,192,38591,1,0,0:0:0:0:
192,192,38710,1,0,0:0:0:0:
448,192,38710,1,0,0:0:0:0:
320,192,38829,1,0,0:0:0:0:
192,192,38888,1,0,0:0:0:0:
64,192,38948,1,0,0:0:0:0:
320,192,38948,1,0,0:0:0:0:
192,192,39067,1,0,0:0:0:0:
448,192,39067,1,0,0:0:0:0:
320,192,39186,128,0,39305:0:0:0:0:
448,192,39186,1,0,0:0:0:0:
64,192,39305,1,0,0:0:0:0:
64,192,39424,1,0,0:0:0:0:
192,192,39424,128,0,39543:0:0:0:0:
448,192,39543,1,0,0:0:0:0:
192,192,39662,1,0,0:0:0:0:
320,192,39662,1,0,0:0:0:0:
64,192,39781,1,0,0:0:0:0:
448,192,39900,1,0,0:0:0:0:
64,192,40019,1,0,0:0:0:0:
320,192,40019,1,0,0:0:0:0:
64,192,40138,128,0,40376:0:0:0:0:
320,192,40138,1,0,0:0:0:0:
192,192,40257,1,0,0:0:0:0:
448,192,40376,1,0,0:0:0:0:
192,192,40495,1,0,0:0:0:0:
320,192,40614,1,0,0:0:0:0:
448,192,40614,1,0,0:0:0:0:
64,192,40733,1,0,0:0:0:0:
192,192,40733,1,0,0:0:0:0:
192,192,40852,1,0,0:0:0:0:
448,192,40852,1,0,0:0:0:0:
64,192,40971,1,0,0:0:0:0:
320,192,40971,1,0,0:0:0:0:
192,192,41090,1,0,0:0:0:0:
320,192,41209,1,0,0:0:0:0:
448,192,41209,1,0,0:0:0:0:
320,192,41328,1,0,0:0:0:0:
448,192,41328,128,0,41566:0:0:0:0:
192,192,41447,1,0,0:0:0:0:
64,192,41566,1,0,0:0:0:0:
320,192,41685,1,0,0:0:0:0:
448,192,41685,1,0,0:0:0:0:
64,192,41804,1,0,0:0:0:0:
192,192,41804,1,0,0:0:0:0:
192,192,41923,128,0,42280:0:0:0:0:
448,192,41923,1,0,0:0:0:0:
320,192,42042,1,0,0:0:0:0:
64,192,42161,1,0,0:0:0:0:
320,192,42280,1,0,0:0:0:0:
64,192,42399,1,0,0:0:0:0:
320,192,42518,1,0,0:0:0:0:
448,192,42518,1,0,0:0:0:0:
192,192,42637,1,0,0:0:0:0:
192,192,42756,1,0,0:0:0:0:
448,192,42756,1,0,0:0:0:0:
64,192,42875,1,0,0:0:0:0:
64,192,42994,1,0,0:0:0:0:
448,192,42994,128,0,43053:0:0:0:0:
192,192,43113,1,0,0:0:0:0:
448,192,43172,128,0,43232:0:0:0:0:
192,192,43351,1,0,0:0:0:0:
448,192,43351,128,0,43470:0:0:0:0:
320,192,43470,128,0,43530:0:0:0:0:
64,192,43589,128,0,43649:0:0:0:0:
448,192,43589,1,0,0:0:0:0:
192,192,43708,128,0,43768:0:0:0:0:
64,192,43827,128,0,43887:0:0:0:0:
448,192,43827,1,0,0:0:0:0:
320,192,43946,128,0,44006:0:0:0:0:
192,192,44065,1,0,0:0:0:0:
64,192,44125,1,0,0:0:0:0:
320,192,44184,128,0,44244:0:0:0:0:
192,192,44303,128,0,44363:0:0:0:0:
448,192,44303,1,0,0:0:0:0:
64,192,44422,128,0,44541:0:0:0:0:
320,192,44422,1,0,0:0:0:0:
448,192,44541,1,0,0:0:0:0:
192,192,44660,1,0,0:0:0:0:
320,192,44660,128,0,44779:0:0:0:0:
64,192,44779,1,0,0:0:0:0:
192,192,44898,128,0,44958:0:0:0:0:
64,192,45017,1,0,0:0:0:0:
320,192,45017,1,0,0:0:0:0:
448,192,45017,1,0,0:0:0:0:
320,192,45136,128,0,45196:0:0:0:0:
64,192,45255,1,0,0:0:0:0:
192,192,45374,1,0,0:0:0:0:
320,192,45374,1,0,0:0:0:0:
448,192,45374,1,0,0:0:0:0:
64,192,45434,1,0,0:0:0:0:
192,192,45493,1,0,0:0:0:0:
64,192,45612,1,0,0:0:0:0:
320,192,45612,1,0,0:0:0:0:
448,192,45672,1,0,0:0:0:0:
320,192,45731,1,0,0:0:0:0:
64,192,45850,1,0,0:0:0:0:
192,192,45850,1,0,0:0:0:0:
192,192,45969,1,0,0:0:0:0:
320,192,46029,1,0,0:0:0:0:
64,192,46088,1,0,0:0:0:0:
192,192,46148,1,0,0:0:0:0:
192,192,46267,1,0,0:0:0:0:
320,192,46326,1,0,0:0:0:0:
448,192,46326,1,0,0:0:0:0:
320,192,46445,1,0,0:0:0:0:
192,192,46564,1,0,0:0:0:0:
448,192,46564,1,0,0:0:0:0:
320,192,46624,1,0,0:0:0:0:
64,192,46743,1,0,0:0:0:0:
192,192,46802,1,0,0:0:0:0:
320,192,46802,1,0,0:0:0:0:
448,192,46862,1,0,0:0:0:0:
64,192,46921,1,0,0:0:0:0:
192,192,47040,1,0,0:0:0:0:
448,192,47040,1,0,0:0:0:0:
320,192,47159,1,0,0:0:0:0:
192,192,47278,1,0,0:0:0:0:
448,192,47278,1,0,0:0:0:0:
320,192,47338,1,0,0:0:0:0:
192,192,47397,1,0,0:0:0:0:
64,192,47516,1,0,0:0:0:0:
320,192,47516,1,0,0:0:0:0:
192,192,47576,1,0,0:0:0:0:
320,192,47635,1,0,0:0:0:0:
64,192,47754,1,0,0:0:0:0:
192,192,47754,1,0,0:0:0:0:
448,192,47814,1,0,0:0:0:0:
448,192,47933,1,0,0:0:0:0:
64,192,47992,1,0,0:0:0:0:
320,192,47992,1,0,0:0:0:0:
448,192,48052,1,0,0:0:0:0:
192,192,48111,1,0,0:0:0:0:
320,192,48171,1,0,0:0:0:0:
64,192,48230,1,0,0:0:0:0:
192,192,48230,1,0,0:0:0:0:
320,192,48349,1,0,0:0:0:0:
64,192,48468,1,0,0:0:0:0:
320,192,48468,1,0,0:0:0:0:
192,192,48587,1,0,0:0:0:0:
320,192,48647,1,0,0:0:0:0:
192,192,48706,1,0,0:0:0:0:
448,192,48706,1,0,0:0:0:0:
64,192,48766,1,0,0:0:0:0:
320,192,48766,1,0,0:0:0:0:
192,192,48825,1,0,0:0:0:0:
448,192,48825,1,0,0:0:0:0:
64,192,48944,1,0,0:0:0:0:
192,192,48944,1,0,0:0:0:0:
320,192,49063,1,0,0:0:0:0:
64,192,49182,1,0,0:0:0:0:
192,192,49182,1,0,0:0:0:0:
320,192,49242,1,0,0:0:0:0:
448,192,49242,1,0,0:0:0:0:
64,192,49301,1,0,0:0:0:0:
192,192,49301,1,0,0:0:0:0:
448,192,49361,1,0,0:0:0:0:
64,192,49420,1,0,0:0:0:0:
192,192,49420,1,0,0:0:0:0:
320,192,49480,1,0,0:0:0:0:
448,192,49480,1,0,0:0:0:0:
64,192,49539,1,0,0:0:0:0:
192,192,49539,1,0,0:0:0:0:
448,192,49599,1,0,0:0:0:0:
64,192,49658,1,0,0:0:0:0:
320,192,49658,1,0,0:0:0:0:
192,192,49718,1,0,0:0:0:0:
64,192,49777,1,0,0:0:0:0:
320,192,49777,1,0,0:0:0:0:
192,192,49837,1,0,0:0:0:0:
448,192,49837,1,0,0:0:0:0:
320,192,49896,1,0,0:0:0:0:
64,192,49956,1,0,0:0:0:0:
320,192,50015,1,0,0:0:0:0:
448,192,50015,1,0,0:0:0:0:
64,192,50075,1,0,0:0:0:0:
192,192,50075,1,0,0:0:0:0:
320,192,50134,1,0,0:0:0:0:
448,192,50134,1,0,0:0:0:0:
192,192,50194,1,0,0:0:0:0:
320,192,50253,1,0,0:0:0:0:
448,192,50253,1,0,0:0:0:0:
64,192,50313,1,0,0:0:0:0:
192,192,50372,1,0,0:0:0:0:
448,192,50372,1,0,0:0:0:0:
64,192,50432,1,0,0:0:0:0:
320,192,50432,1,0,0:0:0:0:
192,192,50491,1,0,0:0:0:0:
320,192,50551,1,0,0:0:0:0:
448,192,50551,1,0,0:0:0:0:
64,192,50610,1,0,0:0:0:0:
192,192,50670,1,0,0:0:0:0:
320,192,50670,1,0,0:0:0:0:
64,192,50729,1,0,0:0:0:0:
448,192,50729,1,0,0:0:0:0:
192,192,50789,1,0,0:0:0:0:
320,192,50848,1,0,0:0:0:0:
448,192,50848,1,0,0:0:0:0:
64,192,50908,1,0,0:0:0:0:
192,192,50967,1,0,0:0:0:0:
448,192,50967,1,0,0:0:0:0:
320,192,51027,1,0,0:0:0:0:
64,192,51086,1,0,0:0:0:0:
192,192,51116,1,0,0:0:0:0:
448,192,51146,1,0,0:0:0:0:
320,192,51176,1,0,0:0:0:0:
64,192,51205,1,0,0:0:0:0:
192,192,51235,1,0,0:0:0:0:
448,192,51265,1,0,0:0:0:0:
320,192,51295,1,0,0:0:0:0:
64,192,51324,1,0,0:0:0:0:
192,192,51354,1,0,0:0:0:0:
448,192,51384,1,0,0:0:0:0:
320,192,51414,1,0,0:0:0:0:
64,192,51443,1,0,0:0:0:0:
192,192,51473,1,0,0:0:0:0:
448,192,51503,1,0,0:0:0:0:
320,192,51533,1,0,0:0:0:0:
64,192,51562,1,0,0:0:0:0:
192,192,51592,1,0,0:0:0:0:
448,192,51622,1,0,0:0:0:0:
320,192,51652,1,0,0:0:0:0:
64,192,51681,1,0,0:0:0:0:
192,192,51711,1,0,0:0:0:0:
448,192,51741,1,0,0:0:0:0:
320,192,51771,1,0,0:0:0:0:
64,192,51800,1,0,0:0:0:0:
192,192,51830,1,0,0:0:0:0:
448,192,51860,1,0,0:0:0:0:
320,192,51890,1,0,0:0:0:0:
64,192,51919,1,0,0:0:0:0:
192,192,51949,1,0,0:0:0:0:
448,192,51979,1,0,0:0:0:0:
320,192,52009,1,0,0:0:0:0:
64,192,52038,128,0,52217:0:0:0:0:
192,192,52038,1,0,0:0:0:0:
320,192,52276,1,0,0:0:0:0:
192,192,52336,1,0,0:0:0:0:
448,192,52395,1,0,0:0:0:0:
192,192,52455,1,0,0:0:0:0:
64,192,52514,1,0,0:0:0:0:
448,192,52574,1,0,0:0:0:0:
320,192,52633,1,0,0:0:0:0:
192,192,52693,1,0,0:0:0:0:
320,192,52752,1,0,0:0:0:0:
448,192,52752,1,0,0:0:0:0:
64,192,52812,1,0,0:0:0:0:
192,192,52871,1,0,0:0:0:0:
448,192,52871,1,0,0:0:0:0:
320,192,52931,1,0,0:0:0:0:
64,192,52990,1,0,0:0:0:0:
192,192,52990,1,0,0:0:0:0:
320,192,53050,1,0,0:0:0:0:
448,192,53050,1,0,0:0:0:0:
64,192,53109,1,0,0:0:0:0:
192,192,53109,1,0,0:0:0:0:
448,192,53169,1,0,0:0:0:0:
64,192,53228,1,0,0:0:0:0:
320,192,53228,1,0,0:0:0:0:
192,192,53288,1,0,0:0:0:0:
448,192,53288,1,0,0:0:0:0:
64,192,53347,1,0,0:0:0:0:
320,192,53347,1,0,0:0:0:0:
192,192,53407,1,0,0:0:0:0:
320,192,53466,1,0,0:0:0:0:
448,192,53466,1,0,0:0:0:0:
64,192,53526,1,0,0:0:0:0:
320,192,53585,1,0,0:0:0:0:
448,192,53585,1,0,0:0:0:0:
64,192,53645,1,0,0:0:0:0:
192,192,53645,1,0,0:0:0:0:
448,192,53704,1,0,0:0:0:0:
64,192,53764,1,0,0:0:0:0:
192,192,53764,1,0,0:0:0:0:
320,192,53823,1,0,0:0:0:0:
448,192,53823,1,0,0:0:0:0:
64,192,53883,1,0,0:0:0:0:
192,192,53883,1,0,0:0:0:0:
320,192,53942,1,0,0:0:0:0:
448,192,53942,1,0,0:0:0:0:
192,192,54002,1,0,0:0:0:0:
320,192,54061,1,0,0:0:0:0:
448,192,54061,1,0,0:0:0:0:
64,192,54121,1,0,0:0:0:0:
192,192,54180,1,0,0:0:0:0:
320,192,54180,1,0,0:0:0:0:
64,192,54240,1,0,0:0:0:0:
448,192,54240,1,0,0:0:0:0:
192,192,54299,1,0,0:0:0:0:
320,192,54359,1,0,0:0:0:0:
448,192,54359,1,0,0:0:0:0:
64,192,54418,1,0,0:0:0:0:
320,192,54478,1,0,0:0:0:0:
448,192,54478,1,0,0:0:0:0:
64,192,54537,1,0,0:0:0:0:
192,192,54537,1,0,0:0:0:0:
448,192,54597,1,0,0:0:0:0:
64,192,54656,1,0,0:0:0:0:
320,192,54656,1,0,0:0:0:0:
192,192,54716,1,0,0:0:0:0:
320,192,54775,1,0,0:0:0:0:
448,192,54775,1,0,0:0:0:0:
64,192,54835,1,0,0:0:0:0:
192,192,54894,1,0,0:0:0:0:
448,192,54894,1,0,0:0:0:0:
64,192,54954,1,0,0:0:0:0:
320,192,54954,1,0,0:0:0:0:
192,192,55013,1,0,0:0:0:0:
448,192,55013,1,0,0:0:0:0:
320,192,55073,1,0,0:0:0:0:
64,192,55132,1,0,0:0:0:0:
192,192,55132,1,0,0:0:0:0:
320,192,55192,1,0,0:0:0:0:
448,192,55192,1,0,0:0:0:0:
64,192,55251,1,0,0:0:0:0:
192,192,55251,1,0,0:0:0:0:
448,192,55311,1,0,0:0:0:0:
64,192,55370,1,0,0:0:0:0:
320,192,55370,1,0,0:0:0:0:
192,192,55430,1,0,0:0:0:0:
448,192,55430,1,0,0:0:0:0:
320,192,55489,1,0,0:0:0:0:
192,192,55549,1,0,0:0:0:0:
448,192,55549,1,0,0:0:0:0:
64,192,55608,1,0,0:0:0:0:
192,192,55668,1,0,0:0:0:0:
448,192,55668,1,0,0:0:0:0:
64,192,55727,1,0,0:0:0:0:
320,192,55727,1,0,0:0:0:0:
192,192,55787,1,0,0:0:0:0:
320,192,55846,1,0,0:0:0:0:
448,192,55846,1,0,0:0:0:0:
64,192,55906,1,0,0:0:0:0:
192,192,55965,1,0,0:0:0:0:
448,192,55965,1,0,0:0:0:0:
320,192,56025,1,0,0:0:0:0:
64,192,56084,1,0,0:0:0:0:
192,192,56084,1,0,0:0:0:0:
448,192,56144,1,0,0:0:0:0:
64,192,56203,1,0,0:0:0:0:
320,192,56203,1,0,0:0:0:0:
192,192,56263,1,0,0:0:0:0:
320,192,56322,1,0,0:0:0:0:
448,192,56322,1,0,0:0:0:0:
64,192,56382,1,0,0:0:0:0:
192,192,56382,1,0,0:0:0:0:
320,192,56441,1,0,0:0:0:0:
448,192,56441,1,0,0:0:0:0:
64,192,56501,1,0,0:0:0:0:
192,192,56560,1,0,0:0:0:0:
448,192,56560,1,0,0:0:0:0:
320,192,56620,1,0,0:0:0:0:
64,192,56679,1,0,0:0:0:0:
192,192,56709,1,0,0:0:0:0:
320,192,56739,1,0,0:0:0:0:
448,192,56769,1,0,0:0:0:0:
64,192,56798,1,0,0:0:0:0:
192,192,56798,1,0,0:0:0:0:
320,192,56858,1,0,0:0:0:0:
448,192,56858,1,0,0:0:0:0:
64,192,56917,1,0,0:0:0:0:
192,192,56917,1,0,0:0:0:0:
448,192,56977,1,0,0:0:0:0:
64,192,57036,1,0,0:0:0:0:
320,192,57036,1,0,0:0:0:0:
192,192,57096,1,0,0:0:0:0:
448,192,57096,1,0,0:0:0:0:
64,192,57155,1,0,0:0:0:0:
320,192,57155,1,0,0:0:0:0:
192,192,57215,1,0,0:0:0:0:
320,192,57274,1,0,0:0:0:0:
448,192,57274,1,0,0:0:0:0:
64,192,57334,1,0,0:0:0:0:
320,192,57393,1,0,0:0:0:0:
448,192,57393,1,0,0:0:0:0:
64,192,57453,1,0,0:0:0:0:
192,192,57453,1,0,0:0:0:0:
448,192,57512,1,0,0:0:0:0:
64,192,57572,1,0,0:0:0:0:
192,192,57572,1,0,0:0:0:0:
320,192,57631,1,0,0:0:0:0:
448,192,57631,1,0,0:0:0:0:
64,192,57691,1,0,0:0:0:0:
192,192,57691,1,0,0:0:0:0:
320,192,57750,1,0,0:0:0:0:
448,192,57750,1,0,0:0:0:0:
192,192,57810,1,0,0:0:0:0:
320,192,57870,1,0,0:0:0:0:
448,192,57870,1,0,0:0:0:0:
64,192,57929,1,0,0:0:0:0:
192,192,57989,1,0,0:0:0:0:
320,192,57989,1,0,0:0:0:0:
64,192,58048,1,0,0:0:0:0:
448,192,58048,1,0,0:0:0:0:
192,192,58108,1,0,0:0:0:0:
320,192,58167,1,0,0:0:0:0:
448,192,58167,1,0,0:0:0:0:
64,192,58227,1,0,0:0:0:0:
320,192,58286,1,0,0:0:0:0:
448,192,58286,1,0,0:0:0:0:
64,192,58346,1,0,0:0:0:0:
192,192,58346,1,0,0:0:0:0:
448,192,58405,1,0,0:0:0:0:
64,192,58465,1,0,0:0:0:0:
320,192,58465,1,0,0:0:0:0:
192,192,58524,1,0,0:0:0:0:
320,192,58584,1,0,0:0:0:0:
448,192,58584,1,0,0:0:0:0:
64,192,58643,1,0,0:0:0:0:
192,192,58703,1,0,0:0:0:0:
448,192,58703,1,0,0:0:0:0:
64,192,58762,1,0,0:0:0:0:
320,192,58762,1,0,0:0:0:0:
192,192,58822,1,0,0:0:0:0:
448,192,58822,1,0,0:0:0:0:
320,192,58881,1,0,0:0:0:0:
64,192,58941,1,0,0:0:0:0:
192,192,58941,1,0,0:0:0:0:
320,192,59000,1,0,0:0:0:0:
448,192,59000,1,0,0:0:0:0:
64,192,59060,1,0,0:0:0:0:
192,192,59060,1,0,0:0:0:0:
448,192,59119,1,0,0:0:0:0:
64,192,59179,1,0,0:0:0:0:
320,192,59179,1,0,0:0:0:0:
192,192,59238,1,0,0:0:0:0:
448,192,59238,1,0,0:0:0:0:
320,192,59298,1,0,0:0:0:0:
192,192,59357,1,0,0:0:0:0:
448,192,59357,1,0,0:0:0:0:
64,192,59417,1,0,0:0:0:0:
192,192,59476,1,0,0:0:0:0:
448,192,59476,1,0,0:0:0:0:
64,192,59536,1,0,0:0:0:0:
320,192,59536,1,0,0:0:0:0:
192,192,59595,1,0,0:0:0:0:
320,192,59655,1,0,0:0:0:0:
448,192,59655,1,0,0:0:0:0:
64,192,59714,1,0,0:0:0:0:
192,192,59774,1,0,0:0:0:0:
448,192,59774,1,0,0:0:0:0:
320,192,59833,1,0,0:0:0:0:
64,192,59893,1,0,0:0:0:0:
192,192,59893,1,0,0:0:0:0:
448,192,59952,1,0,0:0:0:0:
64,192,60012,1,0,0:0:0:0:
320,192,60012,1,0,0:0:0:0:
192,192,60071,1,0,0:0:0:0:
320,192,60131,1,0,0:0:0:0:
448,192,60131,1,0,0:0:0:0:
64,192,60190,1,0,0:0:0:0:
192,192,60190,1,0,0:0:0:0:
320,192,60250,1,0,0:0:0:0:
448,192,60250,1,0,0:0:0:0:
64,192,60309,1,0,0:0:0:0:
192,192,60339,1,0,0:0:0:0:
320,192,60369,1,0,0:0:0:0:
448,192,60369,1,0,0:0:0:0:
64,192,60488,128,0,60607:0:0:0:0:
192,192,60607,1,0,0:0:0:0:
320,192,60607,1,0,0:0:0:0:
448,192,60607,1,0,0:0:0:0:
320,192,60726,1,0,0:0:0:0:
192,192,60845,1,0,0:0:0:0:
448,192,60845,1,0,0:0:0:0:
64,192,60964,1,0,0:0:0:0:
192,192,60964,1,0,0:0:0:0:
448,192,61083,1,0,0:0:0:0:
192,192,61142,1,0,0:0:0:0:
64,192,61202,1,0,0:0:0:0:
320,192,61202,1,0,0:0:0:0:
448,192,61261,1,0,0:0:0:0:
64,192,61321,1,0,0:0:0:0:
320,192,61380,1,0,0:0:0:0:
192,192,61440,1,0,0:0:0:0:
448,192,61440,1,0,0:0:0:0:
64,192,61499,1,0,0:0:0:0:
320,192,61559,1,0,0:0:0:0:
448,192,61559,1,0,0:0:0:0:
320,192,61678,1,0,0:0:0:0:
64,192,61797,1,0,0:0:0:0:
192,192,61797,1,0,0:0:0:0:
192,192,61916,1,0,0:0:0:0:
448,192,62035,1,0,0:0:0:0:
320,192,62094,1,0,0:0:0:0:
64,192,62154,1,0,0:0:0:0:
448,192,62154,1,0,0:0:0:0:
192,192,62213,1,0,0:0:0:0:
64,192,62273,1,0,0:0:0:0:
320,192,62273,1,0,0:0:0:0:
448,192,62332,1,0,0:0:0:0:
192,192,62392,1,0,0:0:0:0:
320,192,62392,1,0,0:0:0:0:
64,192,62451,1,0,0:0:0:0:
320,192,62511,1,0,0:0:0:0:
448,192,62511,1,0,0:0:0:0:
448,192,62630,1,0,0:0:0:0:
64,192,62749,1,0,0:0:0:0:
320,192,62749,1,0,0:0:0:0:
64,192,62868,1,0,0:0:0:0:
192,192,62868,1,0,0:0:0:0:
320,192,62987,1,0,0:0:0:0:
192,192,63046,1,0,0:0:0:0:
64,192,63106,1,0,0:0:0:0:
448,192,63106,1,0,0:0:0:0:
320,192,63165,1,0,0:0:0:0:
64,192,63225,1,0,0:0:0:0:
192,192,63284,1,0,0:0:0:0:
320,192,63344,1,0,0:0:0:0:
448,192,63344,1,0,0:0:0:0:
64,192,63403,1,0,0:0:0:0:
192,192,63463,1,0,0:0:0:0:
448,192,63463,1,0,0:0:0:0:
192,192,63582,1,0,0:0:0:0:
320,192,63701,1,0,0:0:0:0:
448,192,63701,1,0,0:0:0:0:
320,192,63820,1,0,0:0:0:0:
448,192,63820,1,0,0:0:0:0:
192,192,63939,1,0,0:0:0:0:
320,192,63998,1,0,0:0:0:0:
64,192,64058,1,0,0:0:0:0:
448,192,64117,1,0,0:0:0:0:
192,192,64177,1,0,0:0:0:0:
320,192,64177,1,0,0:0:0:0:
64,192,64236,1,0,0:0:0:0:
192,192,64296,1,0,0:0:0:0:
448,192,64355,1,0,0:0:0:0:
64,192,64415,1,0,0:0:0:0:
320,192,64415,1,0,0:0:0:0:
320,192,64534,1,0,0:0:0:0:
64,192,64653,1,0,0:0:0:0:
192,192,64653,1,0,0:0:0:0:
192,192,64772,1,0,0:0:0:0:
448,192,64772,1,0,0:0:0:0:
64,192,64891,1,0,0:0:0:0:
192,192,64950,1,0,0:0:0:0:
320,192,65010,1,0,0:0:0:0:
448,192,65069,1,0,0:0:0:0:
64,192,65129,1,0,0:0:0:0:
192,192,65129,1,0,0:0:0:0:
320,192,65188,1,0,0:0:0:0:
448,192,65248,1,0,0:0:0:0:
320,192,65307,1,0,0:0:0:0:
64,192,65367,1,0,0:0:0:0:
192,192,65367,1,0,0:0:0:0:
192,192,65486,1,0,0:0:0:0:
320,192,65605,1,0,0:0:0:0:
448,192,65605,1,0,0:0:0:0:
64,192,65724,1,0,0:0:0:0:
320,192,65724,1,0,0:0:0:0:
192,192,65843,1,0,0:0:0:0:
448,192,65902,1,0,0:0:0:0:
64,192,65962,1,0,0:0:0:0:
320,192,66021,1,0,0:0:0:0:
192,192,66081,1,0,0:0:0:0:
448,192,66081,1,0,0:0:0:0:
64,192,66140,1,0,0:0:0:0:
320,192,66200,1,0,0:0:0:0:
448,192,66200,1,0,0:0:0:0:
192,192,66259,1,0,0:0:0:0:
64,192,66319,1,0,0:0:0:0:
320,192,66319,1,0,0:0:0:0:
64,192,66438,1,0,0:0:0:0:
192,192,66438,1,0,0:0:0:0:
320,192,66557,1,0,0:0:0:0:
448,192,66557,1,0,0:0:0:0:
320,192,66676,1,0,0:0:0:0:
64,192,66795,1,0,0:0:0:0:
448,192,66854,1,0,0:0:0:0:
192,192,66914,1,0,0:0:0:0:
320,192,66973,1,0,0:0:0:0:
64,192,67033,1,0,0:0:0:0:
448,192,67092,1,0,0:0:0:0:
64,192,67152,1,0,0:0:0:0:
192,192,67152,1,0,0:0:0:0:
320,192,67211,1,0,0:0:0:0:
448,192,67211,1,0,0:0:0:0:
64,192,67271,1,0,0:0:0:0:
192,192,67271,1,0,0:0:0:0:
192,192,67390,1,0,0:0:0:0:
448,192,67390,1,0,0:0:0:0:
320,192,67509,1,0,0:0:0:0:
448,192,67509,1,0,0:0:0:0:
64,192,67628,1,0,0:0:0:0:
320,192,67628,1,0,0:0:0:0:
64,192,67747,1,0,0:0:0:0:
192,192,67747,1,0,0:0:0:0:
448,192,67787,1,0,0:0:0:0:
320,192,67826,1,0,0:0:0:0:
64,192,67866,1,0,0:0:0:0:
448,192,67906,1,0,0:0:0:0:
192,192,67945,1,0,0:0:0:0:
64,192,67985,1,0,0:0:0:0:
320,192,68025,1,0,0:0:0:0:
192,192,68064,1,0,0:0:0:0:
448,192,68104,1,0,0:0:0:0:
64,192,68144,1,0,0:0:0:0:
192,192,68183,1,0,0:0:0:0:
320,192,68223,1,0,0:0:0:0:
448,192,68223,1,0,0:0:0:0:
320,192,68342,1,0,0:0:0:0:
64,192,68461,1,0,0:0:0:0:
192,192,68461,1,0,0:0:0:0:
448,192,68461,1,0,0:0:0:0:
192,192,68580,1,0,0:0:0:0:
320,192,68580,1,0,0:0:0:0:
64,192,68699,1,0,0:0:0:0:
448,192,68699,1,0,0:0:0:0:
320,192,68758,1,0,0:0:0:0:
192,192,68818,1,0,0:0:0:0:
448,192,68818,1,0,0:0:0:0:
64,192,68877,1,0,0:0:0:0:
320,192,68937,1,0,0:0:0:0:
192,192,68996,1,0,0:0:0:0:
320,192,69056,1,0,0:0:0:0:
448,192,69056,1,0,0:0:0:0:
64,192,69115,1,0,0:0:0:0:
192,192,69175,1,0,0:0:0:0:
448,192,69175,1,0,0:0:0:0:
192,192,69294,1,0,0:0:0:0:
64,192,69413,1,0,0:0:0:0:
320,192,69413,1,0,0:0:0:0:
320,192,69532,1,0,0:0:0:0:
192,192,69651,1,0,0:0:0:0:
448,192,69651,1,0,0:0:0:0:
64,192,69710,1,0,0:0:0:0:
192,192,69770,1,0,0:0:0:0:
320,192,69770,1,0,0:0:0:0:
448,192,69829,1,0,0:0:0:0:
64,192,69889,1,0,0:0:0:0:
320,192,69889,1,0,0:0:0:0:
192,192,69948,1,0,0:0:0:0:
64,192,70008,1,0,0:0:0:0:
448,192,70008,1,0,0:0:0:0:
320,192,70067,1,0,0:0:0:0:
64,192,70127,1,0,0:0:0:0:
192,192,70127,1,0,0:0:0:0:
448,192,70127,1,0,0:0:0:0:
192,192,70246,1,0,0:0:0:0:
64,192,70365,1,0,0:0:0:0:
320,192,70365,1,0,0:0:0:0:
448,192,70365,1,0,0:0:0:0:
192,192,70484,1,0,0:0:0:0:
320,192,70484,1,0,0:0:0:0:
64,192,70603,1,0,0:0:0:0:
448,192,70603,1,0,0:0:0:0:
320,192,70662,1,0,0:0:0:0:
64,192,70722,1,0,0:0:0:0:
192,192,70722,1,0,0:0:0:0:
320,192,70781,1,0,0:0:0:0:
192,192,70841,1,0,0:0:0:0:
448,192,70900,1,0,0:0:0:0:
64,192,70960,1,0,0:0:0:0:
320,192,70960,1,0,0:0:0:0:
192,192,71019,1,0,0:0:0:0:
64,192,71079,1,0,0:0:0:0:
320,192,71079,1,0,0:0:0:0:
448,192,71079,1,0,0:0:0:0:
320,192,71198,1,0,0:0:0:0:
64,192,71317,1,0,0:0:0:0:
192,192,71317,1,0,0:0:0:0:
448,192,71317,1,0,0:0:0:0:
192,192,71436,1,0,0:0:0:0:
320,192,71436,1,0,0:0:0:0:
64,192,71555,1,0,0:0:0:0:
448,192,71555,1,0,0:0:0:0:
320,192,71614,1,0,0:0:0:0:
192,192,71674,1,0,0:0:0:0:
448,192,71733,1,0,0:0:0:0:
64,192,71793,1,0,0:0:0:0:
320,192,71793,1,0,0:0:0:0:
192,192,71852,1,0,0:0:0:0:
320,192,71912,1,0,0:0:0:0:
448,192,71971,1,0,0:0:0:0:
64,192,72031,1,0,0:0:0:0:
192,192,72031,1,0,0:0:0:0:
320,192,72031,1,0,0:0:0:0:
64,192,72150,1,0,0:0:0:0:
192,192,72269,1,0,0:0:0:0:
320,192,72269,1,0,0:0:0:0:
448,192,72269,1,0,0:0:0:0:
192,192,72388,1,0,0:0:0:0:
448,192,72388,1,0,0:0:0:0:
64,192,72507,1,0,0:0:0:0:
320,192,72507,1,0,0:0:0:0:
192,192,72567,1,0,0:0:0:0:
320,192,72626,1,0,0:0:0:0:
64,192,72686,1,0,0:0:0:0:
192,192,72745,1,0,0:0:0:0:
448,192,72745,1,0,0:0:0:0:
320,192,72805,1,0,0:0:0:0:
192,192,72864,1,0,0:0:0:0:
320,192,72924,1,0,0:0:0:0:
64,192,72983,1,0,0:0:0:0:
192,192,72983,1,0,0:0:0:0:
448,192,72983,1,0,0:0:0:0:
192,192,73102,1,0,0:0:0:0:
64,192,73221,1,0,0:0:0:0:
320,192,73221,1,0,0:0:0:0:
192,192,73340,1,0,0:0:0:0:
320,192,73340,1,0,0:0:0:0:
448,192,73340,1,0,0:0:0:0:
64,192,73459,1,0,0:0:0:0:
192,192,73519,1,0,0:0:0:0:
448,192,73578,1,0,0:0:0:0:
320,192,73638,1,0,0:0:0:0:
64,192,73697,1,0,0:0:0:0:
192,192,73697,1,0,0:0:0:0:
448,192,73697,1,0,0:0:0:0:
320,192,73757,1,0,0:0:0:0:
64,192,73816,1,0,0:0:0:0:
192,192,73816,1,0,0:0:0:0:
448,192,73876,1,0,0:0:0:0:
64,192,73935,1,0,0:0:0:0:
320,192,73935,1,0,0:0:0:0:
192,192,74054,1,0,0:0:0:0:
320,192,74054,1,0,0:0:0:0:
64,192,74173,1,0,0:0:0:0:
192,192,74173,1,0,0:0:0:0:
448,192,74173,1,0,0:0:0:0:
64,192,74292,1,0,0:0:0:0:
192,192,74411,1,0,0:0:0:0:
320,192,74411,1,0,0:0:0:0:
448,192,74471,1,0,0:0:0:0:
64,192,74530,1,0,0:0:0:0:
192,192,74590,1,0,0:0:0:0:
448,192,74649,1,0,0:0:0:0:
320,192,74709,1,0,0:0:0:0:
64,192,74768,1,0,0:0:0:0:
192,192,74768,1,0,0:0:0:0:
448,192,74828,1,0,0:0:0:0:
64,192,74887,1,0,0:0:0:0:
192,192,74887,1,0,0:0:0:0:
320,192,74887,1,0,0:0:0:0:
320,192,75006,1,0,0:0:0:0:
448,192,75006,1,0,0:0:0:0:
64,192,75125,1,0,0:0:0:0:
192,192,75125,1,0,0:0:0:0:
448,192,75125,1,0,0:0:0:0:
192,192,75244,1,0,0:0:0:0:
320,192,75244,1,0,0:0:0:0:
64,192,75363,1,0,0:0:0:0:
448,192,75363,1,0,0:0:0:0:
192,192,75423,1,0,0:0:0:0:
320,192,75482,1,0,0:0:0:0:
64,192,75542,1,0,0:0:0:0:
192,192,75601,1,0,0:0:0:0:
448,192,75641,1,0,0:0:0:0:
64,192,75680,1,0,0:0:0:0:
320,192,75720,1,0,0:0:0:0:
192,192,75760,1,0,0:0:0:0:
448,192,75799,1,0,0:0:0:0:
64,192,75839,1,0,0:0:0:0:
320,192,75839,1,0,0:0:0:0:
320,192,75958,1,0,0:0:0:0:
64,192,76077,1,0,0:0:0:0:
192,192,76077,1,0,0:0:0:0:
64,192,76196,1,0,0:0:0:0:
448,192,76196,1,0,0:0:0:0:
448,192,76315,1,0,0:0:0:0:
64,192,76434,1,0,0:0:0:0:
192,192,76434,1,0,0:0:0:0:
320,192,76553,1,0,0:0:0:0:
448,192,76553,1,0,0:0:0:0:
192,192,76613,1,0,0:0:0:0:
320,192,76672,1,0,0:0:0:0:
448,192,76672,1,0,0:0:0:0:
192,192,76732,1,0,0:0:0:0:
64,192,76791,1,0,0:0:0:0:
448,192,76791,1,0,0:0:0:0:
192,192,76910,1,0,0:0:0:0:
448,192,76910,1,0,0:0:0:0:
64,192,77029,1,0,0:0:0:0:
320,192,77029,1,0,0:0:0:0:
64,192,77148,1,0,0:0:0:0:
192,192,77148,1,0,0:0:0:0:
192,192,77267,1,0,0:0:0:0:
320,192,77386,1,0,0:0:0:0:
448,192,77386,1,0,0:0:0:0:
320,192,77505,1,0,0:0:0:0:
448,192,77505,1,0,0:0:0:0:
192,192,77565,1,0,0:0:0:0:
448,192,77624,1,0,0:0:0:0:
192,192,77684,1,0,0:0:0:0:
64,192,77743,1,0,0:0:0:0:
320,192,77743,1,0,0:0:0:0:
320,192,77862,1,0,0:0:0:0:
64,192,77981,1,0,0:0:0:0:
192,192,77981,1,0,0:0:0:0:
64,192,78100,1,0,0:0:0:0:
448,192,78100,1,0,0:0:0:0:
448,192,78219,1,0,0:0:0:0:
64,192,78338,1,0,0:0:0:0:
192,192,78338,1,0,0:0:0:0:
320,192,78457,1,0,0:0:0:0:
448,192,78457,1,0,0:0:0:0:
192,192,78517,1,0,0:0:0:0:
320,192,78576,1,0,0:0:0:0:
192,192,78636,1,0,0:0:0:0:
64,192,78695,1,0,0:0:0:0:
448,192,78695,1,0,0:0:0:0:
192,192,78814,1,0,0:0:0:0:
448,192,78814,1,0,0:0:0:0:
64,192,78933,1,0,0:0:0:0:
320,192,78933,1,0,0:0:0:0:
64,192,79052,1,0,0:0:0:0:
192,192,79052,1,0,0:0:0:0:
192,192,79171,1,0,0:0:0:0:
64,192,79290,1,0,0:0:0:0:
448,192,79290,1,0,0:0:0:0:
64,192,79409,1,0,0:0:0:0:
448,192,79409,1,0,0:0:0:0:
192,192,79528,1,0,0:0:0:0:
320,192,79528,1,0,0:0:0:0:
64,192,79647,1,0,0:0:0:0:
320,192,79647,1,0,0:0:0:0:
448,192,79647,1,0,0:0:0:0:
192,192,79766,1,0,0:0:0:0:
448,192,79766,1,0,0:0:0:0:
64,192,79885,1,0,0:0:0:0:
192,192,79885,1,0,0:0:0:0:
320,192,80004,1,0,0:0:0:0:
448,192,80004,1,0,0:0:0:0:
192,192,80123,1,0,0:0:0:0:
448,192,80123,1,0,0:0:0:0:
64,192,80242,1,0,0:0:0:0:
192,192,80242,1,0,0:0:0:0:
320,192,80242,1,0,0:0:0:0:
64,192,80361,1,0,0:0:0:0:
320,192,80361,1,0,0:0:0:0:
192,192,80480,1,0,0:0:0:0:
448,192,80480,1,0,0:0:0:0:
320,192,80540,1,0,0:0:0:0:
64,192,80599,1,0,0:0:0:0:
192,192,80599,1,0,0:0:0:0:
64,192,80718,1,0,0:0:0:0:
192,192,80837,1,0,0:0:0:0:
320,192,80837,1,0,0:0:0:0:
448,192,80837,1,0,0:0:0:0:
64,192,80956,1,0,0:0:0:0:
320,192,80956,1,0,0:0:0:0:
64,192,81075,1,0,0:0:0:0:
192,192,81075,1,0,0:0:0:0:
448,192,81075,1,0,0:0:0:0:
192,192,81194,1,0,0:0:0:0:
320,192,81194,1,0,0:0:0:0:
64,192,81313,1,0,0:0:0:0:
320,192,81313,1,0,0:0:0:0:
448,192,81313,1,0,0:0:0:0:
192,192,81432,1,0,0:0:0:0:
448,192,81432,1,0,0:0:0:0:
192,192,81551,1,0,0:0:0:0:
320,192,81551,1,0,0:0:0:0:
64,192,81670,1,0,0:0:0:0:
448,192,81670,1,0,0:0:0:0:
192,192,81789,1,0,0:0:0:0:
448,192,81789,1,0,0:0:0:0:
320,192,81908,1,0,0:0:0:0:
64,192,82027,1,0,0:0:0:0:
192,192,82027,1,0,0:0:0:0:
320,192,82146,1,0,0:0:0:0:
64,192,82265,1,0,0:0:0:0:
448,192,82265,1,0,0:0:0:0:
64,192,82384,1,0,0:0:0:0:
320,192,82384,1,0,0:0:0:0:
320,192,82503,1,0,0:0:0:0:
448,192,82503,1,0,0:0:0:0:
320,192,82741,1,0,0:0:0:0:
448,192,82741,1,0,0:0:0:0:
64,192,82801,1,0,0:0:0:0:
192,192,82860,1,0,0:0:0:0:
448,192,82920,1,0,0:0:0:0:
64,192,82979,1,0,0:0:0:0:
320,192,83039,1,0,0:0:0:0:
64,192,83098,1,0,0:0:0:0:
320,192,83158,1,0,0:0:0:0:
64,192,83217,1,0,0:0:0:0:
192,192,83217,1,0,0:0:0:0:
448,192,83217,1,0,0:0:0:0:
64,192,83455,1,0,0:0:0:0:
320,192,83455,1,0,0:0:0:0:
448,192,83455,1,0,0:0:0:0:
192,192,83574,1,0,0:0:0:0:
320,192,83574,1,0,0:0:0:0:
64,192,83693,1,0,0:0:0:0:
192,192,83693,1,0,0:0:0:0:
448,192,83693,1,0,0:0:0:0:
64,192,83812,1,0,0:0:0:0:
320,192,83812,1,0,0:0:0:0:
320,192,83931,1,0,0:0:0:0:
448,192,83931,1,0,0:0:0:0:
64,192,84050,1,0,0:0:0:0:
192,192,84050,1,0,0:0:0:0:
64,192,84169,1,0,0:0:0:0:
192,192,84169,1,0,0:0:0:0:
448,192,84169,1,0,0:0:0:0:
192,192,84288,1,0,0:0:0:0:
448,192,84288,1,0,0:0:0:0:
64,192,84407,1,0,0:0:0:0:
320,192,84407,1,0,0:0:0:0:
64,192,84526,1,0,0:0:0:0:
192,192,84526,1,0,0:0:0:0:
192,192,84645,1,0,0:0:0:0:
320,192,84645,1,0,0:0:0:0:
448,192,84645,1,0,0:0:0:0:
320,192,84764,1,0,0:0:0:0:
448,192,84764,1,0,0:0:0:0:
64,192,84883,1,0,0:0:0:0:
192,192,84883,1,0,0:0:0:0:
448,192,84883,1,0,0:0:0:0:
192,192,85002,1,0,0:0:0:0:
64,192,85121,1,0,0:0:0:0:
320,192,85121,1,0,0:0:0:0:
448,192,85121,1,0,0:0:0:0:
192,192,85240,1,0,0:0:0:0:
192,192,85359,1,0,0:0:0:0:
320,192,85359,1,0,0:0:0:0:
448,192,85359,1,0,0:0:0:0:
64,192,85478,1,0,0:0:0:0:
320,192,85478,1,0,0:0:0:0:
448,192,85538,1,0,0:0:0:0:
64,192,85597,1,0,0:0:0:0:
192,192,85597,1,0,0:0:0:0:
320,192,85657,1,0,0:0:0:0:
64,192,85716,1,0,0:0:0:0:
192,192,85716,1,0,0:0:0:0:
64,192,85835,1,0,0:0:0:0:
320,192,85835,1,0,0:0:0:0:
448,192,85835,1,0,0:0:0:0:
320,192,85954,1,0,0:0:0:0:
64,192,86073,1,0,0:0:0:0:
192,192,86073,1,0,0:0:0:0:
448,192,86073,1,0,0:0:0:0:
192,192,86192,1,0,0:0:0:0:
320,192,86192,1,0,0:0:0:0:
64,192,86311,1,0,0:0:0:0:
320,192,86311,1,0,0:0:0:0:
448,192,86311,1,0,0:0:0:0:
192,192,86430,1,0,0:0:0:0:
320,192,86490,1,0,0:0:0:0:
64,192,86549,1,0,0:0:0:0:
448,192,86549,1,0,0:0:0:0:
192,192,86668,1,0,0:0:0:0:
320,192,86668,1,0,0:0:0:0:
320,192,86788,1,0,0:0:0:0:
448,192,86788,1,0,0:0:0:0:
192,192,86847,1,0,0:0:0:0:
320,192,86907,1,0,0:0:0:0:
64,192,86966,1,0,0:0:0:0:
192,192,87026,1,0,0:0:0:0:
448,192,87026,1,0,0:0:0:0:
64,192,87085,1,0,0:0:0:0:
448,192,87145,1,0,0:0:0:0:
320,192,87204,1,0,0:0:0:0:
64,192,87264,1,0,0:0:0:0:
192,192,87264,1,0,0:0:0:0:
448,192,87264,1,0,0:0:0:0:
192,192,87383,1,0,0:0:0:0:
320,192,87383,1,0,0:0:0:0:
64,192,87502,1,0,0:0:0:0:
320,192,87502,1,0,0:0:0:0:
448,192,87502,1,0,0:0:0:0:
192,192,87621,1,0,0:0:0:0:
448,192,87621,1,0,0:0:0:0:
64,192,87740,1,0,0:0:0:0:
192,192,87740,1,0,0:0:0:0:
320,192,87859,1,0,0:0:0:0:
448,192,87859,1,0,0:0:0:0:
64,192,87978,1,0,0:0:0:0:
320,192,87978,1,0,0:0:0:0:
448,192,87978,1,0,0:0:0:0:
64,192,88097,1,0,0:0:0:0:
192,192,88097,1,0,0:0:0:0:
192,192,88216,1,0,0:0:0:0:
448,192,88216,1,0,0:0:0:0:
64,192,88335,1,0,0:0:0:0:
320,192,88335,1,0,0:0:0:0:
192,192,88454,1,0,0:0:0:0:
320,192,88454,1,0,0:0:0:0:
448,192,88454,1,0,0:0:0:0:
64,192,88573,1,0,0:0:0:0:
192,192,88573,1,0,0:0:0:0:
64,192,88692,1,0,0:0:0:0:
320,192,88692,1,0,0:0:0:0:
448,192,88692,1,0,0:0:0:0:
320,192,88811,1,0,0:0:0:0:
64,192,88930,1,0,0:0:0:0:
192,192,88930,1,0,0:0:0:0:
448,192,88930,1,0,0:0:0:0:
192,192,89049,1,0,0:0:0:0:
64,192,89168,1,0,0:0:0:0:
320,192,89168,1,0,0:0:0:0:
448,192,89168,1,0,0:0:0:0:
192,192,89287,128,0,89346:0:0:0:0:
64,192,89406,1,0,0:0:0:0:
192,192,89406,1,0,0:0:0:0:
448,192,89406,1,0,0:0:0:0:
320,192,89525,128,0,89584:0:0:0:0:
64,192,89644,1,0,0:0:0:0:
320,192,89644,1,0,0:0:0:0:
448,192,89644,1,0,0:0:0:0:
192,192,89763,1,0,0:0:0:0:
448,192,89822,1,0,0:0:0:0:
64,192,89882,1,0,0:0:0:0:
320,192,89882,1,0,0:0:0:0:
448,192,90001,1,0,0:0:0:0:
64,192,90120,1,0,0:0:0:0:
192,192,90120,1,0,0:0:0:0:
320,192,90179,1,0,0:0:0:0:
192,192,90239,1,0,0:0:0:0:
320,192,90298,1,0,0:0:0:0:
448,192,90298,1,0,0:0:0:0:
64,192,90358,1,0,0:0:0:0:
192,192,90358,1,0,0:0:0:0:
448,192,90417,1,0,0:0:0:0:
64,192,90477,1,0,0:0:0:0:
320,192,90477,1,0,0:0:0:0:
192,192,90536,1,0,0:0:0:0:
448,192,90596,1,0,0:0:0:0:
192,192,90655,1,0,0:0:0:0:
448,192,90715,1,0,0:0:0:0:
192,192,90774,1,0,0:0:0:0:
320,192,90834,128,0,90953:0:0:0:0:
64,192,91072,1,0,0:0:0:0:
320,192,91072,1,0,0:0:0:0:
448,192,91072,1,0,0:0:0:0:
192,192,91131,1,0,0:0:0:0:
64,192,91191,1,0,0:0:0:0:
448,192,91191,1,0,0:0:0:0:
320,192,91250,1,0,0:0:0:0:
64,192,91310,1,0,0:0:0:0:
192,192,91310,1,0,0:0:0:0:
448,192,91310,1,0,0:0:0:0:
320,192,91369,1,0,0:0:0:0:
64,192,91429,1,0,0:0:0:0:
192,192,91429,1,0,0:0:0:0:
448,192,91488,1,0,0:0:0:0:
64,192,91548,1,0,0:0:0:0:
320,192,91548,1,0,0:0:0:0:
192,192,91607,1,0,0:0:0:0:
320,192,91667,1,0,0:0:0:0:
448,192,91667,1,0,0:0:0:0:
64,192,91726,1,0,0:0:0:0:
320,192,91786,1,0,0:0:0:0:
448,192,91786,1,0,0:0:0:0:
64,192,91845,1,0,0:0:0:0:
192,192,91905,1,0,0:0:0:0:
448,192,91905,1,0,0:0:0:0:
320,192,91964,1,0,0:0:0:0:
192,192,92024,1,0,0:0:0:0:
448,192,92024,1,0,0:0:0:0:
320,192,92083,1,0,0:0:0:0:
64,192,92143,1,0,0:0:0:0:
192,192,92143,1,0,0:0:0:0:
448,192,92202,1,0,0:0:0:0:
64,192,92262,1,0,0:0:0:0:
192,192,92262,1,0,0:0:0:0:
320,192,92262,1,0,0:0:0:0:
448,192,92321,1,0,0:0:0:0:
64,192,92381,1,0,0:0:0:0:
320,192,92381,1,0,0:0:0:0:
192,192,92440,1,0,0:0:0:0:
64,192,92500,1,0,0:0:0:0:
320,192,92500,1,0,0:0:0:0:
448,192,92500,1,0,0:0:0:0:
192,192,92559,1,0,0:0:0:0:
320,192,92619,1,0,0:0:0:0:
448,192,92619,1,0,0:0:0:0:
64,192,92678,1,0,0:0:0:0:
192,192,92738,1,0,0:0:0:0:
320,192,92738,1,0,0:0:0:0:
448,192,92738,1,0,0:0:0:0:
64,192,92797,1,0,0:0:0:0:
192,192,92857,1,0,0:0:0:0:
448,192,92857,1,0,0:0:0:0:
320,192,92916,1,0,0:0:0:0:
64,192,92976,1,0,0:0:0:0:
192,192,92976,1,0,0:0:0:0:
448,192,92976,1,0,0:0:0:0:
320,192,93035,1,0,0:0:0:0:
192,192,93095,1,0,0:0:0:0:
320,192,93154,1,0,0:0:0:0:
448,192,93154,1,0,0:0:0:0:
64,192,93214,1,0,0:0:0:0:
192,192,93214,1,0,0:0:0:0:
448,192,93273,1,0,0:0:0:0:
64,192,93333,1,0,0:0:0:0:
320,192,93333,1,0,0:0:0:0:
192,192,93392,1,0,0:0:0:0:
64,192,93452,1,0,0:0:0:0:
320,192,93452,1,0,0:0:0:0:
448,192,93452,1,0,0:0:0:0:
192,192,93511,1,0,0:0:0:0:
320,192,93571,1,0,0:0:0:0:
448,192,93571,1,0,0:0:0:0:
64,192,93630,1,0,0:0:0:0:
192,192,93690,1,0,0:0:0:0:
448,192,93690,1,0,0:0:0:0:
64,192,93749,1,0,0:0:0:0:
320,192,93809,1,0,0:0:0:0:
192,192,93868,1,0,0:0:0:0:
64,192,93928,1,0,0:0:0:0:
320,192,93928,1,0,0:0:0:0:
448,192,93928,1,0,0:0:0:0:
192,192,93987,1,0,0:0:0:0:
320,192,94047,1,0,0:0:0:0:
448,192,94047,1,0,0:0:0:0:
192,192,94106,1,0,0:0:0:0:
320,192,94166,1,0,0:0:0:0:
448,192,94166,1,0,0:0:0:0:
64,192,94225,1,0,0:0:0:0:
192,192,94285,1,0,0:0:0:0:
448,192,94285,1,0,0:0:0:0:
320,192,94344,1,0,0:0:0:0:
64,192,94404,1,0,0:0:0:0:
192,192,94404,1,0,0:0:0:0:
448,192,94404,1,0,0:0:0:0:
320,192,94463,1,0,0:0:0:0:
64,192,94523,1,0,0:0:0:0:
192,192,94523,1,0,0:0:0:0:
320,192,94582,1,0,0:0:0:0:
64,192,94642,1,0,0:0:0:0:
192,192,94642,1,0,0:0:0:0:
448,192,94701,1,0,0:0:0:0:
64,192,94761,1,0,0:0:0:0:
320,192,94761,1,0,0:0:0:0:
192,192,94820,1,0,0:0:0:0:
64,192,94880,1,0,0:0:0:0:
320,192,94880,1,0,0:0:0:0:
448,192,94880,1,0,0:0:0:0:
192,192,94939,1,0,0:0:0:0:
64,192,94999,1,0,0:0:0:0:
448,192,94999,1,0,0:0:0:0:
320,192,95058,1,0,0:0:0:0:
64,192,95118,1,0,0:0:0:0:
192,192,95118,1,0,0:0:0:0:
448,192,95118,1,0,0:0:0:0:
320,192,95177,1,0,0:0:0:0:
64,192,95237,1,0,0:0:0:0:
192,192,95237,1,0,0:0:0:0:
448,192,95296,1,0,0:0:0:0:
64,192,95356,1,0,0:0:0:0:
320,192,95356,1,0,0:0:0:0:
192,192,95415,1,0,0:0:0:0:
320,192,95475,1,0,0:0:0:0:
448,192,95475,1,0,0:0:0:0:
64,192,95534,1,0,0:0:0:0:
192,192,95594,1,0,0:0:0:0:
320,192,95594,1,0,0:0:0:0:
448,192,95594,1,0,0:0:0:0:
64,192,95653,1,0,0:0:0:0:
320,192,95713,1,0,0:0:0:0:
448,192,95713,1,0,0:0:0:0:
192,192,95772,1,0,0:0:0:0:
64,192,95832,1,0,0:0:0:0:
320,192,95832,1,0,0:0:0:0:
448,192,95832,1,0,0:0:0:0:
192,192,95891,1,0,0:0:0:0:
64,192,95951,1,0,0:0:0:0:
448,192,95951,1,0,0:0:0:0:
320,192,96010,1,0,0:0:0:0:
64,192,96070,1,0,0:0:0:0:
192,192,96070,1,0,0:0:0:0:
448,192,96070,1,0,0:0:0:0:
320,192,96129,1,0,0:0:0:0:
64,192,96189,1,0,0:0:0:0:
192,192,96189,1,0,0:0:0:0:
448,192,96189,1,0,0:0:0:0:
320,192,96248,1,0,0:0:0:0:
64,192,96308,1,0,0:0:0:0:
192,192,96308,1,0,0:0:0:0:
448,192,96367,1,0,0:0:0:0:
192,192,96427,1,0,0:0:0:0:
320,192,96427,1,0,0:0:0:0:
64,192,96486,1,0,0:0:0:0:
320,192,96546,1,0,0:0:0:0:
448,192,96546,1,0,0:0:0:0:
192,192,96605,1,0,0:0:0:0:
64,192,96665,1,0,0:0:0:0:
320,192,96724,1,0,0:0:0:0:
64,192,96784,1,0,0:0:0:0:
192,192,96784,1,0,0:0:0:0:
448,192,96784,1,0,0:0:0:0:
320,192,96843,1,0,0:0:0:0:
64,192,96903,1,0,0:0:0:0:
192,192,96903,1,0,0:0:0:0:
448,192,96962,1,0,0:0:0:0:
64,192,97022,1,0,0:0:0:0:
192,192,97022,1,0,0:0:0:0:
320,192,97022,1,0,0:0:0:0:
448,192,97081,1,0,0:0:0:0:
64,192,97141,1,0,0:0:0:0:
320,192,97141,1,0,0:0:0:0:
192,192,97200,1,0,0:0:0:0:
64,192,97260,1,0,0:0:0:0:
320,192,97260,1,0,0:0:0:0:
448,192,97260,1,0,0:0:0:0:
192,192,97319,1,0,0:0:0:0:
320,192,97379,1,0,0:0:0:0:
448,192,97379,1,0,0:0:0:0:
64,192,97438,1,0,0:0:0:0:
320,192,97498,1,0,0:0:0:0:
448,192,97498,1,0,0:0:0:0:
64,192,97557,1,0,0:0:0:0:
192,192,97617,1,0,0:0:0:0:
448,192,97617,1,0,0:0:0:0:
320,192,97676,1,0,0:0:0:0:
64,192,97736,1,0,0:0:0:0:
192,192,97736,1,0,0:0:0:0:
448,192,97736,1,0,0:0:0:0:
320,192,97795,1,0,0:0:0:0:
192,192,97855,1,0,0:0:0:0:
320,192,97914,1,0,0:0:0:0:
448,192,97914,1,0,0:0:0:0:
64,192,97974,1,0,0:0:0:0:
192,192,97974,1,0,0:0:0:0:
448,192,98033,1,0,0:0:0:0:
64,192,98093,1,0,0:0:0:0:
192,192,98093,1,0,0:0:0:0:
320,192,98093,1,0,0:0:0:0:
448,192,98152,1,0,0:0:0:0:
64,192,98212,1,0,0:0:0:0:
320,192,98212,1,0,0:0:0:0:
192,192,98271,1,0,0:0:0:0:
320,192,98331,1,0,0:0:0:0:
448,192,98331,1,0,0:0:0:0:
64,192,98390,1,0,0:0:0:0:
192,192,98450,1,0,0:0:0:0:
320,192,98450,1,0,0:0:0:0:
448,192,98450,1,0,0:0:0:0:
64,192,98509,1,0,0:0:0:0:
320,192,98569,1,0,0:0:0:0:
448,192,98569,1,0,0:0:0:0:
64,192,98628,1,0,0:0:0:0:
192,192,98688,1,0,0:0:0:0:
448,192,98688,1,0,0:0:0:0:
320,192,98747,1,0,0:0:0:0:
64,192,98807,1,0,0:0:0:0:
192,192,98866,1,0,0:0:0:0:
320,192,98926,1,0,0:0:0:0:
448,192,98926,1,0,0:0:0:0:
192,192,98985,1,0,0:0:0:0:
320,192,99045,1,0,0:0:0:0:
448,192,99045,1,0,0:0:0:0:
64,192,99104,1,0,0:0:0:0:
192,192,99164,1,0,0:0:0:0:
448,192,99204,1,0,0:0:0:0:
64,192,99243,1,0,0:0:0:0:
320,192,99283,1,0,0:0:0:0:
192,192,99323,1,0,0:0:0:0:
448,192,99362,1,0,0:0:0:0:
64,192,99402,1,0,0:0:0:0:
192,192,99432,1,0,0:0:0:0:
320,192,99461,1,0,0:0:0:0:
448,192,99491,1,0,0:0:0:0:
64,192,99521,1,0,0:0:0:0:
192,192,99551,1,0,0:0:0:0:
320,192,99580,1,0,0:0:0:0:
448,192,99610,1,0,0:0:0:0:
64,192,99640,1,0,0:0:0:0:
192,192,99640,1,0,0:0:0:0:
320,192,99699,1,0,0:0:0:0:
448,192,99699,1,0,0:0:0:0:
64,192,99759,1,0,0:0:0:0:
192,192,99759,1,0,0:0:0:0:
448,192,99818,1,0,0:0:0:0:
64,192,99878,1,0,0:0:0:0:
320,192,99878,1,0,0:0:0:0:
192,192,99937,1,0,0:0:0:0:
448,192,99937,1,0,0:0:0:0:
64,192,99997,1,0,0:0:0:0:
320,192,99997,1,0,0:0:0:0:
192,192,100056,1,0,0:0:0:0:
320,192,100116,1,0,0:0:0:0:
448,192,100116,1,0,0:0:0:0:
64,192,100175,1,0,0:0:0:0:
320,192,100235,1,0,0:0:0:0:
448,192,100235,1,0,0:0:0:0:
64,192,100294,1,0,0:0:0:0:
192,192,100294,1,0,0:0:0:0:
448,192,100354,1,0,0:0:0:0:
64,192,100413,1,0,0:0:0:0:
192,192,100413,1,0,0:0:0:0:
320,192,100473,1,0,0:0:0:0:
448,192,100473,1,0,0:0:0:0:
64,192,100532,1,0,0:0:0:0:
192,192,100532,1,0,0:0:0:0:
320,192,100592,1,0,0:0:0:0:
448,192,100592,1,0,0:0:0:0:
192,192,100651,1,0,0:0:0:0:
320,192,100711,1,0,0:0:0:0:
448,192,100711,1,0,0:0:0:0:
64,192,100770,1,0,0:0:0:0:
192,192,100830,1,0,0:0:0:0:
320,192,100830,1,0,0:0:0:0:
64,192,100889,1,0,0:0:0:0:
448,192,100889,1,0,0:0:0:0:
192,192,100949,1,0,0:0:0:0:
320,192,101008,1,0,0:0:0:0:
448,192,101008,1,0,0:0:0:0:
64,192,101068,1,0,0:0:0:0:
320,192,101128,1,0,0:0:0:0:
448,192,101128,1,0,0:0:0:0:
64,192,101187,1,0,0:0:0:0:
192,192,101187,1,0,0:0:0:0:
448,192,101247,1,0,0:0:0:0:
64,192,101306,1,0,0:0:0:0:
320,192,101306,1,0,0:0:0:0:
192,192,101366,1,0,0:0:0:0:
320,192,101425,1,0,0:0:0:0:
448,192,101425,1,0,0:0:0:0:
64,192,101485,1,0,0:0:0:0:
192,192,101544,1,0,0:0:0:0:
448,192,101544,1,0,0:0:0:0:
64,192,101604,1,0,0:0:0:0:
320,192,101604,1,0,0:0:0:0:
192,192,101663,1,0,0:0:0:0:
448,192,101663,1,0,0:0:0:0:
320,192,101723,1,0,0:0:0:0:
64,192,101782,1,0,0:0:0:0:
192,192,101782,1,0,0:0:0:0:
320,192,101842,1,0,0:0:0:0:
448,192,101842,1,0,0:0:0:0:
64,192,101901,1,0,0:0:0:0:
192,192,101901,1,0,0:0:0:0:
448,192,101961,1,0,0:0:0:0:
64,192,102020,1,0,0:0:0:0:
320,192,102020,1,0,0:0:0:0:
192,192,102080,1,0,0:0:0:0:
448,192,102080,1,0,0:0:0:0:
320,192,102139,1,0,0:0:0:0:
192,192,102199,1,0,0:0:0:0:
448,192,102199,1,0,0:0:0:0:
64,192,102258,1,0,0:0:0:0:
192,192,102318,1,0,0:0:0:0:
448,192,102318,1,0,0:0:0:0:
64,192,102377,1,0,0:0:0:0:
320,192,102377,1,0,0:0:0:0:
192,192,102437,1,0,0:0:0:0:
320,192,102496,1,0,0:0:0:0:
448,192,102496,1,0,0:0:0:0:
64,192,102556,1,0,0:0:0:0:
192,192,102615,1,0,0:0:0:0:
448,192,102615,1,0,0:0:0:0:
320,192,102675,1,0,0:0:0:0:
64,192,102734,1,0,0:0:0:0:
192,192,102734,1,0,0:0:0:0:
448,192,102794,1,0,0:0:0:0:
64,192,102853,1,0,0:0:0:0:
320,192,102853,1,0,0:0:0:0:
192,192,102913,1,0,0:0:0:0:
64,192,102972,1,0,0:0:0:0:
320,192,103002,1,0,0:0:0:0:
448,192,103032,1,0,0:0:0:0:
192,192,103091,1,0,0:0:0:0:
320,192,103151,1,0,0:0:0:0:
64,192,103210,1,0,0:0:0:0:
448,192,103210,1,0,0:0:0:0:
192,192,103240,1,0,0:0:0:0:
320,192,103270,1,0,0:0:0:0:
64,192,103329,1,0,0:0:0:0:
192,192,103389,1,0,0:0:0:0:
320,192,103448,1,0,0:0:0:0:
448,192,103448,1,0,0:0:0:0:
64,192,103508,1,0,0:0:0:0:
192,192,103508,1,0,0:0:0:0:
320,192,103567,1,0,0:0:0:0:
448,192,103567,1,0,0:0:0:0:
64,192,103627,1,0,0:0:0:0:
192,192,103686,1,0,0:0:0:0:
448,192,103686,1,0,0:0:0:0:
64,192,103746,1,0,0:0:0:0:
320,192,103746,1,0,0:0:0:0:
192,192,103805,1,0,0:0:0:0:
448,192,103805,1,0,0:0:0:0:
320,192,103865,1,0,0:0:0:0:
64,192,103924,1,0,0:0:0:0:
192,192,103924,1,0,0:0:0:0:
448,192,103984,1,0,0:0:0:0:
64,192,104043,1,0,0:0:0:0:
192,192,104043,1,0,0:0:0:0:
320,192,104103,1,0,0:0:0:0:
448,192,104103,1,0,0:0:0:0:
64,192,104162,1,0,0:0:0:0:
320,192,104222,1,0,0:0:0:0:
448,192,104222,1,0,0:0:0:0:
64,192,104281,1,0,0:0:0:0:
192,192,104281,1,0,0:0:0:0:
320,192,104341,1,0,0:0:0:0:
448,192,104341,1,0,0:0:0:0:
64,192,104400,1,0,0:0:0:0:
192,192,104400,1,0,0:0:0:0:
320,192,104460,1,0,0:0:0:0:
64,192,104519,1,0,0:0:0:0:
192,192,104519,1,0,0:0:0:0:
448,192,104579,1,0,0:0:0:0:
192,192,104638,1,0,0:0:0:0:
320,192,104638,1,0,0:0:0:0:
64,192,104698,1,0,0:0:0:0:
448,192,104698,1,0,0:0:0:0:
320,192,104757,1,0,0:0:0:0:
64,192,104817,1,0,0:0:0:0:
192,192,104817,1,0,0:0:0:0:
448,192,104876,1,0,0:0:0:0:
64,192,104936,1,0,0:0:0:0:
192,192,104936,1,0,0:0:0:0:
320,192,104995,1,0,0:0:0:0:
448,192,104995,1,0,0:0:0:0:
64,192,105055,1,0,0:0:0:0:
192,192,105114,1,0,0:0:0:0:
448,192,105114,1,0,0:0:0:0:
320,192,105174,1,0,0:0:0:0:
64,192,105233,1,0,0:0:0:0:
192,192,105233,1,0,0:0:0:0:
448,192,105293,1,0,0:0:0:0:
64,192,105352,1,0,0:0:0:0:
320,192,105352,1,0,0:0:0:0:
192,192,105412,1,0,0:0:0:0:
448,192,105412,1,0,0:0:0:0:
64,192,105471,1,0,0:0:0:0:
320,192,105471,1,0,0:0:0:0:
192,192,105531,1,0,0:0:0:0:
320,192,105590,1,0,0:0:0:0:
448,192,105590,1,0,0:0:0:0:
64,192,105650,1,0,0:0:0:0:
192,192,105650,1,0,0:0:0:0:
320,192,105709,1,0,0:0:0:0:
448,192,105709,1,0,0:0:0:0:
64,192,105769,1,0,0:0:0:0:
192,192,105828,1,0,0:0:0:0:
448,192,105828,1,0,0:0:0:0:
64,192,105888,1,0,0:0:0:0:
320,192,105888,1,0,0:0:0:0:
192,192,105947,1,0,0:0:0:0:
64,192,106007,1,0,0:0:0:0:
320,192,106007,1,0,0:0:0:0:
448,192,106066,1,0,0:0:0:0:
64,192,106126,1,0,0:0:0:0:
320,192,106126,1,0,0:0:0:0:
192,192,106185,1,0,0:0:0:0:
448,192,106185,1,0,0:0:0:0:
320,192,106245,1,0,0:0:0:0:
64,192,106304,1,0,0:0:0:0:
192,192,106304,1,0,0:0:0:0:
320,192,106364,1,0,0:0:0:0:
448,192,106364,1,0,0:0:0:0:
64,192,106423,1,0,0:0:0:0:
192,192,106483,1,0,0:0:0:0:
448,192,106483,1,0,0:0:0:0:
64,192,106542,1,0,0:0:0:0:
320,192,106542,1,0,0:0:0:0:
192,192,106602,1,0,0:0:0:0:
320,192,106661,1,0,0:0:0:0:
448,192,106661,1,0,0:0:0:0:
64,192,106721,1,0,0:0:0:0:
192,192,106721,1,0,0:0:0:0:
448,192,106780,1,0,0:0:0:0:
64,192,106840,1,0,0:0:0:0:
192,192,106840,1,0,0:0:0:0:
320,192,106899,1,0,0:0:0:0:
448,192,106929,1,0,0:0:0:0:
64,192,106959,1,0,0:0:0:0:
192,192,106988,1,0,0:0:0:0:
320,192,107018,1,0,0:0:0:0:
448,192,107018,1,0,0:0:0:0:
192,192,107137,128,0,107256:0:0:0:0:
64,192,107256,1,0,0:0:0:0:
320,192,107256,1,0,0:0:0:0:
448,192,107256,1,0,0:0:0:0:
320,192,107375,1,0,0:0:0:0:
64,192,107494,1,0,0:0:0:0:
192,192,107494,1,0,0:0:0:0:
448,192,107494,1,0,0:0:0:0:
64,192,107613,1,0,0:0:0:0:
192,192,107613,1,0,0:0:0:0:
448,192,107732,1,0,0:0:0:0:
192,192,107792,1,0,0:0:0:0:
64,192,107851,1,0,0:0:0:0:
320,192,107851,1,0,0:0:0:0:
448,192,107911,1,0,0:0:0:0:
64,192,107970,1,0,0:0:0:0:
320,192,108030,1,0,0:0:0:0:
192,192,108089,1,0,0:0:0:0:
448,192,108089,1,0,0:0:0:0:
64,192,108149,1,0,0:0:0:0:
320,192,108208,1,0,0:0:0:0:
448,192,108208,1,0,0:0:0:0:
320,192,108327,1,0,0:0:0:0:
64,192,108446,1,0,0:0:0:0:
192,192,108446,1,0,0:0:0:0:
192,192,108565,1,0,0:0:0:0:
448,192,108684,1,0,0:0:0:0:
320,192,108744,1,0,0:0:0:0:
64,192,108803,1,0,0:0:0:0:
448,192,108803,1,0,0:0:0:0:
192,192,108863,1,0,0:0:0:0:
64,192,108922,1,0,0:0:0:0:
320,192,108922,1,0,0:0:0:0:
448,192,108982,1,0,0:0:0:0:
192,192,109041,1,0,0:0:0:0:
320,192,109041,1,0,0:0:0:0:
64,192,109101,1,0,0:0:0:0:
192,192,109160,1,0,0:0:0:0:
320,192,109160,1,0,0:0:0:0:
448,192,109160,1,0,0:0:0:0:
448,192,109279,1,0,0:0:0:0:
64,192,109398,1,0,0:0:0:0:
192,192,109398,1,0,0:0:0:0:
320,192,109398,1,0,0:0:0:0:
192,192,109517,1,0,0:0:0:0:
448,192,109517,1,0,0:0:0:0:
320,192,109636,1,0,0:0:0:0:
192,192,109696,1,0,0:0:0:0:
64,192,109755,1,0,0:0:0:0:
448,192,109755,1,0,0:0:0:0:
320,192,109815,1,0,0:0:0:0:
64,192,109874,1,0,0:0:0:0:
192,192,109934,1,0,0:0:0:0:
320,192,109993,1,0,0:0:0:0:
448,192,109993,1,0,0:0:0:0:
64,192,110053,1,0,0:0:0:0:
192,192,110112,1,0,0:0:0:0:
320,192,110112,1,0,0:0:0:0:
448,192,110112,1,0,0:0:0:0:
192,192,110231,1,0,0:0:0:0:
64,192,110350,1,0,0:0:0:0:
320,192,110350,1,0,0:0:0:0:
448,192,110350,1,0,0:0:0:0:
64,192,110469,1,0,0:0:0:0:
320,192,110469,1,0,0:0:0:0:
192,192,110588,1,0,0:0:0:0:
320,192,110588,1,0,0:0:0:0:
448,192,110588,1,0,0:0:0:0:
192,192,110707,1,0,0:0:0:0:
64,192,110826,1,0,0:0:0:0:
320,192,110826,1,0,0:0:0:0:
448,192,110826,1,0,0:0:0:0:
64,192,110945,1,0,0:0:0:0:
192,192,111064,1,0,0:0:0:0:
320,192,111064,1,0,0:0:0:0:
448,192,111064,1,0,0:0:0:0:
320,192,111183,1,0,0:0:0:0:
64,192,111302,1,0,0:0:0:0:
192,192,111302,1,0,0:0:0:0:
448,192,111302,1,0,0:0:0:0:
192,192,111421,1,0,0:0:0:0:
320,192,111421,1,0,0:0:0:0:
448,192,111540,1,0,0:0:0:0:
192,192,111600,1,0,0:0:0:0:
192,192,111719,1,0,0:0:0:0:
64,192,111778,1,0,0:0:0:0:
320,192,111778,1,0,0:0:0:0:
448,192,111778,1,0,0:0:0:0:
192,192,111838,1,0,0:0:0:0:
448,192,111897,1,0,0:0:0:0:
320,192,111957,1,0,0:0:0:0:
64,192,112016,1,0,0:0:0:0:
192,192,112016,1,0,0:0:0:0:
448,192,112016,1,0,0:0:0:0:
64,192,112135,1,0,0:0:0:0:
320,192,112254,1,0,0:0:0:0:
448,192,112254,1,0,0:0:0:0:
64,192,112373,1,0,0:0:0:0:
192,192,112373,1,0,0:0:0:0:
320,192,112373,1,0,0:0:0:0:
192,192,112492,1,0,0:0:0:0:
448,192,112492,1,0,0:0:0:0:
320,192,112552,1,0,0:0:0:0:
64,192,112611,1,0,0:0:0:0:
448,192,112671,1,0,0:0:0:0:
64,192,112730,1,0,0:0:0:0:
192,192,112730,1,0,0:0:0:0:
320,192,112730,1,0,0:0:0:0:
448,192,112790,1,0,0:0:0:0:
64,192,112849,1,0,0:0:0:0:
320,192,112849,1,0,0:0:0:0:
192,192,112909,1,0,0:0:0:0:
320,192,112968,1,0,0:0:0:0:
448,192,112968,1,0,0:0:0:0:
64,192,113087,1,0,0:0:0:0:
320,192,113087,1,0,0:0:0:0:
64,192,113206,1,0,0:0:0:0:
192,192,113206,1,0,0:0:0:0:
448,192,113206,1,0,0:0:0:0:
448,192,113325,1,0,0:0:0:0:
64,192,113444,1,0,0:0:0:0:
320,192,113504,1,0,0:0:0:0:
192,192,113563,1,0,0:0:0:0:
448,192,113623,1,0,0:0:0:0:
64,192,113682,1,0,0:0:0:0:
192,192,113742,1,0,0:0:0:0:
320,192,113801,1,0,0:0:0:0:
448,192,113801,1,0,0:0:0:0:
64,192,113861,1,0,0:0:0:0:
192,192,113920,1,0,0:0:0:0:
320,192,113920,1,0,0:0:0:0:
448,192,113920,1,0,0:0:0:0:
192,192,114039,1,0,0:0:0:0:
448,192,114039,1,0,0:0:0:0:
64,192,114158,1,0,0:0:0:0:
320,192,114158,1,0,0:0:0:0:
448,192,114158,1,0,0:0:0:0:
64,192,114277,1,0,0:0:0:0:
320,192,114277,1,0,0:0:0:0:
64,192,114396,1,0,0:0:0:0:
192,192,114396,1,0,0:0:0:0:
448,192,114396,1,0,0:0:0:0:
320,192,114456,1,0,0:0:0:0:
448,192,114515,1,0,0:0:0:0:
64,192,114575,1,0,0:0:0:0:
192,192,114575,1,0,0:0:0:0:
320,192,114634,1,0,0:0:0:0:
192,192,114674,1,0,0:0:0:0:
448,192,114714,1,0,0:0:0:0:
64,192,114753,1,0,0:0:0:0:
192,192,114793,1,0,0:0:0:0:
448,192,114833,1,0,0:0:0:0:
64,192,114872,1,0,0:0:0:0:
320,192,114872,1,0,0:0:0:0:
320,192,114991,1,0,0:0:0:0:
64,192,115110,1,0,0:0:0:0:
192,192,115110,1,0,0:0:0:0:
64,192,115229,1,0,0:0:0:0:
320,192,115229,1,0,0:0:0:0:
448,192,115229,1,0,0:0:0:0:
320,192,115348,1,0,0:0:0:0:
192,192,115467,1,0,0:0:0:0:
320,192,115467,1,0,0:0:0:0:
64,192,115587,1,0,0:0:0:0:
192,192,115587,1,0,0:0:0:0:
64,192,115706,1,0,0:0:0:0:
448,192,115706,1,0,0:0:0:0:
64,192,115825,1,0,0:0:0:0:
320,192,115825,1,0,0:0:0:0:
448,192,115825,1,0,0:0:0:0:
192,192,115944,1,0,0:0:0:0:
320,192,115944,1,0,0:0:0:0:
192,192,116063,1,0,0:0:0:0:
448,192,116063,1,0,0:0:0:0:
64,192,116182,1,0,0:0:0:0:
320,192,116182,1,0,0:0:0:0:
448,192,116182,1,0,0:0:0:0:
192,192,116301,1,0,0:0:0:0:
320,192,116420,1,0,0:0:0:0:
448,192,116420,1,0,0:0:0:0:
192,192,116539,1,0,0:0:0:0:
448,192,116539,1,0,0:0:0:0:
320,192,116598,1,0,0:0:0:0:
192,192,116658,1,0,0:0:0:0:
320,192,116717,1,0,0:0:0:0:
64,192,116777,1,0,0:0:0:0:
192,192,116777,1,0,0:0:0:0:
448,192,116777,1,0,0:0:0:0:
320,192,116896,1,0,0:0:0:0:
64,192,116955,1,0,0:0:0:0:
192,192,117015,1,0,0:0:0:0:
448,192,117015,1,0,0:0:0:0:
64,192,117134,1,0,0:0:0:0:
192,192,117134,1,0,0:0:0:0:
320,192,117134,1,0,0:0:0:0:
320,192,117253,1,0,0:0:0:0:
64,192,117372,1,0,0:0:0:0:
320,192,117372,1,0,0:0:0:0:
64,192,117491,1,0,0:0:0:0:
448,192,117491,1,0,0:0:0:0:
64,192,117610,1,0,0:0:0:0:
320,192,117610,1,0,0:0:0:0:
448,192,117669,1,0,0:0:0:0:
64,192,117729,1,0,0:0:0:0:
192,192,117729,1,0,0:0:0:0:
320,192,117729,1,0,0:0:0:0:
192,192,117848,1,0,0:0:0:0:
448,192,117848,1,0,0:0:0:0:
64,192,117967,1,0,0:0:0:0:
320,192,117967,1,0,0:0:0:0:
64,192,118086,1,0,0:0:0:0:
192,192,118086,1,0,0:0:0:0:
448,192,118086,1,0,0:0:0:0:
192,192,118205,1,0,0:0:0:0:
64,192,118324,1,0,0:0:0:0:
448,192,118324,1,0,0:0:0:0:
64,192,118443,1,0,0:0:0:0:
448,192,118443,1,0,0:0:0:0:
192,192,118562,1,0,0:0:0:0:
320,192,118562,1,0,0:0:0:0:
64,192,118681,1,0,0:0:0:0:
320,192,118681,1,0,0:0:0:0:
448,192,118681,1,0,0:0:0:0:
192,192,118800,1,0,0:0:0:0:
448,192,118800,1,0,0:0:0:0:
64,192,118919,1,0,0:0:0:0:
192,192,118919,1,0,0:0:0:0:
320,192,118919,1,0,0:0:0:0:
320,192,119038,1,0,0:0:0:0:
448,192,119038,1,0,0:0:0:0:
64,192,119157,1,0,0:0:0:0:
192,192,119157,1,0,0:0:0:0:
448,192,119157,1,0,0:0:0:0:
64,192,119276,1,0,0:0:0:0:
320,192,119276,1,0,0:0:0:0:
320,192,119395,1,0,0:0:0:0:
448,192,119395,1,0,0:0:0:0:
192,192,119514,1,0,0:0:0:0:
448,192,119514,1,0,0:0:0:0:
320,192,119573,1,0,0:0:0:0:
64,192,119633,1,0,0:0:0:0:
192,192,119633,1,0,0:0:0:0:
64,192,119752,1,0,0:0:0:0:
192,192,119871,1,0,0:0:0:0:
320,192,119871,1,0,0:0:0:0:
448,192,119871,1,0,0:0:0:0:
64,192,119990,1,0,0:0:0:0:
320,192,119990,1,0,0:0:0:0:
64,192,120109,1,0,0:0:0:0:
192,192,120109,1,0,0:0:0:0:
448,192,120109,1,0,0:0:0:0:
192,192,120228,1,0,0:0:0:0:
320,192,120228,1,0,0:0:0:0:
64,192,120347,1,0,0:0:0:0:
320,192,120347,1,0,0:0:0:0:
448,192,120347,1,0,0:0:0:0:
192,192,120466,1,0,0:0:0:0:
448,192,120466,1,0,0:0:0:0:
64,192,120585,1,0,0:0:0:0:
320,192,120585,1,0,0:0:0:0:
192,192,120644,1,0,0:0:0:0:
448,192,120704,1,0,0:0:0:0:
320,192,120763,1,0,0:0:0:0:
64,192,120823,1,0,0:0:0:0:
192,192,120823,1,0,0:0:0:0:
448,192,120882,1,0,0:0:0:0:
320,192,120942,1,0,0:0:0:0:
192,192,121001,1,0,0:0:0:0:
64,192,121061,1,0,0:0:0:0:
320,192,121061,1,0,0:0:0:0:
192,192,121120,1,0,0:0:0:0:
448,192,121120,1,0,0:0:0:0:
320,192,121180,1,0,0:0:0:0:
64,192,121239,1,0,0:0:0:0:
320,192,121299,1,0,0:0:0:0:
448,192,121299,1,0,0:0:0:0:
64,192,121358,1,0,0:0:0:0:
192,192,121358,1,0,0:0:0:0:
320,192,121418,1,0,0:0:0:0:
448,192,121418,1,0,0:0:0:0:
192,192,121477,1,0,0:0:0:0:
64,192,121537,1,0,0:0:0:0:
448,192,121537,1,0,0:0:0:0:
320,192,121576,1,0,0:0:0:0:
64,192,121775,1,0,0:0:0:0:
192,192,121775,1,0,0:0:0:0:
448,192,121834,1,0,0:0:0:0:
320,192,121894,1,0,0:0:0:0:
64,192,121953,1,0,0:0:0:0:
448,192,122013,1,0,0:0:0:0:
192,192,122072,1,0,0:0:0:0:
448,192,122132,1,0,0:0:0:0:
192,192,122191,1,0,0:0:0:0:
64,192,122251,1,0,0:0:0:0:
320,192,122251,1,0,0:0:0:0:
448,192,122251,1,0,0:0:0:0:
64,192,122489,1,0,0:0:0:0:
320,192,122489,1,0,0:0:0:0:
448,192,122489,1,0,0:0:0:0:
192,192,122608,1,0,0:0:0:0:
320,192,122608,1,0,0:0:0:0:
64,192,122727,1,0,0:0:0:0:
192,192,122727,1,0,0:0:0:0:
448,192,122727,1,0,0:0:0:0:
64,192,122846,1,0,0:0:0:0:
320,192,122846,1,0,0:0:0:0:
320,192,122965,1,0,0:0:0:0:
448,192,122965,1,0,0:0:0:0:
64,192,123084,1,0,0:0:0:0:
192,192,123084,1,0,0:0:0:0:
64,192,123203,1,0,0:0:0:0:
192,192,123203,1,0,0:0:0:0:
448,192,123203,1,0,0:0:0:0:
192,192,123322,1,0,0:0:0:0:
448,192,123322,1,0,0:0:0:0:
64,192,123441,1,0,0:0:0:0:
320,192,123441,1,0,0:0:0:0:
64,192,123560,1,0,0:0:0:0:
192,192,123560,1,0,0:0:0:0:
192,192,123679,1,0,0:0:0:0:
320,192,123679,1,0,0:0:0:0:
448,192,123679,1,0,0:0:0:0:
320,192,123798,1,0,0:0:0:0:
448,192,123798,1,0,0:0:0:0:
64,192,123917,1,0,0:0:0:0:
192,192,123917,1,0,0:0:0:0:
448,192,123917,1,0,0:0:0:0:
192,192,124036,1,0,0:0:0:0:
64,192,124155,1,0,0:0:0:0:
320,192,124155,1,0,0:0:0:0:
448,192,124155,1,0,0:0:0:0:
192,192,124274,1,0,0:0:0:0:
192,192,124393,1,0,0:0:0:0:
320,192,124393,1,0,0:0:0:0:
448,192,124393,1,0,0:0:0:0:
64,192,124512,1,0,0:0:0:0:
448,192,124512,1,0,0:0:0:0:
320,192,124571,1,0,0:0:0:0:
64,192,124631,1,0,0:0:0:0:
192,192,124631,1,0,0:0:0:0:
320,192,124690,1,0,0:0:0:0:
192,192,124750,1,0,0:0:0:0:
448,192,124750,1,0,0:0:0:0:
64,192,124869,1,0,0:0:0:0:
320,192,124869,1,0,0:0:0:0:
448,192,124869,1,0,0:0:0:0:
320,192,124988,1,0,0:0:0:0:
64,192,125107,1,0,0:0:0:0:
192,192,125107,1,0,0:0:0:0:
448,192,125107,1,0,0:0:0:0:
192,192,125226,1,0,0:0:0:0:
320,192,125226,1,0,0:0:0:0:
64,192,125345,1,0,0:0:0:0:
320,192,125345,1,0,0:0:0:0:
448,192,125345,1,0,0:0:0:0:
192,192,125464,1,0,0:0:0:0:
320,192,125523,1,0,0:0:0:0:
64,192,125583,1,0,0:0:0:0:
448,192,125583,1,0,0:0:0:0:
192,192,125702,1,0,0:0:0:0:
320,192,125702,1,0,0:0:0:0:
320,192,125821,1,0,0:0:0:0:
448,192,125821,1,0,0:0:0:0:
64,192,125940,1,0,0:0:0:0:
320,192,125999,1,0,0:0:0:0:
64,192,126059,1,0,0:0:0:0:
192,192,126059,1,0,0:0:0:0:
448,192,126118,1,0,0:0:0:0:
320,192,126178,1,0,0:0:0:0:
64,192,126237,1,0,0:0:0:0:
192,192,126297,1,0,0:0:0:0:
320,192,126297,1,0,0:0:0:0:
448,192,126297,1,0,0:0:0:0:
64,192,126416,1,0,0:0:0:0:
320,192,126416,1,0,0:0:0:0:
64,192,126535,1,0,0:0:0:0:
192,192,126535,1,0,0:0:0:0:
448,192,126535,1,0,0:0:0:0:
320,192,126654,1,0,0:0:0:0:
448,192,126654,1,0,0:0:0:0:
64,192,126773,1,0,0:0:0:0:
192,192,126773,1,0,0:0:0:0:
64,192,126892,1,0,0:0:0:0:
320,192,126892,1,0,0:0:0:0:
64,192,127011,1,0,0:0:0:0:
320,192,127011,1,0,0:0:0:0:
448,192,127011,1,0,0:0:0:0:
192,192,127130,1,0,0:0:0:0:
320,192,127130,1,0,0:0:0:0:
192,192,127249,1,0,0:0:0:0:
448,192,127249,1,0,0:0:0:0:
64,192,127368,1,0,0:0:0:0:
320,192,127368,1,0,0:0:0:0:
192,192,127487,1,0,0:0:0:0:
320,192,127487,1,0,0:0:0:0:
448,192,127487,1,0,0:0:0:0:
64,192,127606,1,0,0:0:0:0:
192,192,127606,1,0,0:0:0:0:
64,192,127725,1,0,0:0:0:0:
320,192,127725,1,0,0:0:0:0:
448,192,127725,1,0,0:0:0:0:
320,192,127844,1,0,0:0:0:0:
64,192,127963,1,0,0:0:0:0:
192,192,127963,1,0,0:0:0:0:
448,192,127963,1,0,0:0:0:0:
192,192,128082,1,0,0:0:0:0:
64,192,128201,1,0,0:0:0:0:
320,192,128201,1,0,0:0:0:0:
448,192,128201,1,0,0:0:0:0:
192,192,128320,128,0,128379:0:0:0:0:
64,192,128439,1,0,0:0:0:0:
192,192,128439,1,0,0:0:0:0:
448,192,128439,1,0,0:0:0:0:
320,192,128558,128,0,128617:0:0:0:0:
64,192,128677,1,0,0:0:0:0:
320,192,128677,1,0,0:0:0:0:
448,192,128677,1,0,0:0:0:0:
192,192,128796,1,0,0:0:0:0:
448,192,128855,1,0,0:0:0:0:
64,192,128915,1,0,0:0:0:0:
320,192,128915,1,0,0:0:0:0:
192,192,129034,1,0,0:0:0:0:
448,192,129034,1,0,0:0:0:0:
64,192,129153,1,0,0:0:0:0:
320,192,129153,1,0,0:0:0:0:
448,192,129212,1,0,0:0:0:0:
320,192,129272,1,0,0:0:0:0:
64,192,129331,1,0,0:0:0:0:
192,192,129331,1,0,0:0:0:0:
320,192,129391,1,0,0:0:0:0:
448,192,129391,1,0,0:0:0:0:
192,192,129450,1,0,0:0:0:0:
64,192,129510,1,0,0:0:0:0:
448,192,129510,1,0,0:0:0:0:
320,192,129569,1,0,0:0:0:0:
192,192,129629,1,0,0:0:0:0:
448,192,129688,1,0,0:0:0:0:
192,192,129748,1,0,0:0:0:0:
448,192,129807,1,0,0:0:0:0:
320,192,129867,128,0,129986:0:0:0:0:
192,192,129986,1,0,0:0:0:0:
64,192,130105,1,0,0:0:0:0:
192,192,130105,1,0,0:0:0:0:
448,192,130105,1,0,0:0:0:0:
320,192,130165,1,0,0:0:0:0:
64,192,130224,1,0,0:0:0:0:
192,192,130224,1,0,0:0:0:0:
448,192,130284,1,0,0:0:0:0:
64,192,130343,1,0,0:0:0:0:
192,192,130343,1,0,0:0:0:0:
320,192,130343,1,0,0:0:0:0:
448,192,130403,1,0,0:0:0:0:
192,192,130462,1,0,0:0:0:0:
320,192,130462,1,0,0:0:0:0:
64,192,130522,1,0,0:0:0:0:
320,192,130581,1,0,0:0:0:0:
448,192,130581,1,0,0:0:0:0:
64,192,130641,1,0,0:0:0:0:
192,192,130700,1,0,0:0:0:0:
448,192,130700,1,0,0:0:0:0:
320,192,130760,1,0,0:0:0:0:
64,192,130819,1,0,0:0:0:0:
192,192,130819,1,0,0:0:0:0:
448,192,130879,1,0,0:0:0:0:
64,192,130938,1,0,0:0:0:0:
320,192,130938,1,0,0:0:0:0:
192,192,130998,1,0,0:0:0:0:
64,192,131057,1,0,0:0:0:0:
320,192,131057,1,0,0:0:0:0:
192,192,131117,1,0,0:0:0:0:
320,192,131176,1,0,0:0:0:0:
448,192,131176,1,0,0:0:0:0:
64,192,131236,1,0,0:0:0:0:
192,192,131295,1,0,0:0:0:0:
320,192,131295,1,0,0:0:0:0:
448,192,131295,1,0,0:0:0:0:
64,192,131355,1,0,0:0:0:0:
192,192,131414,1,0,0:0:0:0:
448,192,131414,1,0,0:0:0:0:
320,192,131474,1,0,0:0:0:0:
64,192,131533,1,0,0:0:0:0:
192,192,131533,1,0,0:0:0:0:
448,192,131533,1,0,0:0:0:0:
320,192,131593,1,0,0:0:0:0:
64,192,131652,1,0,0:0:0:0:
192,192,131652,1,0,0:0:0:0:
448,192,131712,1,0,0:0:0:0:
64,192,131771,1,0,0:0:0:0:
192,192,131771,1,0,0:0:0:0:
320,192,131771,1,0,0:0:0:0:
448,192,131831,1,0,0:0:0:0:
64,192,131890,1,0,0:0:0:0:
320,192,131890,1,0,0:0:0:0:
192,192,131950,1,0,0:0:0:0:
64,192,132009,1,0,0:0:0:0:
320,192,132009,1,0,0:0:0:0:
448,192,132009,1,0,0:0:0:0:
192,192,132069,1,0,0:0:0:0:
320,192,132128,1,0,0:0:0:0:
64,192,132188,1,0,0:0:0:0:
192,192,132188,1,0,0:0:0:0:
320,192,132247,1,0,0:0:0:0:
448,192,132247,1,0,0:0:0:0:
64,192,132307,1,0,0:0:0:0:
192,192,132366,1,0,0:0:0:0:
448,192,132366,1,0,0:0:0:0:
320,192,132426,1,0,0:0:0:0:
64,192,132485,1,0,0:0:0:0:
192,192,132485,1,0,0:0:0:0:
448,192,132485,1,0,0:0:0:0:
320,192,132545,1,0,0:0:0:0:
64,192,132604,1,0,0:0:0:0:
192,192,132604,1,0,0:0:0:0:
320,192,132664,1,0,0:0:0:0:
64,192,132723,1,0,0:0:0:0:
448,192,132723,1,0,0:0:0:0:
192,192,132783,1,0,0:0:0:0:
64,192,132842,1,0,0:0:0:0:
320,192,132842,1,0,0:0:0:0:
192,192,132902,1,0,0:0:0:0:
64,192,132961,1,0,0:0:0:0:
320,192,132961,1,0,0:0:0:0:
448,192,132961,1,0,0:0:0:0:
192,192,133021,1,0,0:0:0:0:
320,192,133080,1,0,0:0:0:0:
448,192,133080,1,0,0:0:0:0:
192,192,133140,1,0,0:0:0:0:
320,192,133199,1,0,0:0:0:0:
448,192,133199,1,0,0:0:0:0:
64,192,133259,1,0,0:0:0:0:
192,192,133318,1,0,0:0:0:0:
448,192,133318,1,0,0:0:0:0:
320,192,133378,1,0,0:0:0:0:
64,192,133437,1,0,0:0:0:0:
192,192,133437,1,0,0:0:0:0:
448,192,133437,1,0,0:0:0:0:
320,192,133497,1,0,0:0:0:0:
64,192,133556,1,0,0:0:0:0:
192,192,133556,1,0,0:0:0:0:
320,192,133616,1,0,0:0:0:0:
64,192,133675,1,0,0:0:0:0:
192,192,133675,1,0,0:0:0:0:
448,192,133735,1,0,0:0:0:0:
64,192,133794,1,0,0:0:0:0:
320,192,133794,1,0,0:0:0:0:
192,192,133854,1,0,0:0:0:0:
64,192,133913,1,0,0:0:0:0:
320,192,133913,1,0,0:0:0:0:
448,192,133913,1,0,0:0:0:0:
192,192,133973,1,0,0:0:0:0:
320,192,134032,1,0,0:0:0:0:
448,192,134032,1,0,0:0:0:0:
64,192,134092,1,0,0:0:0:0:
192,192,134151,1,0,0:0:0:0:
448,192,134151,1,0,0:0:0:0:
320,192,134211,1,0,0:0:0:0:
64,192,134270,1,0,0:0:0:0:
192,192,134270,1,0,0:0:0:0:
448,192,134330,1,0,0:0:0:0:
64,192,134389,1,0,0:0:0:0:
320,192,134389,1,0,0:0:0:0:
192,192,134449,1,0,0:0:0:0:
320,192,134508,1,0,0:0:0:0:
448,192,134508,1,0,0:0:0:0:
64,192,134568,1,0,0:0:0:0:
192,192,134627,1,0,0:0:0:0:
320,192,134627,1,0,0:0:0:0:
448,192,134627,1,0,0:0:0:0:
64,192,134687,1,0,0:0:0:0:
192,192,134746,1,0,0:0:0:0:
448,192,134746,1,0,0:0:0:0:
320,192,134806,1,0,0:0:0:0:
64,192,134865,1,0,0:0:0:0:
192,192,134865,1,0,0:0:0:0:
448,192,134925,1,0,0:0:0:0:
64,192,134984,1,0,0:0:0:0:
320,192,134984,1,0,0:0:0:0:
192,192,135044,1,0,0:0:0:0:
64,192,135103,1,0,0:0:0:0:
320,192,135103,1,0,0:0:0:0:
448,192,135103,1,0,0:0:0:0:
192,192,135163,1,0,0:0:0:0:
64,192,135222,1,0,0:0:0:0:
320,192,135222,1,0,0:0:0:0:
448,192,135222,1,0,0:0:0:0:
192,192,135282,1,0,0:0:0:0:
320,192,135341,1,0,0:0:0:0:
448,192,135341,1,0,0:0:0:0:
64,192,135401,1,0,0:0:0:0:
192,192,135460,1,0,0:0:0:0:
320,192,135460,1,0,0:0:0:0:
448,192,135520,1,0,0:0:0:0:
64,192,135579,1,0,0:0:0:0:
192,192,135579,1,0,0:0:0:0:
320,192,135639,1,0,0:0:0:0:
448,192,135698,1,0,0:0:0:0:
192,192,135758,1,0,0:0:0:0:
64,192,135817,1,0,0:0:0:0:
320,192,135817,1,0,0:0:0:0:
448,192,135817,1,0,0:0:0:0:
192,192,135877,1,0,0:0:0:0:
320,192,135936,1,0,0:0:0:0:
448,192,135936,1,0,0:0:0:0:
64,192,135996,1,0,0:0:0:0:
192,192,136055,1,0,0:0:0:0:
320,192,136055,1,0,0:0:0:0:
448,192,136055,1,0,0:0:0:0:
64,192,136115,1,0,0:0:0:0:
192,192,136174,1,0,0:0:0:0:
448,192,136174,1,0,0:0:0:0:
320,192,136234,1,0,0:0:0:0:
64,192,136293,1,0,0:0:0:0:
192,192,136293,1,0,0:0:0:0:
448,192,136293,1,0,0:0:0:0:
320,192,136353,1,0,0:0:0:0:
64,192,136412,1,0,0:0:0:0:
192,192,136412,1,0,0:0:0:0:
448,192,136472,1,0,0:0:0:0:
64,192,136531,1,0,0:0:0:0:
192,192,136531,1,0,0:0:0:0:
448,192,136591,1,0,0:0:0:0:
64,192,136650,1,0,0:0:0:0:
320,192,136650,1,0,0:0:0:0:
192,192,136710,1,0,0:0:0:0:
448,192,136710,1,0,0:0:0:0:
64,192,136769,1,0,0:0:0:0:
320,192,136769,1,0,0:0:0:0:
192,192,136829,1,0,0:0:0:0:
320,192,136888,1,0,0:0:0:0:
64,192,136948,1,0,0:0:0:0:
192,192,136948,1,0,0:0:0:0:
448,192,136948,1,0,0:0:0:0:
320,192,137007,1,0,0:0:0:0:
192,192,137067,1,0,0:0:0:0:
64,192,137126,1,0,0:0:0:0:
320,192,137126,1,0,0:0:0:0:
448,192,137126,1,0,0:0:0:0:
192,192,137186,1,0,0:0:0:0:
320,192,137245,1,0,0:0:0:0:
448,192,137245,1,0,0:0:0:0:
64,192,137305,1,0,0:0:0:0:
192,192,137364,1,0,0:0:0:0:
448,192,137364,1,0,0:0:0:0:
320,192,137424,1,0,0:0:0:0:
64,192,137483,1,0,0:0:0:0:
192,192,137483,1,0,0:0:0:0:
448,192,137483,1,0,0:0:0:0:
320,192,137543,1,0,0:0:0:0:
64,192,137602,1,0,0:0:0:0:
192,192,137602,1,0,0:0:0:0:
448,192,137662,1,0,0:0:0:0:
64,192,137721,1,0,0:0:0:0:
320,192,137721,1,0,0:0:0:0:
64,192,137840,1,0,0:0:0:0:
320,192,137840,1,0,0:0:0:0:
192,192,137959,1,0,0:0:0:0:
320,192,137959,1,0,0:0:0:0:
448,192,137959,1,0,0:0:0:0:
64,192,138078,1,0,0:0:0:0:
192,192,138078,1,0,0:0:0:0:
448,192,138078,1,0,0:0:0:0:
64,192,138197,1,0,0:0:0:0:
320,192,138197,1,0,0:0:0:0:
192,192,138257,1,0,0:0:0:0:
64,192,138316,1,0,0:0:0:0:
320,192,138316,1,0,0:0:0:0:
448,192,138376,1,0,0:0:0:0:
192,192,138435,1,0,0:0:0:0:
320,192,138435,1,0,0:0:0:0:
64,192,138495,1,0,0:0:0:0:
192,192,138554,1,0,0:0:0:0:
320,192,138554,1,0,0:0:0:0:
448,192,138614,1,0,0:0:0:0:
64,192,138673,1,0,0:0:0:0:
192,192,138673,1,0,0:0:0:0:
320,192,138733,1,0,0:0:0:0:
448,192,138733,1,0,0:0:0:0:
64,192,138792,1,0,0:0:0:0:
192,192,138792,1,0,0:0:0:0:
448,192,138852,1,0,0:0:0:0:
64,192,138911,1,0,0:0:0:0:
320,192,138911,1,0,0:0:0:0:
192,192,138971,1,0,0:0:0:0:
448,192,138971,1,0,0:0:0:0:
64,192,139030,1,0,0:0:0:0:
320,192,139030,1,0,0:0:0:0:
192,192,139090,1,0,0:0:0:0:
320,192,139149,1,0,0:0:0:0:
448,192,139149,1,0,0:0:0:0:
64,192,139209,1,0,0:0:0:0:
320,192,139268,1,0,0:0:0:0:
448,192,139268,1,0,0:0:0:0:
64,192,139328,1,0,0:0:0:0:
192,192,139328,1,0,0:0:0:0:
448,192,139387,1,0,0:0:0:0:
64,192,139447,1,0,0:0:0:0:
192,192,139447,1,0,0:0:0:0:
320,192,139506,1,0,0:0:0:0:
448,192,139506,1,0,0:0:0:0:
64,192,139566,1,0,0:0:0:0:
192,192,139566,1,0,0:0:0:0:
320,192,139625,1,0,0:0:0:0:
448,192,139625,1,0,0:0:0:0:
192,192,139685,1,0,0:0:0:0:
320,192,139744,1,0,0:0:0:0:
448,192,139744,1,0,0:0:0:0:
64,192,139804,1,0,0:0:0:0:
192,192,139863,1,0,0:0:0:0:
320,192,139863,1,0,0:0:0:0:
64,192,139923,1,0,0:0:0:0:
448,192,139923,1,0,0:0:0:0:
192,192,139982,1,0,0:0:0:0:
320,192,140042,1,0,0:0:0:0:
448,192,140042,1,0,0:0:0:0:
64,192,140101,1,0,0:0:0:0:
320,192,140161,1,0,0:0:0:0:
448,192,140161,1,0,0:0:0:0:
64,192,140220,1,0,0:0:0:0:
192,192,140220,1,0,0:0:0:0:
448,192,140280,1,0,0:0:0:0:
64,192,140339,1,0,0:0:0:0:
320,192,140339,1,0,0:0:0:0:
192,192,140399,1,0,0:0:0:0:
320,192,140458,1,0,0:0:0:0:
448,192,140458,1,0,0:0:0:0:
64,192,140518,1,0,0:0:0:0:
192,192,140577,1,0,0:0:0:0:
448,192,140577,1,0,0:0:0:0:
64,192,140637,1,0,0:0:0:0:
320,192,140637,1,0,0:0:0:0:
192,192,140696,1,0,0:0:0:0:
448,192,140696,1,0,0:0:0:0:
320,192,140756,1,0,0:0:0:0:
64,192,140815,1,0,0:0:0:0:
192,192,140815,1,0,0:0:0:0:
320,192,140875,1,0,0:0:0:0:
448,192,140875,1,0,0:0:0:0:
64,192,140934,1,0,0:0:0:0:
192,192,140934,1,0,0:0:0:0:
448,192,140994,1,0,0:0:0:0:
64,192,141053,1,0,0:0:0:0:
320,192,141053,1,0,0:0:0:0:
192,192,141113,1,0,0:0:0:0:
448,192,141113,1,0,0:0:0:0:
320,192,141172,1,0,0:0:0:0:
192,192,141232,1,0,0:0:0:0:
448,192,141232,1,0,0:0:0:0:
64,192,141291,1,0,0:0:0:0:
192,192,141351,1,0,0:0:0:0:
448,192,141351,1,0,0:0:0:0:
64,192,141410,1,0,0:0:0:0:
320,192,141410,1,0,0:0:0:0:
192,192,141470,1,0,0:0:0:0:
320,192,141529,1,0,0:0:0:0:
448,192,141529,1,0,0:0:0:0:
64,192,141589,1,0,0:0:0:0:
192,192,141648,1,0,0:0:0:0:
448,192,141648,1,0,0:0:0:0:
320,192,141708,1,0,0:0:0:0:
192,192,141767,1,0,0:0:0:0:
448,192,141767,1,0,0:0:0:0:
320,192,141827,1,0,0:0:0:0:
64,192,141886,1,0,0:0:0:0:
192,192,141886,1,0,0:0:0:0:
448,192,141946,1,0,0:0:0:0:
64,192,142005,1,0,0:0:0:0:
320,192,142005,1,0,0:0:0:0:
192,192,142065,1,0,0:0:0:0:
448,192,142065,1,0,0:0:0:0:
64,192,142124,1,0,0:0:0:0:
320,192,142124,1,0,0:0:0:0:
192,192,142184,1,0,0:0:0:0:
320,192,142243,1,0,0:0:0:0:
448,192,142243,1,0,0:0:0:0:
64,192,142303,1,0,0:0:0:0:
192,192,142362,1,0,0:0:0:0:
448,192,142362,1,0,0:0:0:0:
320,192,142422,1,0,0:0:0:0:
64,192,142481,1,0,0:0:0:0:
192,192,142481,1,0,0:0:0:0:
320,192,142541,1,0,0:0:0:0:
448,192,142541,1,0,0:0:0:0:
64,192,142600,1,0,0:0:0:0:
192,192,142600,1,0,0:0:0:0:
448,192,142660,1,0,0:0:0:0:
64,192,142719,1,0,0:0:0:0:
320,192,142719,1,0,0:0:0:0:
192,192,142779,1,0,0:0:0:0:
448,192,142779,1,0,0:0:0:0:
64,192,142838,1,0,0:0:0:0:
320,192,142838,1,0,0:0:0:0:
192,192,142898,1,0,0:0:0:0:
320,192,142957,1,0,0:0:0:0:
448,192,142957,1,0,0:0:0:0:
64,192,143017,1,0,0:0:0:0:
320,192,143076,1,0,0:0:0:0:
448,192,143076,1,0,0:0:0:0:
64,192,143136,1,0,0:0:0:0:
192,192,143136,1,0,0:0:0:0:
448,192,143195,1,0,0:0:0:0:
64,192,143255,1,0,0:0:0:0:
192,192,143255,1,0,0:0:0:0:
320,192,143314,1,0,0:0:0:0:
448,192,143314,1,0,0:0:0:0:
64,192,143374,1,0,0:0:0:0:
192,192,143374,1,0,0:0:0:0:
320,192,143433,1,0,0:0:0:0:
448,192,143433,1,0,0:0:0:0:
192,192,143493,1,0,0:0:0:0:
320,192,143552,1,0,0:0:0:0:
448,192,143552,1,0,0:0:0:0:
64,192,143612,1,0,0:0:0:0:
192,192,143671,1,0,0:0:0:0:
320,192,143671,1,0,0:0:0:0:
64,192,143731,1,0,0:0:0:0:
448,192,143731,1,0,0:0:0:0:
192,192,143790,1,0,0:0:0:0:
320,192,143850,1,0,0:0:0:0:
448,192,143850,1,0,0:0:0:0:
64,192,143909,1,0,0:0:0:0:
320,192,143969,1,0,0:0:0:0:
448,192,143969,1,0,0:0:0:0:
64,192,144028,1,0,0:0:0:0:
192,192,144028,1,0,0:0:0:0:
448,192,144088,1,0,0:0:0:0:
64,192,144147,1,0,0:0:0:0:
320,192,144147,1,0,0:0:0:0:
192,192,144207,1,0,0:0:0:0:
320,192,144266,1,0,0:0:0:0:
448,192,144266,1,0,0:0:0:0:
64,192,144326,1,0,0:0:0:0:
192,192,144386,1,0,0:0:0:0:
320,192,144386,1,0,0:0:0:0:
448,192,144386,1,0,0:0:0:0:
64,192,144445,1,0,0:0:0:0:
192,192,144505,1,0,0:0:0:0:
448,192,144505,1,0,0:0:0:0:
320,192,144564,1,0,0:0:0:0:
64,192,144624,1,0,0:0:0:0:
448,192,144624,1,0,0:0:0:0:
192,192,144683,1,0,0:0:0:0:
64,192,144743,1,0,0:0:0:0:
320,192,144743,1,0,0:0:0:0:
448,192,144802,1,0,0:0:0:0:
64,192,144862,1,0,0:0:0:0:
192,192,144862,1,0,0:0:0:0:
320,192,144921,1,0,0:0:0:0:
448,192,144921,1,0,0:0:0:0:
64,192,144981,1,0,0:0:0:0:
320,192,145040,1,0,0:0:0:0:
448,192,145040,1,0,0:0:0:0:
64,192,145100,1,0,0:0:0:0:
320,192,145159,1,0,0:0:0:0:
448,192,145159,1,0,0:0:0:0:
64,192,145219,1,0,0:0:0:0:
192,192,145219,1,0,0:0:0:0:
448,192,145278,1,0,0:0:0:0:
64,192,145338,1,0,0:0:0:0:
192,192,145338,1,0,0:0:0:0:
320,192,145338,1,0,0:0:0:0:
320,192,145457,1,0,0:0:0:0:
448,192,145457,1,0,0:0:0:0:
64,192,145576,1,0,0:0:0:0:
320,192,145576,1,0,0:0:0:0:
448,192,145576,1,0,0:0:0:0:
64,192,145695,1,0,0:0:0:0:
192,192,145695,1,0,0:0:0:0:
320,192,145754,1,0,0:0:0:0:
448,192,145754,1,0,0:0:0:0:
64,192,145814,1,0,0:0:0:0:
192,192,145814,1,0,0:0:0:0:
320,192,145873,1,0,0:0:0:0:
448,192,145873,1,0,0:0:0:0:
64,192,145933,1,0,0:0:0:0:
192,192,145933,1,0,0:0:0:0:
320,192,145992,1,0,0:0:0:0:
448,192,145992,1,0,0:0:0:0:
64,192,146052,1,0,0:0:0:0:
192,192,146081,1,0,0:0:0:0:
64,192,146171,1,0,0:0:0:0:
320,192,146200,1,0,0:0:0:0:
64,192,146290,128,0,146528:0:0:0:0:
192,192,146290,1,0,0:0:0:0:
448,192,146290,1,0,0:0:0:0:
192,192,146409,1,0,0:0:0:0:
192,192,146647,1,0,0:0:0:0:
320,192,146647,128,0,146885:0:0:0:0:
448,192,146647,1,0,0:0:0:0:
192,192,146885,1,0,0:0:0:0:
448,192,147004,1,0,0:0:0:0:
192,192,147123,1,0,0:0:0:0:
448,192,147123,1,0,0:0:0:0:
64,192,147242,1,0,0:0:0:0:
192,192,147242,1,0,0:0:0:0:
320,192,147242,1,0,0:0:0:0:
64,192,147361,1,0,0:0:0:0:
448,192,147361,1,0,0:0:0:0:
320,192,147480,1,0,0:0:0:0:
64,192,147599,1,0,0:0:0:0:
192,192,147599,128,0,147956:0:0:0:0:
448,192,147837,1,0,0:0:0:0:
448,192,147956,1,0,0:0:0:0:
320,192,148075,1,0,0:0:0:0:
192,192,148114,1,0,0:0:0:0:
448,192,148154,1,0,0:0:0:0:
64,192,148194,1,0,0:0:0:0:
320,192,148194,128,0,148432:0:0:0:0:
192,192,148313,1,0,0:0:0:0:
64,192,148551,128,0,148789:0:0:0:0:
192,192,148551,1,0,0:0:0:0:
448,192,148551,1,0,0:0:0:0:
192,192,148789,1,0,0:0:0:0:
448,192,148848,1,0,0:0:0:0:
320,192,148908,128,0,149146:0:0:0:0:
192,192,149027,1,0,0:0:0:0:
64,192,149146,1,0,0:0:0:0:
192,192,149146,1,0,0:0:0:0:
448,192,149146,1,0,0:0:0:0:
320,192,149265,1,0,0:0:0:0:
448,192,149265,1,0,0:0:0:0:
192,192,149384,1,0,0:0:0:0:
64,192,149503,1,0,0:0:0:0:
448,192,149503,1,0,0:0:0:0:
192,192,149622,1,0,0:0:0:0:
448,192,149681,1,0,0:0:0:0:
64,192,149741,1,0,0:0:0:0:
192,192,149741,1,0,0:0:0:0:
320,192,149800,1,0,0:0:0:0:
64,192,149860,1,0,0:0:0:0:
448,192,149889,1,0,0:0:0:0:
320,192,149919,1,0,0:0:0:0:
192,192,149979,1,0,0:0:0:0:
320,192,150038,1,0,0:0:0:0:
64,192,150098,1,0,0:0:0:0:
192,192,150098,1,0,0:0:0:0:
448,192,150098,1,0,0:0:0:0:
192,192,150217,1,0,0:0:0:0:
320,192,150217,1,0,0:0:0:0:
64,192,150336,1,0,0:0:0:0:
320,192,150336,1,0,0:0:0:0:
448,192,150336,1,0,0:0:0:0:
64,192,150455,1,0,0:0:0:0:
192,192,150455,1,0,0:0:0:0:
320,192,150574,1,0,0:0:0:0:
448,192,150574,1,0,0:0:0:0:
64,192,150693,1,0,0:0:0:0:
192,192,150693,1,0,0:0:0:0:
448,192,150693,1,0,0:0:0:0:
64,192,150812,1,0,0:0:0:0:
192,192,150812,1,0,0:0:0:0:
320,192,150931,1,0,0:0:0:0:
192,192,150990,1,0,0:0:0:0:
320,192,151050,1,0,0:0:0:0:
448,192,151050,1,0,0:0:0:0:
192,192,151169,1,0,0:0:0:0:
64,192,151288,1,0,0:0:0:0:
320,192,151288,1,0,0:0:0:0:
448,192,151288,1,0,0:0:0:0:
192,192,151407,1,0,0:0:0:0:
448,192,151407,1,0,0:0:0:0:
64,192,151526,1,0,0:0:0:0:
192,192,151526,1,0,0:0:0:0:
320,192,151526,1,0,0:0:0:0:
64,192,151645,1,0,0:0:0:0:
320,192,151645,1,0,0:0:0:0:
192,192,151764,1,0,0:0:0:0:
320,192,151764,1,0,0:0:0:0:
448,192,151764,1,0,0:0:0:0:
64,192,151883,1,0,0:0:0:0:
192,192,151883,1,0,0:0:0:0:
64,192,152002,1,0,0:0:0:0:
448,192,152002,1,0,0:0:0:0:
192,192,152121,1,0,0:0:0:0:
320,192,152121,1,0,0:0:0:0:
64,192,152240,1,0,0:0:0:0:
320,192,152240,1,0,0:0:0:0:
448,192,152240,1,0,0:0:0:0:
192,192,152359,1,0,0:0:0:0:
320,192,152478,1,0,0:0:0:0:
448,192,152478,1,0,0:0:0:0:
64,192,152537,1,0,0:0:0:0:
448,192,152597,1,0,0:0:0:0:
192,192,152656,1,0,0:0:0:0:
320,192,152716,1,0,0:0:0:0:
448,192,152716,1,0,0:0:0:0:
64,192,152775,1,0,0:0:0:0:
192,192,152835,1,0,0:0:0:0:
448,192,152835,1,0,0:0:0:0:
320,192,152894,1,0,0:0:0:0:
64,192,152954,1,0,0:0:0:0:
448,192,152954,1,0,0:0:0:0:
192,192,152993,1,0,0:0:0:0:
64,192,153192,1,0,0:0:0:0:
192,192,153192,1,0,0:0:0:0:
448,192,153251,1,0,0:0:0:0:
320,192,153311,1,0,0:0:0:0:
64,192,153370,1,0,0:0:0:0:
320,192,153430,1,0,0:0:0:0:
192,192,153489,1,0,0:0:0:0:
448,192,153549,1,0,0:0:0:0:
192,192,153608,1,0,0:0:0:0:
64,192,153668,1,0,0:0:0:0:
320,192,153668,1,0,0:0:0:0:
448,192,153668,1,0,0:0:0:0:
64,192,153906,1,0,0:0:0:0:
320,192,153906,1,0,0:0:0:0:
448,192,153906,1,0,0:0:0:0:
192,192,154025,1,0,0:0:0:0:
320,192,154025,1,0,0:0:0:0:
64,192,154144,1,0,0:0:0:0:
192,192,154144,1,0,0:0:0:0:
448,192,154144,1,0,0:0:0:0:
64,192,154263,1,0,0:0:0:0:
320,192,154263,1,0,0:0:0:0:
320,192,154382,1,0,0:0:0:0:
448,192,154382,1,0,0:0:0:0:
64,192,154501,1,0,0:0:0:0:
192,192,154501,1,0,0:0:0:0:
64,192,154620,1,0,0:0:0:0:
192,192,154620,1,0,0:0:0:0:
448,192,154620,1,0,0:0:0:0:
192,192,154739,1,0,0:0:0:0:
448,192,154739,1,0,0:0:0:0:
64,192,154858,1,0,0:0:0:0:
320,192,154858,1,0,0:0:0:0:
64,192,154977,1,0,0:0:0:0:
192,192,154977,1,0,0:0:0:0:
192,192,155096,1,0,0:0:0:0:
320,192,155096,1,0,0:0:0:0:
448,192,155096,1,0,0:0:0:0:
320,192,155215,1,0,0:0:0:0:
448,192,155215,1,0,0:0:0:0:
64,192,155334,1,0,0:0:0:0:
192,192,155334,1,0,0:0:0:0:
448,192,155334,1,0,0:0:0:0:
192,192,155453,1,0,0:0:0:0:
192,192,155572,1,0,0:0:0:0:
320,192,155572,1,0,0:0:0:0:
448,192,155572,1,0,0:0:0:0:
320,192,155691,1,0,0:0:0:0:
64,192,155810,1,0,0:0:0:0:
192,192,155810,1,0,0:0:0:0:
448,192,155810,1,0,0:0:0:0:
320,192,155929,1,0,0:0:0:0:
448,192,155929,1,0,0:0:0:0:
192,192,155988,1,0,0:0:0:0:
64,192,156048,1,0,0:0:0:0:
320,192,156048,1,0,0:0:0:0:
448,192,156048,1,0,0:0:0:0:
192,192,156107,1,0,0:0:0:0:
64,192,156167,1,0,0:0:0:0:
448,192,156167,1,0,0:0:0:0:
64,192,156286,1,0,0:0:0:0:
192,192,156286,1,0,0:0:0:0:
320,192,156286,1,0,0:0:0:0:
320,192,156405,1,0,0:0:0:0:
64,192,156524,1,0,0:0:0:0:
192,192,156524,1,0,0:0:0:0:
448,192,156524,1,0,0:0:0:0:
192,192,156643,1,0,0:0:0:0:
320,192,156643,1,0,0:0:0:0:
64,192,156762,1,0,0:0:0:0:
320,192,156762,1,0,0:0:0:0:
448,192,156762,1,0,0:0:0:0:
192,192,156881,1,0,0:0:0:0:
320,192,156940,1,0,0:0:0:0:
64,192,157000,1,0,0:0:0:0:
448,192,157000,1,0,0:0:0:0:
192,192,157119,1,0,0:0:0:0:
320,192,157119,1,0,0:0:0:0:
320,192,157238,1,0,0:0:0:0:
448,192,157238,1,0,0:0:0:0:
64,192,157357,1,0,0:0:0:0:
320,192,157416,1,0,0:0:0:0:
64,192,157476,1,0,0:0:0:0:
192,192,157476,1,0,0:0:0:0:
448,192,157535,1,0,0:0:0:0:
320,192,157595,1,0,0:0:0:0:
64,192,157654,1,0,0:0:0:0:
192,192,157714,1,0,0:0:0:0:
320,192,157714,1,0,0:0:0:0:
448,192,157714,1,0,0:0:0:0:
64,192,157833,1,0,0:0:0:0:
320,192,157833,1,0,0:0:0:0:
64,192,157952,1,0,0:0:0:0:
192,192,157952,1,0,0:0:0:0:
448,192,157952,1,0,0:0:0:0:
320,192,158071,1,0,0:0:0:0:
448,192,158071,1,0,0:0:0:0:
64,192,158190,1,0,0:0:0:0:
192,192,158190,1,0,0:0:0:0:
64,192,158309,1,0,0:0:0:0:
320,192,158309,1,0,0:0:0:0:
64,192,158428,1,0,0:0:0:0:
320,192,158428,1,0,0:0:0:0:
448,192,158428,1,0,0:0:0:0:
192,192,158547,1,0,0:0:0:0:
320,192,158547,1,0,0:0:0:0:
192,192,158666,1,0,0:0:0:0:
448,192,158666,1,0,0:0:0:0:
64,192,158785,1,0,0:0:0:0:
320,192,158785,1,0,0:0:0:0:
192,192,158904,1,0,0:0:0:0:
320,192,158904,1,0,0:0:0:0:
448,192,158904,1,0,0:0:0:0:
64,192,159023,1,0,0:0:0:0:
192,192,159023,1,0,0:0:0:0:
64,192,159142,1,0,0:0:0:0:
320,192,159142,1,0,0:0:0:0:
448,192,159142,1,0,0:0:0:0:
320,192,159261,1,0,0:0:0:0:
64,192,159380,1,0,0:0:0:0:
192,192,159380,1,0,0:0:0:0:
448,192,159380,1,0,0:0:0:0:
192,192,159499,1,0,0:0:0:0:
64,192,159618,1,0,0:0:0:0:
320,192,159618,1,0,0:0:0:0:
448,192,159618,1,0,0:0:0:0:
192,192,159737,128,0,159797:0:0:0:0:
64,192,159856,1,0,0:0:0:0:
192,192,159856,1,0,0:0:0:0:
448,192,159856,1,0,0:0:0:0:
320,192,159975,128,0,160035:0:0:0:0:
64,192,160094,1,0,0:0:0:0:
320,192,160094,1,0,0:0:0:0:
448,192,160094,1,0,0:0:0:0:
192,192,160213,1,0,0:0:0:0:
448,192,160273,1,0,0:0:0:0:
64,192,160332,1,0,0:0:0:0:
320,192,160332,1,0,0:0:0:0:
192,192,160451,1,0,0:0:0:0:
448,192,160451,1,0,0:0:0:0:
64,192,160570,1,0,0:0:0:0:
320,192,160570,1,0,0:0:0:0:
448,192,160630,1,0,0:0:0:0:
320,192,160689,1,0,0:0:0:0:
64,192,160749,1,0,0:0:0:0:
192,192,160749,1,0,0:0:0:0:
320,192,160808,1,0,0:0:0:0:
448,192,160808,1,0,0:0:0:0:
192,192,160868,1,0,0:0:0:0:
64,192,160927,1,0,0:0:0:0:
448,192,160927,1,0,0:0:0:0:
320,192,160987,1,0,0:0:0:0:
192,192,161046,1,0,0:0:0:0:
448,192,161106,1,0,0:0:0:0:
192,192,161165,1,0,0:0:0:0:
448,192,161225,1,0,0:0:0:0:
320,192,161284,128,0,161403:0:0:0:0:
192,192,161403,1,0,0:0:0:0:
64,192,161522,1,0,0:0:0:0:
192,192,161522,1,0,0:0:0:0:
320,192,161522,1,0,0:0:0:0:
448,192,161522,1,0,0:0:0:0:
64,192,161641,1,0,0:0:0:0:
320,192,161641,1,0,0:0:0:0:
192,192,161760,1,0,0:0:0:0:
320,192,161879,1,0,0:0:0:0:
448,192,161879,1,0,0:0:0:0:
192,192,161998,1,0,0:0:0:0:
64,192,162117,1,0,0:0:0:0:
320,192,162117,1,0,0:0:0:0:
192,192,162236,1,0,0:0:0:0:
448,192,162236,1,0,0:0:0:0:
64,192,162355,1,0,0:0:0:0:
320,192,162355,128,0,162534:0:0:0:0:
192,192,162474,1,0,0:0:0:0:
64,192,162593,1,0,0:0:0:0:
448,192,162593,1,0,0:0:0:0:
192,192,162712,1,0,0:0:0:0:
448,192,162712,1,0,0:0:0:0:
192,192,162831,1,0,0:0:0:0:
320,192,162831,1,0,0:0:0:0:
64,192,162950,1,0,0:0:0:0:
448,192,162950,128,0,163129:0:0:0:0:
192,192,163069,1,0,0:0:0:0:
192,192,163188,1,0,0:0:0:0:
320,192,163188,1,0,0:0:0:0:
64,192,163307,1,0,0:0:0:0:
192,192,163426,1,0,0:0:0:0:
448,192,163426,1,0,0:0:0:0:
64,192,163545,1,0,0:0:0:0:
192,192,163605,1,0,0:0:0:0:
448,192,163605,1,0,0:0:0:0:
320,192,163664,128,0,163783:0:0:0:0:
64,192,163783,128,0,163902:0:0:0:0:
192,192,163783,1,0,0:0:0:0:
320,192,163902,1,0,0:0:0:0:
448,192,163902,128,0,164081:0:0:0:0:
192,192,164021,1,0,0:0:0:0:
64,192,164140,128,0,164319:0:0:0:0:
320,192,164140,1,0,0:0:0:0:
192,192,164259,1,0,0:0:0:0:
320,192,164378,1,0,0:0:0:0:
448,192,164378,128,0,164616:0:0:0:0:
64,192,164497,1,0,0:0:0:0:
192,192,164616,1,0,0:0:0:0:
64,192,164735,1,0,0:0:0:0:
320,192,164735,1,0,0:0:0:0:
64,192,164854,1,0,0:0:0:0:
320,192,164854,128,0,165092:0:0:0:0:
192,192,164973,1,0,0:0:0:0:
64,192,165092,1,0,0:0:0:0:
448,192,165092,1,0,0:0:0:0:
192,192,165211,1,0,0:0:0:0:
64,192,165330,1,0,0:0:0:0:
320,192,165330,1,0,0:0:0:0:
448,192,165330,1,0,0:0:0:0:
192,192,165390,1,0,0:0:0:0:
320,192,165449,1,0,0:0:0:0:
448,192,165449,1,0,0:0:0:0:
64,192,165509,1,0,0:0:0:0:
192,192,165568,1,0,0:0:0:0:
448,192,165568,1,0,0:0:0:0:
320,192,165628,1,0,0:0:0:0:
64,192,165687,1,0,0:0:0:0:
192,192,165687,1,0,0:0:0:0:
448,192,165747,1,0,0:0:0:0:
320,192,165806,1,0,0:0:0:0:
64,192,165866,1,0,0:0:0:0:
192,192,165925,1,0,0:0:0:0:
448,192,165925,1,0,0:0:0:0:
320,192,165985,1,0,0:0:0:0:
64,192,166044,1,0,0:0:0:0:
448,192,166044,1,0,0:0:0:0:
192,192,166104,1,0,0:0:0:0:
64,192,166163,1,0,0:0:0:0:
320,192,166163,1,0,0:0:0:0:
448,192,166223,1,0,0:0:0:0:
192,192,166282,1,0,0:0:0:0:
320,192,166342,1,0,0:0:0:0:
64,192,166401,1,0,0:0:0:0:
192,192,166401,1,0,0:0:0:0:
448,192,166461,1,0,0:0:0:0:
64,192,166520,1,0,0:0:0:0:
320,192,166520,1,0,0:0:0:0:
192,192,166580,1,0,0:0:0:0:
448,192,166639,1,0,0:0:0:0:
320,192,166699,1,0,0:0:0:0:
64,192,166758,1,0,0:0:0:0:
192,192,166758,1,0,0:0:0:0:
320,192,166818,1,0,0:0:0:0:
448,192,166877,1,0,0:0:0:0:
64,192,166937,1,0,0:0:0:0:
192,192,166996,1,0,0:0:0:0:
320,192,166996,1,0,0:0:0:0:
448,192,167056,1,0,0:0:0:0:
64,192,167115,1,0,0:0:0:0:
320,192,167175,1,0,0:0:0:0:
64,192,167234,1,0,0:0:0:0:
192,192,167264,1,0,0:0:0:0:
448,192,167294,1,0,0:0:0:0:
320,192,167324,1,0,0:0:0:0:
64,192,167353,1,0,0:0:0:0:
192,192,167383,1,0,0:0:0:0:
448,192,167413,1,0,0:0:0:0:
320,192,167443,1,0,0:0:0:0:
64,192,167472,1,0,0:0:0:0:
192,192,167502,1,0,0:0:0:0:
448,192,167532,1,0,0:0:0:0:
320,192,167562,1,0,0:0:0:0:
64,192,167591,1,0,0:0:0:0:
192,192,167621,1,0,0:0:0:0:
448,192,167651,1,0,0:0:0:0:
320,192,167681,1,0,0:0:0:0:
64,192,167710,1,0,0:0:0:0:
192,192,167740,1,0,0:0:0:0:
448,192,167770,1,0,0:0:0:0:
320,192,167800,1,0,0:0:0:0:
64,192,167829,1,0,0:0:0:0:
192,192,167859,1,0,0:0:0:0:
448,192,167889,1,0,0:0:0:0:
320,192,167919,1,0,0:0:0:0:
64,192,167948,1,0,0:0:0:0:
192,192,167978,1,0,0:0:0:0:
448,192,168008,1,0,0:0:0:0:
320,192,168038,1,0,0:0:0:0:
64,192,168067,1,0,0:0:0:0:
192,192,168097,1,0,0:0:0:0:
448,192,168127,1,0,0:0:0:0:
320,192,168157,1,0,0:0:0:0:
64,192,168186,1,0,0:0:0:0:
192,192,168186,1,0,0:0:0:0:
320,192,168365,1,0,0:0:0:0:
64,192,168424,1,0,0:0:0:0:
448,192,168424,1,0,0:0:0:0:
320,192,168543,1,0,0:0:0:0:
448,192,168543,1,0,0:0:0:0:
192,192,168603,1,0,0:0:0:0:
64,192,168662,1,0,0:0:0:0:
320,192,168662,1,0,0:0:0:0:
192,192,168722,1,0,0:0:0:0:
320,192,168781,1,0,0:0:0:0:
448,192,168781,1,0,0:0:0:0:
64,192,168841,1,0,0:0:0:0:
320,192,168900,1,0,0:0:0:0:
448,192,168900,1,0,0:0:0:0:
320,192,168960,1,0,0:0:0:0:
448,192,168960,1,0,0:0:0:0:
64,192,169019,1,0,0:0:0:0:
192,192,169019,1,0,0:0:0:0:
64,192,169079,1,0,0:0:0:0:
192,192,169079,1,0,0:0:0:0:
320,192,169138,1,0,0:0:0:0:
448,192,169138,1,0,0:0:0:0:
64,192,169198,1,0,0:0:0:0:
192,192,169257,1,0,0:0:0:0:
448,192,169257,1,0,0:0:0:0:
320,192,169317,1,0,0:0:0:0:
64,192,169376,1,0,0:0:0:0:
192,192,169376,1,0,0:0:0:0:
448,192,169376,1,0,0:0:0:0:
320,192,169436,1,0,0:0:0:0:
64,192,169495,1,0,0:0:0:0:
192,192,169495,1,0,0:0:0:0:
448,192,169555,1,0,0:0:0:0:
64,192,169614,1,0,0:0:0:0:
320,192,169614,1,0,0:0:0:0:
192,192,169674,1,0,0:0:0:0:
320,192,169733,1,0,0:0:0:0:
448,192,169733,1,0,0:0:0:0:
64,192,169793,1,0,0:0:0:0:
192,192,169852,1,0,0:0:0:0:
448,192,169852,1,0,0:0:0:0:
320,192,169912,1,0,0:0:0:0:
64,192,169971,1,0,0:0:0:0:
192,192,169971,1,0,0:0:0:0:
320,192,170031,1,0,0:0:0:0:
448,192,170031,1,0,0:0:0:0:
64,192,170090,1,0,0:0:0:0:
192,192,170090,1,0,0:0:0:0:
448,192,170150,1,0,0:0:0:0:
64,192,170209,1,0,0:0:0:0:
320,192,170209,1,0,0:0:0:0:
192,192,170269,1,0,0:0:0:0:
64,192,170328,1,0,0:0:0:0:
320,192,170328,1,0,0:0:0:0:
448,192,170328,1,0,0:0:0:0:
192,192,170388,1,0,0:0:0:0:
320,192,170447,1,0,0:0:0:0:
448,192,170447,1,0,0:0:0:0:
64,192,170507,1,0,0:0:0:0:
192,192,170566,1,0,0:0:0:0:
320,192,170566,1,0,0:0:0:0:
448,192,170566,1,0,0:0:0:0:
64,192,170626,1,0,0:0:0:0:
192,192,170685,1,0,0:0:0:0:
448,192,170685,1,0,0:0:0:0:
320,192,170745,1,0,0:0:0:0:
64,192,170804,1,0,0:0:0:0:
192,192,170804,1,0,0:0:0:0:
448,192,170804,1,0,0:0:0:0:
320,192,170864,1,0,0:0:0:0:
64,192,170923,1,0,0:0:0:0:
192,192,170923,1,0,0:0:0:0:
448,192,170983,1,0,0:0:0:0:
64,192,171042,1,0,0:0:0:0:
192,192,171042,1,0,0:0:0:0:
320,192,171042,1,0,0:0:0:0:
448,192,171102,1,0,0:0:0:0:
320,192,171161,1,0,0:0:0:0:
64,192,171221,1,0,0:0:0:0:
192,192,171221,1,0,0:0:0:0:
320,192,171280,1,0,0:0:0:0:
448,192,171280,1,0,0:0:0:0:
64,192,171340,1,0,0:0:0:0:
192,192,171399,1,0,0:0:0:0:
448,192,171399,1,0,0:0:0:0:
320,192,171459,1,0,0:0:0:0:
64,192,171518,1,0,0:0:0:0:
192,192,171518,1,0,0:0:0:0:
448,192,171518,1,0,0:0:0:0:
320,192,171578,1,0,0:0:0:0:
64,192,171637,1,0,0:0:0:0:
192,192,171637,1,0,0:0:0:0:
448,192,171697,1,0,0:0:0:0:
64,192,171756,1,0,0:0:0:0:
192,192,171756,1,0,0:0:0:0:
320,192,171756,1,0,0:0:0:0:
448,192,171816,1,0,0:0:0:0:
192,192,171875,1,0,0:0:0:0:
320,192,171875,1,0,0:0:0:0:
64,192,171935,1,0,0:0:0:0:
192,192,171994,1,0,0:0:0:0:
320,192,171994,1,0,0:0:0:0:
448,192,171994,1,0,0:0:0:0:
64,192,172054,1,0,0:0:0:0:
320,192,172113,1,0,0:0:0:0:
448,192,172113,1,0,0:0:0:0:
64,192,172173,1,0,0:0:0:0:
320,192,172232,1,0,0:0:0:0:
448,192,172232,1,0,0:0:0:0:
64,192,172292,1,0,0:0:0:0:
192,192,172351,1,0,0:0:0:0:
448,192,172351,1,0,0:0:0:0:
64,192,172411,1,0,0:0:0:0:
320,192,172411,1,0,0:0:0:0:
192,192,172470,1,0,0:0:0:0:
448,192,172470,1,0,0:0:0:0:
320,192,172530,1,0,0:0:0:0:
64,192,172589,1,0,0:0:0:0:
192,192,172589,1,0,0:0:0:0:
320,192,172649,1,0,0:0:0:0:
64,192,172708,1,0,0:0:0:0:
192,192,172708,1,0,0:0:0:0:
448,192,172768,1,0,0:0:0:0:
64,192,172827,1,0,0:0:0:0:
320,192,172827,1,0,0:0:0:0:
192,192,172887,1,0,0:0:0:0:
64,192,172946,1,0,0:0:0:0:
320,192,172946,1,0,0:0:0:0:
448,192,172946,1,0,0:0:0:0:
192,192,173006,1,0,0:0:0:0:
320,192,173065,1,0,0:0:0:0:
448,192,173065,1,0,0:0:0:0:
64,192,173125,1,0,0:0:0:0:
192,192,173184,1,0,0:0:0:0:
320,192,173184,1,0,0:0:0:0:
448,192,173184,1,0,0:0:0:0:
64,192,173244,1,0,0:0:0:0:
192,192,173304,1,0,0:0:0:0:
320,192,173304,1,0,0:0:0:0:
448,192,173363,1,0,0:0:0:0:
64,192,173423,1,0,0:0:0:0:
320,192,173423,1,0,0:0:0:0:
192,192,173482,1,0,0:0:0:0:
320,192,173542,1,0,0:0:0:0:
448,192,173542,1,0,0:0:0:0:
192,192,173601,1,0,0:0:0:0:
320,192,173661,1,0,0:0:0:0:
448,192,173661,1,0,0:0:0:0:
64,192,173720,1,0,0:0:0:0:
192,192,173780,1,0,0:0:0:0:
448,192,173780,1,0,0:0:0:0:
320,192,173839,1,0,0:0:0:0:
64,192,173899,1,0,0:0:0:0:
192,192,173899,1,0,0:0:0:0:
448,192,173958,1,0,0:0:0:0:
64,192,174018,1,0,0:0:0:0:
320,192,174018,1,0,0:0:0:0:
192,192,174077,1,0,0:0:0:0:
64,192,174137,1,0,0:0:0:0:
320,192,174137,1,0,0:0:0:0:
448,192,174137,1,0,0:0:0:0:
192,192,174196,1,0,0:0:0:0:
320,192,174256,1,0,0:0:0:0:
448,192,174256,1,0,0:0:0:0:
64,192,174315,1,0,0:0:0:0:
192,192,174375,1,0,0:0:0:0:
448,192,174375,1,0,0:0:0:0:
320,192,174434,1,0,0:0:0:0:
64,192,174494,1,0,0:0:0:0:
448,192,174494,1,0,0:0:0:0:
192,192,174553,1,0,0:0:0:0:
64,192,174613,1,0,0:0:0:0:
320,192,174613,1,0,0:0:0:0:
448,192,174672,1,0,0:0:0:0:
192,192,174732,1,0,0:0:0:0:
320,192,174732,1,0,0:0:0:0:
64,192,174791,1,0,0:0:0:0:
192,192,174851,1,0,0:0:0:0:
320,192,174851,1,0,0:0:0:0:
448,192,174851,1,0,0:0:0:0:
320,192,174970,1,0,0:0:0:0:
448,192,174970,1,0,0:0:0:0:
64,192,175089,1,0,0:0:0:0:
192,192,175089,1,0,0:0:0:0:
448,192,175089,1,0,0:0:0:0:
64,192,175208,1,0,0:0:0:0:
192,192,175208,1,0,0:0:0:0:
192,192,175327,1,0,0:0:0:0:
448,192,175327,1,0,0:0:0:0:
320,192,175386,1,0,0:0:0:0:
64,192,175446,1,0,0:0:0:0:
192,192,175446,1,0,0:0:0:0:
448,192,175446,1,0,0:0:0:0:
320,192,175505,1,0,0:0:0:0:
64,192,175565,1,0,0:0:0:0:
192,192,175565,1,0,0:0:0:0:
448,192,175565,1,0,0:0:0:0:
320,192,175684,1,0,0:0:0:0:
448,192,175684,1,0,0:0:0:0:
192,192,175743,1,0,0:0:0:0:
64,192,175803,1,0,0:0:0:0:
320,192,175803,1,0,0:0:0:0:
448,192,175803,1,0,0:0:0:0:
192,192,175922,1,0,0:0:0:0:
320,192,175981,1,0,0:0:0:0:
448,192,175981,1,0,0:0:0:0:
64,192,176041,1,0,0:0:0:0:
192,192,176041,1,0,0:0:0:0:
64,192,176160,1,0,0:0:0:0:
320,192,176160,1,0,0:0:0:0:
448,192,176160,1,0,0:0:0:0:
320,192,176279,1,0,0:0:0:0:
448,192,176279,1,0,0:0:0:0:
64,192,176338,1,0,0:0:0:0:
192,192,176338,1,0,0:0:0:0:
320,192,176398,1,0,0:0:0:0:
448,192,176398,1,0,0:0:0:0:
64,192,176457,1,0,0:0:0:0:
192,192,176457,1,0,0:0:0:0:
320,192,176517,1,0,0:0:0:0:
448,192,176517,1,0,0:0:0:0:
64,192,176576,1,0,0:0:0:0:
320,192,176636,1,0,0:0:0:0:
448,192,176636,1,0,0:0:0:0:
64,192,176695,1,0,0:0:0:0:
192,192,176755,1,0,0:0:0:0:
320,192,176755,1,0,0:0:0:0:
448,192,176755,1,0,0:0:0:0:
192,192,176874,1,0,0:0:0:0:
320,192,176874,1,0,0:0:0:0:
64,192,176993,1,0,0:0:0:0:
192,192,176993,1,0,0:0:0:0:
448,192,176993,1,0,0:0:0:0:
64,192,177112,1,0,0:0:0:0:
320,192,177112,1,0,0:0:0:0:
448,192,177112,1,0,0:0:0:0:
64,192,177231,1,0,0:0:0:0:
192,192,177231,1,0,0:0:0:0:
448,192,177231,1,0,0:0:0:0:
320,192,177290,1,0,0:0:0:0:
64,192,177350,1,0,0:0:0:0:
192,192,177350,1,0,0:0:0:0:
448,192,177389,1,0,0:0:0:0:
320,192,177429,1,0,0:0:0:0:
192,192,177469,1,0,0:0:0:0:
64,192,177498,1,0,0:0:0:0:
448,192,177528,1,0,0:0:0:0:
320,192,177558,1,0,0:0:0:0:
192,192,177588,1,0,0:0:0:0:
64,192,177617,1,0,0:0:0:0:
448,192,177647,1,0,0:0:0:0:
320,192,177677,1,0,0:0:0:0:
64,192,177707,1,0,0:0:0:0:
192,192,177707,1,0,0:0:0:0:
320,192,177766,1,0,0:0:0:0:
448,192,177766,1,0,0:0:0:0:
64,192,177826,1,0,0:0:0:0:
192,192,177826,1,0,0:0:0:0:
448,192,177885,1,0,0:0:0:0:
64,192,177945,1,0,0:0:0:0:
320,192,177945,1,0,0:0:0:0:
192,192,178004,1,0,0:0:0:0:
448,192,178004,1,0,0:0:0:0:
64,192,178064,1,0,0:0:0:0:
320,192,178064,1,0,0:0:0:0:
192,192,178123,1,0,0:0:0:0:
320,192,178183,1,0,0:0:0:0:
448,192,178183,1,0,0:0:0:0:
64,192,178242,1,0,0:0:0:0:
320,192,178302,1,0,0:0:0:0:
448,192,178302,1,0,0:0:0:0:
64,192,178361,1,0,0:0:0:0:
192,192,178361,1,0,0:0:0:0:
448,192,178421,1,0,0:0:0:0:
64,192,178480,1,0,0:0:0:0:
192,192,178480,1,0,0:0:0:0:
320,192,178540,1,0,0:0:0:0:
448,192,178540,1,0,0:0:0:0:
64,192,178599,1,0,0:0:0:0:
192,192,178599,1,0,0:0:0:0:
320,192,178659,1,0,0:0:0:0:
448,192,178659,1,0,0:0:0:0:
192,192,178718,1,0,0:0:0:0:
320,192,178778,1,0,0:0:0:0:
448,192,178778,1,0,0:0:0:0:
64,192,178837,1,0,0:0:0:0:
192,192,178897,1,0,0:0:0:0:
320,192,178897,1,0,0:0:0:0:
64,192,178956,1,0,0:0:0:0:
448,192,178956,1,0,0:0:0:0:
192,192,179016,1,0,0:0:0:0:
320,192,179075,1,0,0:0:0:0:
448,192,179075,1,0,0:0:0:0:
64,192,179135,1,0,0:0:0:0:
192,192,179135,1,0,0:0:0:0:
448,192,179194,1,0,0:0:0:0:
64,192,179254,1,0,0:0:0:0:
320,192,179254,1,0,0:0:0:0:
192,192,179313,1,0,0:0:0:0:
64,192,179373,1,0,0:0:0:0:
320,192,179373,1,0,0:0:0:0:
448,192,179373,1,0,0:0:0:0:
192,192,179432,1,0,0:0:0:0:
320,192,179492,1,0,0:0:0:0:
448,192,179492,1,0,0:0:0:0:
64,192,179551,1,0,0:0:0:0:
192,192,179611,1,0,0:0:0:0:
448,192,179611,1,0,0:0:0:0:
64,192,179670,1,0,0:0:0:0:
320,192,179670,1,0,0:0:0:0:
192,192,179730,1,0,0:0:0:0:
448,192,179730,1,0,0:0:0:0:
320,192,179789,1,0,0:0:0:0:
64,192,179849,1,0,0:0:0:0:
192,192,179849,1,0,0:0:0:0:
320,192,179908,1,0,0:0:0:0:
448,192,179908,1,0,0:0:0:0:
64,192,179968,1,0,0:0:0:0:
192,192,179968,1,0,0:0:0:0:
320,192,180027,1,0,0:0:0:0:
192,192,180087,1,0,0:0:0:0:
448,192,180087,1,0,0:0:0:0:
64,192,180146,1,0,0:0:0:0:
320,192,180146,1,0,0:0:0:0:
448,192,180206,1,0,0:0:0:0:
64,192,180265,1,0,0:0:0:0:
320,192,180265,1,0,0:0:0:0:
192,192,180325,1,0,0:0:0:0:
64,192,180384,1,0,0:0:0:0:
320,192,180384,1,0,0:0:0:0:
192,192,180444,1,0,0:0:0:0:
448,192,180444,1,0,0:0:0:0:
320,192,180503,1,0,0:0:0:0:
64,192,180563,1,0,0:0:0:0:
192,192,180563,1,0,0:0:0:0:
448,192,180563,1,0,0:0:0:0:
320,192,180622,1,0,0:0:0:0:
64,192,180682,1,0,0:0:0:0:
192,192,180682,1,0,0:0:0:0:
448,192,180741,1,0,0:0:0:0:
64,192,180801,1,0,0:0:0:0:
192,192,180801,1,0,0:0:0:0:
320,192,180801,1,0,0:0:0:0:
448,192,180860,1,0,0:0:0:0:
64,192,180920,1,0,0:0:0:0:
320,192,180920,1,0,0:0:0:0:
192,192,180979,1,0,0:0:0:0:
64,192,181039,1,0,0:0:0:0:
320,192,181039,1,0,0:0:0:0:
448,192,181039,1,0,0:0:0:0:
192,192,181098,1,0,0:0:0:0:
320,192,181158,1,0,0:0:0:0:
448,192,181158,1,0,0:0:0:0:
64,192,181217,1,0,0:0:0:0:
192,192,181217,1,0,0:0:0:0:
320,192,181277,1,0,0:0:0:0:
448,192,181277,1,0,0:0:0:0:
64,192,181336,1,0,0:0:0:0:
192,192,181336,1,0,0:0:0:0:
448,192,181396,1,0,0:0:0:0:
320,192,181426,1,0,0:0:0:0:
64,192,181455,1,0,0:0:0:0:
192,192,181485,1,0,0:0:0:0:
320,192,181515,1,0,0:0:0:0:
448,192,181515,1,0,0:0:0:0:
64,192,181574,1,0,0:0:0:0:
192,192,181574,1,0,0:0:0:0:
320,192,181634,1,0,0:0:0:0:
448,192,181634,1,0,0:0:0:0:
64,192,181693,1,0,0:0:0:0:
192,192,181753,1,0,0:0:0:0:
448,192,181753,1,0,0:0:0:0:
64,192,181812,1,0,0:0:0:0:
320,192,181812,1,0,0:0:0:0:
192,192,181872,1,0,0:0:0:0:
448,192,181872,1,0,0:0:0:0:
320,192,181931,1,0,0:0:0:0:
64,192,181991,1,0,0:0:0:0:
192,192,181991,1,0,0:0:0:0:
448,192,181991,1,0,0:0:0:0:
320,192,182050,1,0,0:0:0:0:
64,192,182110,1,0,0:0:0:0:
192,192,182110,1,0,0:0:0:0:
320,192,182169,1,0,0:0:0:0:
448,192,182169,1,0,0:0:0:0:
64,192,182229,1,0,0:0:0:0:
320,192,182288,1,0,0:0:0:0:
448,192,182288,1,0,0:0:0:0:
64,192,182348,1,0,0:0:0:0:
192,192,182348,1,0,0:0:0:0:
320,192,182407,1,0,0:0:0:0:
448,192,182407,1,0,0:0:0:0:
64,192,182467,1,0,0:0:0:0:
192,192,182467,1,0,0:0:0:0:
320,192,182526,1,0,0:0:0:0:
64,192,182586,1,0,0:0:0:0:
192,192,182586,1,0,0:0:0:0:
448,192,182645,1,0,0:0:0:0:
192,192,182705,1,0,0:0:0:0:
320,192,182705,1,0,0:0:0:0:
64,192,182764,1,0,0:0:0:0:
448,192,182764,1,0,0:0:0:0:
320,192,182824,1,0,0:0:0:0:
64,192,182883,1,0,0:0:0:0:
192,192,182883,1,0,0:0:0:0:
320,192,182943,1,0,0:0:0:0:
448,192,182943,1,0,0:0:0:0:
64,192,183002,1,0,0:0:0:0:
192,192,183062,1,0,0:0:0:0:
448,192,183062,1,0,0:0:0:0:
320,192,183121,1,0,0:0:0:0:
64,192,183181,1,0,0:0:0:0:
192,192,183181,1,0,0:0:0:0:
448,192,183181,1,0,0:0:0:0:
320,192,183240,1,0,0:0:0:0:
64,192,183300,1,0,0:0:0:0:
192,192,183300,1,0,0:0:0:0:
448,192,183359,1,0,0:0:0:0:
64,192,183419,1,0,0:0:0:0:
192,192,183419,1,0,0:0:0:0:
320,192,183419,1,0,0:0:0:0:
448,192,183478,1,0,0:0:0:0:
64,192,183538,1,0,0:0:0:0:
192,192,183538,1,0,0:0:0:0:
320,192,183597,1,0,0:0:0:0:
64,192,183657,1,0,0:0:0:0:
448,192,183657,1,0,0:0:0:0:
192,192,183716,1,0,0:0:0:0:
320,192,183776,1,0,0:0:0:0:
448,192,183776,1,0,0:0:0:0:
64,192,183835,1,0,0:0:0:0:
192,192,183895,1,0,0:0:0:0:
320,192,183895,1,0,0:0:0:0:
448,192,183895,1,0,0:0:0:0:
64,192,183954,1,0,0:0:0:0:
192,192,184014,1,0,0:0:0:0:
64,192,184073,1,0,0:0:0:0:
320,192,184073,1,0,0:0:0:0:
448,192,184073,1,0,0:0:0:0:
192,192,184133,1,0,0:0:0:0:
448,192,184192,1,0,0:0:0:0:
64,192,184252,1,0,0:0:0:0:
192,192,184252,1,0,0:0:0:0:
320,192,184252,1,0,0:0:0:0:
448,192,184311,1,0,0:0:0:0:
64,192,184371,1,0,0:0:0:0:
320,192,184371,1,0,0:0:0:0:
192,192,184430,1,0,0:0:0:0:
320,192,184490,1,0,0:0:0:0:
448,192,184490,1,0,0:0:0:0:
64,192,184549,1,0,0:0:0:0:
320,192,184609,1,0,0:0:0:0:
448,192,184609,1,0,0:0:0:0:
192,192,184668,1,0,0:0:0:0:
320,192,184728,1,0,0:0:0:0:
448,192,184728,1,0,0:0:0:0:
64,192,184787,1,0,0:0:0:0:
192,192,184787,1,0,0:0:0:0:
320,192,184847,1,0,0:0:0:0:
448,192,184847,1,0,0:0:0:0:
64,192,184906,1,0,0:0:0:0:
192,192,184906,1,0,0:0:0:0:
320,192,184966,1,0,0:0:0:0:
448,192,184966,1,0,0:0:0:0:
64,192,185025,1,0,0:0:0:0:
192,192,185025,1,0,0:0:0:0:
320,192,185085,1,0,0:0:0:0:
448,192,185115,1,0,0:0:0:0:
64,192,185144,1,0,0:0:0:0:
320,192,185204,1,0,0:0:0:0:
192,192,185263,1,0,0:0:0:0:
320,192,185323,1,0,0:0:0:0:
448,192,185323,1,0,0:0:0:0:
64,192,185382,1,0,0:0:0:0:
192,192,185382,1,0,0:0:0:0:
320,192,185442,1,0,0:0:0:0:
448,192,185442,1,0,0:0:0:0:
64,192,185501,1,0,0:0:0:0:
192,192,185561,1,0,0:0:0:0:
448,192,185561,1,0,0:0:0:0:
64,192,185620,1,0,0:0:0:0:
320,192,185620,1,0,0:0:0:0:
192,192,185680,1,0,0:0:0:0:
448,192,185680,1,0,0:0:0:0:
320,192,185739,1,0,0:0:0:0:
64,192,185799,1,0,0:0:0:0:
192,192,185799,1,0,0:0:0:0:
448,192,185858,1,0,0:0:0:0:
64,192,185918,1,0,0:0:0:0:
192,192,185918,1,0,0:0:0:0:
320,192,185977,1,0,0:0:0:0:
448,192,185977,1,0,0:0:0:0:
64,192,186037,1,0,0:0:0:0:
320,192,186096,1,0,0:0:0:0:
448,192,186096,1,0,0:0:0:0:
64,192,186156,1,0,0:0:0:0:
192,192,186156,1,0,0:0:0:0:
320,192,186215,1,0,0:0:0:0:
448,192,186215,1,0,0:0:0:0:
64,192,186275,1,0,0:0:0:0:
192,192,186275,1,0,0:0:0:0:
320,192,186334,1,0,0:0:0:0:
64,192,186394,1,0,0:0:0:0:
192,192,186394,1,0,0:0:0:0:
448,192,186453,1,0,0:0:0:0:
192,192,186513,1,0,0:0:0:0:
320,192,186513,1,0,0:0:0:0:
64,192,186572,1,0,0:0:0:0:
448,192,186572,1,0,0:0:0:0:
320,192,186632,1,0,0:0:0:0:
64,192,186691,1,0,0:0:0:0:
192,192,186691,1,0,0:0:0:0:
448,192,186751,1,0,0:0:0:0:
64,192,186810,1,0,0:0:0:0:
192,192,186810,1,0,0:0:0:0:
320,192,186870,1,0,0:0:0:0:
448,192,186870,1,0,0:0:0:0:
64,192,186929,1,0,0:0:0:0:
192,192,186989,1,0,0:0:0:0:
448,192,186989,1,0,0:0:0:0:
320,192,187048,1,0,0:0:0:0:
64,192,187108,1,0,0:0:0:0:
192,192,187108,1,0,0:0:0:0:
448,192,187167,1,0,0:0:0:0:
64,192,187227,1,0,0:0:0:0:
320,192,187227,1,0,0:0:0:0:
192,192,187286,1,0,0:0:0:0:
448,192,187286,1,0,0:0:0:0:
64,192,187346,1,0,0:0:0:0:
320,192,187346,1,0,0:0:0:0:
192,192,187405,1,0,0:0:0:0:
320,192,187465,1,0,0:0:0:0:
448,192,187465,1,0,0:0:0:0:
64,192,187524,1,0,0:0:0:0:
192,192,187524,1,0,0:0:0:0:
320,192,187584,1,0,0:0:0:0:
448,192,187584,1,0,0:0:0:0:
64,192,187644,1,0,0:0:0:0:
192,192,187703,1,0,0:0:0:0:
448,192,187703,1,0,0:0:0:0:
64,192,187763,1,0,0:0:0:0:
320,192,187763,1,0,0:0:0:0:
192,192,187822,1,0,0:0:0:0:
64,192,187882,1,0,0:0:0:0:
320,192,187882,1,0,0:0:0:0:
448,192,187941,1,0,0:0:0:0:
64,192,188001,1,0,0:0:0:0:
320,192,188001,1,0,0:0:0:0:
192,192,188060,1,0,0:0:0:0:
448,192,188060,1,0,0:0:0:0:
320,192,188120,1,0,0:0:0:0:
64,192,188179,1,0,0:0:0:0:
192,192,188179,1,0,0:0:0:0:
448,192,188239,1,0,0:0:0:0:
64,192,188298,1,0,0:0:0:0:
320,192,188298,1,0,0:0:0:0:
192,192,188358,1,0,0:0:0:0:
320,192,188417,1,0,0:0:0:0:
448,192,188417,1,0,0:0:0:0:
64,192,188477,1,0,0:0:0:0:
192,192,188536,1,0,0:0:0:0:
448,192,188536,1,0,0:0:0:0:
320,192,188596,1,0,0:0:0:0:
64,192,188655,1,0,0:0:0:0:
192,192,188655,1,0,0:0:0:0:
320,192,188715,1,0,0:0:0:0:
448,192,188715,1,0,0:0:0:0:
64,192,188774,1,0,0:0:0:0:
192,192,188774,1,0,0:0:0:0:
448,192,188834,1,0,0:0:0:0:
64,192,188893,1,0,0:0:0:0:
320,192,188893,1,0,0:0:0:0:
192,192,188953,1,0,0:0:0:0:
320,192,189012,1,0,0:0:0:0:
448,192,189012,1,0,0:0:0:0:
192,192,189072,1,0,0:0:0:0:
320,192,189131,1,0,0:0:0:0:
448,192,189131,1,0,0:0:0:0:
64,192,189191,1,0,0:0:0:0:
192,192,189191,1,0,0:0:0:0:
320,192,189250,1,0,0:0:0:0:
448,192,189250,1,0,0:0:0:0:
64,192,189310,1,0,0:0:0:0:
192,192,189369,1,0,0:0:0:0:
448,192,189369,1,0,0:0:0:0:
64,192,189429,1,0,0:0:0:0:
320,192,189429,1,0,0:0:0:0:
192,192,189488,1,0,0:0:0:0:
448,192,189488,1,0,0:0:0:0:
320,192,189548,1,0,0:0:0:0:
64,192,189607,1,0,0:0:0:0:
192,192,189607,1,0,0:0:0:0:
448,192,189667,1,0,0:0:0:0:
64,192,189726,1,0,0:0:0:0:
192,192,189726,1,0,0:0:0:0:
320,192,189786,1,0,0:0:0:0:
448,192,189786,1,0,0:0:0:0:
64,192,189845,1,0,0:0:0:0:
320,192,189905,1,0,0:0:0:0:
448,192,189905,1,0,0:0:0:0:
64,192,189964,1,0,0:0:0:0:
192,192,189964,1,0,0:0:0:0:
320,192,190024,1,0,0:0:0:0:
448,192,190024,1,0,0:0:0:0:
64,192,190083,1,0,0:0:0:0:
192,192,190083,1,0,0:0:0:0:
320,192,190143,1,0,0:0:0:0:
64,192,190202,1,0,0:0:0:0:
192,192,190202,1,0,0:0:0:0:
448,192,190262,1,0,0:0:0:0:
192,192,190321,1,0,0:0:0:0:
320,192,190321,1,0,0:0:0:0:
64,192,190381,1,0,0:0:0:0:
448,192,190381,1,0,0:0:0:0:
320,192,190440,1,0,0:0:0:0:
64,192,190500,1,0,0:0:0:0:
192,192,190500,1,0,0:0:0:0:
320,192,190559,1,0,0:0:0:0:
448,192,190559,1,0,0:0:0:0:
64,192,190619,1,0,0:0:0:0:
192,192,190619,1,0,0:0:0:0:
320,192,190678,1,0,0:0:0:0:
448,192,190678,1,0,0:0:0:0:
64,192,190738,1,0,0:0:0:0:
192,192,190797,1,0,0:0:0:0:
320,192,190797,1,0,0:0:0:0:
448,192,190797,1,0,0:0:0:0:
64,192,190857,1,0,0:0:0:0:
192,192,190916,1,0,0:0:0:0:
448,192,190916,1,0,0:0:0:0:
320,192,190976,1,0,0:0:0:0:
64,192,191035,1,0,0:0:0:0:
192,192,191035,1,0,0:0:0:0:
448,192,191035,1,0,0:0:0:0:
320,192,191095,1,0,0:0:0:0:
64,192,191154,1,0,0:0:0:0:
192,192,191154,1,0,0:0:0:0:
448,192,191214,1,0,0:0:0:0:
192,192,191273,1,0,0:0:0:0:
320,192,191273,1,0,0:0:0:0:
64,192,191333,1,0,0:0:0:0:
320,192,191392,1,0,0:0:0:0:
448,192,191392,1,0,0:0:0:0:
192,192,191452,1,0,0:0:0:0:
64,192,191511,1,0,0:0:0:0:
320,192,191511,1,0,0:0:0:0:
448,192,191511,1,0,0:0:0:0:
192,192,191571,1,0,0:0:0:0:
320,192,191630,1,0,0:0:0:0:
448,192,191630,1,0,0:0:0:0:
64,192,191690,1,0,0:0:0:0:
192,192,191749,1,0,0:0:0:0:
320,192,191749,1,0,0:0:0:0:
448,192,191809,1,0,0:0:0:0:
64,192,191868,1,0,0:0:0:0:
192,192,191868,1,0,0:0:0:0:
448,192,191928,1,0,0:0:0:0:
64,192,191987,1,0,0:0:0:0:
192,192,191987,1,0,0:0:0:0:
320,192,191987,1,0,0:0:0:0:
448,192,192047,1,0,0:0:0:0:
64,192,192106,1,0,0:0:0:0:
320,192,192106,1,0,0:0:0:0:
192,192,192166,1,0,0:0:0:0:
320,192,192225,1,0,0:0:0:0:
448,192,192225,1,0,0:0:0:0:
64,192,192285,1,0,0:0:0:0:
192,192,192344,1,0,0:0:0:0:
448,192,192344,1,0,0:0:0:0:
64,192,192404,1,0,0:0:0:0:
320,192,192404,1,0,0:0:0:0:
192,192,192463,1,0,0:0:0:0:
448,192,192463,1,0,0:0:0:0:
320,192,192523,1,0,0:0:0:0:
64,192,192582,1,0,0:0:0:0:
192,192,192582,1,0,0:0:0:0:
448,192,192642,1,0,0:0:0:0:
64,192,192701,1,0,0:0:0:0:
320,192,192701,1,0,0:0:0:0:
448,192,192761,1,0,0:0:0:0:
64,192,192820,1,0,0:0:0:0:
192,192,192820,1,0,0:0:0:0:
320,192,192880,1,0,0:0:0:0:
64,192,192939,1,0,0:0:0:0:
192,192,192939,1,0,0:0:0:0:
448,192,192939,1,0,0:0:0:0:
320,192,192999,1,0,0:0:0:0:
192,192,193058,1,0,0:0:0:0:
64,192,193177,1,0,0:0:0:0:
320,192,193177,1,0,0:0:0:0:
192,192,193237,1,0,0:0:0:0:
320,192,193296,1,0,0:0:0:0:
64,192,193415,1,0,0:0:0:0:
192,192,193415,1,0,0:0:0:0:
192,192,193534,1,0,0:0:0:0:
320,192,193594,1,0,0:0:0:0:
64,192,193653,1,0,0:0:0:0:
192,192,193713,1,0,0:0:0:0:
192,192,193832,1,0,0:0:0:0:
320,192,193891,1,0,0:0:0:0:
448,192,193891,1,0,0:0:0:0:
320,192,194010,1,0,0:0:0:0:
192,192,194129,1,0,0:0:0:0:
448,192,194129,1,0,0:0:0:0:
320,192,194189,1,0,0:0:0:0:
64,192,194308,1,0,0:0:0:0:
192,192,194367,1,0,0:0:0:0:
320,192,194367,1,0,0:0:0:0:
448,192,194427,1,0,0:0:0:0:
64,192,194486,1,0,0:0:0:0:
192,192,194605,1,0,0:0:0:0:
448,192,194605,1,0,0:0:0:0:
320,192,194724,1,0,0:0:0:0:
192,192,194843,1,0,0:0:0:0:
448,192,194843,1,0,0:0:0:0:
320,192,194903,1,0,0:0:0:0:
192,192,194962,1,0,0:0:0:0:
64,192,195081,1,0,0:0:0:0:
320,192,195081,1,0,0:0:0:0:
192,192,195141,1,0,0:0:0:0:
320,192,195200,1,0,0:0:0:0:
64,192,195319,1,0,0:0:0:0:
192,192,195319,1,0,0:0:0:0:
448,192,195379,1,0,0:0:0:0:
448,192,195498,1,0,0:0:0:0:
64,192,195557,1,0,0:0:0:0:
320,192,195557,1,0,0:0:0:0:
448,192,195617,1,0,0:0:0:0:
192,192,195676,1,0,0:0:0:0:
320,192,195736,1,0,0:0:0:0:
64,192,195795,1,0,0:0:0:0:
192,192,195795,1,0,0:0:0:0:
320,192,195914,1,0,0:0:0:0:
64,192,196033,1,0,0:0:0:0:
320,192,196033,1,0,0:0:0:0:
192,192,196152,1,0,0:0:0:0:
320,192,196212,1,0,0:0:0:0:
192,192,196271,1,0,0:0:0:0:
448,192,196271,1,0,0:0:0:0:
64,192,196331,1,0,0:0:0:0:
320,192,196331,1,0,0:0:0:0:
192,192,196390,1,0,0:0:0:0:
448,192,196390,1,0,0:0:0:0:
64,192,196509,1,0,0:0:0:0:
192,192,196509,1,0,0:0:0:0:
320,192,196628,1,0,0:0:0:0:
64,192,196747,1,0,0:0:0:0:
320,192,196747,1,0,0:0:0:0:
192,192,196807,1,0,0:0:0:0:
320,192,196866,1,0,0:0:0:0:
192,192,196985,1,0,0:0:0:0:
448,192,196985,1,0,0:0:0:0:
320,192,197045,1,0,0:0:0:0:
192,192,197104,1,0,0:0:0:0:
320,192,197223,1,0,0:0:0:0:
448,192,197223,1,0,0:0:0:0:
320,192,197342,1,0,0:0:0:0:
192,192,197402,1,0,0:0:0:0:
448,192,197461,1,0,0:0:0:0:
320,192,197521,1,0,0:0:0:0:
320,192,197640,1,0,0:0:0:0:
64,192,197699,1,0,0:0:0:0:
192,192,197699,1,0,0:0:0:0:
192,192,197818,1,0,0:0:0:0:
64,192,197937,1,0,0:0:0:0:
320,192,197937,1,0,0:0:0:0:
192,192,197997,1,0,0:0:0:0:
448,192,198116,1,0,0:0:0:0:
192,192,198175,1,0,0:0:0:0:
320,192,198175,1,0,0:0:0:0:
64,192,198235,1,0,0:0:0:0:
448,192,198294,1,0,0:0:0:0:
64,192,198413,1,0,0:0:0:0:
320,192,198413,1,0,0:0:0:0:
192,192,198532,1,0,0:0:0:0:
64,192,198651,1,0,0:0:0:0:
320,192,198651,1,0,0:0:0:0:
192,192,198711,1,0,0:0:0:0:
320,192,198770,1,0,0:0:0:0:
192,192,198889,1,0,0:0:0:0:
448,192,198889,1,0,0:0:0:0:
320,192,198949,1,0,0:0:0:0:
192,192,199008,1,0,0:0:0:0:
320,192,199127,1,0,0:0:0:0:
448,192,199127,1,0,0:0:0:0:
64,192,199187,1,0,0:0:0:0:
64,192,199306,1,0,0:0:0:0:
192,192,199365,1,0,0:0:0:0:
448,192,199365,1,0,0:0:0:0:
64,192,199425,1,0,0:0:0:0:
320,192,199484,1,0,0:0:0:0:
192,192,199544,1,0,0:0:0:0:
320,192,199603,1,0,0:0:0:0:
448,192,199603,1,0,0:0:0:0:
192,192,199722,1,0,0:0:0:0:
192,192,199841,1,0,0:0:0:0:
448,192,199841,1,0,0:0:0:0:
320,192,199960,1,0,0:0:0:0:
192,192,200020,128,0,200317:0:0:0:0:
448,192,200079,1,0,0:0:0:0:
64,192,200198,1,0,0:0:0:0:
320,192,200317,1,0,0:0:0:0:
448,192,200317,1,0,0:0:0:0:
64,192,200377,1,0,0:0:0:0:
448,192,200436,1,0,0:0:0:0:
64,192,200496,1,0,0:0:0:0:
192,192,200555,1,0,0:0:0:0:
320,192,200555,1,0,0:0:0:0:
448,192,200555,1,0,0:0:0:0:
64,192,200615,1,0,0:0:0:0:
192,192,200674,1,0,0:0:0:0:
64,192,200793,1,0,0:0:0:0:
320,192,200793,1,0,0:0:0:0:
448,192,200853,1,0,0:0:0:0:
320,192,200895,1,0,0:0:0:0:
64,192,201020,1,0,0:0:0:0:
192,192,201020,1,0,0:0:0:0:
192,192,201145,1,0,0:0:0:0:
320,192,201208,1,0,0:0:0:0:
64,192,201271,1,0,0:0:0:0:
192,192,201333,1,0,0:0:0:0:
192,192,201459,1,0,0:0:0:0:
320,192,201522,1,0,0:0:0:0:
448,192,201522,1,0,0:0:0:0:
320,192,201647,1,0,0:0:0:0:
192,192,201775,1,0,0:0:0:0:
448,192,201775,1,0,0:0:0:0:
320,192,201840,1,0,0:0:0:0:
64,192,201969,1,0,0:0:0:0:
192,192,202033,1,0,0:0:0:0:
320,192,202033,1,0,0:0:0:0:
448,192,202098,1,0,0:0:0:0:
64,192,202163,1,0,0:0:0:0:
192,192,202295,1,0,0:0:0:0:
448,192,202295,1,0,0:0:0:0:
320,192,202428,1,0,0:0:0:0:
192,192,202560,1,0,0:0:0:0:
448,192,202560,1,0,0:0:0:0:
320,192,202627,1,0,0:0:0:0:
192,192,202693,1,0,0:0:0:0:
64,192,202830,1,0,0:0:0:0:
320,192,202830,1,0,0:0:0:0:
192,192,202899,1,0,0:0:0:0:
320,192,202967,1,0,0:0:0:0:
64,192,203105,1,0,0:0:0:0:
192,192,203105,1,0,0:0:0:0:
448,192,203173,1,0,0:0:0:0:
448,192,203314,1,0,0:0:0:0:
64,192,203385,1,0,0:0:0:0:
320,192,203385,1,0,0:0:0:0:
448,192,203456,1,0,0:0:0:0:
192,192,203527,1,0,0:0:0:0:
320,192,203599,1,0,0:0:0:0:
64,192,203670,1,0,0:0:0:0:
192,192,203670,1,0,0:0:0:0:
320,192,203813,1,0,0:0:0:0:
64,192,203960,1,0,0:0:0:0:
320,192,203960,1,0,0:0:0:0:
192,192,204109,1,0,0:0:0:0:
320,192,204181,1,0,0:0:0:0:
192,192,204253,1,0,0:0:0:0:
448,192,204253,1,0,0:0:0:0:
64,192,204325,1,0,0:0:0:0:
320,192,204325,1,0,0:0:0:0:
192,192,204397,1,0,0:0:0:0:
448,192,204397,1,0,0:0:0:0:
64,192,204541,1,0,0:0:0:0:
192,192,204541,1,0,0:0:0:0:
320,192,204690,1,0,0:0:0:0:
192,192,204849,1,0,0:0:0:0:
448,192,204849,1,0,0:0:0:0:
320,192,204928,1,0,0:0:0:0:
192,192,205009,1,0,0:0:0:0:
64,192,205162,1,0,0:0:0:0:
320,192,205162,1,0,0:0:0:0:
192,192,205239,1,0,0:0:0:0:
320,192,205316,1,0,0:0:0:0:
64,192,205475,1,0,0:0:0:0:
192,192,205475,1,0,0:0:0:0:
192,192,205634,1,0,0:0:0:0:
320,192,205713,1,0,0:0:0:0:
64,192,205793,1,0,0:0:0:0:
192,192,205873,1,0,0:0:0:0:
192,192,206035,1,0,0:0:0:0:
320,192,206117,1,0,0:0:0:0:
448,192,206117,1,0,0:0:0:0:
320,192,206282,1,0,0:0:0:0:
192,192,206447,1,0,0:0:0:0:
448,192,206447,1,0,0:0:0:0:
320,192,206532,1,0,0:0:0:0:
64,192,206703,1,0,0:0:0:0:
192,192,206788,1,0,0:0:0:0:
320,192,206788,1,0,0:0:0:0:
448,192,206874,1,0,0:0:0:0:
64,192,206960,1,0,0:0:0:0:
192,192,207137,1,0,0:0:0:0:
448,192,207137,1,0,0:0:0:0:
320,192,207315,1,0,0:0:0:0:
192,192,207492,1,0,0:0:0:0:
448,192,207492,1,0,0:0:0:0:
320,192,207581,1,0,0:0:0:0:
192,192,207670,1,0,0:0:0:0:
64,192,207850,1,0,0:0:0:0:
320,192,207850,1,0,0:0:0:0:
192,192,207942,1,0,0:0:0:0:
320,192,208034,1,0,0:0:0:0:
64,192,208220,1,0,0:0:0:0:
192,192,208220,1,0,0:0:0:0:
448,192,208314,1,0,0:0:0:0:
448,192,208503,1,0,0:0:0:0:
64,192,208598,1,0,0:0:0:0:
320,192,208598,1,0,0:0:0:0:
448,192,208692,1,0,0:0:0:0:
192,192,208787,1,0,0:0:0:0:
320,192,208883,1,0,0:0:0:0:
64,192,208980,1,0,0:0:0:0:
192,192,208980,1,0,0:0:0:0:
320,192,209175,1,0,0:0:0:0:
64,192,209370,1,0,0:0:0:0:
320,192,209370,1,0,0:0:0:0:
192,192,209570,1,0,0:0:0:0:
64,192,209671,1,0,0:0:0:0:
320,192,209671,128,0,210086:0:0:0:0:
448,192,209772,1,0,0:0:0:0:
192,192,209981,1,0,0:0:0:0:
448,192,210191,1,0,0:0:0:0:
64,192,210401,128,0,210611:0:0:0:0:
