osu file format v14

[General]
AudioFilename: audio 1.100x.mp3
AudioLeadIn: 0
PreviewTime: 107350
Countdown: 0
SampleSet: Normal
StackLeniency: 0.8
Mode: 3
LetterboxInBreaks: 0
SpecialStyle: 1
WidescreenStoryboard: 0

[Editor]
DistanceSpacing: 0.8
BeatDivisor: 4
GridSize: 32
TimelineZoom: 1.5

[Metadata]
Title:TENDER KISS
TitleUnicode:TENDER KISS
Artist:Spy47
ArtistUnicode:Spy47
Creator:Herkkupala
Version:Tender Treat 1.1x
Source:Ticket To Sweetland
Tags:nursery rhyme ナーサリィ☆ライム ave;new feat.佐倉紗織 true my heart j core happy hardcore remix arrange osutrainer
BeatmapID:2847129
BeatmapSetID:859429

[Difficulty]
HPDrainRate:8.5
CircleSize:4
OverallDifficulty:8.5
ApproachRate:5
SliderMultiplier:1.4
SliderTickRate:1

[Events]
//Background and Video events
0,0,"bg.png",0,0
//Break Periods
//Storyboard Layer 0 (Background)
//Storyboard Layer 1 (Fail)
//Storyboard Layer 2 (Pass)
//Storyboard Layer 3 (Foreground)
//Storyboard Layer 4 (Overlay)
//Storyboard Sound Samples

[TimingPoints]
190,281.282479090909,4,1,0,25,1,0
190,-100,4,1,0,25,0,0
237421,296.442688181818,4,1,0,25,1,0
237421,-95.2380952380952,4,1,0,25,0,0
238310,304.72321,4,1,0,25,1,0
238310,-92.5925925925926,4,1,0,25,0,0
238920,313.479623636364,4,1,0,25,1,0
238920,-90.0900900900901,4,1,0,25,0,0
239547,324.675324545455,4,1,0,25,1,0
239547,-86.9565217391304,4,1,0,25,0,0
240197,336.700336363636,4,1,0,25,1,0
240197,-83.3333333333333,4,1,0,25,0,0
240870,349.65035,4,1,0,25,1,0
240870,-80.6451612903226,4,1,0,25,0,0
241220,340.909090909091,4,1,0,25,1,0
241220,-82.6446280991736,4,1,0,25,0,0
241730,351.906158181818,4,1,0,25,1,0
241730,-80,4,1,0,25,0,0
241907,376.175548181818,4,1,0,25,1,0
241907,-74.6268656716418,4,1,0,25,0,0
242283,363.636363636364,4,1,0,25,1,0
242283,-77.5193798449612,4,1,0,25,0,0
242647,376.175548181818,4,1,0,25,1,0
242647,-74.6268656716418,4,1,0,25,0,0
243399,389.61039,4,1,0,25,1,0
243399,-71.9424460431655,4,1,0,25,0,0
243983,404.040403636364,4,1,0,25,1,0
243983,-69.4444444444444,4,1,0,25,0,0
244590,419.58042,4,1,0,25,1,0
244590,-67.1140939597315,4,1,0,25,0,0
245429,426.136363636364,4,1,0,25,1,0
245429,-65.7894736842105,4,1,0,25,0,0
245641,436.363636363636,4,1,0,25,1,0
245641,-64.5161290322581,4,1,0,25,0,0
246078,447.09389,4,1,0,25,1,0
246078,-62.8930817610063,4,1,0,25,0,0
246749,454.545454545455,4,1,0,25,1,0
246749,-61.7283950617284,4,1,0,25,0,0
246976,462.249614545455,4,1,0,25,1,0
246976,-60.9756097560976,4,1,0,25,0,0
247438,474.3083,4,1,0,25,1,0
247438,-59.1715976331361,4,1,0,25,0,0
247912,495.867768181818,4,1,0,25,1,0
247912,-56.8181818181818,4,1,0,25,0,0

[HitObjects]
64,192,1877,5,0,0:0:0:0:
448,192,1877,1,0,0:0:0:0:
192,192,2158,1,0,0:0:0:0:
448,192,2229,1,0,0:0:0:0:
192,192,2299,1,0,0:0:0:0:
320,192,2369,1,0,0:0:0:0:
64,192,2440,1,0,0:0:0:0:
320,192,2510,1,0,0:0:0:0:
64,192,2580,1,0,0:0:0:0:
192,192,2580,1,0,0:0:0:0:
320,192,2651,1,0,0:0:0:0:
448,192,2651,1,0,0:0:0:0:
64,192,2721,1,0,0:0:0:0:
192,192,2721,1,0,0:0:0:0:
448,192,2791,1,0,0:0:0:0:
448,192,2862,1,0,0:0:0:0:
64,192,2932,1,0,0:0:0:0:
192,192,2932,1,0,0:0:0:0:
320,192,3002,128,0,3143:0:0:0:0:
448,192,3002,1,0,0:0:0:0:
320,192,3284,128,0,3424:0:0:0:0:
192,192,3495,128,0,3635:0:0:0:0:
64,192,3706,128,0,3846:0:0:0:0:
448,192,3916,128,0,3987:0:0:0:0:
320,192,4057,128,0,4127:0:0:0:0:
64,192,4127,1,0,0:0:0:0:
192,192,4198,1,0,0:0:0:0:
64,192,4268,1,0,0:0:0:0:
320,192,4409,128,0,4549:0:0:0:0:
192,192,4620,128,0,4760:0:0:0:0:
64,192,4831,128,0,4971:0:0:0:0:
448,192,4971,1,0,0:0:0:0:
320,192,5042,1,0,0:0:0:0:
448,192,5112,1,0,0:0:0:0:
320,192,5182,1,0,0:0:0:0:
64,192,5253,1,0,0:0:0:0:
192,192,5253,1,0,0:0:0:0:
320,192,5323,1,0,0:0:0:0:
64,192,5393,1,0,0:0:0:0:
448,192,5464,1,0,0:0:0:0:
192,192,5534,1,0,0:0:0:0:
320,192,5534,1,0,0:0:0:0:
64,192,5604,1,0,0:0:0:0:
448,192,5675,1,0,0:0:0:0:
64,192,5745,1,0,0:0:0:0:
192,192,5745,1,0,0:0:0:0:
320,192,5815,1,0,0:0:0:0:
192,192,5885,1,0,0:0:0:0:
320,192,5956,1,0,0:0:0:0:
448,192,5956,1,0,0:0:0:0:
64,192,6026,1,0,0:0:0:0:
448,192,6096,1,0,0:0:0:0:
192,192,6167,1,0,0:0:0:0:
320,192,6167,1,0,0:0:0:0:
64,192,6237,1,0,0:0:0:0:
192,192,6307,1,0,0:0:0:0:
448,192,6307,1,0,0:0:0:0:
320,192,6378,1,0,0:0:0:0:
448,192,6448,1,0,0:0:0:0:
320,192,6518,1,0,0:0:0:0:
64,192,6589,1,0,0:0:0:0:
192,192,6659,1,0,0:0:0:0:
320,192,6659,1,0,0:0:0:0:
448,192,6729,1,0,0:0:0:0:
64,192,6800,1,0,0:0:0:0:
320,192,6870,1,0,0:0:0:0:
448,192,6870,1,0,0:0:0:0:
192,192,6940,1,0,0:0:0:0:
320,192,7011,1,0,0:0:0:0:
64,192,7081,1,0,0:0:0:0:
192,192,7081,1,0,0:0:0:0:
448,192,7151,1,0,0:0:0:0:
64,192,7222,1,0,0:0:0:0:
192,192,7222,1,0,0:0:0:0:
320,192,7222,1,0,0:0:0:0:
64,192,7503,1,0,0:0:0:0:
192,192,7503,1,0,0:0:0:0:
320,192,7573,1,0,0:0:0:0:
448,192,7573,1,0,0:0:0:0:
192,192,7643,1,0,0:0:0:0:
448,192,7714,1,0,0:0:0:0:
64,192,7784,1,0,0:0:0:0:
320,192,7784,1,0,0:0:0:0:
192,192,7854,1,0,0:0:0:0:
320,192,7925,1,0,0:0:0:0:
192,192,7995,1,0,0:0:0:0:
448,192,7995,1,0,0:0:0:0:
64,192,8065,1,0,0:0:0:0:
320,192,8136,1,0,0:0:0:0:
64,192,8206,1,0,0:0:0:0:
192,192,8206,1,0,0:0:0:0:
448,192,8276,1,0,0:0:0:0:
192,192,8347,1,0,0:0:0:0:
320,192,8347,1,0,0:0:0:0:
64,192,8417,1,0,0:0:0:0:
320,192,8487,1,0,0:0:0:0:
448,192,8487,1,0,0:0:0:0:
192,192,8558,1,0,0:0:0:0:
64,192,8628,1,0,0:0:0:0:
448,192,8628,1,0,0:0:0:0:
320,192,8698,1,0,0:0:0:0:
448,192,8769,1,0,0:0:0:0:
320,192,8839,1,0,0:0:0:0:
64,192,8909,1,0,0:0:0:0:
192,192,8909,1,0,0:0:0:0:
448,192,8980,1,0,0:0:0:0:
192,192,9050,1,0,0:0:0:0:
320,192,9120,1,0,0:0:0:0:
448,192,9120,1,0,0:0:0:0:
64,192,9191,1,0,0:0:0:0:
320,192,9261,1,0,0:0:0:0:
64,192,9331,1,0,0:0:0:0:
192,192,9331,1,0,0:0:0:0:
448,192,9402,1,0,0:0:0:0:
320,192,9472,1,0,0:0:0:0:
192,192,9542,1,0,0:0:0:0:
320,192,9612,1,0,0:0:0:0:
192,192,9683,1,0,0:0:0:0:
320,192,9753,1,0,0:0:0:0:
448,192,9753,1,0,0:0:0:0:
64,192,9823,1,0,0:0:0:0:
192,192,9823,1,0,0:0:0:0:
320,192,9894,1,0,0:0:0:0:
64,192,9964,1,0,0:0:0:0:
192,192,10034,1,0,0:0:0:0:
448,192,10034,1,0,0:0:0:0:
320,192,10105,1,0,0:0:0:0:
192,192,10175,1,0,0:0:0:0:
64,192,10245,1,0,0:0:0:0:
320,192,10245,1,0,0:0:0:0:
448,192,10316,1,0,0:0:0:0:
192,192,10386,1,0,0:0:0:0:
320,192,10456,1,0,0:0:0:0:
448,192,10456,1,0,0:0:0:0:
64,192,10527,1,0,0:0:0:0:
192,192,10597,1,0,0:0:0:0:
320,192,10597,1,0,0:0:0:0:
448,192,10667,1,0,0:0:0:0:
64,192,10738,1,0,0:0:0:0:
192,192,10738,1,0,0:0:0:0:
320,192,10808,1,0,0:0:0:0:
64,192,10878,1,0,0:0:0:0:
448,192,10878,1,0,0:0:0:0:
192,192,10949,1,0,0:0:0:0:
64,192,11019,1,0,0:0:0:0:
192,192,11089,1,0,0:0:0:0:
320,192,11160,1,0,0:0:0:0:
448,192,11160,1,0,0:0:0:0:
192,192,11230,1,0,0:0:0:0:
320,192,11300,1,0,0:0:0:0:
192,192,11370,1,0,0:0:0:0:
448,192,11370,1,0,0:0:0:0:
64,192,11441,1,0,0:0:0:0:
320,192,11511,1,0,0:0:0:0:
64,192,11581,1,0,0:0:0:0:
192,192,11581,1,0,0:0:0:0:
448,192,11652,1,0,0:0:0:0:
64,192,11722,1,0,0:0:0:0:
192,192,11722,1,0,0:0:0:0:
320,192,11792,1,0,0:0:0:0:
448,192,11792,1,0,0:0:0:0:
64,192,11863,1,0,0:0:0:0:
192,192,11863,1,0,0:0:0:0:
320,192,11933,1,0,0:0:0:0:
448,192,11933,1,0,0:0:0:0:
64,192,12003,1,0,0:0:0:0:
192,192,12003,1,0,0:0:0:0:
320,192,12074,1,0,0:0:0:0:
448,192,12074,1,0,0:0:0:0:
192,192,12144,1,0,0:0:0:0:
448,192,12214,1,0,0:0:0:0:
64,192,12285,1,0,0:0:0:0:
320,192,12285,1,0,0:0:0:0:
192,192,12355,1,0,0:0:0:0:
320,192,12425,1,0,0:0:0:0:
192,192,12496,1,0,0:0:0:0:
448,192,12496,1,0,0:0:0:0:
64,192,12566,1,0,0:0:0:0:
320,192,12636,1,0,0:0:0:0:
64,192,12707,1,0,0:0:0:0:
192,192,12707,1,0,0:0:0:0:
448,192,12777,1,0,0:0:0:0:
192,192,12847,1,0,0:0:0:0:
320,192,12847,1,0,0:0:0:0:
64,192,12918,1,0,0:0:0:0:
320,192,12988,1,0,0:0:0:0:
448,192,12988,1,0,0:0:0:0:
192,192,13058,1,0,0:0:0:0:
64,192,13128,1,0,0:0:0:0:
448,192,13128,1,0,0:0:0:0:
320,192,13199,1,0,0:0:0:0:
448,192,13269,1,0,0:0:0:0:
320,192,13339,1,0,0:0:0:0:
64,192,13410,1,0,0:0:0:0:
192,192,13410,1,0,0:0:0:0:
448,192,13480,1,0,0:0:0:0:
192,192,13550,1,0,0:0:0:0:
320,192,13621,1,0,0:0:0:0:
448,192,13621,1,0,0:0:0:0:
64,192,13691,1,0,0:0:0:0:
320,192,13761,1,0,0:0:0:0:
64,192,13832,1,0,0:0:0:0:
192,192,13832,1,0,0:0:0:0:
448,192,13902,1,0,0:0:0:0:
320,192,13972,1,0,0:0:0:0:
192,192,14043,1,0,0:0:0:0:
320,192,14113,1,0,0:0:0:0:
192,192,14183,1,0,0:0:0:0:
320,192,14254,1,0,0:0:0:0:
448,192,14254,1,0,0:0:0:0:
64,192,14324,1,0,0:0:0:0:
192,192,14324,1,0,0:0:0:0:
320,192,14394,1,0,0:0:0:0:
64,192,14465,1,0,0:0:0:0:
192,192,14535,1,0,0:0:0:0:
448,192,14535,1,0,0:0:0:0:
320,192,14605,1,0,0:0:0:0:
192,192,14676,1,0,0:0:0:0:
64,192,14746,1,0,0:0:0:0:
320,192,14746,1,0,0:0:0:0:
448,192,14816,1,0,0:0:0:0:
192,192,14887,1,0,0:0:0:0:
320,192,14957,1,0,0:0:0:0:
448,192,14957,1,0,0:0:0:0:
64,192,15027,1,0,0:0:0:0:
192,192,15097,1,0,0:0:0:0:
320,192,15097,1,0,0:0:0:0:
448,192,15168,1,0,0:0:0:0:
64,192,15238,1,0,0:0:0:0:
192,192,15238,1,0,0:0:0:0:
320,192,15308,1,0,0:0:0:0:
64,192,15379,1,0,0:0:0:0:
448,192,15379,1,0,0:0:0:0:
192,192,15449,1,0,0:0:0:0:
320,192,15519,1,0,0:0:0:0:
448,192,15519,1,0,0:0:0:0:
192,192,15590,1,0,0:0:0:0:
64,192,15660,1,0,0:0:0:0:
448,192,15660,1,0,0:0:0:0:
192,192,15730,1,0,0:0:0:0:
320,192,15801,1,0,0:0:0:0:
448,192,15801,1,0,0:0:0:0:
192,192,15871,1,0,0:0:0:0:
64,192,15941,1,0,0:0:0:0:
448,192,15941,1,0,0:0:0:0:
192,192,16012,1,0,0:0:0:0:
320,192,16012,1,0,0:0:0:0:
64,192,16082,1,0,0:0:0:0:
448,192,16082,1,0,0:0:0:0:
192,192,16152,1,0,0:0:0:0:
320,192,16152,1,0,0:0:0:0:
64,192,16223,1,0,0:0:0:0:
448,192,16223,1,0,0:0:0:0:
320,192,16363,1,0,0:0:0:0:
192,192,16387,1,0,0:0:0:0:
64,192,16504,1,0,0:0:0:0:
320,192,16504,1,0,0:0:0:0:
448,192,16504,1,0,0:0:0:0:
192,192,16574,1,0,0:0:0:0:
320,192,16645,1,0,0:0:0:0:
448,192,16645,1,0,0:0:0:0:
64,192,16715,1,0,0:0:0:0:
192,192,16715,1,0,0:0:0:0:
320,192,16785,1,0,0:0:0:0:
448,192,16785,1,0,0:0:0:0:
192,192,16855,1,0,0:0:0:0:
64,192,16926,1,0,0:0:0:0:
192,192,16996,1,0,0:0:0:0:
448,192,16996,1,0,0:0:0:0:
320,192,17066,1,0,0:0:0:0:
64,192,17137,1,0,0:0:0:0:
192,192,17207,1,0,0:0:0:0:
448,192,17207,1,0,0:0:0:0:
320,192,17277,1,0,0:0:0:0:
192,192,17348,1,0,0:0:0:0:
448,192,17348,1,0,0:0:0:0:
320,192,17418,1,0,0:0:0:0:
64,192,17488,1,0,0:0:0:0:
192,192,17488,1,0,0:0:0:0:
320,192,17559,1,0,0:0:0:0:
448,192,17559,1,0,0:0:0:0:
64,192,17629,1,0,0:0:0:0:
192,192,17629,1,0,0:0:0:0:
448,192,17699,1,0,0:0:0:0:
64,192,17770,1,0,0:0:0:0:
192,192,17840,1,0,0:0:0:0:
320,192,17910,1,0,0:0:0:0:
448,192,17910,1,0,0:0:0:0:
192,192,17981,1,0,0:0:0:0:
64,192,18051,1,0,0:0:0:0:
320,192,18121,1,0,0:0:0:0:
64,192,18192,1,0,0:0:0:0:
192,192,18192,1,0,0:0:0:0:
320,192,18262,1,0,0:0:0:0:
448,192,18262,1,0,0:0:0:0:
64,192,18332,1,0,0:0:0:0:
320,192,18403,1,0,0:0:0:0:
448,192,18403,1,0,0:0:0:0:
64,192,18473,1,0,0:0:0:0:
192,192,18473,1,0,0:0:0:0:
320,192,18543,1,0,0:0:0:0:
192,192,18614,1,0,0:0:0:0:
64,192,18684,1,0,0:0:0:0:
448,192,18684,1,0,0:0:0:0:
192,192,18754,1,0,0:0:0:0:
320,192,18754,1,0,0:0:0:0:
448,192,18824,1,0,0:0:0:0:
64,192,18895,1,0,0:0:0:0:
192,192,18895,1,0,0:0:0:0:
320,192,18965,1,0,0:0:0:0:
64,192,19035,1,0,0:0:0:0:
192,192,19035,1,0,0:0:0:0:
320,192,19106,1,0,0:0:0:0:
448,192,19106,1,0,0:0:0:0:
64,192,19176,1,0,0:0:0:0:
192,192,19246,1,0,0:0:0:0:
448,192,19246,1,0,0:0:0:0:
320,192,19317,1,0,0:0:0:0:
64,192,19387,1,0,0:0:0:0:
192,192,19457,1,0,0:0:0:0:
448,192,19457,1,0,0:0:0:0:
320,192,19528,1,0,0:0:0:0:
192,192,19598,1,0,0:0:0:0:
448,192,19598,1,0,0:0:0:0:
320,192,19668,1,0,0:0:0:0:
64,192,19739,1,0,0:0:0:0:
192,192,19739,1,0,0:0:0:0:
320,192,19809,1,0,0:0:0:0:
448,192,19809,1,0,0:0:0:0:
64,192,19879,1,0,0:0:0:0:
192,192,19879,1,0,0:0:0:0:
448,192,19950,1,0,0:0:0:0:
320,192,20020,1,0,0:0:0:0:
64,192,20090,1,0,0:0:0:0:
192,192,20090,1,0,0:0:0:0:
320,192,20161,1,0,0:0:0:0:
448,192,20161,1,0,0:0:0:0:
192,192,20231,1,0,0:0:0:0:
448,192,20301,1,0,0:0:0:0:
320,192,20372,1,0,0:0:0:0:
64,192,20442,1,0,0:0:0:0:
192,192,20442,1,0,0:0:0:0:
448,192,20512,1,0,0:0:0:0:
64,192,20582,1,0,0:0:0:0:
320,192,20582,1,0,0:0:0:0:
192,192,20653,1,0,0:0:0:0:
320,192,20723,1,0,0:0:0:0:
448,192,20723,1,0,0:0:0:0:
64,192,20793,1,0,0:0:0:0:
192,192,20793,1,0,0:0:0:0:
320,192,20864,1,0,0:0:0:0:
448,192,20864,1,0,0:0:0:0:
64,192,20934,1,0,0:0:0:0:
192,192,20934,1,0,0:0:0:0:
320,192,21004,1,0,0:0:0:0:
448,192,21004,1,0,0:0:0:0:
64,192,21075,1,0,0:0:0:0:
192,192,21145,1,0,0:0:0:0:
448,192,21145,1,0,0:0:0:0:
320,192,21215,1,0,0:0:0:0:
64,192,21286,1,0,0:0:0:0:
192,192,21286,1,0,0:0:0:0:
320,192,21356,1,0,0:0:0:0:
448,192,21356,1,0,0:0:0:0:
64,192,21426,1,0,0:0:0:0:
320,192,21497,1,0,0:0:0:0:
448,192,21497,1,0,0:0:0:0:
64,192,21567,1,0,0:0:0:0:
192,192,21567,1,0,0:0:0:0:
448,192,21637,1,0,0:0:0:0:
64,192,21708,1,0,0:0:0:0:
192,192,21708,1,0,0:0:0:0:
320,192,21778,1,0,0:0:0:0:
64,192,21848,1,0,0:0:0:0:
192,192,21848,1,0,0:0:0:0:
448,192,21919,1,0,0:0:0:0:
64,192,21989,1,0,0:0:0:0:
320,192,21989,1,0,0:0:0:0:
192,192,22059,1,0,0:0:0:0:
448,192,22059,1,0,0:0:0:0:
64,192,22130,1,0,0:0:0:0:
320,192,22130,1,0,0:0:0:0:
192,192,22200,1,0,0:0:0:0:
448,192,22270,1,0,0:0:0:0:
64,192,22340,1,0,0:0:0:0:
192,192,22340,1,0,0:0:0:0:
320,192,22411,1,0,0:0:0:0:
448,192,22411,1,0,0:0:0:0:
64,192,22481,1,0,0:0:0:0:
192,192,22551,1,0,0:0:0:0:
320,192,22622,1,0,0:0:0:0:
448,192,22622,1,0,0:0:0:0:
64,192,22692,1,0,0:0:0:0:
192,192,22692,1,0,0:0:0:0:
320,192,22762,1,0,0:0:0:0:
64,192,22833,1,0,0:0:0:0:
192,192,22833,1,0,0:0:0:0:
448,192,22903,1,0,0:0:0:0:
64,192,22973,1,0,0:0:0:0:
320,192,22973,1,0,0:0:0:0:
192,192,23044,1,0,0:0:0:0:
448,192,23114,1,0,0:0:0:0:
64,192,23184,1,0,0:0:0:0:
320,192,23184,1,0,0:0:0:0:
192,192,23255,1,0,0:0:0:0:
448,192,23255,1,0,0:0:0:0:
64,192,23325,1,0,0:0:0:0:
320,192,23395,1,0,0:0:0:0:
448,192,23395,1,0,0:0:0:0:
192,192,23466,1,0,0:0:0:0:
320,192,23536,1,0,0:0:0:0:
448,192,23536,1,0,0:0:0:0:
64,192,23606,1,0,0:0:0:0:
192,192,23606,1,0,0:0:0:0:
320,192,23677,1,0,0:0:0:0:
64,192,23747,1,0,0:0:0:0:
192,192,23747,1,0,0:0:0:0:
320,192,23817,1,0,0:0:0:0:
448,192,23817,1,0,0:0:0:0:
64,192,23888,1,0,0:0:0:0:
320,192,23958,1,0,0:0:0:0:
448,192,23958,1,0,0:0:0:0:
192,192,24028,1,0,0:0:0:0:
320,192,24099,1,0,0:0:0:0:
448,192,24099,1,0,0:0:0:0:
64,192,24169,1,0,0:0:0:0:
192,192,24239,1,0,0:0:0:0:
448,192,24239,1,0,0:0:0:0:
64,192,24309,1,0,0:0:0:0:
320,192,24309,1,0,0:0:0:0:
192,192,24380,1,0,0:0:0:0:
448,192,24380,1,0,0:0:0:0:
320,192,24450,1,0,0:0:0:0:
64,192,24520,1,0,0:0:0:0:
448,192,24520,1,0,0:0:0:0:
192,192,24591,1,0,0:0:0:0:
64,192,24661,1,0,0:0:0:0:
320,192,24661,1,0,0:0:0:0:
448,192,24731,1,0,0:0:0:0:
192,192,24802,1,0,0:0:0:0:
320,192,24802,1,0,0:0:0:0:
64,192,24872,1,0,0:0:0:0:
320,192,24942,1,0,0:0:0:0:
448,192,24942,1,0,0:0:0:0:
64,192,25013,1,0,0:0:0:0:
192,192,25013,1,0,0:0:0:0:
320,192,25083,1,0,0:0:0:0:
448,192,25083,1,0,0:0:0:0:
64,192,25153,1,0,0:0:0:0:
192,192,25153,1,0,0:0:0:0:
320,192,25224,1,0,0:0:0:0:
448,192,25224,1,0,0:0:0:0:
64,192,25364,1,0,0:0:0:0:
320,192,25388,1,0,0:0:0:0:
64,192,25505,1,0,0:0:0:0:
192,192,25505,1,0,0:0:0:0:
448,192,25505,1,0,0:0:0:0:
320,192,25575,1,0,0:0:0:0:
192,192,25646,1,0,0:0:0:0:
448,192,25646,1,0,0:0:0:0:
64,192,25716,1,0,0:0:0:0:
320,192,25786,1,0,0:0:0:0:
448,192,25786,1,0,0:0:0:0:
192,192,25857,1,0,0:0:0:0:
64,192,25927,1,0,0:0:0:0:
320,192,25997,1,0,0:0:0:0:
448,192,25997,1,0,0:0:0:0:
64,192,26067,1,0,0:0:0:0:
192,192,26067,1,0,0:0:0:0:
448,192,26138,1,0,0:0:0:0:
64,192,26208,1,0,0:0:0:0:
320,192,26208,1,0,0:0:0:0:
192,192,26278,1,0,0:0:0:0:
64,192,26349,1,0,0:0:0:0:
320,192,26349,1,0,0:0:0:0:
192,192,26419,1,0,0:0:0:0:
320,192,26489,1,0,0:0:0:0:
448,192,26489,1,0,0:0:0:0:
64,192,26560,1,0,0:0:0:0:
192,192,26560,1,0,0:0:0:0:
320,192,26630,1,0,0:0:0:0:
448,192,26630,1,0,0:0:0:0:
192,192,26700,1,0,0:0:0:0:
64,192,26771,1,0,0:0:0:0:
320,192,26771,1,0,0:0:0:0:
448,192,26841,1,0,0:0:0:0:
64,192,26911,1,0,0:0:0:0:
192,192,26911,1,0,0:0:0:0:
320,192,26982,1,0,0:0:0:0:
448,192,26982,1,0,0:0:0:0:
64,192,27052,1,0,0:0:0:0:
320,192,27122,1,0,0:0:0:0:
192,192,27193,1,0,0:0:0:0:
448,192,27193,1,0,0:0:0:0:
64,192,27263,1,0,0:0:0:0:
320,192,27263,1,0,0:0:0:0:
192,192,27333,1,0,0:0:0:0:
320,192,27404,1,0,0:0:0:0:
448,192,27404,1,0,0:0:0:0:
64,192,27474,1,0,0:0:0:0:
192,192,27544,1,0,0:0:0:0:
448,192,27544,1,0,0:0:0:0:
320,192,27615,1,0,0:0:0:0:
64,192,27685,1,0,0:0:0:0:
192,192,27685,1,0,0:0:0:0:
320,192,27755,1,0,0:0:0:0:
448,192,27755,1,0,0:0:0:0:
192,192,27826,1,0,0:0:0:0:
64,192,27896,1,0,0:0:0:0:
320,192,27896,1,0,0:0:0:0:
448,192,27966,1,0,0:0:0:0:
64,192,28036,1,0,0:0:0:0:
192,192,28036,1,0,0:0:0:0:
320,192,28107,1,0,0:0:0:0:
448,192,28177,1,0,0:0:0:0:
64,192,28247,1,0,0:0:0:0:
192,192,28247,1,0,0:0:0:0:
320,192,28318,1,0,0:0:0:0:
448,192,28318,1,0,0:0:0:0:
64,192,28388,1,0,0:0:0:0:
192,192,28458,1,0,0:0:0:0:
448,192,28458,1,0,0:0:0:0:
320,192,28529,1,0,0:0:0:0:
192,192,28599,1,0,0:0:0:0:
448,192,28599,1,0,0:0:0:0:
320,192,28669,1,0,0:0:0:0:
64,192,28740,1,0,0:0:0:0:
192,192,28740,1,0,0:0:0:0:
320,192,28810,1,0,0:0:0:0:
448,192,28810,1,0,0:0:0:0:
64,192,28880,1,0,0:0:0:0:
192,192,28880,1,0,0:0:0:0:
320,192,28951,1,0,0:0:0:0:
192,192,29021,1,0,0:0:0:0:
448,192,29021,1,0,0:0:0:0:
64,192,29091,1,0,0:0:0:0:
320,192,29162,1,0,0:0:0:0:
448,192,29162,1,0,0:0:0:0:
64,192,29232,1,0,0:0:0:0:
192,192,29232,1,0,0:0:0:0:
448,192,29302,1,0,0:0:0:0:
192,192,29373,1,0,0:0:0:0:
64,192,29443,1,0,0:0:0:0:
320,192,29443,1,0,0:0:0:0:
192,192,29513,1,0,0:0:0:0:
448,192,29513,1,0,0:0:0:0:
320,192,29584,1,0,0:0:0:0:
64,192,29654,1,0,0:0:0:0:
192,192,29654,1,0,0:0:0:0:
320,192,29724,1,0,0:0:0:0:
448,192,29724,1,0,0:0:0:0:
64,192,29794,1,0,0:0:0:0:
192,192,29794,1,0,0:0:0:0:
320,192,29865,1,0,0:0:0:0:
448,192,29865,1,0,0:0:0:0:
64,192,29935,1,0,0:0:0:0:
192,192,30005,1,0,0:0:0:0:
320,192,30005,1,0,0:0:0:0:
448,192,30005,1,0,0:0:0:0:
64,192,30076,1,0,0:0:0:0:
192,192,30146,1,0,0:0:0:0:
448,192,30146,1,0,0:0:0:0:
320,192,30216,1,0,0:0:0:0:
64,192,30287,1,0,0:0:0:0:
192,192,30287,1,0,0:0:0:0:
448,192,30357,1,0,0:0:0:0:
64,192,30427,1,0,0:0:0:0:
320,192,30498,1,0,0:0:0:0:
448,192,30498,1,0,0:0:0:0:
64,192,30568,1,0,0:0:0:0:
192,192,30568,1,0,0:0:0:0:
448,192,30638,1,0,0:0:0:0:
64,192,30709,1,0,0:0:0:0:
320,192,30709,1,0,0:0:0:0:
192,192,30779,1,0,0:0:0:0:
64,192,30849,1,0,0:0:0:0:
320,192,30849,1,0,0:0:0:0:
192,192,30920,1,0,0:0:0:0:
320,192,30990,1,0,0:0:0:0:
448,192,30990,1,0,0:0:0:0:
64,192,31060,1,0,0:0:0:0:
192,192,31060,1,0,0:0:0:0:
320,192,31131,1,0,0:0:0:0:
448,192,31131,1,0,0:0:0:0:
192,192,31201,1,0,0:0:0:0:
64,192,31271,1,0,0:0:0:0:
320,192,31271,1,0,0:0:0:0:
448,192,31342,1,0,0:0:0:0:
64,192,31412,1,0,0:0:0:0:
192,192,31412,1,0,0:0:0:0:
320,192,31482,1,0,0:0:0:0:
448,192,31482,1,0,0:0:0:0:
64,192,31552,1,0,0:0:0:0:
320,192,31623,1,0,0:0:0:0:
192,192,31693,1,0,0:0:0:0:
448,192,31693,1,0,0:0:0:0:
64,192,31763,1,0,0:0:0:0:
320,192,31763,1,0,0:0:0:0:
192,192,31834,1,0,0:0:0:0:
320,192,31904,1,0,0:0:0:0:
448,192,31904,1,0,0:0:0:0:
64,192,31974,1,0,0:0:0:0:
192,192,32045,1,0,0:0:0:0:
448,192,32045,1,0,0:0:0:0:
320,192,32115,1,0,0:0:0:0:
64,192,32185,1,0,0:0:0:0:
192,192,32185,1,0,0:0:0:0:
320,192,32256,1,0,0:0:0:0:
448,192,32256,1,0,0:0:0:0:
192,192,32326,1,0,0:0:0:0:
64,192,32396,1,0,0:0:0:0:
320,192,32396,1,0,0:0:0:0:
448,192,32467,1,0,0:0:0:0:
64,192,32537,1,0,0:0:0:0:
192,192,32537,1,0,0:0:0:0:
320,192,32607,1,0,0:0:0:0:
448,192,32678,1,0,0:0:0:0:
64,192,32748,1,0,0:0:0:0:
192,192,32748,1,0,0:0:0:0:
320,192,32818,1,0,0:0:0:0:
448,192,32818,1,0,0:0:0:0:
64,192,32889,1,0,0:0:0:0:
192,192,32959,1,0,0:0:0:0:
448,192,32959,1,0,0:0:0:0:
320,192,33029,1,0,0:0:0:0:
192,192,33100,1,0,0:0:0:0:
448,192,33100,1,0,0:0:0:0:
320,192,33170,1,0,0:0:0:0:
64,192,33240,1,0,0:0:0:0:
192,192,33240,1,0,0:0:0:0:
320,192,33311,1,0,0:0:0:0:
448,192,33311,1,0,0:0:0:0:
64,192,33381,1,0,0:0:0:0:
192,192,33381,1,0,0:0:0:0:
320,192,33451,1,0,0:0:0:0:
192,192,33521,1,0,0:0:0:0:
448,192,33521,1,0,0:0:0:0:
64,192,33592,1,0,0:0:0:0:
320,192,33662,1,0,0:0:0:0:
448,192,33662,1,0,0:0:0:0:
64,192,33732,1,0,0:0:0:0:
192,192,33803,1,0,0:0:0:0:
448,192,33803,1,0,0:0:0:0:
320,192,33873,1,0,0:0:0:0:
64,192,33943,1,0,0:0:0:0:
192,192,33943,1,0,0:0:0:0:
320,192,34014,1,0,0:0:0:0:
448,192,34014,1,0,0:0:0:0:
64,192,34084,1,0,0:0:0:0:
192,192,34084,1,0,0:0:0:0:
320,192,34154,1,0,0:0:0:0:
448,192,34154,1,0,0:0:0:0:
64,192,34225,1,0,0:0:0:0:
192,192,34225,1,0,0:0:0:0:
320,192,34365,1,0,0:0:0:0:
192,192,34389,1,0,0:0:0:0:
64,192,34506,1,0,0:0:0:0:
320,192,34506,128,0,34647:0:0:0:0:
192,192,34647,1,0,0:0:0:0:
320,192,34787,128,0,34928:0:0:0:0:
192,192,34928,1,0,0:0:0:0:
320,192,35069,128,0,35139:0:0:0:0:
192,192,35209,128,0,35279:0:0:0:0:
64,192,35350,128,0,35420:0:0:0:0:
192,192,35490,128,0,35631:0:0:0:0:
448,192,35631,1,0,0:0:0:0:
64,192,35772,128,0,35842:0:0:0:0:
192,192,35912,128,0,35983:0:0:0:0:
320,192,36053,128,0,36123:0:0:0:0:
448,192,36194,128,0,36264:0:0:0:0:
448,192,36334,1,0,0:0:0:0:
320,192,36475,128,0,36616:0:0:0:0:
192,192,36616,1,0,0:0:0:0:
64,192,36756,128,0,36897:0:0:0:0:
320,192,36897,1,0,0:0:0:0:
64,192,37038,128,0,37108:0:0:0:0:
192,192,37178,128,0,37248:0:0:0:0:
320,192,37319,128,0,37459:0:0:0:0:
64,192,37459,1,0,0:0:0:0:
448,192,37600,128,0,37670:0:0:0:0:
192,192,37741,128,0,38022:0:0:0:0:
320,192,38022,128,0,38163:0:0:0:0:
448,192,38163,1,0,0:0:0:0:
192,192,38303,128,0,38374:0:0:0:0:
64,192,38444,128,0,38514:0:0:0:0:
192,192,38585,128,0,38655:0:0:0:0:
448,192,38725,128,0,38796:0:0:0:0:
64,192,38866,128,0,38936:0:0:0:0:
448,192,39006,128,0,39147:0:0:0:0:
192,192,39147,1,0,0:0:0:0:
320,192,39288,128,0,39428:0:0:0:0:
64,192,39428,1,0,0:0:0:0:
192,192,39569,128,0,39710:0:0:0:0:
448,192,39710,1,0,0:0:0:0:
64,192,39850,128,0,39921:0:0:0:0:
448,192,39991,1,0,0:0:0:0:
192,192,40061,1,0,0:0:0:0:
64,192,40132,128,0,40202:0:0:0:0:
192,192,40272,128,0,40343:0:0:0:0:
448,192,40272,1,0,0:0:0:0:
320,192,40413,128,0,40483:0:0:0:0:
64,192,40554,1,0,0:0:0:0:
448,192,40554,128,0,40694:0:0:0:0:
192,192,40835,128,0,40975:0:0:0:0:
320,192,40835,128,0,40905:0:0:0:0:
320,192,41116,1,0,0:0:0:0:
192,192,41257,128,0,41327:0:0:0:0:
64,192,41397,128,0,41468:0:0:0:0:
448,192,41397,1,0,0:0:0:0:
320,192,41538,128,0,41608:0:0:0:0:
192,192,41679,1,0,0:0:0:0:
448,192,41679,128,0,41749:0:0:0:0:
64,192,41819,1,0,0:0:0:0:
320,192,41960,128,0,42030:0:0:0:0:
64,192,42030,1,0,0:0:0:0:
64,192,42171,1,0,0:0:0:0:
320,192,42241,128,0,42382:0:0:0:0:
448,192,42382,1,0,0:0:0:0:
192,192,42452,1,0,0:0:0:0:
320,192,42523,1,0,0:0:0:0:
192,192,42593,1,0,0:0:0:0:
64,192,42663,1,0,0:0:0:0:
320,192,42733,1,0,0:0:0:0:
64,192,42804,1,0,0:0:0:0:
192,192,42804,1,0,0:0:0:0:
320,192,42874,1,0,0:0:0:0:
448,192,42874,1,0,0:0:0:0:
64,192,42944,1,0,0:0:0:0:
192,192,42944,1,0,0:0:0:0:
320,192,43015,1,0,0:0:0:0:
448,192,43015,1,0,0:0:0:0:
64,192,43085,1,0,0:0:0:0:
192,192,43085,1,0,0:0:0:0:
320,192,43155,1,0,0:0:0:0:
448,192,43155,1,0,0:0:0:0:
64,192,43226,1,0,0:0:0:0:
192,192,43261,1,0,0:0:0:0:
320,192,43296,1,0,0:0:0:0:
448,192,43331,1,0,0:0:0:0:
64,192,43366,1,0,0:0:0:0:
192,192,43402,1,0,0:0:0:0:
320,192,43437,1,0,0:0:0:0:
448,192,43472,1,0,0:0:0:0:
64,192,43507,1,0,0:0:0:0:
192,192,43507,1,0,0:0:0:0:
320,192,43648,1,0,0:0:0:0:
448,192,43648,1,0,0:0:0:0:
64,192,43788,1,0,0:0:0:0:
320,192,43788,1,0,0:0:0:0:
192,192,43929,1,0,0:0:0:0:
448,192,43929,128,0,44210:0:0:0:0:
320,192,44070,1,0,0:0:0:0:
64,192,44210,1,0,0:0:0:0:
64,192,44351,128,0,44632:0:0:0:0:
320,192,44351,1,0,0:0:0:0:
192,192,44491,1,0,0:0:0:0:
448,192,44632,1,0,0:0:0:0:
64,192,44773,1,0,0:0:0:0:
320,192,44773,1,0,0:0:0:0:
192,192,44913,1,0,0:0:0:0:
320,192,44913,1,0,0:0:0:0:
192,192,45054,1,0,0:0:0:0:
320,192,45195,1,0,0:0:0:0:
448,192,45195,1,0,0:0:0:0:
64,192,45335,1,0,0:0:0:0:
192,192,45476,1,0,0:0:0:0:
448,192,45476,1,0,0:0:0:0:
64,192,45617,1,0,0:0:0:0:
192,192,45757,1,0,0:0:0:0:
448,192,45757,1,0,0:0:0:0:
320,192,45898,1,0,0:0:0:0:
192,192,45968,1,0,0:0:0:0:
64,192,46039,1,0,0:0:0:0:
320,192,46039,1,0,0:0:0:0:
192,192,46179,1,0,0:0:0:0:
448,192,46179,1,0,0:0:0:0:
320,192,46320,128,0,46460:0:0:0:0:
448,192,46320,1,0,0:0:0:0:
64,192,46460,1,0,0:0:0:0:
64,192,46601,1,0,0:0:0:0:
192,192,46601,128,0,46742:0:0:0:0:
448,192,46742,1,0,0:0:0:0:
192,192,46882,1,0,0:0:0:0:
320,192,46882,1,0,0:0:0:0:
64,192,47023,1,0,0:0:0:0:
448,192,47164,1,0,0:0:0:0:
64,192,47304,1,0,0:0:0:0:
320,192,47304,1,0,0:0:0:0:
64,192,47445,128,0,47726:0:0:0:0:
320,192,47445,1,0,0:0:0:0:
192,192,47586,1,0,0:0:0:0:
448,192,47726,1,0,0:0:0:0:
192,192,47867,1,0,0:0:0:0:
320,192,48008,1,0,0:0:0:0:
448,192,48008,1,0,0:0:0:0:
64,192,48148,1,0,0:0:0:0:
192,192,48148,1,0,0:0:0:0:
192,192,48289,1,0,0:0:0:0:
448,192,48289,1,0,0:0:0:0:
64,192,48429,1,0,0:0:0:0:
320,192,48429,1,0,0:0:0:0:
192,192,48570,1,0,0:0:0:0:
320,192,48711,1,0,0:0:0:0:
448,192,48711,1,0,0:0:0:0:
320,192,48851,1,0,0:0:0:0:
448,192,48851,128,0,49133:0:0:0:0:
192,192,48992,1,0,0:0:0:0:
64,192,49133,1,0,0:0:0:0:
320,192,49273,1,0,0:0:0:0:
448,192,49273,1,0,0:0:0:0:
64,192,49414,1,0,0:0:0:0:
192,192,49414,1,0,0:0:0:0:
192,192,49555,128,0,49976:0:0:0:0:
448,192,49555,1,0,0:0:0:0:
320,192,49695,1,0,0:0:0:0:
64,192,49836,1,0,0:0:0:0:
320,192,49976,1,0,0:0:0:0:
64,192,50117,1,0,0:0:0:0:
320,192,50258,1,0,0:0:0:0:
448,192,50258,1,0,0:0:0:0:
192,192,50398,1,0,0:0:0:0:
192,192,50539,1,0,0:0:0:0:
448,192,50539,1,0,0:0:0:0:
64,192,50680,1,0,0:0:0:0:
64,192,50820,1,0,0:0:0:0:
448,192,50820,128,0,50891:0:0:0:0:
192,192,50961,1,0,0:0:0:0:
448,192,51031,128,0,51102:0:0:0:0:
192,192,51242,1,0,0:0:0:0:
448,192,51242,128,0,51383:0:0:0:0:
320,192,51383,128,0,51453:0:0:0:0:
64,192,51524,128,0,51594:0:0:0:0:
448,192,51524,1,0,0:0:0:0:
192,192,51664,128,0,51735:0:0:0:0:
64,192,51805,128,0,51875:0:0:0:0:
448,192,51805,1,0,0:0:0:0:
320,192,51945,128,0,52016:0:0:0:0:
192,192,52086,1,0,0:0:0:0:
64,192,52156,1,0,0:0:0:0:
320,192,52227,128,0,52297:0:0:0:0:
192,192,52367,128,0,52438:0:0:0:0:
448,192,52367,1,0,0:0:0:0:
64,192,52508,128,0,52649:0:0:0:0:
320,192,52508,1,0,0:0:0:0:
448,192,52649,1,0,0:0:0:0:
192,192,52789,1,0,0:0:0:0:
320,192,52789,128,0,52930:0:0:0:0:
64,192,52930,1,0,0:0:0:0:
192,192,53071,128,0,53141:0:0:0:0:
64,192,53211,1,0,0:0:0:0:
320,192,53211,1,0,0:0:0:0:
448,192,53211,1,0,0:0:0:0:
320,192,53352,128,0,53422:0:0:0:0:
64,192,53493,1,0,0:0:0:0:
192,192,53633,1,0,0:0:0:0:
320,192,53633,1,0,0:0:0:0:
448,192,53633,1,0,0:0:0:0:
64,192,53703,1,0,0:0:0:0:
192,192,53774,1,0,0:0:0:0:
64,192,53914,1,0,0:0:0:0:
320,192,53914,1,0,0:0:0:0:
448,192,53985,1,0,0:0:0:0:
320,192,54055,1,0,0:0:0:0:
64,192,54196,1,0,0:0:0:0:
192,192,54196,1,0,0:0:0:0:
192,192,54336,1,0,0:0:0:0:
320,192,54407,1,0,0:0:0:0:
64,192,54477,1,0,0:0:0:0:
192,192,54547,1,0,0:0:0:0:
192,192,54688,1,0,0:0:0:0:
320,192,54758,1,0,0:0:0:0:
448,192,54758,1,0,0:0:0:0:
320,192,54899,1,0,0:0:0:0:
192,192,55040,1,0,0:0:0:0:
448,192,55040,1,0,0:0:0:0:
320,192,55110,1,0,0:0:0:0:
64,192,55251,1,0,0:0:0:0:
192,192,55321,1,0,0:0:0:0:
320,192,55321,1,0,0:0:0:0:
448,192,55391,1,0,0:0:0:0:
64,192,55462,1,0,0:0:0:0:
192,192,55602,1,0,0:0:0:0:
448,192,55602,1,0,0:0:0:0:
320,192,55743,1,0,0:0:0:0:
192,192,55883,1,0,0:0:0:0:
448,192,55883,1,0,0:0:0:0:
320,192,55954,1,0,0:0:0:0:
192,192,56024,1,0,0:0:0:0:
64,192,56165,1,0,0:0:0:0:
320,192,56165,1,0,0:0:0:0:
192,192,56235,1,0,0:0:0:0:
320,192,56305,1,0,0:0:0:0:
64,192,56446,1,0,0:0:0:0:
192,192,56446,1,0,0:0:0:0:
448,192,56516,1,0,0:0:0:0:
448,192,56657,1,0,0:0:0:0:
64,192,56727,1,0,0:0:0:0:
320,192,56727,1,0,0:0:0:0:
448,192,56798,1,0,0:0:0:0:
192,192,56868,1,0,0:0:0:0:
320,192,56938,1,0,0:0:0:0:
64,192,57009,1,0,0:0:0:0:
192,192,57009,1,0,0:0:0:0:
320,192,57149,1,0,0:0:0:0:
64,192,57290,1,0,0:0:0:0:
320,192,57290,1,0,0:0:0:0:
192,192,57430,1,0,0:0:0:0:
320,192,57501,1,0,0:0:0:0:
192,192,57571,1,0,0:0:0:0:
448,192,57571,1,0,0:0:0:0:
64,192,57641,1,0,0:0:0:0:
320,192,57641,1,0,0:0:0:0:
192,192,57712,1,0,0:0:0:0:
448,192,57712,1,0,0:0:0:0:
64,192,57852,1,0,0:0:0:0:
192,192,57852,1,0,0:0:0:0:
320,192,57993,1,0,0:0:0:0:
64,192,58134,1,0,0:0:0:0:
192,192,58134,1,0,0:0:0:0:
320,192,58204,1,0,0:0:0:0:
448,192,58204,1,0,0:0:0:0:
64,192,58274,1,0,0:0:0:0:
192,192,58274,1,0,0:0:0:0:
448,192,58345,1,0,0:0:0:0:
64,192,58415,1,0,0:0:0:0:
192,192,58415,1,0,0:0:0:0:
320,192,58485,1,0,0:0:0:0:
448,192,58485,1,0,0:0:0:0:
64,192,58556,1,0,0:0:0:0:
192,192,58556,1,0,0:0:0:0:
448,192,58626,1,0,0:0:0:0:
64,192,58696,1,0,0:0:0:0:
320,192,58696,1,0,0:0:0:0:
192,192,58767,1,0,0:0:0:0:
64,192,58837,1,0,0:0:0:0:
320,192,58837,1,0,0:0:0:0:
192,192,58907,1,0,0:0:0:0:
448,192,58907,1,0,0:0:0:0:
320,192,58978,1,0,0:0:0:0:
64,192,59048,1,0,0:0:0:0:
320,192,59118,1,0,0:0:0:0:
448,192,59118,1,0,0:0:0:0:
64,192,59188,1,0,0:0:0:0:
192,192,59188,1,0,0:0:0:0:
320,192,59259,1,0,0:0:0:0:
448,192,59259,1,0,0:0:0:0:
192,192,59329,1,0,0:0:0:0:
320,192,59399,1,0,0:0:0:0:
448,192,59399,1,0,0:0:0:0:
64,192,59470,1,0,0:0:0:0:
192,192,59540,1,0,0:0:0:0:
448,192,59540,1,0,0:0:0:0:
64,192,59610,1,0,0:0:0:0:
320,192,59610,1,0,0:0:0:0:
192,192,59681,1,0,0:0:0:0:
320,192,59751,1,0,0:0:0:0:
448,192,59751,1,0,0:0:0:0:
64,192,59821,1,0,0:0:0:0:
192,192,59892,1,0,0:0:0:0:
320,192,59892,1,0,0:0:0:0:
64,192,59962,1,0,0:0:0:0:
448,192,59962,1,0,0:0:0:0:
192,192,60032,1,0,0:0:0:0:
320,192,60103,1,0,0:0:0:0:
448,192,60103,1,0,0:0:0:0:
64,192,60173,1,0,0:0:0:0:
192,192,60243,1,0,0:0:0:0:
448,192,60243,1,0,0:0:0:0:
320,192,60314,1,0,0:0:0:0:
64,192,60384,1,0,0:0:0:0:
192,192,60419,1,0,0:0:0:0:
448,192,60454,1,0,0:0:0:0:
320,192,60489,1,0,0:0:0:0:
64,192,60525,1,0,0:0:0:0:
192,192,60560,1,0,0:0:0:0:
448,192,60595,1,0,0:0:0:0:
320,192,60630,1,0,0:0:0:0:
64,192,60665,1,0,0:0:0:0:
192,192,60700,1,0,0:0:0:0:
448,192,60736,1,0,0:0:0:0:
320,192,60771,1,0,0:0:0:0:
64,192,60806,1,0,0:0:0:0:
192,192,60841,1,0,0:0:0:0:
448,192,60876,1,0,0:0:0:0:
320,192,60911,1,0,0:0:0:0:
64,192,60947,1,0,0:0:0:0:
192,192,60982,1,0,0:0:0:0:
448,192,61017,1,0,0:0:0:0:
320,192,61052,1,0,0:0:0:0:
64,192,61087,1,0,0:0:0:0:
192,192,61122,1,0,0:0:0:0:
448,192,61157,1,0,0:0:0:0:
320,192,61193,1,0,0:0:0:0:
64,192,61228,1,0,0:0:0:0:
192,192,61263,1,0,0:0:0:0:
448,192,61298,1,0,0:0:0:0:
320,192,61333,1,0,0:0:0:0:
64,192,61368,1,0,0:0:0:0:
192,192,61404,1,0,0:0:0:0:
448,192,61439,1,0,0:0:0:0:
320,192,61474,1,0,0:0:0:0:
64,192,61509,128,0,61720:0:0:0:0:
192,192,61509,1,0,0:0:0:0:
320,192,61790,1,0,0:0:0:0:
192,192,61861,1,0,0:0:0:0:
448,192,61931,1,0,0:0:0:0:
192,192,62001,1,0,0:0:0:0:
64,192,62072,1,0,0:0:0:0:
448,192,62142,1,0,0:0:0:0:
320,192,62212,1,0,0:0:0:0:
192,192,62283,1,0,0:0:0:0:
320,192,62353,1,0,0:0:0:0:
448,192,62353,1,0,0:0:0:0:
64,192,62423,1,0,0:0:0:0:
192,192,62494,1,0,0:0:0:0:
448,192,62494,1,0,0:0:0:0:
320,192,62564,1,0,0:0:0:0:
64,192,62634,1,0,0:0:0:0:
192,192,62634,1,0,0:0:0:0:
320,192,62705,1,0,0:0:0:0:
448,192,62705,1,0,0:0:0:0:
64,192,62775,1,0,0:0:0:0:
192,192,62775,1,0,0:0:0:0:
448,192,62845,1,0,0:0:0:0:
64,192,62915,1,0,0:0:0:0:
320,192,62915,1,0,0:0:0:0:
192,192,62986,1,0,0:0:0:0:
448,192,62986,1,0,0:0:0:0:
64,192,63056,1,0,0:0:0:0:
320,192,63056,1,0,0:0:0:0:
192,192,63126,1,0,0:0:0:0:
320,192,63197,1,0,0:0:0:0:
448,192,63197,1,0,0:0:0:0:
64,192,63267,1,0,0:0:0:0:
320,192,63337,1,0,0:0:0:0:
448,192,63337,1,0,0:0:0:0:
64,192,63408,1,0,0:0:0:0:
192,192,63408,1,0,0:0:0:0:
448,192,63478,1,0,0:0:0:0:
64,192,63548,1,0,0:0:0:0:
192,192,63548,1,0,0:0:0:0:
320,192,63619,1,0,0:0:0:0:
448,192,63619,1,0,0:0:0:0:
64,192,63689,1,0,0:0:0:0:
192,192,63689,1,0,0:0:0:0:
320,192,63759,1,0,0:0:0:0:
448,192,63759,1,0,0:0:0:0:
192,192,63830,1,0,0:0:0:0:
320,192,63900,1,0,0:0:0:0:
448,192,63900,1,0,0:0:0:0:
64,192,63970,1,0,0:0:0:0:
192,192,64041,1,0,0:0:0:0:
320,192,64041,1,0,0:0:0:0:
64,192,64111,1,0,0:0:0:0:
448,192,64111,1,0,0:0:0:0:
192,192,64181,1,0,0:0:0:0:
320,192,64252,1,0,0:0:0:0:
448,192,64252,1,0,0:0:0:0:
64,192,64322,1,0,0:0:0:0:
320,192,64392,1,0,0:0:0:0:
448,192,64392,1,0,0:0:0:0:
64,192,64463,1,0,0:0:0:0:
192,192,64463,1,0,0:0:0:0:
448,192,64533,1,0,0:0:0:0:
64,192,64603,1,0,0:0:0:0:
320,192,64603,1,0,0:0:0:0:
192,192,64674,1,0,0:0:0:0:
320,192,64744,1,0,0:0:0:0:
448,192,64744,1,0,0:0:0:0:
64,192,64814,1,0,0:0:0:0:
192,192,64884,1,0,0:0:0:0:
448,192,64884,1,0,0:0:0:0:
64,192,64955,1,0,0:0:0:0:
320,192,64955,1,0,0:0:0:0:
192,192,65025,1,0,0:0:0:0:
448,192,65025,1,0,0:0:0:0:
320,192,65095,1,0,0:0:0:0:
64,192,65166,1,0,0:0:0:0:
192,192,65166,1,0,0:0:0:0:
320,192,65236,1,0,0:0:0:0:
448,192,65236,1,0,0:0:0:0:
64,192,65306,1,0,0:0:0:0:
192,192,65306,1,0,0:0:0:0:
448,192,65377,1,0,0:0:0:0:
64,192,65447,1,0,0:0:0:0:
320,192,65447,1,0,0:0:0:0:
192,192,65517,1,0,0:0:0:0:
448,192,65517,1,0,0:0:0:0:
320,192,65588,1,0,0:0:0:0:
192,192,65658,1,0,0:0:0:0:
448,192,65658,1,0,0:0:0:0:
64,192,65728,1,0,0:0:0:0:
192,192,65799,1,0,0:0:0:0:
448,192,65799,1,0,0:0:0:0:
64,192,65869,1,0,0:0:0:0:
320,192,65869,1,0,0:0:0:0:
192,192,65939,1,0,0:0:0:0:
320,192,66010,1,0,0:0:0:0:
448,192,66010,1,0,0:0:0:0:
64,192,66080,1,0,0:0:0:0:
192,192,66150,1,0,0:0:0:0:
448,192,66150,1,0,0:0:0:0:
320,192,66221,1,0,0:0:0:0:
64,192,66291,1,0,0:0:0:0:
192,192,66291,1,0,0:0:0:0:
448,192,66361,1,0,0:0:0:0:
64,192,66432,1,0,0:0:0:0:
320,192,66432,1,0,0:0:0:0:
192,192,66502,1,0,0:0:0:0:
320,192,66572,1,0,0:0:0:0:
448,192,66572,1,0,0:0:0:0:
64,192,66642,1,0,0:0:0:0:
192,192,66642,1,0,0:0:0:0:
320,192,66713,1,0,0:0:0:0:
448,192,66713,1,0,0:0:0:0:
64,192,66783,1,0,0:0:0:0:
192,192,66853,1,0,0:0:0:0:
448,192,66853,1,0,0:0:0:0:
320,192,66924,1,0,0:0:0:0:
64,192,66994,1,0,0:0:0:0:
192,192,67029,1,0,0:0:0:0:
320,192,67064,1,0,0:0:0:0:
448,192,67100,1,0,0:0:0:0:
64,192,67135,1,0,0:0:0:0:
192,192,67135,1,0,0:0:0:0:
320,192,67205,1,0,0:0:0:0:
448,192,67205,1,0,0:0:0:0:
64,192,67275,1,0,0:0:0:0:
192,192,67275,1,0,0:0:0:0:
448,192,67346,1,0,0:0:0:0:
64,192,67416,1,0,0:0:0:0:
320,192,67416,1,0,0:0:0:0:
192,192,67486,1,0,0:0:0:0:
448,192,67486,1,0,0:0:0:0:
64,192,67557,1,0,0:0:0:0:
320,192,67557,1,0,0:0:0:0:
192,192,67627,1,0,0:0:0:0:
320,192,67697,1,0,0:0:0:0:
448,192,67697,1,0,0:0:0:0:
64,192,67768,1,0,0:0:0:0:
320,192,67838,1,0,0:0:0:0:
448,192,67838,1,0,0:0:0:0:
64,192,67908,1,0,0:0:0:0:
192,192,67908,1,0,0:0:0:0:
448,192,67979,1,0,0:0:0:0:
64,192,68049,1,0,0:0:0:0:
192,192,68049,1,0,0:0:0:0:
320,192,68119,1,0,0:0:0:0:
448,192,68119,1,0,0:0:0:0:
64,192,68190,1,0,0:0:0:0:
192,192,68190,1,0,0:0:0:0:
320,192,68260,1,0,0:0:0:0:
448,192,68260,1,0,0:0:0:0:
192,192,68330,1,0,0:0:0:0:
320,192,68401,1,0,0:0:0:0:
448,192,68401,1,0,0:0:0:0:
64,192,68471,1,0,0:0:0:0:
192,192,68541,1,0,0:0:0:0:
320,192,68541,1,0,0:0:0:0:
64,192,68611,1,0,0:0:0:0:
448,192,68611,1,0,0:0:0:0:
192,192,68682,1,0,0:0:0:0:
320,192,68752,1,0,0:0:0:0:
448,192,68752,1,0,0:0:0:0:
64,192,68822,1,0,0:0:0:0:
320,192,68893,1,0,0:0:0:0:
448,192,68893,1,0,0:0:0:0:
64,192,68963,1,0,0:0:0:0:
192,192,68963,1,0,0:0:0:0:
448,192,69033,1,0,0:0:0:0:
64,192,69104,1,0,0:0:0:0:
320,192,69104,1,0,0:0:0:0:
192,192,69174,1,0,0:0:0:0:
320,192,69244,1,0,0:0:0:0:
448,192,69244,1,0,0:0:0:0:
64,192,69315,1,0,0:0:0:0:
192,192,69385,1,0,0:0:0:0:
448,192,69385,1,0,0:0:0:0:
64,192,69455,1,0,0:0:0:0:
320,192,69455,1,0,0:0:0:0:
192,192,69526,1,0,0:0:0:0:
448,192,69526,1,0,0:0:0:0:
320,192,69596,1,0,0:0:0:0:
64,192,69666,1,0,0:0:0:0:
192,192,69666,1,0,0:0:0:0:
320,192,69737,1,0,0:0:0:0:
448,192,69737,1,0,0:0:0:0:
64,192,69807,1,0,0:0:0:0:
192,192,69807,1,0,0:0:0:0:
448,192,69877,1,0,0:0:0:0:
64,192,69948,1,0,0:0:0:0:
320,192,69948,1,0,0:0:0:0:
192,192,70018,1,0,0:0:0:0:
448,192,70018,1,0,0:0:0:0:
320,192,70088,1,0,0:0:0:0:
192,192,70159,1,0,0:0:0:0:
448,192,70159,1,0,0:0:0:0:
64,192,70229,1,0,0:0:0:0:
192,192,70299,1,0,0:0:0:0:
448,192,70299,1,0,0:0:0:0:
64,192,70369,1,0,0:0:0:0:
320,192,70369,1,0,0:0:0:0:
192,192,70440,1,0,0:0:0:0:
320,192,70510,1,0,0:0:0:0:
448,192,70510,1,0,0:0:0:0:
64,192,70580,1,0,0:0:0:0:
192,192,70651,1,0,0:0:0:0:
448,192,70651,1,0,0:0:0:0:
320,192,70721,1,0,0:0:0:0:
64,192,70791,1,0,0:0:0:0:
192,192,70791,1,0,0:0:0:0:
448,192,70862,1,0,0:0:0:0:
64,192,70932,1,0,0:0:0:0:
320,192,70932,1,0,0:0:0:0:
192,192,71002,1,0,0:0:0:0:
320,192,71073,1,0,0:0:0:0:
448,192,71073,1,0,0:0:0:0:
64,192,71143,1,0,0:0:0:0:
192,192,71143,1,0,0:0:0:0:
320,192,71213,1,0,0:0:0:0:
448,192,71213,1,0,0:0:0:0:
64,192,71284,1,0,0:0:0:0:
192,192,71319,1,0,0:0:0:0:
320,192,71354,1,0,0:0:0:0:
448,192,71354,1,0,0:0:0:0:
64,192,71495,128,0,71635:0:0:0:0:
192,192,71635,1,0,0:0:0:0:
320,192,71635,1,0,0:0:0:0:
448,192,71635,1,0,0:0:0:0:
320,192,71776,1,0,0:0:0:0:
192,192,71917,1,0,0:0:0:0:
448,192,71917,1,0,0:0:0:0:
64,192,72057,1,0,0:0:0:0:
192,192,72057,1,0,0:0:0:0:
448,192,72198,1,0,0:0:0:0:
192,192,72268,1,0,0:0:0:0:
64,192,72338,1,0,0:0:0:0:
320,192,72338,1,0,0:0:0:0:
448,192,72409,1,0,0:0:0:0:
64,192,72479,1,0,0:0:0:0:
320,192,72549,1,0,0:0:0:0:
192,192,72620,1,0,0:0:0:0:
448,192,72620,1,0,0:0:0:0:
64,192,72690,1,0,0:0:0:0:
320,192,72760,1,0,0:0:0:0:
448,192,72760,1,0,0:0:0:0:
320,192,72901,1,0,0:0:0:0:
64,192,73042,1,0,0:0:0:0:
192,192,73042,1,0,0:0:0:0:
192,192,73182,1,0,0:0:0:0:
448,192,73323,1,0,0:0:0:0:
320,192,73393,1,0,0:0:0:0:
64,192,73464,1,0,0:0:0:0:
448,192,73464,1,0,0:0:0:0:
192,192,73534,1,0,0:0:0:0:
64,192,73604,1,0,0:0:0:0:
320,192,73604,1,0,0:0:0:0:
448,192,73675,1,0,0:0:0:0:
192,192,73745,1,0,0:0:0:0:
320,192,73745,1,0,0:0:0:0:
64,192,73815,1,0,0:0:0:0:
320,192,73886,1,0,0:0:0:0:
448,192,73886,1,0,0:0:0:0:
448,192,74026,1,0,0:0:0:0:
64,192,74167,1,0,0:0:0:0:
320,192,74167,1,0,0:0:0:0:
64,192,74307,1,0,0:0:0:0:
192,192,74307,1,0,0:0:0:0:
320,192,74448,1,0,0:0:0:0:
192,192,74518,1,0,0:0:0:0:
64,192,74589,1,0,0:0:0:0:
448,192,74589,1,0,0:0:0:0:
320,192,74659,1,0,0:0:0:0:
64,192,74729,1,0,0:0:0:0:
192,192,74800,1,0,0:0:0:0:
320,192,74870,1,0,0:0:0:0:
448,192,74870,1,0,0:0:0:0:
64,192,74940,1,0,0:0:0:0:
192,192,75011,1,0,0:0:0:0:
448,192,75011,1,0,0:0:0:0:
192,192,75151,1,0,0:0:0:0:
320,192,75292,1,0,0:0:0:0:
448,192,75292,1,0,0:0:0:0:
320,192,75433,1,0,0:0:0:0:
448,192,75433,1,0,0:0:0:0:
192,192,75573,1,0,0:0:0:0:
320,192,75644,1,0,0:0:0:0:
64,192,75714,1,0,0:0:0:0:
448,192,75784,1,0,0:0:0:0:
192,192,75854,1,0,0:0:0:0:
320,192,75854,1,0,0:0:0:0:
64,192,75925,1,0,0:0:0:0:
192,192,75995,1,0,0:0:0:0:
448,192,76065,1,0,0:0:0:0:
64,192,76136,1,0,0:0:0:0:
320,192,76136,1,0,0:0:0:0:
320,192,76276,1,0,0:0:0:0:
64,192,76417,1,0,0:0:0:0:
192,192,76417,1,0,0:0:0:0:
192,192,76558,1,0,0:0:0:0:
448,192,76558,1,0,0:0:0:0:
64,192,76698,1,0,0:0:0:0:
192,192,76769,1,0,0:0:0:0:
320,192,76839,1,0,0:0:0:0:
448,192,76909,1,0,0:0:0:0:
64,192,76980,1,0,0:0:0:0:
192,192,76980,1,0,0:0:0:0:
320,192,77050,1,0,0:0:0:0:
448,192,77120,1,0,0:0:0:0:
320,192,77191,1,0,0:0:0:0:
64,192,77261,1,0,0:0:0:0:
192,192,77261,1,0,0:0:0:0:
192,192,77402,1,0,0:0:0:0:
320,192,77542,1,0,0:0:0:0:
448,192,77542,1,0,0:0:0:0:
64,192,77683,1,0,0:0:0:0:
320,192,77683,1,0,0:0:0:0:
192,192,77823,1,0,0:0:0:0:
448,192,77894,1,0,0:0:0:0:
64,192,77964,1,0,0:0:0:0:
320,192,78034,1,0,0:0:0:0:
192,192,78105,1,0,0:0:0:0:
448,192,78105,1,0,0:0:0:0:
64,192,78175,1,0,0:0:0:0:
320,192,78245,1,0,0:0:0:0:
448,192,78245,1,0,0:0:0:0:
192,192,78316,1,0,0:0:0:0:
64,192,78386,1,0,0:0:0:0:
320,192,78386,1,0,0:0:0:0:
64,192,78527,1,0,0:0:0:0:
192,192,78527,1,0,0:0:0:0:
320,192,78667,1,0,0:0:0:0:
448,192,78667,1,0,0:0:0:0:
320,192,78808,1,0,0:0:0:0:
64,192,78949,1,0,0:0:0:0:
448,192,79019,1,0,0:0:0:0:
192,192,79089,1,0,0:0:0:0:
320,192,79160,1,0,0:0:0:0:
64,192,79230,1,0,0:0:0:0:
448,192,79300,1,0,0:0:0:0:
64,192,79371,1,0,0:0:0:0:
192,192,79371,1,0,0:0:0:0:
320,192,79441,1,0,0:0:0:0:
448,192,79441,1,0,0:0:0:0:
64,192,79511,1,0,0:0:0:0:
192,192,79511,1,0,0:0:0:0:
192,192,79652,1,0,0:0:0:0:
448,192,79652,1,0,0:0:0:0:
320,192,79792,1,0,0:0:0:0:
448,192,79792,1,0,0:0:0:0:
64,192,79933,1,0,0:0:0:0:
320,192,79933,1,0,0:0:0:0:
64,192,80074,1,0,0:0:0:0:
192,192,80074,1,0,0:0:0:0:
448,192,80121,1,0,0:0:0:0:
320,192,80167,1,0,0:0:0:0:
64,192,80214,1,0,0:0:0:0:
448,192,80261,1,0,0:0:0:0:
192,192,80308,1,0,0:0:0:0:
64,192,80355,1,0,0:0:0:0:
320,192,80402,1,0,0:0:0:0:
192,192,80449,1,0,0:0:0:0:
448,192,80496,1,0,0:0:0:0:
64,192,80543,1,0,0:0:0:0:
192,192,80589,1,0,0:0:0:0:
320,192,80636,1,0,0:0:0:0:
448,192,80636,1,0,0:0:0:0:
320,192,80777,1,0,0:0:0:0:
64,192,80918,1,0,0:0:0:0:
192,192,80918,1,0,0:0:0:0:
448,192,80918,1,0,0:0:0:0:
192,192,81058,1,0,0:0:0:0:
320,192,81058,1,0,0:0:0:0:
64,192,81199,1,0,0:0:0:0:
448,192,81199,1,0,0:0:0:0:
320,192,81269,1,0,0:0:0:0:
192,192,81339,1,0,0:0:0:0:
448,192,81339,1,0,0:0:0:0:
64,192,81410,1,0,0:0:0:0:
320,192,81480,1,0,0:0:0:0:
192,192,81550,1,0,0:0:0:0:
320,192,81621,1,0,0:0:0:0:
448,192,81621,1,0,0:0:0:0:
64,192,81691,1,0,0:0:0:0:
192,192,81761,1,0,0:0:0:0:
448,192,81761,1,0,0:0:0:0:
192,192,81902,1,0,0:0:0:0:
64,192,82043,1,0,0:0:0:0:
320,192,82043,1,0,0:0:0:0:
320,192,82183,1,0,0:0:0:0:
192,192,82324,1,0,0:0:0:0:
448,192,82324,1,0,0:0:0:0:
64,192,82394,1,0,0:0:0:0:
192,192,82465,1,0,0:0:0:0:
320,192,82465,1,0,0:0:0:0:
448,192,82535,1,0,0:0:0:0:
64,192,82605,1,0,0:0:0:0:
320,192,82605,1,0,0:0:0:0:
192,192,82676,1,0,0:0:0:0:
64,192,82746,1,0,0:0:0:0:
448,192,82746,1,0,0:0:0:0:
320,192,82816,1,0,0:0:0:0:
64,192,82887,1,0,0:0:0:0:
192,192,82887,1,0,0:0:0:0:
448,192,82887,1,0,0:0:0:0:
192,192,83027,1,0,0:0:0:0:
64,192,83168,1,0,0:0:0:0:
320,192,83168,1,0,0:0:0:0:
448,192,83168,1,0,0:0:0:0:
192,192,83308,1,0,0:0:0:0:
320,192,83308,1,0,0:0:0:0:
64,192,83449,1,0,0:0:0:0:
448,192,83449,1,0,0:0:0:0:
320,192,83519,1,0,0:0:0:0:
64,192,83590,1,0,0:0:0:0:
192,192,83590,1,0,0:0:0:0:
320,192,83660,1,0,0:0:0:0:
192,192,83730,1,0,0:0:0:0:
448,192,83801,1,0,0:0:0:0:
64,192,83871,1,0,0:0:0:0:
320,192,83871,1,0,0:0:0:0:
192,192,83941,1,0,0:0:0:0:
64,192,84012,1,0,0:0:0:0:
320,192,84012,1,0,0:0:0:0:
448,192,84012,1,0,0:0:0:0:
320,192,84152,1,0,0:0:0:0:
64,192,84293,1,0,0:0:0:0:
192,192,84293,1,0,0:0:0:0:
448,192,84293,1,0,0:0:0:0:
192,192,84434,1,0,0:0:0:0:
320,192,84434,1,0,0:0:0:0:
64,192,84574,1,0,0:0:0:0:
448,192,84574,1,0,0:0:0:0:
320,192,84645,1,0,0:0:0:0:
192,192,84715,1,0,0:0:0:0:
448,192,84785,1,0,0:0:0:0:
64,192,84856,1,0,0:0:0:0:
320,192,84856,1,0,0:0:0:0:
192,192,84926,1,0,0:0:0:0:
320,192,84996,1,0,0:0:0:0:
448,192,85066,1,0,0:0:0:0:
64,192,85137,1,0,0:0:0:0:
192,192,85137,1,0,0:0:0:0:
320,192,85137,1,0,0:0:0:0:
64,192,85277,1,0,0:0:0:0:
192,192,85418,1,0,0:0:0:0:
320,192,85418,1,0,0:0:0:0:
448,192,85418,1,0,0:0:0:0:
192,192,85559,1,0,0:0:0:0:
448,192,85559,1,0,0:0:0:0:
64,192,85699,1,0,0:0:0:0:
320,192,85699,1,0,0:0:0:0:
192,192,85770,1,0,0:0:0:0:
320,192,85840,1,0,0:0:0:0:
64,192,85910,1,0,0:0:0:0:
192,192,85981,1,0,0:0:0:0:
448,192,85981,1,0,0:0:0:0:
320,192,86051,1,0,0:0:0:0:
192,192,86121,1,0,0:0:0:0:
320,192,86192,1,0,0:0:0:0:
64,192,86262,1,0,0:0:0:0:
192,192,86262,1,0,0:0:0:0:
448,192,86262,1,0,0:0:0:0:
192,192,86403,1,0,0:0:0:0:
64,192,86543,1,0,0:0:0:0:
320,192,86543,1,0,0:0:0:0:
192,192,86684,1,0,0:0:0:0:
320,192,86684,1,0,0:0:0:0:
448,192,86684,1,0,0:0:0:0:
64,192,86825,1,0,0:0:0:0:
192,192,86895,1,0,0:0:0:0:
448,192,86965,1,0,0:0:0:0:
320,192,87035,1,0,0:0:0:0:
64,192,87106,1,0,0:0:0:0:
192,192,87106,1,0,0:0:0:0:
448,192,87106,1,0,0:0:0:0:
320,192,87176,1,0,0:0:0:0:
64,192,87246,1,0,0:0:0:0:
192,192,87246,1,0,0:0:0:0:
448,192,87317,1,0,0:0:0:0:
64,192,87387,1,0,0:0:0:0:
320,192,87387,1,0,0:0:0:0:
192,192,87528,1,0,0:0:0:0:
320,192,87528,1,0,0:0:0:0:
64,192,87668,1,0,0:0:0:0:
192,192,87668,1,0,0:0:0:0:
448,192,87668,1,0,0:0:0:0:
64,192,87809,1,0,0:0:0:0:
192,192,87950,1,0,0:0:0:0:
320,192,87950,1,0,0:0:0:0:
448,192,88020,1,0,0:0:0:0:
64,192,88090,1,0,0:0:0:0:
192,192,88161,1,0,0:0:0:0:
448,192,88231,1,0,0:0:0:0:
320,192,88301,1,0,0:0:0:0:
64,192,88372,1,0,0:0:0:0:
192,192,88372,1,0,0:0:0:0:
448,192,88442,1,0,0:0:0:0:
64,192,88512,1,0,0:0:0:0:
192,192,88512,1,0,0:0:0:0:
320,192,88512,1,0,0:0:0:0:
320,192,88653,1,0,0:0:0:0:
448,192,88653,1,0,0:0:0:0:
64,192,88793,1,0,0:0:0:0:
192,192,88793,1,0,0:0:0:0:
448,192,88793,1,0,0:0:0:0:
192,192,88934,1,0,0:0:0:0:
320,192,88934,1,0,0:0:0:0:
64,192,89075,1,0,0:0:0:0:
448,192,89075,1,0,0:0:0:0:
192,192,89145,1,0,0:0:0:0:
320,192,89215,1,0,0:0:0:0:
64,192,89286,1,0,0:0:0:0:
192,192,89356,1,0,0:0:0:0:
448,192,89403,1,0,0:0:0:0:
64,192,89450,1,0,0:0:0:0:
320,192,89497,1,0,0:0:0:0:
192,192,89544,1,0,0:0:0:0:
448,192,89590,1,0,0:0:0:0:
64,192,89637,1,0,0:0:0:0:
320,192,89637,1,0,0:0:0:0:
320,192,89778,1,0,0:0:0:0:
64,192,89919,1,0,0:0:0:0:
192,192,89919,1,0,0:0:0:0:
64,192,90059,1,0,0:0:0:0:
448,192,90059,1,0,0:0:0:0:
448,192,90200,1,0,0:0:0:0:
64,192,90341,1,0,0:0:0:0:
192,192,90341,1,0,0:0:0:0:
320,192,90481,1,0,0:0:0:0:
448,192,90481,1,0,0:0:0:0:
192,192,90551,1,0,0:0:0:0:
320,192,90622,1,0,0:0:0:0:
448,192,90622,1,0,0:0:0:0:
192,192,90692,1,0,0:0:0:0:
64,192,90762,1,0,0:0:0:0:
448,192,90762,1,0,0:0:0:0:
192,192,90903,1,0,0:0:0:0:
448,192,90903,1,0,0:0:0:0:
64,192,91044,1,0,0:0:0:0:
320,192,91044,1,0,0:0:0:0:
64,192,91184,1,0,0:0:0:0:
192,192,91184,1,0,0:0:0:0:
192,192,91325,1,0,0:0:0:0:
320,192,91466,1,0,0:0:0:0:
448,192,91466,1,0,0:0:0:0:
320,192,91606,1,0,0:0:0:0:
448,192,91606,1,0,0:0:0:0:
192,192,91677,1,0,0:0:0:0:
448,192,91747,1,0,0:0:0:0:
192,192,91817,1,0,0:0:0:0:
64,192,91888,1,0,0:0:0:0:
320,192,91888,1,0,0:0:0:0:
320,192,92028,1,0,0:0:0:0:
64,192,92169,1,0,0:0:0:0:
192,192,92169,1,0,0:0:0:0:
64,192,92310,1,0,0:0:0:0:
448,192,92310,1,0,0:0:0:0:
448,192,92450,1,0,0:0:0:0:
64,192,92591,1,0,0:0:0:0:
192,192,92591,1,0,0:0:0:0:
320,192,92731,1,0,0:0:0:0:
448,192,92731,1,0,0:0:0:0:
192,192,92802,1,0,0:0:0:0:
320,192,92872,1,0,0:0:0:0:
192,192,92942,1,0,0:0:0:0:
64,192,93013,1,0,0:0:0:0:
448,192,93013,1,0,0:0:0:0:
192,192,93153,1,0,0:0:0:0:
448,192,93153,1,0,0:0:0:0:
64,192,93294,1,0,0:0:0:0:
320,192,93294,1,0,0:0:0:0:
64,192,93435,1,0,0:0:0:0:
192,192,93435,1,0,0:0:0:0:
192,192,93575,1,0,0:0:0:0:
64,192,93716,1,0,0:0:0:0:
448,192,93716,1,0,0:0:0:0:
64,192,93857,1,0,0:0:0:0:
448,192,93857,1,0,0:0:0:0:
192,192,93997,1,0,0:0:0:0:
320,192,93997,1,0,0:0:0:0:
64,192,94138,1,0,0:0:0:0:
320,192,94138,1,0,0:0:0:0:
448,192,94138,1,0,0:0:0:0:
192,192,94278,1,0,0:0:0:0:
448,192,94278,1,0,0:0:0:0:
64,192,94419,1,0,0:0:0:0:
192,192,94419,1,0,0:0:0:0:
320,192,94560,1,0,0:0:0:0:
448,192,94560,1,0,0:0:0:0:
192,192,94700,1,0,0:0:0:0:
448,192,94700,1,0,0:0:0:0:
64,192,94841,1,0,0:0:0:0:
192,192,94841,1,0,0:0:0:0:
320,192,94841,1,0,0:0:0:0:
64,192,94982,1,0,0:0:0:0:
320,192,94982,1,0,0:0:0:0:
192,192,95122,1,0,0:0:0:0:
448,192,95122,1,0,0:0:0:0:
320,192,95193,1,0,0:0:0:0:
64,192,95263,1,0,0:0:0:0:
192,192,95263,1,0,0:0:0:0:
64,192,95404,1,0,0:0:0:0:
192,192,95544,1,0,0:0:0:0:
320,192,95544,1,0,0:0:0:0:
448,192,95544,1,0,0:0:0:0:
64,192,95685,1,0,0:0:0:0:
320,192,95685,1,0,0:0:0:0:
64,192,95826,1,0,0:0:0:0:
192,192,95826,1,0,0:0:0:0:
448,192,95826,1,0,0:0:0:0:
192,192,95966,1,0,0:0:0:0:
320,192,95966,1,0,0:0:0:0:
64,192,96107,1,0,0:0:0:0:
320,192,96107,1,0,0:0:0:0:
448,192,96107,1,0,0:0:0:0:
192,192,96247,1,0,0:0:0:0:
448,192,96247,1,0,0:0:0:0:
192,192,96388,1,0,0:0:0:0:
320,192,96388,1,0,0:0:0:0:
64,192,96529,1,0,0:0:0:0:
448,192,96529,1,0,0:0:0:0:
192,192,96669,1,0,0:0:0:0:
448,192,96669,1,0,0:0:0:0:
320,192,96810,1,0,0:0:0:0:
64,192,96951,1,0,0:0:0:0:
192,192,96951,1,0,0:0:0:0:
320,192,97091,1,0,0:0:0:0:
64,192,97232,1,0,0:0:0:0:
448,192,97232,1,0,0:0:0:0:
64,192,97373,1,0,0:0:0:0:
320,192,97373,1,0,0:0:0:0:
320,192,97513,1,0,0:0:0:0:
448,192,97513,1,0,0:0:0:0:
320,192,97795,1,0,0:0:0:0:
448,192,97795,1,0,0:0:0:0:
64,192,97865,1,0,0:0:0:0:
192,192,97935,1,0,0:0:0:0:
448,192,98005,1,0,0:0:0:0:
64,192,98076,1,0,0:0:0:0:
320,192,98146,1,0,0:0:0:0:
64,192,98216,1,0,0:0:0:0:
320,192,98287,1,0,0:0:0:0:
64,192,98357,1,0,0:0:0:0:
192,192,98357,1,0,0:0:0:0:
448,192,98357,1,0,0:0:0:0:
64,192,98638,1,0,0:0:0:0:
320,192,98638,1,0,0:0:0:0:
448,192,98638,1,0,0:0:0:0:
192,192,98779,1,0,0:0:0:0:
320,192,98779,1,0,0:0:0:0:
64,192,98920,1,0,0:0:0:0:
192,192,98920,1,0,0:0:0:0:
448,192,98920,1,0,0:0:0:0:
64,192,99060,1,0,0:0:0:0:
320,192,99060,1,0,0:0:0:0:
320,192,99201,1,0,0:0:0:0:
448,192,99201,1,0,0:0:0:0:
64,192,99342,1,0,0:0:0:0:
192,192,99342,1,0,0:0:0:0:
64,192,99482,1,0,0:0:0:0:
192,192,99482,1,0,0:0:0:0:
448,192,99482,1,0,0:0:0:0:
192,192,99623,1,0,0:0:0:0:
448,192,99623,1,0,0:0:0:0:
64,192,99763,1,0,0:0:0:0:
320,192,99763,1,0,0:0:0:0:
64,192,99904,1,0,0:0:0:0:
192,192,99904,1,0,0:0:0:0:
192,192,100045,1,0,0:0:0:0:
320,192,100045,1,0,0:0:0:0:
448,192,100045,1,0,0:0:0:0:
320,192,100185,1,0,0:0:0:0:
448,192,100185,1,0,0:0:0:0:
64,192,100326,1,0,0:0:0:0:
192,192,100326,1,0,0:0:0:0:
448,192,100326,1,0,0:0:0:0:
192,192,100467,1,0,0:0:0:0:
64,192,100607,1,0,0:0:0:0:
320,192,100607,1,0,0:0:0:0:
448,192,100607,1,0,0:0:0:0:
192,192,100748,1,0,0:0:0:0:
192,192,100889,1,0,0:0:0:0:
320,192,100889,1,0,0:0:0:0:
448,192,100889,1,0,0:0:0:0:
64,192,101029,1,0,0:0:0:0:
320,192,101029,1,0,0:0:0:0:
448,192,101100,1,0,0:0:0:0:
64,192,101170,1,0,0:0:0:0:
192,192,101170,1,0,0:0:0:0:
320,192,101240,1,0,0:0:0:0:
64,192,101311,1,0,0:0:0:0:
192,192,101311,1,0,0:0:0:0:
64,192,101451,1,0,0:0:0:0:
320,192,101451,1,0,0:0:0:0:
448,192,101451,1,0,0:0:0:0:
320,192,101592,1,0,0:0:0:0:
64,192,101732,1,0,0:0:0:0:
192,192,101732,1,0,0:0:0:0:
448,192,101732,1,0,0:0:0:0:
192,192,101873,1,0,0:0:0:0:
320,192,101873,1,0,0:0:0:0:
64,192,102014,1,0,0:0:0:0:
320,192,102014,1,0,0:0:0:0:
448,192,102014,1,0,0:0:0:0:
192,192,102154,1,0,0:0:0:0:
320,192,102225,1,0,0:0:0:0:
64,192,102295,1,0,0:0:0:0:
448,192,102295,1,0,0:0:0:0:
192,192,102436,1,0,0:0:0:0:
320,192,102436,1,0,0:0:0:0:
320,192,102576,1,0,0:0:0:0:
448,192,102576,1,0,0:0:0:0:
192,192,102647,1,0,0:0:0:0:
320,192,102717,1,0,0:0:0:0:
64,192,102787,1,0,0:0:0:0:
192,192,102858,1,0,0:0:0:0:
448,192,102858,1,0,0:0:0:0:
64,192,102928,1,0,0:0:0:0:
448,192,102998,1,0,0:0:0:0:
320,192,103069,1,0,0:0:0:0:
64,192,103139,1,0,0:0:0:0:
192,192,103139,1,0,0:0:0:0:
448,192,103139,1,0,0:0:0:0:
192,192,103280,1,0,0:0:0:0:
320,192,103280,1,0,0:0:0:0:
64,192,103420,1,0,0:0:0:0:
320,192,103420,1,0,0:0:0:0:
448,192,103420,1,0,0:0:0:0:
192,192,103561,1,0,0:0:0:0:
448,192,103561,1,0,0:0:0:0:
64,192,103701,1,0,0:0:0:0:
192,192,103701,1,0,0:0:0:0:
320,192,103842,1,0,0:0:0:0:
448,192,103842,1,0,0:0:0:0:
64,192,103983,1,0,0:0:0:0:
320,192,103983,1,0,0:0:0:0:
448,192,103983,1,0,0:0:0:0:
64,192,104123,1,0,0:0:0:0:
192,192,104123,1,0,0:0:0:0:
192,192,104264,1,0,0:0:0:0:
448,192,104264,1,0,0:0:0:0:
64,192,104405,1,0,0:0:0:0:
320,192,104405,1,0,0:0:0:0:
192,192,104545,1,0,0:0:0:0:
320,192,104545,1,0,0:0:0:0:
448,192,104545,1,0,0:0:0:0:
64,192,104686,1,0,0:0:0:0:
192,192,104686,1,0,0:0:0:0:
64,192,104827,1,0,0:0:0:0:
320,192,104827,1,0,0:0:0:0:
448,192,104827,1,0,0:0:0:0:
320,192,104967,1,0,0:0:0:0:
64,192,105108,1,0,0:0:0:0:
192,192,105108,1,0,0:0:0:0:
448,192,105108,1,0,0:0:0:0:
192,192,105249,1,0,0:0:0:0:
64,192,105389,1,0,0:0:0:0:
320,192,105389,1,0,0:0:0:0:
448,192,105389,1,0,0:0:0:0:
192,192,105530,128,0,105600:0:0:0:0:
64,192,105670,1,0,0:0:0:0:
192,192,105670,1,0,0:0:0:0:
448,192,105670,1,0,0:0:0:0:
320,192,105811,128,0,105881:0:0:0:0:
64,192,105952,1,0,0:0:0:0:
320,192,105952,1,0,0:0:0:0:
448,192,105952,1,0,0:0:0:0:
192,192,106092,1,0,0:0:0:0:
448,192,106163,1,0,0:0:0:0:
64,192,106233,1,0,0:0:0:0:
320,192,106233,1,0,0:0:0:0:
448,192,106374,1,0,0:0:0:0:
64,192,106514,1,0,0:0:0:0:
192,192,106514,1,0,0:0:0:0:
320,192,106585,1,0,0:0:0:0:
192,192,106655,1,0,0:0:0:0:
320,192,106725,1,0,0:0:0:0:
448,192,106725,1,0,0:0:0:0:
64,192,106796,1,0,0:0:0:0:
192,192,106796,1,0,0:0:0:0:
448,192,106866,1,0,0:0:0:0:
64,192,106936,1,0,0:0:0:0:
320,192,106936,1,0,0:0:0:0:
192,192,107007,1,0,0:0:0:0:
448,192,107077,1,0,0:0:0:0:
192,192,107147,1,0,0:0:0:0:
448,192,107217,1,0,0:0:0:0:
192,192,107288,1,0,0:0:0:0:
320,192,107358,128,0,107499:0:0:0:0:
64,192,107639,1,0,0:0:0:0:
320,192,107639,1,0,0:0:0:0:
448,192,107639,1,0,0:0:0:0:
192,192,107710,1,0,0:0:0:0:
64,192,107780,1,0,0:0:0:0:
448,192,107780,1,0,0:0:0:0:
320,192,107850,1,0,0:0:0:0:
64,192,107921,1,0,0:0:0:0:
192,192,107921,1,0,0:0:0:0:
448,192,107921,1,0,0:0:0:0:
320,192,107991,1,0,0:0:0:0:
64,192,108061,1,0,0:0:0:0:
192,192,108061,1,0,0:0:0:0:
448,192,108132,1,0,0:0:0:0:
64,192,108202,1,0,0:0:0:0:
320,192,108202,1,0,0:0:0:0:
192,192,108272,1,0,0:0:0:0:
320,192,108343,1,0,0:0:0:0:
448,192,108343,1,0,0:0:0:0:
64,192,108413,1,0,0:0:0:0:
320,192,108483,1,0,0:0:0:0:
448,192,108483,1,0,0:0:0:0:
64,192,108554,1,0,0:0:0:0:
192,192,108624,1,0,0:0:0:0:
448,192,108624,1,0,0:0:0:0:
320,192,108694,1,0,0:0:0:0:
192,192,108765,1,0,0:0:0:0:
448,192,108765,1,0,0:0:0:0:
320,192,108835,1,0,0:0:0:0:
64,192,108905,1,0,0:0:0:0:
192,192,108905,1,0,0:0:0:0:
448,192,108975,1,0,0:0:0:0:
64,192,109046,1,0,0:0:0:0:
192,192,109046,1,0,0:0:0:0:
320,192,109046,1,0,0:0:0:0:
448,192,109116,1,0,0:0:0:0:
64,192,109186,1,0,0:0:0:0:
320,192,109186,1,0,0:0:0:0:
192,192,109257,1,0,0:0:0:0:
64,192,109327,1,0,0:0:0:0:
320,192,109327,1,0,0:0:0:0:
448,192,109327,1,0,0:0:0:0:
192,192,109397,1,0,0:0:0:0:
320,192,109468,1,0,0:0:0:0:
448,192,109468,1,0,0:0:0:0:
64,192,109538,1,0,0:0:0:0:
192,192,109608,1,0,0:0:0:0:
320,192,109608,1,0,0:0:0:0:
448,192,109608,1,0,0:0:0:0:
64,192,109679,1,0,0:0:0:0:
192,192,109749,1,0,0:0:0:0:
448,192,109749,1,0,0:0:0:0:
320,192,109819,1,0,0:0:0:0:
64,192,109890,1,0,0:0:0:0:
192,192,109890,1,0,0:0:0:0:
448,192,109890,1,0,0:0:0:0:
320,192,109960,1,0,0:0:0:0:
192,192,110030,1,0,0:0:0:0:
320,192,110101,1,0,0:0:0:0:
448,192,110101,1,0,0:0:0:0:
64,192,110171,1,0,0:0:0:0:
192,192,110171,1,0,0:0:0:0:
448,192,110241,1,0,0:0:0:0:
64,192,110312,1,0,0:0:0:0:
320,192,110312,1,0,0:0:0:0:
192,192,110382,1,0,0:0:0:0:
64,192,110452,1,0,0:0:0:0:
320,192,110452,1,0,0:0:0:0:
448,192,110452,1,0,0:0:0:0:
192,192,110523,1,0,0:0:0:0:
320,192,110593,1,0,0:0:0:0:
448,192,110593,1,0,0:0:0:0:
64,192,110663,1,0,0:0:0:0:
192,192,110734,1,0,0:0:0:0:
448,192,110734,1,0,0:0:0:0:
64,192,110804,1,0,0:0:0:0:
320,192,110874,1,0,0:0:0:0:
192,192,110944,1,0,0:0:0:0:
64,192,111015,1,0,0:0:0:0:
320,192,111015,1,0,0:0:0:0:
448,192,111015,1,0,0:0:0:0:
192,192,111085,1,0,0:0:0:0:
320,192,111155,1,0,0:0:0:0:
448,192,111155,1,0,0:0:0:0:
192,192,111226,1,0,0:0:0:0:
320,192,111296,1,0,0:0:0:0:
448,192,111296,1,0,0:0:0:0:
64,192,111366,1,0,0:0:0:0:
192,192,111437,1,0,0:0:0:0:
448,192,111437,1,0,0:0:0:0:
320,192,111507,1,0,0:0:0:0:
64,192,111577,1,0,0:0:0:0:
192,192,111577,1,0,0:0:0:0:
448,192,111577,1,0,0:0:0:0:
320,192,111648,1,0,0:0:0:0:
64,192,111718,1,0,0:0:0:0:
192,192,111718,1,0,0:0:0:0:
320,192,111788,1,0,0:0:0:0:
64,192,111859,1,0,0:0:0:0:
192,192,111859,1,0,0:0:0:0:
448,192,111929,1,0,0:0:0:0:
64,192,111999,1,0,0:0:0:0:
320,192,111999,1,0,0:0:0:0:
192,192,112070,1,0,0:0:0:0:
64,192,112140,1,0,0:0:0:0:
320,192,112140,1,0,0:0:0:0:
448,192,112140,1,0,0:0:0:0:
192,192,112210,1,0,0:0:0:0:
64,192,112281,1,0,0:0:0:0:
448,192,112281,1,0,0:0:0:0:
320,192,112351,1,0,0:0:0:0:
64,192,112421,1,0,0:0:0:0:
192,192,112421,1,0,0:0:0:0:
448,192,112421,1,0,0:0:0:0:
320,192,112492,1,0,0:0:0:0:
64,192,112562,1,0,0:0:0:0:
192,192,112562,1,0,0:0:0:0:
448,192,112632,1,0,0:0:0:0:
64,192,112702,1,0,0:0:0:0:
320,192,112702,1,0,0:0:0:0:
192,192,112773,1,0,0:0:0:0:
320,192,112843,1,0,0:0:0:0:
448,192,112843,1,0,0:0:0:0:
64,192,112913,1,0,0:0:0:0:
192,192,112984,1,0,0:0:0:0:
320,192,112984,1,0,0:0:0:0:
448,192,112984,1,0,0:0:0:0:
64,192,113054,1,0,0:0:0:0:
320,192,113124,1,0,0:0:0:0:
448,192,113124,1,0,0:0:0:0:
192,192,113195,1,0,0:0:0:0:
64,192,113265,1,0,0:0:0:0:
320,192,113265,1,0,0:0:0:0:
448,192,113265,1,0,0:0:0:0:
192,192,113335,1,0,0:0:0:0:
64,192,113406,1,0,0:0:0:0:
448,192,113406,1,0,0:0:0:0:
320,192,113476,1,0,0:0:0:0:
64,192,113546,1,0,0:0:0:0:
192,192,113546,1,0,0:0:0:0:
448,192,113546,1,0,0:0:0:0:
320,192,113617,1,0,0:0:0:0:
64,192,113687,1,0,0:0:0:0:
192,192,113687,1,0,0:0:0:0:
448,192,113687,1,0,0:0:0:0:
320,192,113757,1,0,0:0:0:0:
64,192,113828,1,0,0:0:0:0:
192,192,113828,1,0,0:0:0:0:
448,192,113898,1,0,0:0:0:0:
192,192,113968,1,0,0:0:0:0:
320,192,113968,1,0,0:0:0:0:
64,192,114039,1,0,0:0:0:0:
320,192,114109,1,0,0:0:0:0:
448,192,114109,1,0,0:0:0:0:
192,192,114179,1,0,0:0:0:0:
64,192,114250,1,0,0:0:0:0:
320,192,114320,1,0,0:0:0:0:
64,192,114390,1,0,0:0:0:0:
192,192,114390,1,0,0:0:0:0:
448,192,114390,1,0,0:0:0:0:
320,192,114461,1,0,0:0:0:0:
64,192,114531,1,0,0:0:0:0:
192,192,114531,1,0,0:0:0:0:
448,192,114601,1,0,0:0:0:0:
64,192,114671,1,0,0:0:0:0:
192,192,114671,1,0,0:0:0:0:
320,192,114671,1,0,0:0:0:0:
448,192,114742,1,0,0:0:0:0:
64,192,114812,1,0,0:0:0:0:
320,192,114812,1,0,0:0:0:0:
192,192,114882,1,0,0:0:0:0:
64,192,114953,1,0,0:0:0:0:
320,192,114953,1,0,0:0:0:0:
448,192,114953,1,0,0:0:0:0:
192,192,115023,1,0,0:0:0:0:
320,192,115093,1,0,0:0:0:0:
448,192,115093,1,0,0:0:0:0:
64,192,115164,1,0,0:0:0:0:
320,192,115234,1,0,0:0:0:0:
448,192,115234,1,0,0:0:0:0:
64,192,115304,1,0,0:0:0:0:
192,192,115375,1,0,0:0:0:0:
448,192,115375,1,0,0:0:0:0:
320,192,115445,1,0,0:0:0:0:
64,192,115515,1,0,0:0:0:0:
192,192,115515,1,0,0:0:0:0:
448,192,115515,1,0,0:0:0:0:
320,192,115586,1,0,0:0:0:0:
192,192,115656,1,0,0:0:0:0:
320,192,115726,1,0,0:0:0:0:
448,192,115726,1,0,0:0:0:0:
64,192,115797,1,0,0:0:0:0:
192,192,115797,1,0,0:0:0:0:
448,192,115867,1,0,0:0:0:0:
64,192,115937,1,0,0:0:0:0:
192,192,115937,1,0,0:0:0:0:
320,192,115937,1,0,0:0:0:0:
448,192,116008,1,0,0:0:0:0:
64,192,116078,1,0,0:0:0:0:
320,192,116078,1,0,0:0:0:0:
192,192,116148,1,0,0:0:0:0:
320,192,116219,1,0,0:0:0:0:
448,192,116219,1,0,0:0:0:0:
64,192,116289,1,0,0:0:0:0:
192,192,116359,1,0,0:0:0:0:
320,192,116359,1,0,0:0:0:0:
448,192,116359,1,0,0:0:0:0:
64,192,116429,1,0,0:0:0:0:
320,192,116500,1,0,0:0:0:0:
448,192,116500,1,0,0:0:0:0:
64,192,116570,1,0,0:0:0:0:
192,192,116640,1,0,0:0:0:0:
448,192,116640,1,0,0:0:0:0:
320,192,116711,1,0,0:0:0:0:
64,192,116781,1,0,0:0:0:0:
192,192,116851,1,0,0:0:0:0:
320,192,116922,1,0,0:0:0:0:
448,192,116922,1,0,0:0:0:0:
192,192,116992,1,0,0:0:0:0:
320,192,117062,1,0,0:0:0:0:
448,192,117062,1,0,0:0:0:0:
64,192,117133,1,0,0:0:0:0:
192,192,117203,1,0,0:0:0:0:
448,192,117250,1,0,0:0:0:0:
64,192,117297,1,0,0:0:0:0:
320,192,117344,1,0,0:0:0:0:
192,192,117391,1,0,0:0:0:0:
448,192,117437,1,0,0:0:0:0:
64,192,117484,1,0,0:0:0:0:
192,192,117519,1,0,0:0:0:0:
320,192,117555,1,0,0:0:0:0:
448,192,117590,1,0,0:0:0:0:
64,192,117625,1,0,0:0:0:0:
192,192,117660,1,0,0:0:0:0:
320,192,117695,1,0,0:0:0:0:
448,192,117730,1,0,0:0:0:0:
64,192,117766,1,0,0:0:0:0:
192,192,117766,1,0,0:0:0:0:
320,192,117836,1,0,0:0:0:0:
448,192,117836,1,0,0:0:0:0:
64,192,117906,1,0,0:0:0:0:
192,192,117906,1,0,0:0:0:0:
448,192,117977,1,0,0:0:0:0:
64,192,118047,1,0,0:0:0:0:
320,192,118047,1,0,0:0:0:0:
192,192,118117,1,0,0:0:0:0:
448,192,118117,1,0,0:0:0:0:
64,192,118187,1,0,0:0:0:0:
320,192,118187,1,0,0:0:0:0:
192,192,118258,1,0,0:0:0:0:
320,192,118328,1,0,0:0:0:0:
448,192,118328,1,0,0:0:0:0:
64,192,118398,1,0,0:0:0:0:
320,192,118469,1,0,0:0:0:0:
448,192,118469,1,0,0:0:0:0:
64,192,118539,1,0,0:0:0:0:
192,192,118539,1,0,0:0:0:0:
448,192,118609,1,0,0:0:0:0:
64,192,118680,1,0,0:0:0:0:
192,192,118680,1,0,0:0:0:0:
320,192,118750,1,0,0:0:0:0:
448,192,118750,1,0,0:0:0:0:
64,192,118820,1,0,0:0:0:0:
192,192,118820,1,0,0:0:0:0:
320,192,118891,1,0,0:0:0:0:
448,192,118891,1,0,0:0:0:0:
192,192,118961,1,0,0:0:0:0:
320,192,119031,1,0,0:0:0:0:
448,192,119031,1,0,0:0:0:0:
64,192,119102,1,0,0:0:0:0:
192,192,119172,1,0,0:0:0:0:
320,192,119172,1,0,0:0:0:0:
64,192,119242,1,0,0:0:0:0:
448,192,119242,1,0,0:0:0:0:
192,192,119313,1,0,0:0:0:0:
320,192,119383,1,0,0:0:0:0:
448,192,119383,1,0,0:0:0:0:
64,192,119453,1,0,0:0:0:0:
320,192,119524,1,0,0:0:0:0:
448,192,119524,1,0,0:0:0:0:
64,192,119594,1,0,0:0:0:0:
192,192,119594,1,0,0:0:0:0:
448,192,119664,1,0,0:0:0:0:
64,192,119735,1,0,0:0:0:0:
320,192,119735,1,0,0:0:0:0:
192,192,119805,1,0,0:0:0:0:
320,192,119875,1,0,0:0:0:0:
448,192,119875,1,0,0:0:0:0:
64,192,119946,1,0,0:0:0:0:
192,192,120016,1,0,0:0:0:0:
448,192,120016,1,0,0:0:0:0:
64,192,120086,1,0,0:0:0:0:
320,192,120086,1,0,0:0:0:0:
192,192,120156,1,0,0:0:0:0:
448,192,120156,1,0,0:0:0:0:
320,192,120227,1,0,0:0:0:0:
64,192,120297,1,0,0:0:0:0:
192,192,120297,1,0,0:0:0:0:
320,192,120367,1,0,0:0:0:0:
448,192,120367,1,0,0:0:0:0:
64,192,120438,1,0,0:0:0:0:
192,192,120438,1,0,0:0:0:0:
448,192,120508,1,0,0:0:0:0:
64,192,120578,1,0,0:0:0:0:
320,192,120578,1,0,0:0:0:0:
192,192,120649,1,0,0:0:0:0:
448,192,120649,1,0,0:0:0:0:
320,192,120719,1,0,0:0:0:0:
192,192,120789,1,0,0:0:0:0:
448,192,120789,1,0,0:0:0:0:
64,192,120860,1,0,0:0:0:0:
192,192,120930,1,0,0:0:0:0:
448,192,120930,1,0,0:0:0:0:
64,192,121000,1,0,0:0:0:0:
320,192,121000,1,0,0:0:0:0:
192,192,121071,1,0,0:0:0:0:
320,192,121141,1,0,0:0:0:0:
448,192,121141,1,0,0:0:0:0:
64,192,121211,1,0,0:0:0:0:
192,192,121282,1,0,0:0:0:0:
448,192,121282,1,0,0:0:0:0:
320,192,121352,1,0,0:0:0:0:
64,192,121422,1,0,0:0:0:0:
192,192,121422,1,0,0:0:0:0:
448,192,121493,1,0,0:0:0:0:
64,192,121563,1,0,0:0:0:0:
320,192,121563,1,0,0:0:0:0:
192,192,121633,1,0,0:0:0:0:
64,192,121704,1,0,0:0:0:0:
320,192,121739,1,0,0:0:0:0:
448,192,121774,1,0,0:0:0:0:
192,192,121844,1,0,0:0:0:0:
320,192,121914,1,0,0:0:0:0:
64,192,121985,1,0,0:0:0:0:
448,192,121985,1,0,0:0:0:0:
192,192,122020,1,0,0:0:0:0:
320,192,122055,1,0,0:0:0:0:
64,192,122125,1,0,0:0:0:0:
192,192,122196,1,0,0:0:0:0:
320,192,122266,1,0,0:0:0:0:
448,192,122266,1,0,0:0:0:0:
64,192,122336,1,0,0:0:0:0:
192,192,122336,1,0,0:0:0:0:
320,192,122407,1,0,0:0:0:0:
448,192,122407,1,0,0:0:0:0:
64,192,122477,1,0,0:0:0:0:
192,192,122547,1,0,0:0:0:0:
448,192,122547,1,0,0:0:0:0:
64,192,122618,1,0,0:0:0:0:
320,192,122618,1,0,0:0:0:0:
192,192,122688,1,0,0:0:0:0:
448,192,122688,1,0,0:0:0:0:
320,192,122758,1,0,0:0:0:0:
64,192,122829,1,0,0:0:0:0:
192,192,122829,1,0,0:0:0:0:
448,192,122899,1,0,0:0:0:0:
64,192,122969,1,0,0:0:0:0:
192,192,122969,1,0,0:0:0:0:
320,192,123040,1,0,0:0:0:0:
448,192,123040,1,0,0:0:0:0:
64,192,123110,1,0,0:0:0:0:
320,192,123180,1,0,0:0:0:0:
448,192,123180,1,0,0:0:0:0:
64,192,123251,1,0,0:0:0:0:
192,192,123251,1,0,0:0:0:0:
320,192,123321,1,0,0:0:0:0:
448,192,123321,1,0,0:0:0:0:
64,192,123391,1,0,0:0:0:0:
192,192,123391,1,0,0:0:0:0:
320,192,123462,1,0,0:0:0:0:
64,192,123532,1,0,0:0:0:0:
192,192,123532,1,0,0:0:0:0:
448,192,123602,1,0,0:0:0:0:
192,192,123673,1,0,0:0:0:0:
320,192,123673,1,0,0:0:0:0:
64,192,123743,1,0,0:0:0:0:
448,192,123743,1,0,0:0:0:0:
320,192,123813,1,0,0:0:0:0:
64,192,123883,1,0,0:0:0:0:
192,192,123883,1,0,0:0:0:0:
448,192,123954,1,0,0:0:0:0:
64,192,124024,1,0,0:0:0:0:
192,192,124024,1,0,0:0:0:0:
320,192,124094,1,0,0:0:0:0:
448,192,124094,1,0,0:0:0:0:
64,192,124165,1,0,0:0:0:0:
192,192,124235,1,0,0:0:0:0:
448,192,124235,1,0,0:0:0:0:
320,192,124305,1,0,0:0:0:0:
64,192,124376,1,0,0:0:0:0:
192,192,124376,1,0,0:0:0:0:
448,192,124446,1,0,0:0:0:0:
64,192,124516,1,0,0:0:0:0:
320,192,124516,1,0,0:0:0:0:
192,192,124587,1,0,0:0:0:0:
448,192,124587,1,0,0:0:0:0:
64,192,124657,1,0,0:0:0:0:
320,192,124657,1,0,0:0:0:0:
192,192,124727,1,0,0:0:0:0:
320,192,124798,1,0,0:0:0:0:
448,192,124798,1,0,0:0:0:0:
64,192,124868,1,0,0:0:0:0:
192,192,124868,1,0,0:0:0:0:
320,192,124938,1,0,0:0:0:0:
448,192,124938,1,0,0:0:0:0:
64,192,125009,1,0,0:0:0:0:
192,192,125079,1,0,0:0:0:0:
448,192,125079,1,0,0:0:0:0:
64,192,125149,1,0,0:0:0:0:
320,192,125149,1,0,0:0:0:0:
192,192,125220,1,0,0:0:0:0:
64,192,125290,1,0,0:0:0:0:
320,192,125290,1,0,0:0:0:0:
448,192,125360,1,0,0:0:0:0:
64,192,125431,1,0,0:0:0:0:
320,192,125431,1,0,0:0:0:0:
192,192,125501,1,0,0:0:0:0:
448,192,125501,1,0,0:0:0:0:
320,192,125571,1,0,0:0:0:0:
64,192,125641,1,0,0:0:0:0:
192,192,125641,1,0,0:0:0:0:
320,192,125712,1,0,0:0:0:0:
448,192,125712,1,0,0:0:0:0:
64,192,125782,1,0,0:0:0:0:
192,192,125852,1,0,0:0:0:0:
448,192,125852,1,0,0:0:0:0:
64,192,125923,1,0,0:0:0:0:
320,192,125923,1,0,0:0:0:0:
192,192,125993,1,0,0:0:0:0:
320,192,126063,1,0,0:0:0:0:
448,192,126063,1,0,0:0:0:0:
64,192,126134,1,0,0:0:0:0:
192,192,126134,1,0,0:0:0:0:
448,192,126204,1,0,0:0:0:0:
64,192,126274,1,0,0:0:0:0:
192,192,126274,1,0,0:0:0:0:
320,192,126345,1,0,0:0:0:0:
448,192,126380,1,0,0:0:0:0:
64,192,126415,1,0,0:0:0:0:
192,192,126450,1,0,0:0:0:0:
320,192,126485,1,0,0:0:0:0:
448,192,126485,1,0,0:0:0:0:
192,192,126626,128,0,126767:0:0:0:0:
64,192,126767,1,0,0:0:0:0:
320,192,126767,1,0,0:0:0:0:
448,192,126767,1,0,0:0:0:0:
320,192,126907,1,0,0:0:0:0:
64,192,127048,1,0,0:0:0:0:
192,192,127048,1,0,0:0:0:0:
448,192,127048,1,0,0:0:0:0:
64,192,127189,1,0,0:0:0:0:
192,192,127189,1,0,0:0:0:0:
448,192,127329,1,0,0:0:0:0:
192,192,127400,1,0,0:0:0:0:
64,192,127470,1,0,0:0:0:0:
320,192,127470,1,0,0:0:0:0:
448,192,127540,1,0,0:0:0:0:
64,192,127610,1,0,0:0:0:0:
320,192,127681,1,0,0:0:0:0:
192,192,127751,1,0,0:0:0:0:
448,192,127751,1,0,0:0:0:0:
64,192,127821,1,0,0:0:0:0:
320,192,127892,1,0,0:0:0:0:
448,192,127892,1,0,0:0:0:0:
320,192,128032,1,0,0:0:0:0:
64,192,128173,1,0,0:0:0:0:
192,192,128173,1,0,0:0:0:0:
192,192,128314,1,0,0:0:0:0:
448,192,128454,1,0,0:0:0:0:
320,192,128525,1,0,0:0:0:0:
64,192,128595,1,0,0:0:0:0:
448,192,128595,1,0,0:0:0:0:
192,192,128665,1,0,0:0:0:0:
64,192,128736,1,0,0:0:0:0:
320,192,128736,1,0,0:0:0:0:
448,192,128806,1,0,0:0:0:0:
192,192,128876,1,0,0:0:0:0:
320,192,128876,1,0,0:0:0:0:
64,192,128947,1,0,0:0:0:0:
192,192,129017,1,0,0:0:0:0:
320,192,129017,1,0,0:0:0:0:
448,192,129017,1,0,0:0:0:0:
448,192,129158,1,0,0:0:0:0:
64,192,129298,1,0,0:0:0:0:
192,192,129298,1,0,0:0:0:0:
320,192,129298,1,0,0:0:0:0:
192,192,129439,1,0,0:0:0:0:
448,192,129439,1,0,0:0:0:0:
320,192,129579,1,0,0:0:0:0:
192,192,129650,1,0,0:0:0:0:
64,192,129720,1,0,0:0:0:0:
448,192,129720,1,0,0:0:0:0:
320,192,129790,1,0,0:0:0:0:
64,192,129861,1,0,0:0:0:0:
192,192,129931,1,0,0:0:0:0:
320,192,130001,1,0,0:0:0:0:
448,192,130001,1,0,0:0:0:0:
64,192,130072,1,0,0:0:0:0:
192,192,130142,1,0,0:0:0:0:
320,192,130142,1,0,0:0:0:0:
448,192,130142,1,0,0:0:0:0:
192,192,130283,1,0,0:0:0:0:
64,192,130423,1,0,0:0:0:0:
320,192,130423,1,0,0:0:0:0:
448,192,130423,1,0,0:0:0:0:
64,192,130564,1,0,0:0:0:0:
320,192,130564,1,0,0:0:0:0:
192,192,130705,1,0,0:0:0:0:
320,192,130705,1,0,0:0:0:0:
448,192,130705,1,0,0:0:0:0:
192,192,130845,1,0,0:0:0:0:
64,192,130986,1,0,0:0:0:0:
320,192,130986,1,0,0:0:0:0:
448,192,130986,1,0,0:0:0:0:
64,192,131126,1,0,0:0:0:0:
192,192,131267,1,0,0:0:0:0:
320,192,131267,1,0,0:0:0:0:
448,192,131267,1,0,0:0:0:0:
320,192,131408,1,0,0:0:0:0:
64,192,131548,1,0,0:0:0:0:
192,192,131548,1,0,0:0:0:0:
448,192,131548,1,0,0:0:0:0:
192,192,131689,1,0,0:0:0:0:
320,192,131689,1,0,0:0:0:0:
448,192,131830,1,0,0:0:0:0:
192,192,131900,1,0,0:0:0:0:
192,192,132041,1,0,0:0:0:0:
64,192,132111,1,0,0:0:0:0:
320,192,132111,1,0,0:0:0:0:
448,192,132111,1,0,0:0:0:0:
192,192,132181,1,0,0:0:0:0:
448,192,132252,1,0,0:0:0:0:
320,192,132322,1,0,0:0:0:0:
64,192,132392,1,0,0:0:0:0:
192,192,132392,1,0,0:0:0:0:
448,192,132392,1,0,0:0:0:0:
64,192,132533,1,0,0:0:0:0:
320,192,132674,1,0,0:0:0:0:
448,192,132674,1,0,0:0:0:0:
64,192,132814,1,0,0:0:0:0:
192,192,132814,1,0,0:0:0:0:
320,192,132814,1,0,0:0:0:0:
192,192,132955,1,0,0:0:0:0:
448,192,132955,1,0,0:0:0:0:
320,192,133025,1,0,0:0:0:0:
64,192,133095,1,0,0:0:0:0:
448,192,133166,1,0,0:0:0:0:
64,192,133236,1,0,0:0:0:0:
192,192,133236,1,0,0:0:0:0:
320,192,133236,1,0,0:0:0:0:
448,192,133306,1,0,0:0:0:0:
64,192,133377,1,0,0:0:0:0:
320,192,133377,1,0,0:0:0:0:
192,192,133447,1,0,0:0:0:0:
320,192,133517,1,0,0:0:0:0:
448,192,133517,1,0,0:0:0:0:
64,192,133658,1,0,0:0:0:0:
320,192,133658,1,0,0:0:0:0:
64,192,133799,1,0,0:0:0:0:
192,192,133799,1,0,0:0:0:0:
448,192,133799,1,0,0:0:0:0:
448,192,133939,1,0,0:0:0:0:
64,192,134080,1,0,0:0:0:0:
320,192,134150,1,0,0:0:0:0:
192,192,134221,1,0,0:0:0:0:
448,192,134291,1,0,0:0:0:0:
64,192,134361,1,0,0:0:0:0:
192,192,134432,1,0,0:0:0:0:
320,192,134502,1,0,0:0:0:0:
448,192,134502,1,0,0:0:0:0:
64,192,134572,1,0,0:0:0:0:
192,192,134643,1,0,0:0:0:0:
320,192,134643,1,0,0:0:0:0:
448,192,134643,1,0,0:0:0:0:
192,192,134783,1,0,0:0:0:0:
448,192,134783,1,0,0:0:0:0:
64,192,134924,1,0,0:0:0:0:
320,192,134924,1,0,0:0:0:0:
448,192,134924,1,0,0:0:0:0:
64,192,135064,1,0,0:0:0:0:
320,192,135064,1,0,0:0:0:0:
64,192,135205,1,0,0:0:0:0:
192,192,135205,1,0,0:0:0:0:
448,192,135205,1,0,0:0:0:0:
320,192,135275,1,0,0:0:0:0:
448,192,135346,1,0,0:0:0:0:
64,192,135416,1,0,0:0:0:0:
192,192,135416,1,0,0:0:0:0:
320,192,135486,1,0,0:0:0:0:
192,192,135533,1,0,0:0:0:0:
448,192,135580,1,0,0:0:0:0:
64,192,135627,1,0,0:0:0:0:
192,192,135674,1,0,0:0:0:0:
448,192,135721,1,0,0:0:0:0:
64,192,135768,1,0,0:0:0:0:
320,192,135768,1,0,0:0:0:0:
320,192,135908,1,0,0:0:0:0:
64,192,136049,1,0,0:0:0:0:
192,192,136049,1,0,0:0:0:0:
64,192,136190,1,0,0:0:0:0:
320,192,136190,1,0,0:0:0:0:
448,192,136190,1,0,0:0:0:0:
320,192,136330,1,0,0:0:0:0:
192,192,136471,1,0,0:0:0:0:
320,192,136471,1,0,0:0:0:0:
64,192,136612,1,0,0:0:0:0:
192,192,136612,1,0,0:0:0:0:
64,192,136752,1,0,0:0:0:0:
448,192,136752,1,0,0:0:0:0:
64,192,136893,1,0,0:0:0:0:
320,192,136893,1,0,0:0:0:0:
448,192,136893,1,0,0:0:0:0:
192,192,137033,1,0,0:0:0:0:
320,192,137033,1,0,0:0:0:0:
192,192,137174,1,0,0:0:0:0:
448,192,137174,1,0,0:0:0:0:
64,192,137315,1,0,0:0:0:0:
320,192,137315,1,0,0:0:0:0:
448,192,137315,1,0,0:0:0:0:
192,192,137455,1,0,0:0:0:0:
320,192,137596,1,0,0:0:0:0:
448,192,137596,1,0,0:0:0:0:
192,192,137737,1,0,0:0:0:0:
448,192,137737,1,0,0:0:0:0:
320,192,137807,1,0,0:0:0:0:
192,192,137877,1,0,0:0:0:0:
320,192,137948,1,0,0:0:0:0:
64,192,138018,1,0,0:0:0:0:
192,192,138018,1,0,0:0:0:0:
448,192,138018,1,0,0:0:0:0:
320,192,138159,1,0,0:0:0:0:
64,192,138229,1,0,0:0:0:0:
192,192,138299,1,0,0:0:0:0:
448,192,138299,1,0,0:0:0:0:
64,192,138440,1,0,0:0:0:0:
192,192,138440,1,0,0:0:0:0:
320,192,138440,1,0,0:0:0:0:
320,192,138580,1,0,0:0:0:0:
64,192,138721,1,0,0:0:0:0:
320,192,138721,1,0,0:0:0:0:
64,192,138862,1,0,0:0:0:0:
448,192,138862,1,0,0:0:0:0:
64,192,139002,1,0,0:0:0:0:
320,192,139002,1,0,0:0:0:0:
448,192,139073,1,0,0:0:0:0:
64,192,139143,1,0,0:0:0:0:
192,192,139143,1,0,0:0:0:0:
320,192,139143,1,0,0:0:0:0:
192,192,139284,1,0,0:0:0:0:
448,192,139284,1,0,0:0:0:0:
64,192,139424,1,0,0:0:0:0:
320,192,139424,1,0,0:0:0:0:
64,192,139565,1,0,0:0:0:0:
192,192,139565,1,0,0:0:0:0:
448,192,139565,1,0,0:0:0:0:
192,192,139706,1,0,0:0:0:0:
64,192,139846,1,0,0:0:0:0:
448,192,139846,1,0,0:0:0:0:
64,192,139987,1,0,0:0:0:0:
448,192,139987,1,0,0:0:0:0:
192,192,140128,1,0,0:0:0:0:
320,192,140128,1,0,0:0:0:0:
64,192,140268,1,0,0:0:0:0:
320,192,140268,1,0,0:0:0:0:
448,192,140268,1,0,0:0:0:0:
192,192,140409,1,0,0:0:0:0:
448,192,140409,1,0,0:0:0:0:
64,192,140549,1,0,0:0:0:0:
192,192,140549,1,0,0:0:0:0:
320,192,140549,1,0,0:0:0:0:
320,192,140690,1,0,0:0:0:0:
448,192,140690,1,0,0:0:0:0:
64,192,140831,1,0,0:0:0:0:
192,192,140831,1,0,0:0:0:0:
448,192,140831,1,0,0:0:0:0:
64,192,140971,1,0,0:0:0:0:
320,192,140971,1,0,0:0:0:0:
320,192,141112,1,0,0:0:0:0:
448,192,141112,1,0,0:0:0:0:
192,192,141253,1,0,0:0:0:0:
448,192,141253,1,0,0:0:0:0:
320,192,141323,1,0,0:0:0:0:
64,192,141393,1,0,0:0:0:0:
192,192,141393,1,0,0:0:0:0:
64,192,141534,1,0,0:0:0:0:
192,192,141675,1,0,0:0:0:0:
320,192,141675,1,0,0:0:0:0:
448,192,141675,1,0,0:0:0:0:
64,192,141815,1,0,0:0:0:0:
320,192,141815,1,0,0:0:0:0:
64,192,141956,1,0,0:0:0:0:
192,192,141956,1,0,0:0:0:0:
448,192,141956,1,0,0:0:0:0:
192,192,142097,1,0,0:0:0:0:
320,192,142097,1,0,0:0:0:0:
64,192,142237,1,0,0:0:0:0:
320,192,142237,1,0,0:0:0:0:
448,192,142237,1,0,0:0:0:0:
192,192,142378,1,0,0:0:0:0:
448,192,142378,1,0,0:0:0:0:
64,192,142518,1,0,0:0:0:0:
320,192,142518,1,0,0:0:0:0:
192,192,142589,1,0,0:0:0:0:
448,192,142659,1,0,0:0:0:0:
320,192,142729,1,0,0:0:0:0:
64,192,142800,1,0,0:0:0:0:
192,192,142800,1,0,0:0:0:0:
448,192,142870,1,0,0:0:0:0:
320,192,142940,1,0,0:0:0:0:
192,192,143011,1,0,0:0:0:0:
64,192,143081,1,0,0:0:0:0:
320,192,143081,1,0,0:0:0:0:
192,192,143151,1,0,0:0:0:0:
448,192,143151,1,0,0:0:0:0:
320,192,143222,1,0,0:0:0:0:
64,192,143292,1,0,0:0:0:0:
320,192,143362,1,0,0:0:0:0:
448,192,143362,1,0,0:0:0:0:
64,192,143433,1,0,0:0:0:0:
192,192,143433,1,0,0:0:0:0:
320,192,143503,1,0,0:0:0:0:
448,192,143503,1,0,0:0:0:0:
192,192,143573,1,0,0:0:0:0:
64,192,143644,1,0,0:0:0:0:
448,192,143644,1,0,0:0:0:0:
320,192,143690,1,0,0:0:0:0:
64,192,143925,1,0,0:0:0:0:
192,192,143925,1,0,0:0:0:0:
448,192,143995,1,0,0:0:0:0:
320,192,144065,1,0,0:0:0:0:
64,192,144136,1,0,0:0:0:0:
448,192,144206,1,0,0:0:0:0:
192,192,144276,1,0,0:0:0:0:
448,192,144347,1,0,0:0:0:0:
192,192,144417,1,0,0:0:0:0:
64,192,144487,1,0,0:0:0:0:
320,192,144487,1,0,0:0:0:0:
448,192,144487,1,0,0:0:0:0:
64,192,144769,1,0,0:0:0:0:
320,192,144769,1,0,0:0:0:0:
448,192,144769,1,0,0:0:0:0:
192,192,144909,1,0,0:0:0:0:
320,192,144909,1,0,0:0:0:0:
64,192,145050,1,0,0:0:0:0:
192,192,145050,1,0,0:0:0:0:
448,192,145050,1,0,0:0:0:0:
64,192,145191,1,0,0:0:0:0:
320,192,145191,1,0,0:0:0:0:
320,192,145331,1,0,0:0:0:0:
448,192,145331,1,0,0:0:0:0:
64,192,145472,1,0,0:0:0:0:
192,192,145472,1,0,0:0:0:0:
64,192,145613,1,0,0:0:0:0:
192,192,145613,1,0,0:0:0:0:
448,192,145613,1,0,0:0:0:0:
192,192,145753,1,0,0:0:0:0:
448,192,145753,1,0,0:0:0:0:
64,192,145894,1,0,0:0:0:0:
320,192,145894,1,0,0:0:0:0:
64,192,146034,1,0,0:0:0:0:
192,192,146034,1,0,0:0:0:0:
192,192,146175,1,0,0:0:0:0:
320,192,146175,1,0,0:0:0:0:
448,192,146175,1,0,0:0:0:0:
320,192,146316,1,0,0:0:0:0:
448,192,146316,1,0,0:0:0:0:
64,192,146456,1,0,0:0:0:0:
192,192,146456,1,0,0:0:0:0:
448,192,146456,1,0,0:0:0:0:
192,192,146597,1,0,0:0:0:0:
64,192,146738,1,0,0:0:0:0:
320,192,146738,1,0,0:0:0:0:
448,192,146738,1,0,0:0:0:0:
192,192,146878,1,0,0:0:0:0:
192,192,147019,1,0,0:0:0:0:
320,192,147019,1,0,0:0:0:0:
448,192,147019,1,0,0:0:0:0:
64,192,147160,1,0,0:0:0:0:
448,192,147160,1,0,0:0:0:0:
320,192,147230,1,0,0:0:0:0:
64,192,147300,1,0,0:0:0:0:
192,192,147300,1,0,0:0:0:0:
320,192,147371,1,0,0:0:0:0:
192,192,147441,1,0,0:0:0:0:
448,192,147441,1,0,0:0:0:0:
64,192,147582,1,0,0:0:0:0:
320,192,147582,1,0,0:0:0:0:
448,192,147582,1,0,0:0:0:0:
320,192,147722,1,0,0:0:0:0:
64,192,147863,1,0,0:0:0:0:
192,192,147863,1,0,0:0:0:0:
448,192,147863,1,0,0:0:0:0:
192,192,148003,1,0,0:0:0:0:
320,192,148003,1,0,0:0:0:0:
64,192,148144,1,0,0:0:0:0:
320,192,148144,1,0,0:0:0:0:
448,192,148144,1,0,0:0:0:0:
192,192,148285,1,0,0:0:0:0:
320,192,148355,1,0,0:0:0:0:
64,192,148425,1,0,0:0:0:0:
448,192,148425,1,0,0:0:0:0:
192,192,148566,1,0,0:0:0:0:
320,192,148566,1,0,0:0:0:0:
320,192,148707,1,0,0:0:0:0:
448,192,148707,1,0,0:0:0:0:
64,192,148847,1,0,0:0:0:0:
320,192,148918,1,0,0:0:0:0:
64,192,148988,1,0,0:0:0:0:
192,192,148988,1,0,0:0:0:0:
448,192,149058,1,0,0:0:0:0:
320,192,149129,1,0,0:0:0:0:
64,192,149199,1,0,0:0:0:0:
192,192,149269,1,0,0:0:0:0:
320,192,149269,1,0,0:0:0:0:
448,192,149269,1,0,0:0:0:0:
64,192,149410,1,0,0:0:0:0:
320,192,149410,1,0,0:0:0:0:
64,192,149550,1,0,0:0:0:0:
192,192,149550,1,0,0:0:0:0:
448,192,149550,1,0,0:0:0:0:
320,192,149691,1,0,0:0:0:0:
448,192,149691,1,0,0:0:0:0:
64,192,149832,1,0,0:0:0:0:
192,192,149832,1,0,0:0:0:0:
64,192,149972,1,0,0:0:0:0:
320,192,149972,1,0,0:0:0:0:
64,192,150113,1,0,0:0:0:0:
320,192,150113,1,0,0:0:0:0:
448,192,150113,1,0,0:0:0:0:
192,192,150254,1,0,0:0:0:0:
320,192,150254,1,0,0:0:0:0:
192,192,150394,1,0,0:0:0:0:
448,192,150394,1,0,0:0:0:0:
64,192,150535,1,0,0:0:0:0:
320,192,150535,1,0,0:0:0:0:
192,192,150676,1,0,0:0:0:0:
320,192,150676,1,0,0:0:0:0:
448,192,150676,1,0,0:0:0:0:
64,192,150816,1,0,0:0:0:0:
192,192,150816,1,0,0:0:0:0:
64,192,150957,1,0,0:0:0:0:
320,192,150957,1,0,0:0:0:0:
448,192,150957,1,0,0:0:0:0:
320,192,151098,1,0,0:0:0:0:
64,192,151238,1,0,0:0:0:0:
192,192,151238,1,0,0:0:0:0:
448,192,151238,1,0,0:0:0:0:
192,192,151379,1,0,0:0:0:0:
64,192,151519,1,0,0:0:0:0:
320,192,151519,1,0,0:0:0:0:
448,192,151519,1,0,0:0:0:0:
192,192,151660,128,0,151730:0:0:0:0:
64,192,151801,1,0,0:0:0:0:
192,192,151801,1,0,0:0:0:0:
448,192,151801,1,0,0:0:0:0:
320,192,151941,128,0,152012:0:0:0:0:
64,192,152082,1,0,0:0:0:0:
320,192,152082,1,0,0:0:0:0:
448,192,152082,1,0,0:0:0:0:
192,192,152223,1,0,0:0:0:0:
448,192,152293,1,0,0:0:0:0:
64,192,152363,1,0,0:0:0:0:
320,192,152363,1,0,0:0:0:0:
192,192,152504,1,0,0:0:0:0:
448,192,152504,1,0,0:0:0:0:
64,192,152645,1,0,0:0:0:0:
320,192,152645,1,0,0:0:0:0:
448,192,152715,1,0,0:0:0:0:
320,192,152785,1,0,0:0:0:0:
64,192,152856,1,0,0:0:0:0:
192,192,152856,1,0,0:0:0:0:
320,192,152926,1,0,0:0:0:0:
448,192,152926,1,0,0:0:0:0:
192,192,152996,1,0,0:0:0:0:
64,192,153067,1,0,0:0:0:0:
448,192,153067,1,0,0:0:0:0:
320,192,153137,1,0,0:0:0:0:
192,192,153207,1,0,0:0:0:0:
448,192,153277,1,0,0:0:0:0:
192,192,153348,1,0,0:0:0:0:
448,192,153418,1,0,0:0:0:0:
320,192,153488,128,0,153629:0:0:0:0:
192,192,153629,1,0,0:0:0:0:
64,192,153770,1,0,0:0:0:0:
192,192,153770,1,0,0:0:0:0:
448,192,153770,1,0,0:0:0:0:
320,192,153840,1,0,0:0:0:0:
64,192,153910,1,0,0:0:0:0:
192,192,153910,1,0,0:0:0:0:
448,192,153981,1,0,0:0:0:0:
64,192,154051,1,0,0:0:0:0:
192,192,154051,1,0,0:0:0:0:
320,192,154051,1,0,0:0:0:0:
448,192,154121,1,0,0:0:0:0:
192,192,154192,1,0,0:0:0:0:
320,192,154192,1,0,0:0:0:0:
64,192,154262,1,0,0:0:0:0:
320,192,154332,1,0,0:0:0:0:
448,192,154332,1,0,0:0:0:0:
64,192,154403,1,0,0:0:0:0:
192,192,154473,1,0,0:0:0:0:
448,192,154473,1,0,0:0:0:0:
320,192,154543,1,0,0:0:0:0:
64,192,154614,1,0,0:0:0:0:
192,192,154614,1,0,0:0:0:0:
448,192,154684,1,0,0:0:0:0:
64,192,154754,1,0,0:0:0:0:
320,192,154754,1,0,0:0:0:0:
192,192,154825,1,0,0:0:0:0:
64,192,154895,1,0,0:0:0:0:
320,192,154895,1,0,0:0:0:0:
192,192,154965,1,0,0:0:0:0:
320,192,155036,1,0,0:0:0:0:
448,192,155036,1,0,0:0:0:0:
64,192,155106,1,0,0:0:0:0:
192,192,155176,1,0,0:0:0:0:
320,192,155176,1,0,0:0:0:0:
448,192,155176,1,0,0:0:0:0:
64,192,155246,1,0,0:0:0:0:
192,192,155317,1,0,0:0:0:0:
448,192,155317,1,0,0:0:0:0:
320,192,155387,1,0,0:0:0:0:
64,192,155457,1,0,0:0:0:0:
192,192,155457,1,0,0:0:0:0:
448,192,155457,1,0,0:0:0:0:
320,192,155528,1,0,0:0:0:0:
64,192,155598,1,0,0:0:0:0:
192,192,155598,1,0,0:0:0:0:
448,192,155668,1,0,0:0:0:0:
64,192,155739,1,0,0:0:0:0:
192,192,155739,1,0,0:0:0:0:
320,192,155739,1,0,0:0:0:0:
448,192,155809,1,0,0:0:0:0:
64,192,155879,1,0,0:0:0:0:
320,192,155879,1,0,0:0:0:0:
192,192,155950,1,0,0:0:0:0:
64,192,156020,1,0,0:0:0:0:
320,192,156020,1,0,0:0:0:0:
448,192,156020,1,0,0:0:0:0:
192,192,156090,1,0,0:0:0:0:
320,192,156161,1,0,0:0:0:0:
64,192,156231,1,0,0:0:0:0:
192,192,156231,1,0,0:0:0:0:
320,192,156301,1,0,0:0:0:0:
448,192,156301,1,0,0:0:0:0:
64,192,156372,1,0,0:0:0:0:
192,192,156442,1,0,0:0:0:0:
448,192,156442,1,0,0:0:0:0:
320,192,156512,1,0,0:0:0:0:
64,192,156583,1,0,0:0:0:0:
192,192,156583,1,0,0:0:0:0:
448,192,156583,1,0,0:0:0:0:
320,192,156653,1,0,0:0:0:0:
64,192,156723,1,0,0:0:0:0:
192,192,156723,1,0,0:0:0:0:
320,192,156794,1,0,0:0:0:0:
64,192,156864,1,0,0:0:0:0:
448,192,156864,1,0,0:0:0:0:
192,192,156934,1,0,0:0:0:0:
64,192,157004,1,0,0:0:0:0:
320,192,157004,1,0,0:0:0:0:
192,192,157075,1,0,0:0:0:0:
64,192,157145,1,0,0:0:0:0:
320,192,157145,1,0,0:0:0:0:
448,192,157145,1,0,0:0:0:0:
192,192,157215,1,0,0:0:0:0:
320,192,157286,1,0,0:0:0:0:
448,192,157286,1,0,0:0:0:0:
192,192,157356,1,0,0:0:0:0:
320,192,157426,1,0,0:0:0:0:
448,192,157426,1,0,0:0:0:0:
64,192,157497,1,0,0:0:0:0:
192,192,157567,1,0,0:0:0:0:
448,192,157567,1,0,0:0:0:0:
320,192,157637,1,0,0:0:0:0:
64,192,157708,1,0,0:0:0:0:
192,192,157708,1,0,0:0:0:0:
448,192,157708,1,0,0:0:0:0:
320,192,157778,1,0,0:0:0:0:
64,192,157848,1,0,0:0:0:0:
192,192,157848,1,0,0:0:0:0:
320,192,157919,1,0,0:0:0:0:
64,192,157989,1,0,0:0:0:0:
192,192,157989,1,0,0:0:0:0:
448,192,158059,1,0,0:0:0:0:
64,192,158130,1,0,0:0:0:0:
320,192,158130,1,0,0:0:0:0:
192,192,158200,1,0,0:0:0:0:
64,192,158270,1,0,0:0:0:0:
320,192,158270,1,0,0:0:0:0:
448,192,158270,1,0,0:0:0:0:
192,192,158341,1,0,0:0:0:0:
320,192,158411,1,0,0:0:0:0:
448,192,158411,1,0,0:0:0:0:
64,192,158481,1,0,0:0:0:0:
192,192,158552,1,0,0:0:0:0:
448,192,158552,1,0,0:0:0:0:
320,192,158622,1,0,0:0:0:0:
64,192,158692,1,0,0:0:0:0:
192,192,158692,1,0,0:0:0:0:
448,192,158762,1,0,0:0:0:0:
64,192,158833,1,0,0:0:0:0:
320,192,158833,1,0,0:0:0:0:
192,192,158903,1,0,0:0:0:0:
320,192,158973,1,0,0:0:0:0:
448,192,158973,1,0,0:0:0:0:
64,192,159044,1,0,0:0:0:0:
192,192,159114,1,0,0:0:0:0:
320,192,159114,1,0,0:0:0:0:
448,192,159114,1,0,0:0:0:0:
64,192,159184,1,0,0:0:0:0:
192,192,159255,1,0,0:0:0:0:
448,192,159255,1,0,0:0:0:0:
320,192,159325,1,0,0:0:0:0:
64,192,159395,1,0,0:0:0:0:
192,192,159395,1,0,0:0:0:0:
448,192,159466,1,0,0:0:0:0:
64,192,159536,1,0,0:0:0:0:
320,192,159536,1,0,0:0:0:0:
192,192,159606,1,0,0:0:0:0:
64,192,159677,1,0,0:0:0:0:
320,192,159677,1,0,0:0:0:0:
448,192,159677,1,0,0:0:0:0:
192,192,159747,1,0,0:0:0:0:
64,192,159817,1,0,0:0:0:0:
320,192,159817,1,0,0:0:0:0:
448,192,159817,1,0,0:0:0:0:
192,192,159888,1,0,0:0:0:0:
320,192,159958,1,0,0:0:0:0:
448,192,159958,1,0,0:0:0:0:
64,192,160028,1,0,0:0:0:0:
192,192,160099,1,0,0:0:0:0:
320,192,160099,1,0,0:0:0:0:
448,192,160169,1,0,0:0:0:0:
64,192,160239,1,0,0:0:0:0:
192,192,160239,1,0,0:0:0:0:
320,192,160310,1,0,0:0:0:0:
448,192,160380,1,0,0:0:0:0:
192,192,160450,1,0,0:0:0:0:
64,192,160521,1,0,0:0:0:0:
320,192,160521,1,0,0:0:0:0:
448,192,160521,1,0,0:0:0:0:
192,192,160591,1,0,0:0:0:0:
320,192,160661,1,0,0:0:0:0:
448,192,160661,1,0,0:0:0:0:
64,192,160731,1,0,0:0:0:0:
192,192,160802,1,0,0:0:0:0:
320,192,160802,1,0,0:0:0:0:
448,192,160802,1,0,0:0:0:0:
64,192,160872,1,0,0:0:0:0:
192,192,160942,1,0,0:0:0:0:
448,192,160942,1,0,0:0:0:0:
320,192,161013,1,0,0:0:0:0:
64,192,161083,1,0,0:0:0:0:
192,192,161083,1,0,0:0:0:0:
448,192,161083,1,0,0:0:0:0:
320,192,161153,1,0,0:0:0:0:
64,192,161224,1,0,0:0:0:0:
192,192,161224,1,0,0:0:0:0:
448,192,161294,1,0,0:0:0:0:
64,192,161364,1,0,0:0:0:0:
192,192,161364,1,0,0:0:0:0:
448,192,161435,1,0,0:0:0:0:
64,192,161505,1,0,0:0:0:0:
320,192,161505,1,0,0:0:0:0:
192,192,161575,1,0,0:0:0:0:
448,192,161575,1,0,0:0:0:0:
64,192,161646,1,0,0:0:0:0:
320,192,161646,1,0,0:0:0:0:
192,192,161716,1,0,0:0:0:0:
320,192,161786,1,0,0:0:0:0:
64,192,161857,1,0,0:0:0:0:
192,192,161857,1,0,0:0:0:0:
448,192,161857,1,0,0:0:0:0:
320,192,161927,1,0,0:0:0:0:
192,192,161997,1,0,0:0:0:0:
64,192,162068,1,0,0:0:0:0:
320,192,162068,1,0,0:0:0:0:
448,192,162068,1,0,0:0:0:0:
192,192,162138,1,0,0:0:0:0:
320,192,162208,1,0,0:0:0:0:
448,192,162208,1,0,0:0:0:0:
64,192,162279,1,0,0:0:0:0:
192,192,162349,1,0,0:0:0:0:
448,192,162349,1,0,0:0:0:0:
320,192,162419,1,0,0:0:0:0:
64,192,162489,1,0,0:0:0:0:
192,192,162489,1,0,0:0:0:0:
448,192,162489,1,0,0:0:0:0:
320,192,162560,1,0,0:0:0:0:
64,192,162630,1,0,0:0:0:0:
192,192,162630,1,0,0:0:0:0:
448,192,162700,1,0,0:0:0:0:
64,192,162771,1,0,0:0:0:0:
320,192,162771,1,0,0:0:0:0:
64,192,162911,1,0,0:0:0:0:
320,192,162911,1,0,0:0:0:0:
192,192,163052,1,0,0:0:0:0:
320,192,163052,1,0,0:0:0:0:
448,192,163052,1,0,0:0:0:0:
64,192,163193,1,0,0:0:0:0:
192,192,163193,1,0,0:0:0:0:
448,192,163193,1,0,0:0:0:0:
64,192,163333,1,0,0:0:0:0:
320,192,163333,1,0,0:0:0:0:
192,192,163404,1,0,0:0:0:0:
64,192,163474,1,0,0:0:0:0:
320,192,163474,1,0,0:0:0:0:
448,192,163544,1,0,0:0:0:0:
192,192,163615,1,0,0:0:0:0:
320,192,163615,1,0,0:0:0:0:
64,192,163685,1,0,0:0:0:0:
192,192,163755,1,0,0:0:0:0:
320,192,163755,1,0,0:0:0:0:
448,192,163826,1,0,0:0:0:0:
64,192,163896,1,0,0:0:0:0:
192,192,163896,1,0,0:0:0:0:
320,192,163966,1,0,0:0:0:0:
448,192,163966,1,0,0:0:0:0:
64,192,164037,1,0,0:0:0:0:
192,192,164037,1,0,0:0:0:0:
448,192,164107,1,0,0:0:0:0:
64,192,164177,1,0,0:0:0:0:
320,192,164177,1,0,0:0:0:0:
192,192,164248,1,0,0:0:0:0:
448,192,164248,1,0,0:0:0:0:
64,192,164318,1,0,0:0:0:0:
320,192,164318,1,0,0:0:0:0:
192,192,164388,1,0,0:0:0:0:
320,192,164458,1,0,0:0:0:0:
448,192,164458,1,0,0:0:0:0:
64,192,164529,1,0,0:0:0:0:
320,192,164599,1,0,0:0:0:0:
448,192,164599,1,0,0:0:0:0:
64,192,164669,1,0,0:0:0:0:
192,192,164669,1,0,0:0:0:0:
448,192,164740,1,0,0:0:0:0:
64,192,164810,1,0,0:0:0:0:
192,192,164810,1,0,0:0:0:0:
320,192,164880,1,0,0:0:0:0:
448,192,164880,1,0,0:0:0:0:
64,192,164951,1,0,0:0:0:0:
192,192,164951,1,0,0:0:0:0:
320,192,165021,1,0,0:0:0:0:
448,192,165021,1,0,0:0:0:0:
192,192,165091,1,0,0:0:0:0:
320,192,165162,1,0,0:0:0:0:
448,192,165162,1,0,0:0:0:0:
64,192,165232,1,0,0:0:0:0:
192,192,165302,1,0,0:0:0:0:
320,192,165302,1,0,0:0:0:0:
64,192,165373,1,0,0:0:0:0:
448,192,165373,1,0,0:0:0:0:
192,192,165443,1,0,0:0:0:0:
320,192,165513,1,0,0:0:0:0:
448,192,165513,1,0,0:0:0:0:
64,192,165584,1,0,0:0:0:0:
320,192,165654,1,0,0:0:0:0:
448,192,165654,1,0,0:0:0:0:
64,192,165724,1,0,0:0:0:0:
192,192,165724,1,0,0:0:0:0:
448,192,165795,1,0,0:0:0:0:
64,192,165865,1,0,0:0:0:0:
320,192,165865,1,0,0:0:0:0:
192,192,165935,1,0,0:0:0:0:
320,192,166006,1,0,0:0:0:0:
448,192,166006,1,0,0:0:0:0:
64,192,166076,1,0,0:0:0:0:
192,192,166146,1,0,0:0:0:0:
448,192,166146,1,0,0:0:0:0:
64,192,166216,1,0,0:0:0:0:
320,192,166216,1,0,0:0:0:0:
192,192,166287,1,0,0:0:0:0:
448,192,166287,1,0,0:0:0:0:
320,192,166357,1,0,0:0:0:0:
64,192,166427,1,0,0:0:0:0:
192,192,166427,1,0,0:0:0:0:
320,192,166498,1,0,0:0:0:0:
448,192,166498,1,0,0:0:0:0:
64,192,166568,1,0,0:0:0:0:
192,192,166568,1,0,0:0:0:0:
448,192,166638,1,0,0:0:0:0:
64,192,166709,1,0,0:0:0:0:
320,192,166709,1,0,0:0:0:0:
192,192,166779,1,0,0:0:0:0:
448,192,166779,1,0,0:0:0:0:
320,192,166849,1,0,0:0:0:0:
192,192,166920,1,0,0:0:0:0:
448,192,166920,1,0,0:0:0:0:
64,192,166990,1,0,0:0:0:0:
192,192,167060,1,0,0:0:0:0:
448,192,167060,1,0,0:0:0:0:
64,192,167131,1,0,0:0:0:0:
320,192,167131,1,0,0:0:0:0:
192,192,167201,1,0,0:0:0:0:
320,192,167271,1,0,0:0:0:0:
448,192,167271,1,0,0:0:0:0:
64,192,167342,1,0,0:0:0:0:
192,192,167412,1,0,0:0:0:0:
448,192,167412,1,0,0:0:0:0:
320,192,167482,1,0,0:0:0:0:
192,192,167553,1,0,0:0:0:0:
448,192,167553,1,0,0:0:0:0:
320,192,167623,1,0,0:0:0:0:
64,192,167693,1,0,0:0:0:0:
192,192,167693,1,0,0:0:0:0:
448,192,167764,1,0,0:0:0:0:
64,192,167834,1,0,0:0:0:0:
320,192,167834,1,0,0:0:0:0:
192,192,167904,1,0,0:0:0:0:
448,192,167904,1,0,0:0:0:0:
64,192,167974,1,0,0:0:0:0:
320,192,167974,1,0,0:0:0:0:
192,192,168045,1,0,0:0:0:0:
320,192,168115,1,0,0:0:0:0:
448,192,168115,1,0,0:0:0:0:
64,192,168185,1,0,0:0:0:0:
192,192,168256,1,0,0:0:0:0:
448,192,168256,1,0,0:0:0:0:
320,192,168326,1,0,0:0:0:0:
64,192,168396,1,0,0:0:0:0:
192,192,168396,1,0,0:0:0:0:
320,192,168467,1,0,0:0:0:0:
448,192,168467,1,0,0:0:0:0:
64,192,168537,1,0,0:0:0:0:
192,192,168537,1,0,0:0:0:0:
448,192,168607,1,0,0:0:0:0:
64,192,168678,1,0,0:0:0:0:
320,192,168678,1,0,0:0:0:0:
192,192,168748,1,0,0:0:0:0:
448,192,168748,1,0,0:0:0:0:
64,192,168818,1,0,0:0:0:0:
320,192,168818,1,0,0:0:0:0:
192,192,168889,1,0,0:0:0:0:
320,192,168959,1,0,0:0:0:0:
448,192,168959,1,0,0:0:0:0:
64,192,169029,1,0,0:0:0:0:
320,192,169100,1,0,0:0:0:0:
448,192,169100,1,0,0:0:0:0:
64,192,169170,1,0,0:0:0:0:
192,192,169170,1,0,0:0:0:0:
448,192,169240,1,0,0:0:0:0:
64,192,169311,1,0,0:0:0:0:
192,192,169311,1,0,0:0:0:0:
320,192,169381,1,0,0:0:0:0:
448,192,169381,1,0,0:0:0:0:
64,192,169451,1,0,0:0:0:0:
192,192,169451,1,0,0:0:0:0:
320,192,169522,1,0,0:0:0:0:
448,192,169522,1,0,0:0:0:0:
192,192,169592,1,0,0:0:0:0:
320,192,169662,1,0,0:0:0:0:
448,192,169662,1,0,0:0:0:0:
64,192,169733,1,0,0:0:0:0:
192,192,169803,1,0,0:0:0:0:
320,192,169803,1,0,0:0:0:0:
64,192,169873,1,0,0:0:0:0:
448,192,169873,1,0,0:0:0:0:
192,192,169943,1,0,0:0:0:0:
320,192,170014,1,0,0:0:0:0:
448,192,170014,1,0,0:0:0:0:
64,192,170084,1,0,0:0:0:0:
320,192,170154,1,0,0:0:0:0:
448,192,170154,1,0,0:0:0:0:
64,192,170225,1,0,0:0:0:0:
192,192,170225,1,0,0:0:0:0:
448,192,170295,1,0,0:0:0:0:
64,192,170365,1,0,0:0:0:0:
320,192,170365,1,0,0:0:0:0:
192,192,170436,1,0,0:0:0:0:
320,192,170506,1,0,0:0:0:0:
448,192,170506,1,0,0:0:0:0:
64,192,170576,1,0,0:0:0:0:
192,192,170647,1,0,0:0:0:0:
320,192,170647,1,0,0:0:0:0:
448,192,170647,1,0,0:0:0:0:
64,192,170717,1,0,0:0:0:0:
192,192,170787,1,0,0:0:0:0:
448,192,170787,1,0,0:0:0:0:
320,192,170858,1,0,0:0:0:0:
64,192,170928,1,0,0:0:0:0:
448,192,170928,1,0,0:0:0:0:
192,192,170998,1,0,0:0:0:0:
64,192,171069,1,0,0:0:0:0:
320,192,171069,1,0,0:0:0:0:
448,192,171139,1,0,0:0:0:0:
64,192,171209,1,0,0:0:0:0:
192,192,171209,1,0,0:0:0:0:
320,192,171280,1,0,0:0:0:0:
448,192,171280,1,0,0:0:0:0:
64,192,171350,1,0,0:0:0:0:
320,192,171420,1,0,0:0:0:0:
448,192,171420,1,0,0:0:0:0:
64,192,171491,1,0,0:0:0:0:
320,192,171561,1,0,0:0:0:0:
448,192,171561,1,0,0:0:0:0:
64,192,171631,1,0,0:0:0:0:
192,192,171631,1,0,0:0:0:0:
448,192,171701,1,0,0:0:0:0:
64,192,171772,1,0,0:0:0:0:
192,192,171772,1,0,0:0:0:0:
320,192,171772,1,0,0:0:0:0:
320,192,171912,1,0,0:0:0:0:
448,192,171912,1,0,0:0:0:0:
64,192,172053,1,0,0:0:0:0:
320,192,172053,1,0,0:0:0:0:
448,192,172053,1,0,0:0:0:0:
64,192,172194,1,0,0:0:0:0:
192,192,172194,1,0,0:0:0:0:
320,192,172264,1,0,0:0:0:0:
448,192,172264,1,0,0:0:0:0:
64,192,172334,1,0,0:0:0:0:
192,192,172334,1,0,0:0:0:0:
320,192,172405,1,0,0:0:0:0:
448,192,172405,1,0,0:0:0:0:
64,192,172475,1,0,0:0:0:0:
192,192,172475,1,0,0:0:0:0:
320,192,172545,1,0,0:0:0:0:
448,192,172545,1,0,0:0:0:0:
64,192,172616,1,0,0:0:0:0:
192,192,172651,1,0,0:0:0:0:
64,192,172756,1,0,0:0:0:0:
320,192,172791,1,0,0:0:0:0:
64,192,172897,128,0,173178:0:0:0:0:
192,192,172897,1,0,0:0:0:0:
448,192,172897,1,0,0:0:0:0:
192,192,173038,1,0,0:0:0:0:
192,192,173319,1,0,0:0:0:0:
320,192,173319,128,0,173600:0:0:0:0:
448,192,173319,1,0,0:0:0:0:
192,192,173600,1,0,0:0:0:0:
448,192,173741,1,0,0:0:0:0:
192,192,173881,1,0,0:0:0:0:
448,192,173881,1,0,0:0:0:0:
64,192,174022,1,0,0:0:0:0:
192,192,174022,1,0,0:0:0:0:
320,192,174022,1,0,0:0:0:0:
64,192,174163,1,0,0:0:0:0:
448,192,174163,1,0,0:0:0:0:
320,192,174303,1,0,0:0:0:0:
64,192,174444,1,0,0:0:0:0:
192,192,174444,128,0,174866:0:0:0:0:
448,192,174725,1,0,0:0:0:0:
448,192,174866,1,0,0:0:0:0:
320,192,175007,1,0,0:0:0:0:
192,192,175053,1,0,0:0:0:0:
448,192,175100,1,0,0:0:0:0:
64,192,175147,1,0,0:0:0:0:
320,192,175147,128,0,175428:0:0:0:0:
192,192,175288,1,0,0:0:0:0:
64,192,175569,128,0,175850:0:0:0:0:
192,192,175569,1,0,0:0:0:0:
448,192,175569,1,0,0:0:0:0:
192,192,175850,1,0,0:0:0:0:
448,192,175921,1,0,0:0:0:0:
320,192,175991,128,0,176272:0:0:0:0:
192,192,176132,1,0,0:0:0:0:
64,192,176272,1,0,0:0:0:0:
192,192,176272,1,0,0:0:0:0:
448,192,176272,1,0,0:0:0:0:
320,192,176413,1,0,0:0:0:0:
448,192,176413,1,0,0:0:0:0:
192,192,176554,1,0,0:0:0:0:
64,192,176694,1,0,0:0:0:0:
448,192,176694,1,0,0:0:0:0:
192,192,176835,1,0,0:0:0:0:
448,192,176905,1,0,0:0:0:0:
64,192,176976,1,0,0:0:0:0:
192,192,176976,1,0,0:0:0:0:
320,192,177046,1,0,0:0:0:0:
64,192,177116,1,0,0:0:0:0:
448,192,177151,1,0,0:0:0:0:
320,192,177186,1,0,0:0:0:0:
192,192,177257,1,0,0:0:0:0:
320,192,177327,1,0,0:0:0:0:
64,192,177397,1,0,0:0:0:0:
192,192,177397,1,0,0:0:0:0:
448,192,177397,1,0,0:0:0:0:
192,192,177538,1,0,0:0:0:0:
320,192,177538,1,0,0:0:0:0:
64,192,177679,1,0,0:0:0:0:
320,192,177679,1,0,0:0:0:0:
448,192,177679,1,0,0:0:0:0:
64,192,177819,1,0,0:0:0:0:
192,192,177819,1,0,0:0:0:0:
320,192,177960,1,0,0:0:0:0:
448,192,177960,1,0,0:0:0:0:
64,192,178101,1,0,0:0:0:0:
192,192,178101,1,0,0:0:0:0:
448,192,178101,1,0,0:0:0:0:
64,192,178241,1,0,0:0:0:0:
192,192,178241,1,0,0:0:0:0:
320,192,178382,1,0,0:0:0:0:
192,192,178452,1,0,0:0:0:0:
320,192,178523,1,0,0:0:0:0:
448,192,178523,1,0,0:0:0:0:
192,192,178663,1,0,0:0:0:0:
64,192,178804,1,0,0:0:0:0:
320,192,178804,1,0,0:0:0:0:
448,192,178804,1,0,0:0:0:0:
192,192,178945,1,0,0:0:0:0:
448,192,178945,1,0,0:0:0:0:
64,192,179085,1,0,0:0:0:0:
192,192,179085,1,0,0:0:0:0:
320,192,179085,1,0,0:0:0:0:
64,192,179226,1,0,0:0:0:0:
320,192,179226,1,0,0:0:0:0:
192,192,179366,1,0,0:0:0:0:
320,192,179366,1,0,0:0:0:0:
448,192,179366,1,0,0:0:0:0:
64,192,179507,1,0,0:0:0:0:
192,192,179507,1,0,0:0:0:0:
64,192,179648,1,0,0:0:0:0:
448,192,179648,1,0,0:0:0:0:
192,192,179788,1,0,0:0:0:0:
320,192,179788,1,0,0:0:0:0:
64,192,179929,1,0,0:0:0:0:
320,192,179929,1,0,0:0:0:0:
448,192,179929,1,0,0:0:0:0:
192,192,180070,1,0,0:0:0:0:
320,192,180210,1,0,0:0:0:0:
448,192,180210,1,0,0:0:0:0:
64,192,180281,1,0,0:0:0:0:
448,192,180351,1,0,0:0:0:0:
192,192,180421,1,0,0:0:0:0:
320,192,180492,1,0,0:0:0:0:
448,192,180492,1,0,0:0:0:0:
64,192,180562,1,0,0:0:0:0:
192,192,180632,1,0,0:0:0:0:
448,192,180632,1,0,0:0:0:0:
320,192,180703,1,0,0:0:0:0:
64,192,180773,1,0,0:0:0:0:
448,192,180773,1,0,0:0:0:0:
192,192,180820,1,0,0:0:0:0:
64,192,181054,1,0,0:0:0:0:
192,192,181054,1,0,0:0:0:0:
448,192,181124,1,0,0:0:0:0:
320,192,181195,1,0,0:0:0:0:
64,192,181265,1,0,0:0:0:0:
320,192,181335,1,0,0:0:0:0:
192,192,181406,1,0,0:0:0:0:
448,192,181476,1,0,0:0:0:0:
192,192,181546,1,0,0:0:0:0:
64,192,181617,1,0,0:0:0:0:
320,192,181617,1,0,0:0:0:0:
448,192,181617,1,0,0:0:0:0:
64,192,181898,1,0,0:0:0:0:
320,192,181898,1,0,0:0:0:0:
448,192,181898,1,0,0:0:0:0:
192,192,182039,1,0,0:0:0:0:
320,192,182039,1,0,0:0:0:0:
64,192,182179,1,0,0:0:0:0:
192,192,182179,1,0,0:0:0:0:
448,192,182179,1,0,0:0:0:0:
64,192,182320,1,0,0:0:0:0:
320,192,182320,1,0,0:0:0:0:
320,192,182461,1,0,0:0:0:0:
448,192,182461,1,0,0:0:0:0:
64,192,182601,1,0,0:0:0:0:
192,192,182601,1,0,0:0:0:0:
64,192,182742,1,0,0:0:0:0:
192,192,182742,1,0,0:0:0:0:
448,192,182742,1,0,0:0:0:0:
192,192,182882,1,0,0:0:0:0:
448,192,182882,1,0,0:0:0:0:
64,192,183023,1,0,0:0:0:0:
320,192,183023,1,0,0:0:0:0:
64,192,183164,1,0,0:0:0:0:
192,192,183164,1,0,0:0:0:0:
192,192,183304,1,0,0:0:0:0:
320,192,183304,1,0,0:0:0:0:
448,192,183304,1,0,0:0:0:0:
320,192,183445,1,0,0:0:0:0:
448,192,183445,1,0,0:0:0:0:
64,192,183586,1,0,0:0:0:0:
192,192,183586,1,0,0:0:0:0:
448,192,183586,1,0,0:0:0:0:
192,192,183726,1,0,0:0:0:0:
192,192,183867,1,0,0:0:0:0:
320,192,183867,1,0,0:0:0:0:
448,192,183867,1,0,0:0:0:0:
320,192,184008,1,0,0:0:0:0:
64,192,184148,1,0,0:0:0:0:
192,192,184148,1,0,0:0:0:0:
448,192,184148,1,0,0:0:0:0:
320,192,184289,1,0,0:0:0:0:
448,192,184289,1,0,0:0:0:0:
192,192,184359,1,0,0:0:0:0:
64,192,184430,1,0,0:0:0:0:
320,192,184430,1,0,0:0:0:0:
448,192,184430,1,0,0:0:0:0:
192,192,184500,1,0,0:0:0:0:
64,192,184570,1,0,0:0:0:0:
448,192,184570,1,0,0:0:0:0:
64,192,184711,1,0,0:0:0:0:
192,192,184711,1,0,0:0:0:0:
320,192,184711,1,0,0:0:0:0:
320,192,184851,1,0,0:0:0:0:
64,192,184992,1,0,0:0:0:0:
192,192,184992,1,0,0:0:0:0:
448,192,184992,1,0,0:0:0:0:
192,192,185133,1,0,0:0:0:0:
320,192,185133,1,0,0:0:0:0:
64,192,185273,1,0,0:0:0:0:
320,192,185273,1,0,0:0:0:0:
448,192,185273,1,0,0:0:0:0:
192,192,185414,1,0,0:0:0:0:
320,192,185484,1,0,0:0:0:0:
64,192,185555,1,0,0:0:0:0:
448,192,185555,1,0,0:0:0:0:
192,192,185695,1,0,0:0:0:0:
320,192,185695,1,0,0:0:0:0:
320,192,185836,1,0,0:0:0:0:
448,192,185836,1,0,0:0:0:0:
64,192,185977,1,0,0:0:0:0:
320,192,186047,1,0,0:0:0:0:
64,192,186117,1,0,0:0:0:0:
192,192,186117,1,0,0:0:0:0:
448,192,186188,1,0,0:0:0:0:
320,192,186258,1,0,0:0:0:0:
64,192,186328,1,0,0:0:0:0:
192,192,186399,1,0,0:0:0:0:
320,192,186399,1,0,0:0:0:0:
448,192,186399,1,0,0:0:0:0:
64,192,186539,1,0,0:0:0:0:
320,192,186539,1,0,0:0:0:0:
64,192,186680,1,0,0:0:0:0:
192,192,186680,1,0,0:0:0:0:
448,192,186680,1,0,0:0:0:0:
320,192,186820,1,0,0:0:0:0:
448,192,186820,1,0,0:0:0:0:
64,192,186961,1,0,0:0:0:0:
192,192,186961,1,0,0:0:0:0:
64,192,187102,1,0,0:0:0:0:
320,192,187102,1,0,0:0:0:0:
64,192,187242,1,0,0:0:0:0:
320,192,187242,1,0,0:0:0:0:
448,192,187242,1,0,0:0:0:0:
192,192,187383,1,0,0:0:0:0:
320,192,187383,1,0,0:0:0:0:
192,192,187524,1,0,0:0:0:0:
448,192,187524,1,0,0:0:0:0:
64,192,187664,1,0,0:0:0:0:
320,192,187664,1,0,0:0:0:0:
192,192,187805,1,0,0:0:0:0:
320,192,187805,1,0,0:0:0:0:
448,192,187805,1,0,0:0:0:0:
64,192,187946,1,0,0:0:0:0:
192,192,187946,1,0,0:0:0:0:
64,192,188086,1,0,0:0:0:0:
320,192,188086,1,0,0:0:0:0:
448,192,188086,1,0,0:0:0:0:
320,192,188227,1,0,0:0:0:0:
64,192,188367,1,0,0:0:0:0:
192,192,188367,1,0,0:0:0:0:
448,192,188367,1,0,0:0:0:0:
192,192,188508,1,0,0:0:0:0:
64,192,188649,1,0,0:0:0:0:
320,192,188649,1,0,0:0:0:0:
448,192,188649,1,0,0:0:0:0:
192,192,188789,128,0,188860:0:0:0:0:
64,192,188930,1,0,0:0:0:0:
192,192,188930,1,0,0:0:0:0:
448,192,188930,1,0,0:0:0:0:
320,192,189071,128,0,189141:0:0:0:0:
64,192,189211,1,0,0:0:0:0:
320,192,189211,1,0,0:0:0:0:
448,192,189211,1,0,0:0:0:0:
192,192,189352,1,0,0:0:0:0:
448,192,189422,1,0,0:0:0:0:
64,192,189493,1,0,0:0:0:0:
320,192,189493,1,0,0:0:0:0:
192,192,189633,1,0,0:0:0:0:
448,192,189633,1,0,0:0:0:0:
64,192,189774,1,0,0:0:0:0:
320,192,189774,1,0,0:0:0:0:
448,192,189844,1,0,0:0:0:0:
320,192,189915,1,0,0:0:0:0:
64,192,189985,1,0,0:0:0:0:
192,192,189985,1,0,0:0:0:0:
320,192,190055,1,0,0:0:0:0:
448,192,190055,1,0,0:0:0:0:
192,192,190125,1,0,0:0:0:0:
64,192,190196,1,0,0:0:0:0:
448,192,190196,1,0,0:0:0:0:
320,192,190266,1,0,0:0:0:0:
192,192,190336,1,0,0:0:0:0:
448,192,190407,1,0,0:0:0:0:
192,192,190477,1,0,0:0:0:0:
448,192,190547,1,0,0:0:0:0:
320,192,190618,128,0,190758:0:0:0:0:
192,192,190758,1,0,0:0:0:0:
64,192,190899,1,0,0:0:0:0:
192,192,190899,1,0,0:0:0:0:
320,192,190899,1,0,0:0:0:0:
448,192,190899,1,0,0:0:0:0:
64,192,191040,1,0,0:0:0:0:
320,192,191040,1,0,0:0:0:0:
192,192,191180,1,0,0:0:0:0:
320,192,191321,1,0,0:0:0:0:
448,192,191321,1,0,0:0:0:0:
192,192,191462,1,0,0:0:0:0:
64,192,191602,1,0,0:0:0:0:
320,192,191602,1,0,0:0:0:0:
192,192,191743,1,0,0:0:0:0:
448,192,191743,1,0,0:0:0:0:
64,192,191884,1,0,0:0:0:0:
320,192,191884,128,0,192094:0:0:0:0:
192,192,192024,1,0,0:0:0:0:
64,192,192165,1,0,0:0:0:0:
448,192,192165,1,0,0:0:0:0:
192,192,192305,1,0,0:0:0:0:
448,192,192305,1,0,0:0:0:0:
192,192,192446,1,0,0:0:0:0:
320,192,192446,1,0,0:0:0:0:
64,192,192587,1,0,0:0:0:0:
448,192,192587,128,0,192798:0:0:0:0:
192,192,192727,1,0,0:0:0:0:
192,192,192868,1,0,0:0:0:0:
320,192,192868,1,0,0:0:0:0:
64,192,193009,1,0,0:0:0:0:
192,192,193149,1,0,0:0:0:0:
448,192,193149,1,0,0:0:0:0:
64,192,193290,1,0,0:0:0:0:
192,192,193360,1,0,0:0:0:0:
448,192,193360,1,0,0:0:0:0:
320,192,193431,128,0,193571:0:0:0:0:
64,192,193571,128,0,193712:0:0:0:0:
192,192,193571,1,0,0:0:0:0:
320,192,193712,1,0,0:0:0:0:
448,192,193712,128,0,193923:0:0:0:0:
192,192,193852,1,0,0:0:0:0:
64,192,193993,128,0,194204:0:0:0:0:
320,192,193993,1,0,0:0:0:0:
192,192,194134,1,0,0:0:0:0:
320,192,194274,1,0,0:0:0:0:
448,192,194274,128,0,194556:0:0:0:0:
64,192,194415,1,0,0:0:0:0:
192,192,194556,1,0,0:0:0:0:
64,192,194696,1,0,0:0:0:0:
320,192,194696,1,0,0:0:0:0:
64,192,194837,1,0,0:0:0:0:
320,192,194837,128,0,195118:0:0:0:0:
192,192,194978,1,0,0:0:0:0:
64,192,195118,1,0,0:0:0:0:
448,192,195118,1,0,0:0:0:0:
192,192,195259,1,0,0:0:0:0:
64,192,195400,1,0,0:0:0:0:
320,192,195400,1,0,0:0:0:0:
448,192,195400,1,0,0:0:0:0:
192,192,195470,1,0,0:0:0:0:
320,192,195540,1,0,0:0:0:0:
448,192,195540,1,0,0:0:0:0:
64,192,195611,1,0,0:0:0:0:
192,192,195681,1,0,0:0:0:0:
448,192,195681,1,0,0:0:0:0:
320,192,195751,1,0,0:0:0:0:
64,192,195821,1,0,0:0:0:0:
192,192,195821,1,0,0:0:0:0:
448,192,195892,1,0,0:0:0:0:
320,192,195962,1,0,0:0:0:0:
64,192,196032,1,0,0:0:0:0:
192,192,196103,1,0,0:0:0:0:
448,192,196103,1,0,0:0:0:0:
320,192,196173,1,0,0:0:0:0:
64,192,196243,1,0,0:0:0:0:
448,192,196243,1,0,0:0:0:0:
192,192,196314,1,0,0:0:0:0:
64,192,196384,1,0,0:0:0:0:
320,192,196384,1,0,0:0:0:0:
448,192,196454,1,0,0:0:0:0:
192,192,196525,1,0,0:0:0:0:
320,192,196595,1,0,0:0:0:0:
64,192,196665,1,0,0:0:0:0:
192,192,196665,1,0,0:0:0:0:
448,192,196736,1,0,0:0:0:0:
64,192,196806,1,0,0:0:0:0:
320,192,196806,1,0,0:0:0:0:
192,192,196876,1,0,0:0:0:0:
448,192,196947,1,0,0:0:0:0:
320,192,197017,1,0,0:0:0:0:
64,192,197087,1,0,0:0:0:0:
192,192,197087,1,0,0:0:0:0:
320,192,197158,1,0,0:0:0:0:
448,192,197228,1,0,0:0:0:0:
64,192,197298,1,0,0:0:0:0:
192,192,197369,1,0,0:0:0:0:
320,192,197369,1,0,0:0:0:0:
448,192,197439,1,0,0:0:0:0:
64,192,197509,1,0,0:0:0:0:
320,192,197579,1,0,0:0:0:0:
64,192,197650,1,0,0:0:0:0:
192,192,197685,1,0,0:0:0:0:
448,192,197720,1,0,0:0:0:0:
320,192,197755,1,0,0:0:0:0:
64,192,197790,1,0,0:0:0:0:
192,192,197826,1,0,0:0:0:0:
448,192,197861,1,0,0:0:0:0:
320,192,197896,1,0,0:0:0:0:
64,192,197931,1,0,0:0:0:0:
192,192,197966,1,0,0:0:0:0:
448,192,198001,1,0,0:0:0:0:
320,192,198037,1,0,0:0:0:0:
64,192,198072,1,0,0:0:0:0:
192,192,198107,1,0,0:0:0:0:
448,192,198142,1,0,0:0:0:0:
320,192,198177,1,0,0:0:0:0:
64,192,198212,1,0,0:0:0:0:
192,192,198248,1,0,0:0:0:0:
448,192,198283,1,0,0:0:0:0:
320,192,198318,1,0,0:0:0:0:
64,192,198353,1,0,0:0:0:0:
192,192,198388,1,0,0:0:0:0:
448,192,198423,1,0,0:0:0:0:
320,192,198458,1,0,0:0:0:0:
64,192,198494,1,0,0:0:0:0:
192,192,198529,1,0,0:0:0:0:
448,192,198564,1,0,0:0:0:0:
320,192,198599,1,0,0:0:0:0:
64,192,198634,1,0,0:0:0:0:
192,192,198669,1,0,0:0:0:0:
448,192,198705,1,0,0:0:0:0:
320,192,198740,1,0,0:0:0:0:
64,192,198775,1,0,0:0:0:0:
192,192,198775,1,0,0:0:0:0:
320,192,198986,1,0,0:0:0:0:
64,192,199056,1,0,0:0:0:0:
448,192,199056,1,0,0:0:0:0:
320,192,199197,1,0,0:0:0:0:
448,192,199197,1,0,0:0:0:0:
192,192,199267,1,0,0:0:0:0:
64,192,199337,1,0,0:0:0:0:
320,192,199337,1,0,0:0:0:0:
192,192,199408,1,0,0:0:0:0:
320,192,199478,1,0,0:0:0:0:
448,192,199478,1,0,0:0:0:0:
64,192,199548,1,0,0:0:0:0:
320,192,199619,1,0,0:0:0:0:
448,192,199619,1,0,0:0:0:0:
320,192,199689,1,0,0:0:0:0:
448,192,199689,1,0,0:0:0:0:
64,192,199759,1,0,0:0:0:0:
192,192,199759,1,0,0:0:0:0:
64,192,199830,1,0,0:0:0:0:
192,192,199830,1,0,0:0:0:0:
320,192,199900,1,0,0:0:0:0:
448,192,199900,1,0,0:0:0:0:
64,192,199970,1,0,0:0:0:0:
192,192,200041,1,0,0:0:0:0:
448,192,200041,1,0,0:0:0:0:
320,192,200111,1,0,0:0:0:0:
64,192,200181,1,0,0:0:0:0:
192,192,200181,1,0,0:0:0:0:
448,192,200181,1,0,0:0:0:0:
320,192,200252,1,0,0:0:0:0:
64,192,200322,1,0,0:0:0:0:
192,192,200322,1,0,0:0:0:0:
448,192,200392,1,0,0:0:0:0:
64,192,200463,1,0,0:0:0:0:
320,192,200463,1,0,0:0:0:0:
192,192,200533,1,0,0:0:0:0:
320,192,200603,1,0,0:0:0:0:
448,192,200603,1,0,0:0:0:0:
64,192,200674,1,0,0:0:0:0:
192,192,200744,1,0,0:0:0:0:
448,192,200744,1,0,0:0:0:0:
320,192,200814,1,0,0:0:0:0:
64,192,200885,1,0,0:0:0:0:
192,192,200885,1,0,0:0:0:0:
320,192,200955,1,0,0:0:0:0:
448,192,200955,1,0,0:0:0:0:
64,192,201025,1,0,0:0:0:0:
192,192,201025,1,0,0:0:0:0:
448,192,201096,1,0,0:0:0:0:
64,192,201166,1,0,0:0:0:0:
320,192,201166,1,0,0:0:0:0:
192,192,201236,1,0,0:0:0:0:
64,192,201306,1,0,0:0:0:0:
320,192,201306,1,0,0:0:0:0:
448,192,201306,1,0,0:0:0:0:
192,192,201377,1,0,0:0:0:0:
320,192,201447,1,0,0:0:0:0:
448,192,201447,1,0,0:0:0:0:
64,192,201517,1,0,0:0:0:0:
192,192,201588,1,0,0:0:0:0:
320,192,201588,1,0,0:0:0:0:
448,192,201588,1,0,0:0:0:0:
64,192,201658,1,0,0:0:0:0:
192,192,201728,1,0,0:0:0:0:
448,192,201728,1,0,0:0:0:0:
320,192,201799,1,0,0:0:0:0:
64,192,201869,1,0,0:0:0:0:
192,192,201869,1,0,0:0:0:0:
448,192,201869,1,0,0:0:0:0:
320,192,201939,1,0,0:0:0:0:
64,192,202010,1,0,0:0:0:0:
192,192,202010,1,0,0:0:0:0:
448,192,202080,1,0,0:0:0:0:
64,192,202150,1,0,0:0:0:0:
192,192,202150,1,0,0:0:0:0:
320,192,202150,1,0,0:0:0:0:
448,192,202221,1,0,0:0:0:0:
320,192,202291,1,0,0:0:0:0:
64,192,202361,1,0,0:0:0:0:
192,192,202361,1,0,0:0:0:0:
320,192,202432,1,0,0:0:0:0:
448,192,202432,1,0,0:0:0:0:
64,192,202502,1,0,0:0:0:0:
192,192,202572,1,0,0:0:0:0:
448,192,202572,1,0,0:0:0:0:
320,192,202643,1,0,0:0:0:0:
64,192,202713,1,0,0:0:0:0:
192,192,202713,1,0,0:0:0:0:
448,192,202713,1,0,0:0:0:0:
320,192,202783,1,0,0:0:0:0:
64,192,202854,1,0,0:0:0:0:
192,192,202854,1,0,0:0:0:0:
448,192,202924,1,0,0:0:0:0:
64,192,202994,1,0,0:0:0:0:
192,192,202994,1,0,0:0:0:0:
320,192,202994,1,0,0:0:0:0:
448,192,203064,1,0,0:0:0:0:
192,192,203135,1,0,0:0:0:0:
320,192,203135,1,0,0:0:0:0:
64,192,203205,1,0,0:0:0:0:
192,192,203275,1,0,0:0:0:0:
320,192,203275,1,0,0:0:0:0:
448,192,203275,1,0,0:0:0:0:
64,192,203346,1,0,0:0:0:0:
320,192,203416,1,0,0:0:0:0:
448,192,203416,1,0,0:0:0:0:
64,192,203486,1,0,0:0:0:0:
320,192,203557,1,0,0:0:0:0:
448,192,203557,1,0,0:0:0:0:
64,192,203627,1,0,0:0:0:0:
192,192,203697,1,0,0:0:0:0:
448,192,203697,1,0,0:0:0:0:
64,192,203768,1,0,0:0:0:0:
320,192,203768,1,0,0:0:0:0:
192,192,203838,1,0,0:0:0:0:
448,192,203838,1,0,0:0:0:0:
320,192,203908,1,0,0:0:0:0:
64,192,203979,1,0,0:0:0:0:
192,192,203979,1,0,0:0:0:0:
320,192,204049,1,0,0:0:0:0:
64,192,204119,1,0,0:0:0:0:
192,192,204119,1,0,0:0:0:0:
448,192,204190,1,0,0:0:0:0:
64,192,204260,1,0,0:0:0:0:
320,192,204260,1,0,0:0:0:0:
192,192,204330,1,0,0:0:0:0:
64,192,204401,1,0,0:0:0:0:
320,192,204401,1,0,0:0:0:0:
448,192,204401,1,0,0:0:0:0:
192,192,204471,1,0,0:0:0:0:
320,192,204541,1,0,0:0:0:0:
448,192,204541,1,0,0:0:0:0:
64,192,204612,1,0,0:0:0:0:
192,192,204682,1,0,0:0:0:0:
320,192,204682,1,0,0:0:0:0:
448,192,204682,1,0,0:0:0:0:
64,192,204752,1,0,0:0:0:0:
192,192,204823,1,0,0:0:0:0:
320,192,204823,1,0,0:0:0:0:
448,192,204893,1,0,0:0:0:0:
64,192,204963,1,0,0:0:0:0:
320,192,204963,1,0,0:0:0:0:
192,192,205033,1,0,0:0:0:0:
320,192,205104,1,0,0:0:0:0:
448,192,205104,1,0,0:0:0:0:
192,192,205174,1,0,0:0:0:0:
320,192,205244,1,0,0:0:0:0:
448,192,205244,1,0,0:0:0:0:
64,192,205315,1,0,0:0:0:0:
192,192,205385,1,0,0:0:0:0:
448,192,205385,1,0,0:0:0:0:
320,192,205455,1,0,0:0:0:0:
64,192,205526,1,0,0:0:0:0:
192,192,205526,1,0,0:0:0:0:
448,192,205596,1,0,0:0:0:0:
64,192,205666,1,0,0:0:0:0:
320,192,205666,1,0,0:0:0:0:
192,192,205737,1,0,0:0:0:0:
64,192,205807,1,0,0:0:0:0:
320,192,205807,1,0,0:0:0:0:
448,192,205807,1,0,0:0:0:0:
192,192,205877,1,0,0:0:0:0:
320,192,205948,1,0,0:0:0:0:
448,192,205948,1,0,0:0:0:0:
64,192,206018,1,0,0:0:0:0:
192,192,206088,1,0,0:0:0:0:
448,192,206088,1,0,0:0:0:0:
320,192,206159,1,0,0:0:0:0:
64,192,206229,1,0,0:0:0:0:
448,192,206229,1,0,0:0:0:0:
192,192,206299,1,0,0:0:0:0:
64,192,206370,1,0,0:0:0:0:
320,192,206370,1,0,0:0:0:0:
448,192,206440,1,0,0:0:0:0:
192,192,206510,1,0,0:0:0:0:
320,192,206510,1,0,0:0:0:0:
64,192,206581,1,0,0:0:0:0:
192,192,206651,1,0,0:0:0:0:
320,192,206651,1,0,0:0:0:0:
448,192,206651,1,0,0:0:0:0:
320,192,206791,1,0,0:0:0:0:
448,192,206791,1,0,0:0:0:0:
64,192,206932,1,0,0:0:0:0:
192,192,206932,1,0,0:0:0:0:
448,192,206932,1,0,0:0:0:0:
64,192,207073,1,0,0:0:0:0:
192,192,207073,1,0,0:0:0:0:
192,192,207213,1,0,0:0:0:0:
448,192,207213,1,0,0:0:0:0:
320,192,207284,1,0,0:0:0:0:
64,192,207354,1,0,0:0:0:0:
192,192,207354,1,0,0:0:0:0:
448,192,207354,1,0,0:0:0:0:
320,192,207424,1,0,0:0:0:0:
64,192,207495,1,0,0:0:0:0:
192,192,207495,1,0,0:0:0:0:
448,192,207495,1,0,0:0:0:0:
320,192,207635,1,0,0:0:0:0:
448,192,207635,1,0,0:0:0:0:
192,192,207706,1,0,0:0:0:0:
64,192,207776,1,0,0:0:0:0:
320,192,207776,1,0,0:0:0:0:
448,192,207776,1,0,0:0:0:0:
192,192,207917,1,0,0:0:0:0:
320,192,207987,1,0,0:0:0:0:
448,192,207987,1,0,0:0:0:0:
64,192,208057,1,0,0:0:0:0:
192,192,208057,1,0,0:0:0:0:
64,192,208198,1,0,0:0:0:0:
320,192,208198,1,0,0:0:0:0:
448,192,208198,1,0,0:0:0:0:
320,192,208339,1,0,0:0:0:0:
448,192,208339,1,0,0:0:0:0:
64,192,208409,1,0,0:0:0:0:
192,192,208409,1,0,0:0:0:0:
320,192,208479,1,0,0:0:0:0:
448,192,208479,1,0,0:0:0:0:
64,192,208549,1,0,0:0:0:0:
192,192,208549,1,0,0:0:0:0:
320,192,208620,1,0,0:0:0:0:
448,192,208620,1,0,0:0:0:0:
64,192,208690,1,0,0:0:0:0:
320,192,208760,1,0,0:0:0:0:
448,192,208760,1,0,0:0:0:0:
64,192,208831,1,0,0:0:0:0:
192,192,208901,1,0,0:0:0:0:
320,192,208901,1,0,0:0:0:0:
448,192,208901,1,0,0:0:0:0:
192,192,209042,1,0,0:0:0:0:
320,192,209042,1,0,0:0:0:0:
64,192,209182,1,0,0:0:0:0:
192,192,209182,1,0,0:0:0:0:
448,192,209182,1,0,0:0:0:0:
64,192,209323,1,0,0:0:0:0:
320,192,209323,1,0,0:0:0:0:
448,192,209323,1,0,0:0:0:0:
64,192,209464,1,0,0:0:0:0:
192,192,209464,1,0,0:0:0:0:
448,192,209464,1,0,0:0:0:0:
320,192,209534,1,0,0:0:0:0:
64,192,209604,1,0,0:0:0:0:
192,192,209604,1,0,0:0:0:0:
448,192,209651,1,0,0:0:0:0:
320,192,209698,1,0,0:0:0:0:
192,192,209745,1,0,0:0:0:0:
64,192,209780,1,0,0:0:0:0:
448,192,209815,1,0,0:0:0:0:
320,192,209850,1,0,0:0:0:0:
192,192,209886,1,0,0:0:0:0:
64,192,209921,1,0,0:0:0:0:
448,192,209956,1,0,0:0:0:0:
320,192,209991,1,0,0:0:0:0:
64,192,210026,1,0,0:0:0:0:
192,192,210026,1,0,0:0:0:0:
320,192,210097,1,0,0:0:0:0:
448,192,210097,1,0,0:0:0:0:
64,192,210167,1,0,0:0:0:0:
192,192,210167,1,0,0:0:0:0:
448,192,210237,1,0,0:0:0:0:
64,192,210308,1,0,0:0:0:0:
320,192,210308,1,0,0:0:0:0:
192,192,210378,1,0,0:0:0:0:
448,192,210378,1,0,0:0:0:0:
64,192,210448,1,0,0:0:0:0:
320,192,210448,1,0,0:0:0:0:
192,192,210518,1,0,0:0:0:0:
320,192,210589,1,0,0:0:0:0:
448,192,210589,1,0,0:0:0:0:
64,192,210659,1,0,0:0:0:0:
320,192,210729,1,0,0:0:0:0:
448,192,210729,1,0,0:0:0:0:
64,192,210800,1,0,0:0:0:0:
192,192,210800,1,0,0:0:0:0:
448,192,210870,1,0,0:0:0:0:
64,192,210940,1,0,0:0:0:0:
192,192,210940,1,0,0:0:0:0:
320,192,211011,1,0,0:0:0:0:
448,192,211011,1,0,0:0:0:0:
64,192,211081,1,0,0:0:0:0:
192,192,211081,1,0,0:0:0:0:
320,192,211151,1,0,0:0:0:0:
448,192,211151,1,0,0:0:0:0:
192,192,211222,1,0,0:0:0:0:
320,192,211292,1,0,0:0:0:0:
448,192,211292,1,0,0:0:0:0:
64,192,211362,1,0,0:0:0:0:
192,192,211433,1,0,0:0:0:0:
320,192,211433,1,0,0:0:0:0:
64,192,211503,1,0,0:0:0:0:
448,192,211503,1,0,0:0:0:0:
192,192,211573,1,0,0:0:0:0:
320,192,211644,1,0,0:0:0:0:
448,192,211644,1,0,0:0:0:0:
64,192,211714,1,0,0:0:0:0:
192,192,211714,1,0,0:0:0:0:
448,192,211784,1,0,0:0:0:0:
64,192,211855,1,0,0:0:0:0:
320,192,211855,1,0,0:0:0:0:
192,192,211925,1,0,0:0:0:0:
64,192,211995,1,0,0:0:0:0:
320,192,211995,1,0,0:0:0:0:
448,192,211995,1,0,0:0:0:0:
192,192,212066,1,0,0:0:0:0:
320,192,212136,1,0,0:0:0:0:
448,192,212136,1,0,0:0:0:0:
64,192,212206,1,0,0:0:0:0:
192,192,212276,1,0,0:0:0:0:
448,192,212276,1,0,0:0:0:0:
64,192,212347,1,0,0:0:0:0:
320,192,212347,1,0,0:0:0:0:
192,192,212417,1,0,0:0:0:0:
448,192,212417,1,0,0:0:0:0:
320,192,212487,1,0,0:0:0:0:
64,192,212558,1,0,0:0:0:0:
192,192,212558,1,0,0:0:0:0:
320,192,212628,1,0,0:0:0:0:
448,192,212628,1,0,0:0:0:0:
64,192,212698,1,0,0:0:0:0:
192,192,212698,1,0,0:0:0:0:
320,192,212769,1,0,0:0:0:0:
192,192,212839,1,0,0:0:0:0:
448,192,212839,1,0,0:0:0:0:
64,192,212909,1,0,0:0:0:0:
320,192,212909,1,0,0:0:0:0:
448,192,212980,1,0,0:0:0:0:
64,192,213050,1,0,0:0:0:0:
320,192,213050,1,0,0:0:0:0:
192,192,213120,1,0,0:0:0:0:
64,192,213191,1,0,0:0:0:0:
320,192,213191,1,0,0:0:0:0:
192,192,213261,1,0,0:0:0:0:
448,192,213261,1,0,0:0:0:0:
320,192,213331,1,0,0:0:0:0:
64,192,213402,1,0,0:0:0:0:
192,192,213402,1,0,0:0:0:0:
448,192,213402,1,0,0:0:0:0:
320,192,213472,1,0,0:0:0:0:
64,192,213542,1,0,0:0:0:0:
192,192,213542,1,0,0:0:0:0:
448,192,213613,1,0,0:0:0:0:
64,192,213683,1,0,0:0:0:0:
192,192,213683,1,0,0:0:0:0:
320,192,213683,1,0,0:0:0:0:
448,192,213753,1,0,0:0:0:0:
64,192,213824,1,0,0:0:0:0:
320,192,213824,1,0,0:0:0:0:
192,192,213894,1,0,0:0:0:0:
64,192,213964,1,0,0:0:0:0:
320,192,213964,1,0,0:0:0:0:
448,192,213964,1,0,0:0:0:0:
192,192,214035,1,0,0:0:0:0:
320,192,214105,1,0,0:0:0:0:
448,192,214105,1,0,0:0:0:0:
64,192,214175,1,0,0:0:0:0:
192,192,214175,1,0,0:0:0:0:
320,192,214245,1,0,0:0:0:0:
448,192,214245,1,0,0:0:0:0:
64,192,214316,1,0,0:0:0:0:
192,192,214316,1,0,0:0:0:0:
448,192,214386,1,0,0:0:0:0:
320,192,214421,1,0,0:0:0:0:
64,192,214456,1,0,0:0:0:0:
192,192,214492,1,0,0:0:0:0:
320,192,214527,1,0,0:0:0:0:
448,192,214527,1,0,0:0:0:0:
64,192,214597,1,0,0:0:0:0:
192,192,214597,1,0,0:0:0:0:
320,192,214667,1,0,0:0:0:0:
448,192,214667,1,0,0:0:0:0:
64,192,214738,1,0,0:0:0:0:
192,192,214808,1,0,0:0:0:0:
448,192,214808,1,0,0:0:0:0:
64,192,214878,1,0,0:0:0:0:
320,192,214878,1,0,0:0:0:0:
192,192,214949,1,0,0:0:0:0:
448,192,214949,1,0,0:0:0:0:
320,192,215019,1,0,0:0:0:0:
64,192,215089,1,0,0:0:0:0:
192,192,215089,1,0,0:0:0:0:
448,192,215089,1,0,0:0:0:0:
320,192,215160,1,0,0:0:0:0:
64,192,215230,1,0,0:0:0:0:
192,192,215230,1,0,0:0:0:0:
320,192,215300,1,0,0:0:0:0:
448,192,215300,1,0,0:0:0:0:
64,192,215371,1,0,0:0:0:0:
320,192,215441,1,0,0:0:0:0:
448,192,215441,1,0,0:0:0:0:
64,192,215511,1,0,0:0:0:0:
192,192,215511,1,0,0:0:0:0:
320,192,215582,1,0,0:0:0:0:
448,192,215582,1,0,0:0:0:0:
64,192,215652,1,0,0:0:0:0:
192,192,215652,1,0,0:0:0:0:
320,192,215722,1,0,0:0:0:0:
64,192,215793,1,0,0:0:0:0:
192,192,215793,1,0,0:0:0:0:
448,192,215863,1,0,0:0:0:0:
192,192,215933,1,0,0:0:0:0:
320,192,215933,1,0,0:0:0:0:
64,192,216003,1,0,0:0:0:0:
448,192,216003,1,0,0:0:0:0:
320,192,216074,1,0,0:0:0:0:
64,192,216144,1,0,0:0:0:0:
192,192,216144,1,0,0:0:0:0:
320,192,216214,1,0,0:0:0:0:
448,192,216214,1,0,0:0:0:0:
64,192,216285,1,0,0:0:0:0:
192,192,216355,1,0,0:0:0:0:
448,192,216355,1,0,0:0:0:0:
320,192,216425,1,0,0:0:0:0:
64,192,216496,1,0,0:0:0:0:
192,192,216496,1,0,0:0:0:0:
448,192,216496,1,0,0:0:0:0:
320,192,216566,1,0,0:0:0:0:
64,192,216636,1,0,0:0:0:0:
192,192,216636,1,0,0:0:0:0:
448,192,216707,1,0,0:0:0:0:
64,192,216777,1,0,0:0:0:0:
192,192,216777,1,0,0:0:0:0:
320,192,216777,1,0,0:0:0:0:
448,192,216847,1,0,0:0:0:0:
64,192,216918,1,0,0:0:0:0:
192,192,216918,1,0,0:0:0:0:
320,192,216988,1,0,0:0:0:0:
64,192,217058,1,0,0:0:0:0:
448,192,217058,1,0,0:0:0:0:
192,192,217129,1,0,0:0:0:0:
320,192,217199,1,0,0:0:0:0:
448,192,217199,1,0,0:0:0:0:
64,192,217269,1,0,0:0:0:0:
192,192,217340,1,0,0:0:0:0:
320,192,217340,1,0,0:0:0:0:
448,192,217340,1,0,0:0:0:0:
64,192,217410,1,0,0:0:0:0:
192,192,217480,1,0,0:0:0:0:
64,192,217551,1,0,0:0:0:0:
320,192,217551,1,0,0:0:0:0:
448,192,217551,1,0,0:0:0:0:
192,192,217621,1,0,0:0:0:0:
448,192,217691,1,0,0:0:0:0:
64,192,217761,1,0,0:0:0:0:
192,192,217761,1,0,0:0:0:0:
320,192,217761,1,0,0:0:0:0:
448,192,217832,1,0,0:0:0:0:
64,192,217902,1,0,0:0:0:0:
320,192,217902,1,0,0:0:0:0:
192,192,217972,1,0,0:0:0:0:
320,192,218043,1,0,0:0:0:0:
448,192,218043,1,0,0:0:0:0:
64,192,218113,1,0,0:0:0:0:
320,192,218183,1,0,0:0:0:0:
448,192,218183,1,0,0:0:0:0:
192,192,218254,1,0,0:0:0:0:
320,192,218324,1,0,0:0:0:0:
448,192,218324,1,0,0:0:0:0:
64,192,218394,1,0,0:0:0:0:
192,192,218394,1,0,0:0:0:0:
320,192,218465,1,0,0:0:0:0:
448,192,218465,1,0,0:0:0:0:
64,192,218535,1,0,0:0:0:0:
192,192,218535,1,0,0:0:0:0:
320,192,218605,1,0,0:0:0:0:
448,192,218605,1,0,0:0:0:0:
64,192,218676,1,0,0:0:0:0:
192,192,218676,1,0,0:0:0:0:
320,192,218746,1,0,0:0:0:0:
448,192,218781,1,0,0:0:0:0:
64,192,218816,1,0,0:0:0:0:
320,192,218887,1,0,0:0:0:0:
192,192,218957,1,0,0:0:0:0:
320,192,219027,1,0,0:0:0:0:
448,192,219027,1,0,0:0:0:0:
64,192,219098,1,0,0:0:0:0:
192,192,219098,1,0,0:0:0:0:
320,192,219168,1,0,0:0:0:0:
448,192,219168,1,0,0:0:0:0:
64,192,219238,1,0,0:0:0:0:
192,192,219309,1,0,0:0:0:0:
448,192,219309,1,0,0:0:0:0:
64,192,219379,1,0,0:0:0:0:
320,192,219379,1,0,0:0:0:0:
192,192,219449,1,0,0:0:0:0:
448,192,219449,1,0,0:0:0:0:
320,192,219520,1,0,0:0:0:0:
64,192,219590,1,0,0:0:0:0:
192,192,219590,1,0,0:0:0:0:
448,192,219660,1,0,0:0:0:0:
64,192,219730,1,0,0:0:0:0:
192,192,219730,1,0,0:0:0:0:
320,192,219801,1,0,0:0:0:0:
448,192,219801,1,0,0:0:0:0:
64,192,219871,1,0,0:0:0:0:
320,192,219941,1,0,0:0:0:0:
448,192,219941,1,0,0:0:0:0:
64,192,220012,1,0,0:0:0:0:
192,192,220012,1,0,0:0:0:0:
320,192,220082,1,0,0:0:0:0:
448,192,220082,1,0,0:0:0:0:
64,192,220152,1,0,0:0:0:0:
192,192,220152,1,0,0:0:0:0:
320,192,220223,1,0,0:0:0:0:
64,192,220293,1,0,0:0:0:0:
192,192,220293,1,0,0:0:0:0:
448,192,220363,1,0,0:0:0:0:
192,192,220434,1,0,0:0:0:0:
320,192,220434,1,0,0:0:0:0:
64,192,220504,1,0,0:0:0:0:
448,192,220504,1,0,0:0:0:0:
320,192,220574,1,0,0:0:0:0:
64,192,220645,1,0,0:0:0:0:
192,192,220645,1,0,0:0:0:0:
448,192,220715,1,0,0:0:0:0:
64,192,220785,1,0,0:0:0:0:
192,192,220785,1,0,0:0:0:0:
320,192,220856,1,0,0:0:0:0:
448,192,220856,1,0,0:0:0:0:
64,192,220926,1,0,0:0:0:0:
192,192,220996,1,0,0:0:0:0:
448,192,220996,1,0,0:0:0:0:
320,192,221067,1,0,0:0:0:0:
64,192,221137,1,0,0:0:0:0:
192,192,221137,1,0,0:0:0:0:
448,192,221207,1,0,0:0:0:0:
64,192,221278,1,0,0:0:0:0:
320,192,221278,1,0,0:0:0:0:
192,192,221348,1,0,0:0:0:0:
448,192,221348,1,0,0:0:0:0:
64,192,221418,1,0,0:0:0:0:
320,192,221418,1,0,0:0:0:0:
192,192,221488,1,0,0:0:0:0:
320,192,221559,1,0,0:0:0:0:
448,192,221559,1,0,0:0:0:0:
64,192,221629,1,0,0:0:0:0:
192,192,221629,1,0,0:0:0:0:
320,192,221699,1,0,0:0:0:0:
448,192,221699,1,0,0:0:0:0:
64,192,221770,1,0,0:0:0:0:
192,192,221840,1,0,0:0:0:0:
448,192,221840,1,0,0:0:0:0:
64,192,221910,1,0,0:0:0:0:
320,192,221910,1,0,0:0:0:0:
192,192,221981,1,0,0:0:0:0:
64,192,222051,1,0,0:0:0:0:
320,192,222051,1,0,0:0:0:0:
448,192,222121,1,0,0:0:0:0:
64,192,222192,1,0,0:0:0:0:
320,192,222192,1,0,0:0:0:0:
192,192,222262,1,0,0:0:0:0:
448,192,222262,1,0,0:0:0:0:
320,192,222332,1,0,0:0:0:0:
64,192,222403,1,0,0:0:0:0:
192,192,222403,1,0,0:0:0:0:
448,192,222473,1,0,0:0:0:0:
64,192,222543,1,0,0:0:0:0:
320,192,222543,1,0,0:0:0:0:
192,192,222614,1,0,0:0:0:0:
320,192,222684,1,0,0:0:0:0:
448,192,222684,1,0,0:0:0:0:
64,192,222754,1,0,0:0:0:0:
192,192,222825,1,0,0:0:0:0:
448,192,222825,1,0,0:0:0:0:
320,192,222895,1,0,0:0:0:0:
64,192,222965,1,0,0:0:0:0:
192,192,222965,1,0,0:0:0:0:
320,192,223036,1,0,0:0:0:0:
448,192,223036,1,0,0:0:0:0:
64,192,223106,1,0,0:0:0:0:
192,192,223106,1,0,0:0:0:0:
448,192,223176,1,0,0:0:0:0:
64,192,223247,1,0,0:0:0:0:
320,192,223247,1,0,0:0:0:0:
192,192,223317,1,0,0:0:0:0:
320,192,223387,1,0,0:0:0:0:
448,192,223387,1,0,0:0:0:0:
192,192,223457,1,0,0:0:0:0:
320,192,223528,1,0,0:0:0:0:
448,192,223528,1,0,0:0:0:0:
64,192,223598,1,0,0:0:0:0:
192,192,223598,1,0,0:0:0:0:
320,192,223668,1,0,0:0:0:0:
448,192,223668,1,0,0:0:0:0:
64,192,223739,1,0,0:0:0:0:
192,192,223809,1,0,0:0:0:0:
448,192,223809,1,0,0:0:0:0:
64,192,223879,1,0,0:0:0:0:
320,192,223879,1,0,0:0:0:0:
192,192,223950,1,0,0:0:0:0:
448,192,223950,1,0,0:0:0:0:
320,192,224020,1,0,0:0:0:0:
64,192,224090,1,0,0:0:0:0:
192,192,224090,1,0,0:0:0:0:
448,192,224161,1,0,0:0:0:0:
64,192,224231,1,0,0:0:0:0:
192,192,224231,1,0,0:0:0:0:
320,192,224301,1,0,0:0:0:0:
448,192,224301,1,0,0:0:0:0:
64,192,224372,1,0,0:0:0:0:
320,192,224442,1,0,0:0:0:0:
448,192,224442,1,0,0:0:0:0:
64,192,224512,1,0,0:0:0:0:
192,192,224512,1,0,0:0:0:0:
320,192,224583,1,0,0:0:0:0:
448,192,224583,1,0,0:0:0:0:
64,192,224653,1,0,0:0:0:0:
192,192,224653,1,0,0:0:0:0:
320,192,224723,1,0,0:0:0:0:
64,192,224794,1,0,0:0:0:0:
192,192,224794,1,0,0:0:0:0:
448,192,224864,1,0,0:0:0:0:
192,192,224934,1,0,0:0:0:0:
320,192,224934,1,0,0:0:0:0:
64,192,225005,1,0,0:0:0:0:
448,192,225005,1,0,0:0:0:0:
320,192,225075,1,0,0:0:0:0:
64,192,225145,1,0,0:0:0:0:
192,192,225145,1,0,0:0:0:0:
320,192,225215,1,0,0:0:0:0:
448,192,225215,1,0,0:0:0:0:
64,192,225286,1,0,0:0:0:0:
192,192,225286,1,0,0:0:0:0:
320,192,225356,1,0,0:0:0:0:
448,192,225356,1,0,0:0:0:0:
64,192,225426,1,0,0:0:0:0:
192,192,225497,1,0,0:0:0:0:
320,192,225497,1,0,0:0:0:0:
448,192,225497,1,0,0:0:0:0:
64,192,225567,1,0,0:0:0:0:
192,192,225637,1,0,0:0:0:0:
448,192,225637,1,0,0:0:0:0:
320,192,225708,1,0,0:0:0:0:
64,192,225778,1,0,0:0:0:0:
192,192,225778,1,0,0:0:0:0:
448,192,225778,1,0,0:0:0:0:
320,192,225848,1,0,0:0:0:0:
64,192,225919,1,0,0:0:0:0:
192,192,225919,1,0,0:0:0:0:
448,192,225989,1,0,0:0:0:0:
192,192,226059,1,0,0:0:0:0:
320,192,226059,1,0,0:0:0:0:
64,192,226130,1,0,0:0:0:0:
320,192,226200,1,0,0:0:0:0:
448,192,226200,1,0,0:0:0:0:
192,192,226270,1,0,0:0:0:0:
64,192,226341,1,0,0:0:0:0:
320,192,226341,1,0,0:0:0:0:
448,192,226341,1,0,0:0:0:0:
192,192,226411,1,0,0:0:0:0:
320,192,226481,1,0,0:0:0:0:
448,192,226481,1,0,0:0:0:0:
64,192,226552,1,0,0:0:0:0:
192,192,226622,1,0,0:0:0:0:
320,192,226622,1,0,0:0:0:0:
448,192,226692,1,0,0:0:0:0:
64,192,226763,1,0,0:0:0:0:
192,192,226763,1,0,0:0:0:0:
448,192,226833,1,0,0:0:0:0:
64,192,226903,1,0,0:0:0:0:
192,192,226903,1,0,0:0:0:0:
320,192,226903,1,0,0:0:0:0:
448,192,226973,1,0,0:0:0:0:
64,192,227044,1,0,0:0:0:0:
320,192,227044,1,0,0:0:0:0:
192,192,227114,1,0,0:0:0:0:
320,192,227184,1,0,0:0:0:0:
448,192,227184,1,0,0:0:0:0:
64,192,227255,1,0,0:0:0:0:
192,192,227325,1,0,0:0:0:0:
448,192,227325,1,0,0:0:0:0:
64,192,227395,1,0,0:0:0:0:
320,192,227395,1,0,0:0:0:0:
192,192,227466,1,0,0:0:0:0:
448,192,227466,1,0,0:0:0:0:
320,192,227536,1,0,0:0:0:0:
64,192,227606,1,0,0:0:0:0:
192,192,227606,1,0,0:0:0:0:
448,192,227677,1,0,0:0:0:0:
64,192,227747,1,0,0:0:0:0:
320,192,227747,1,0,0:0:0:0:
448,192,227817,1,0,0:0:0:0:
64,192,227888,1,0,0:0:0:0:
192,192,227888,1,0,0:0:0:0:
320,192,227958,1,0,0:0:0:0:
64,192,228028,1,0,0:0:0:0:
192,192,228028,1,0,0:0:0:0:
448,192,228028,1,0,0:0:0:0:
320,192,228099,1,0,0:0:0:0:
192,192,228169,1,0,0:0:0:0:
64,192,228310,1,0,0:0:0:0:
320,192,228310,1,0,0:0:0:0:
192,192,228380,1,0,0:0:0:0:
320,192,228450,1,0,0:0:0:0:
64,192,228591,1,0,0:0:0:0:
192,192,228591,1,0,0:0:0:0:
192,192,228732,1,0,0:0:0:0:
320,192,228802,1,0,0:0:0:0:
64,192,228872,1,0,0:0:0:0:
192,192,228942,1,0,0:0:0:0:
192,192,229083,1,0,0:0:0:0:
320,192,229153,1,0,0:0:0:0:
448,192,229153,1,0,0:0:0:0:
320,192,229294,1,0,0:0:0:0:
192,192,229435,1,0,0:0:0:0:
448,192,229435,1,0,0:0:0:0:
320,192,229505,1,0,0:0:0:0:
64,192,229646,1,0,0:0:0:0:
192,192,229716,1,0,0:0:0:0:
320,192,229716,1,0,0:0:0:0:
448,192,229786,1,0,0:0:0:0:
64,192,229857,1,0,0:0:0:0:
192,192,229997,1,0,0:0:0:0:
448,192,229997,1,0,0:0:0:0:
320,192,230138,1,0,0:0:0:0:
192,192,230279,1,0,0:0:0:0:
448,192,230279,1,0,0:0:0:0:
320,192,230349,1,0,0:0:0:0:
192,192,230419,1,0,0:0:0:0:
64,192,230560,1,0,0:0:0:0:
320,192,230560,1,0,0:0:0:0:
192,192,230630,1,0,0:0:0:0:
320,192,230700,1,0,0:0:0:0:
64,192,230841,1,0,0:0:0:0:
192,192,230841,1,0,0:0:0:0:
448,192,230911,1,0,0:0:0:0:
448,192,231052,1,0,0:0:0:0:
64,192,231122,1,0,0:0:0:0:
320,192,231122,1,0,0:0:0:0:
448,192,231193,1,0,0:0:0:0:
192,192,231263,1,0,0:0:0:0:
320,192,231333,1,0,0:0:0:0:
64,192,231404,1,0,0:0:0:0:
192,192,231404,1,0,0:0:0:0:
320,192,231544,1,0,0:0:0:0:
64,192,231685,1,0,0:0:0:0:
320,192,231685,1,0,0:0:0:0:
192,192,231826,1,0,0:0:0:0:
320,192,231896,1,0,0:0:0:0:
192,192,231966,1,0,0:0:0:0:
448,192,231966,1,0,0:0:0:0:
64,192,232037,1,0,0:0:0:0:
320,192,232037,1,0,0:0:0:0:
192,192,232107,1,0,0:0:0:0:
448,192,232107,1,0,0:0:0:0:
64,192,232248,1,0,0:0:0:0:
192,192,232248,1,0,0:0:0:0:
320,192,232388,1,0,0:0:0:0:
64,192,232529,1,0,0:0:0:0:
320,192,232529,1,0,0:0:0:0:
192,192,232599,1,0,0:0:0:0:
320,192,232669,1,0,0:0:0:0:
192,192,232810,1,0,0:0:0:0:
448,192,232810,1,0,0:0:0:0:
320,192,232880,1,0,0:0:0:0:
192,192,232951,1,0,0:0:0:0:
320,192,233091,1,0,0:0:0:0:
448,192,233091,1,0,0:0:0:0:
320,192,233232,1,0,0:0:0:0:
192,192,233302,1,0,0:0:0:0:
448,192,233373,1,0,0:0:0:0:
320,192,233443,1,0,0:0:0:0:
320,192,233584,1,0,0:0:0:0:
64,192,233654,1,0,0:0:0:0:
192,192,233654,1,0,0:0:0:0:
192,192,233795,1,0,0:0:0:0:
64,192,233935,1,0,0:0:0:0:
320,192,233935,1,0,0:0:0:0:
192,192,234006,1,0,0:0:0:0:
448,192,234146,1,0,0:0:0:0:
192,192,234217,1,0,0:0:0:0:
320,192,234217,1,0,0:0:0:0:
64,192,234287,1,0,0:0:0:0:
448,192,234357,1,0,0:0:0:0:
64,192,234498,1,0,0:0:0:0:
320,192,234498,1,0,0:0:0:0:
192,192,234638,1,0,0:0:0:0:
64,192,234779,1,0,0:0:0:0:
320,192,234779,1,0,0:0:0:0:
192,192,234849,1,0,0:0:0:0:
320,192,234920,1,0,0:0:0:0:
192,192,235060,1,0,0:0:0:0:
448,192,235060,1,0,0:0:0:0:
320,192,235131,1,0,0:0:0:0:
192,192,235201,1,0,0:0:0:0:
320,192,235342,1,0,0:0:0:0:
448,192,235342,1,0,0:0:0:0:
64,192,235412,1,0,0:0:0:0:
64,192,235553,1,0,0:0:0:0:
192,192,235623,1,0,0:0:0:0:
448,192,235623,1,0,0:0:0:0:
64,192,235693,1,0,0:0:0:0:
320,192,235764,1,0,0:0:0:0:
192,192,235834,1,0,0:0:0:0:
320,192,235904,1,0,0:0:0:0:
448,192,235904,1,0,0:0:0:0:
192,192,236045,1,0,0:0:0:0:
192,192,236185,1,0,0:0:0:0:
448,192,236185,1,0,0:0:0:0:
320,192,236326,1,0,0:0:0:0:
192,192,236396,128,0,236748:0:0:0:0:
448,192,236467,1,0,0:0:0:0:
64,192,236607,1,0,0:0:0:0:
320,192,236748,1,0,0:0:0:0:
448,192,236748,1,0,0:0:0:0:
64,192,236818,1,0,0:0:0:0:
448,192,236889,1,0,0:0:0:0:
64,192,236959,1,0,0:0:0:0:
192,192,237029,1,0,0:0:0:0:
320,192,237029,1,0,0:0:0:0:
448,192,237029,1,0,0:0:0:0:
64,192,237100,1,0,0:0:0:0:
192,192,237170,1,0,0:0:0:0:
64,192,237311,1,0,0:0:0:0:
320,192,237311,1,0,0:0:0:0:
448,192,237381,1,0,0:0:0:0:
320,192,237421,1,0,0:0:0:0:
64,192,237569,1,0,0:0:0:0:
192,192,237569,1,0,0:0:0:0:
192,192,237717,1,0,0:0:0:0:
320,192,237791,1,0,0:0:0:0:
64,192,237865,1,0,0:0:0:0:
192,192,237939,1,0,0:0:0:0:
192,192,238087,1,0,0:0:0:0:
320,192,238162,1,0,0:0:0:0:
448,192,238162,1,0,0:0:0:0:
320,192,238310,1,0,0:0:0:0:
192,192,238462,1,0,0:0:0:0:
448,192,238462,1,0,0:0:0:0:
320,192,238538,1,0,0:0:0:0:
64,192,238690,1,0,0:0:0:0:
192,192,238767,1,0,0:0:0:0:
320,192,238767,1,0,0:0:0:0:
448,192,238843,1,0,0:0:0:0:
64,192,238920,1,0,0:0:0:0:
192,192,239076,1,0,0:0:0:0:
448,192,239076,1,0,0:0:0:0:
320,192,239233,1,0,0:0:0:0:
192,192,239390,1,0,0:0:0:0:
448,192,239390,1,0,0:0:0:0:
320,192,239468,1,0,0:0:0:0:
192,192,239547,1,0,0:0:0:0:
64,192,239709,1,0,0:0:0:0:
320,192,239709,1,0,0:0:0:0:
192,192,239790,1,0,0:0:0:0:
320,192,239871,1,0,0:0:0:0:
64,192,240034,1,0,0:0:0:0:
192,192,240034,1,0,0:0:0:0:
448,192,240115,1,0,0:0:0:0:
448,192,240281,1,0,0:0:0:0:
64,192,240365,1,0,0:0:0:0:
320,192,240365,1,0,0:0:0:0:
448,192,240449,1,0,0:0:0:0:
192,192,240533,1,0,0:0:0:0:
320,192,240617,1,0,0:0:0:0:
64,192,240702,1,0,0:0:0:0:
192,192,240702,1,0,0:0:0:0:
320,192,240870,1,0,0:0:0:0:
64,192,241044,1,0,0:0:0:0:
320,192,241044,1,0,0:0:0:0:
192,192,241220,1,0,0:0:0:0:
320,192,241305,1,0,0:0:0:0:
192,192,241390,1,0,0:0:0:0:
448,192,241390,1,0,0:0:0:0:
64,192,241475,1,0,0:0:0:0:
320,192,241475,1,0,0:0:0:0:
192,192,241560,1,0,0:0:0:0:
448,192,241560,1,0,0:0:0:0:
64,192,241730,1,0,0:0:0:0:
192,192,241730,1,0,0:0:0:0:
320,192,241907,1,0,0:0:0:0:
192,192,242095,1,0,0:0:0:0:
448,192,242095,1,0,0:0:0:0:
320,192,242189,1,0,0:0:0:0:
192,192,242283,1,0,0:0:0:0:
64,192,242464,1,0,0:0:0:0:
320,192,242464,1,0,0:0:0:0:
192,192,242555,1,0,0:0:0:0:
320,192,242647,1,0,0:0:0:0:
64,192,242835,1,0,0:0:0:0:
192,192,242835,1,0,0:0:0:0:
192,192,243023,1,0,0:0:0:0:
320,192,243117,1,0,0:0:0:0:
64,192,243211,1,0,0:0:0:0:
192,192,243305,1,0,0:0:0:0:
192,192,243496,1,0,0:0:0:0:
320,192,243593,1,0,0:0:0:0:
448,192,243593,1,0,0:0:0:0:
320,192,243788,1,0,0:0:0:0:
192,192,243983,1,0,0:0:0:0:
448,192,243983,1,0,0:0:0:0:
320,192,244084,1,0,0:0:0:0:
64,192,244286,1,0,0:0:0:0:
192,192,244387,1,0,0:0:0:0:
320,192,244387,1,0,0:0:0:0:
448,192,244488,1,0,0:0:0:0:
64,192,244590,1,0,0:0:0:0:
192,192,244799,1,0,0:0:0:0:
448,192,244799,1,0,0:0:0:0:
320,192,245009,1,0,0:0:0:0:
192,192,245219,1,0,0:0:0:0:
448,192,245219,1,0,0:0:0:0:
320,192,245324,1,0,0:0:0:0:
192,192,245429,1,0,0:0:0:0:
64,192,245641,1,0,0:0:0:0:
320,192,245641,1,0,0:0:0:0:
192,192,245750,1,0,0:0:0:0:
320,192,245859,1,0,0:0:0:0:
64,192,246078,1,0,0:0:0:0:
192,192,246078,1,0,0:0:0:0:
448,192,246189,1,0,0:0:0:0:
448,192,246413,1,0,0:0:0:0:
64,192,246525,1,0,0:0:0:0:
320,192,246525,1,0,0:0:0:0:
448,192,246636,1,0,0:0:0:0:
192,192,246749,1,0,0:0:0:0:
320,192,246862,1,0,0:0:0:0:
64,192,246976,1,0,0:0:0:0:
192,192,246976,1,0,0:0:0:0:
320,192,247207,1,0,0:0:0:0:
64,192,247438,1,0,0:0:0:0:
320,192,247438,1,0,0:0:0:0:
192,192,247675,1,0,0:0:0:0:
64,192,247793,1,0,0:0:0:0:
320,192,247793,128,0,248283:0:0:0:0:
448,192,247912,1,0,0:0:0:0:
192,192,248159,1,0,0:0:0:0:
448,192,248407,1,0,0:0:0:0:
64,192,248655,128,0,248903:0:0:0:0:
