osu file format v14

[General]
AudioFilename: audio.MP3
AudioLeadIn: 0
PreviewTime: -1
Countdown: 1
SampleSet: Soft
StackLeniency: 0.7
Mode: 0
LetterboxInBreaks: 0
WidescreenStoryboard: 0

[Editor]
Bookmarks: 8831
DistanceSpacing: 0.7
BeatDivisor: 4
GridSize: 16
TimelineZoom: 1

[Metadata]
Title:Fallen Angel
TitleUnicode:Fallen Angel
Artist:Spring Head
ArtistUnicode:Spring Head
Creator:Matrix
Version:I think we can go to the moon
Source:
Tags:
BeatmapID:1609341
BeatmapSetID:765428

[Difficulty]
HPDrainRate:5
CircleSize:5
OverallDifficulty:7
ApproachRate:8
SliderMultiplier:1.4
SliderTickRate:3

[Events]
//Background and Video events
0,0,"color_of_tears.jpg",0,0
//Break Periods
//Storyboard Layer 0 (Background)
//Storyboard Layer 1 (Fail)
//Storyboard Layer 2 (Pass)
//Storyboard Layer 3 (Foreground)
//Storyboard Sound Samples

[TimingPoints]
1613,601.503759398496,4,2,0,100,1,0
40109,-133.333333333333,4,2,0,100,0,0
59357,-66.6666666666667,4,2,0,100,0,0

[HitObjects]
128,256,1613,5,0,0:0:0:0:
164,196,1913,1,0,0:0:0:0:
200,256,2214,2,0,L|264:280,2,35
288,160,2816,5,0,0:0:0:0:
384,112,3267,1,0,0:0:0:0:
376,216,3718,1,0,0:0:0:0:
240,248,4319,5,0,0:0:0:0:
176,216,4620,1,0,0:0:0:0:
176,288,4921,1,0,0:0:0:0:
120,160,5522,5,0,0:0:0:0:
136,92,5823,1,0,0:0:0:0:
187,139,6124,1,0,0:0:0:0:
291,95,6425,5,0,0:0:0:0:
323,108,6575,1,0,0:0:0:0:
343,135,6725,1,0,0:0:0:0:
347,169,6876,1,0,0:0:0:0:
284,158,7026,5,0,0:0:0:0:
251,171,7176,1,0,0:0:0:0:
231,198,7326,1,0,0:0:0:0:
227,232,7477,1,0,0:0:0:0:
290,220,7628,5,0,0:0:0:0:
322,233,7778,1,0,0:0:0:0:
342,260,7928,1,0,0:0:0:0:
346,294,8079,1,0,0:0:0:0:
281,285,8229,5,0,0:0:0:0:
277,319,8379,1,0,0:0:0:0:
256,346,8529,1,0,0:0:0:0:
224,359,8680,1,0,0:0:0:0:
219,298,8831,5,0,0:0:0:0:
186,284,8981,1,0,0:0:0:0:
166,257,9131,1,0,0:0:0:0:
162,223,9282,1,0,0:0:0:0:
222,236,9432,5,0,0:0:0:0:
254,222,9582,1,0,0:0:0:0:
274,195,9732,1,0,0:0:0:0:
278,161,9883,1,0,0:0:0:0:
215,173,10034,5,0,0:0:0:0:
182,159,10184,1,0,0:0:0:0:
162,132,10334,1,0,0:0:0:0:
158,98,10485,1,0,0:0:0:0:
166,64,10635,2,0,L|210:23,4,35
301,118,11537,6,0,P|344:130|360:124,2,35
320,240,12440,5,0,0:0:0:0:
284,224,12590,2,0,L|259:277,2,35
248,208,13041,1,0,0:0:0:0:
80,248,13643,5,0,0:0:0:0:
136,296,13943,2,0,L|232:296,1,70
256,248,14545,1,0,0:0:0:0:
336,128,14846,2,0,L|336:176,2,35
416,248,15447,5,0,0:0:0:0:
360,208,15748,1,0,0:0:0:0:
304,256,16049,5,0,0:0:0:0:
272,272,16199,1,0,0:0:0:0:
240,288,16349,1,0,0:0:0:0:
176,264,16650,1,0,0:0:0:0:
144,280,16800,1,0,0:0:0:0:
112,296,16951,1,0,0:0:0:0:
80,232,17252,5,0,0:0:0:0:
96,160,17552,1,0,0:0:0:0:
112,128,17702,1,0,0:0:0:0:
128,96,17852,1,0,0:0:0:0:
224,64,18154,1,0,0:0:0:0:
240,96,18304,1,0,0:0:0:0:
256,128,18454,1,0,0:0:0:0:
336,100,18755,6,0,L|352:132,1,35
416,176,19056,1,0,0:0:0:0:
400,208,19206,1,0,0:0:0:0:
384,240,19356,1,0,0:0:0:0:
292,256,19658,1,0,0:0:0:0:
160,208,20109,5,0,0:0:0:0:
192,176,20259,1,0,0:0:0:0:
384,144,20861,5,0,0:0:0:0:
336,224,21161,1,0,0:0:0:0:
304,208,21312,1,0,0:0:0:0:
272,192,21462,1,0,0:0:0:0:
240,176,21612,1,0,0:0:0:0:
208,160,21763,2,0,L|176:144,1,35
96,192,22064,5,0,0:0:0:0:
48,256,22364,1,0,0:0:0:0:
96,320,22665,1,0,0:0:0:0:
144,256,22966,1,0,0:0:0:0:
192,320,23267,1,0,0:0:0:0:
224,288,23417,1,0,0:0:0:0:
256,256,23567,1,0,0:0:0:0:
336,256,23718,6,0,L|368:208,1,35
376,196,24019,1,0,0:0:0:0:
392,168,24169,1,0,0:0:0:0:
328,120,24470,5,0,0:0:0:0:
256,152,24770,1,0,0:0:0:0:
220,160,24921,1,0,0:0:0:0:
184,152,25071,1,0,0:0:0:0:
168,228,25372,1,0,0:0:0:0:
132,220,25523,1,0,0:0:0:0:
96,228,25673,1,0,0:0:0:0:
128,160,25973,5,0,0:0:0:0:
148,128,26124,1,0,0:0:0:0:
224,124,26425,2,0,L|252:68,1,35
316,96,26876,5,0,0:0:0:0:
380,140,27176,1,0,0:0:0:0:
316,180,27477,1,0,0:0:0:0:
380,224,27778,1,0,0:0:0:0:
308,256,28079,1,0,0:0:0:0:
268,256,28229,1,0,0:0:0:0:
228,256,28379,1,0,0:0:0:0:
192,256,28530,2,0,L|136:256,1,35
96,316,28831,5,0,0:0:0:0:
72,212,29282,1,0,0:0:0:0:
128,160,29582,1,0,0:0:0:0:
188,112,29883,1,0,0:0:0:0:
232,176,30184,1,0,0:0:0:0:
256,144,30334,1,0,0:0:0:0:
276,112,30485,2,0,L|336:112,1,35
388,116,30936,5,0,0:0:0:0:
416,192,31387,1,0,0:0:0:0:
416,288,31688,1,0,0:0:0:0:
352,352,31988,1,0,0:0:0:0:
288,288,32289,1,0,0:0:0:0:
224,352,32590,1,0,0:0:0:0:
112,256,33191,5,0,0:0:0:0:
112,176,33492,1,0,0:0:0:0:
112,96,33793,2,0,L|160:48,1,35
160,48,34094,1,0,0:0:0:0:
224,96,34394,1,0,0:0:0:0:
240,128,34545,1,0,0:0:0:0:
256,160,34695,1,0,0:0:0:0:
336,160,34996,5,0,0:0:0:0:
352,128,35146,1,0,0:0:0:0:
368,96,35297,2,0,L|384:64,1,35
464,64,35748,1,0,0:0:0:0:
464,176,36199,5,0,0:0:0:0:
448,208,36349,1,0,0:0:0:0:
432,240,36500,2,0,L|416:272,1,35
336,272,36951,1,0,0:0:0:0:
224,272,37402,5,0,0:0:0:0:
192,240,37552,1,0,0:0:0:0:
160,208,37703,1,0,0:0:0:0:
224,160,38003,1,0,0:0:0:0:
160,112,38304,1,0,0:0:0:0:
224,64,38605,1,0,0:0:0:0:
288,112,38906,5,0,0:0:0:0:
304,128,39056,1,0,0:0:0:0:
320,144,39206,1,0,0:0:0:0:
336,160,39357,1,0,0:0:0:0:
320,176,39507,5,0,0:0:0:0:
304,192,39657,1,0,0:0:0:0:
288,208,39807,1,0,0:0:0:0:
272,224,39958,1,0,0:0:0:0:
256,240,40109,2,0,P|200:240|184:240,1,52.5000020027161
124,240,40710,5,0,0:0:0:0:
68,184,41011,2,0,L|68:128,1,52.5000020027161
68,92,41462,1,0,0:0:0:0:
68,52,41612,1,0,0:0:0:0:
148,52,41913,1,0,0:0:0:0:
188,52,42064,1,0,0:0:0:0:
208,116,42364,1,0,0:0:0:0:
244,116,42515,2,0,L|364:116,1,105.000004005432
400,56,43417,1,0,0:0:0:0:
448,116,43718,6,0,L|448:228,1,105.000004005432
392,280,44620,1,0,0:0:0:0:
324,320,44921,2,0,L|200:320,1,105.000004005432
148,284,45823,1,0,0:0:0:0:
68,284,46124,1,0,0:0:0:0:
68,244,46274,1,0,0:0:0:0:
68,204,46425,1,0,0:0:0:0:
68,124,46725,5,0,0:0:0:0:
68,84,46876,1,0,0:0:0:0:
148,84,47176,5,0,0:0:0:0:
188,84,47327,1,0,0:0:0:0:
228,84,47477,1,0,0:0:0:0:
268,84,47628,1,0,0:0:0:0:
348,88,47928,2,0,L|388:24,1,52.5000020027161
456,48,48530,1,0,0:0:0:0:
436,84,48680,1,0,0:0:0:0:
416,120,48831,1,0,0:0:0:0:
452,188,49131,5,0,0:0:0:0:
432,224,49282,1,0,0:0:0:0:
412,260,49432,1,0,0:0:0:0:
392,292,49582,1,0,0:0:0:0:
368,324,49733,2,0,L|272:272,1,105.000004005432
196,272,50635,1,0,0:0:0:0:
196,192,50936,5,0,0:0:0:0:
220,160,51086,1,0,0:0:0:0:
244,128,51237,1,0,0:0:0:0:
288,48,51537,5,0,0:0:0:0:
256,48,51688,1,0,0:0:0:0:
224,48,51838,1,0,0:0:0:0:
208,80,51988,1,0,0:0:0:0:
176,80,52138,1,0,0:0:0:0:
144,96,52289,1,0,0:0:0:0:
112,96,52439,1,0,0:0:0:0:
48,168,52740,1,0,0:0:0:0:
72,252,53041,6,0,L|104:292,1,26.2500010013581
128,272,53342,1,0,0:0:0:0:
168,272,53492,1,0,0:0:0:0:
208,272,53643,1,0,0:0:0:0:
288,276,53943,6,0,L|368:204,1,105.000004005432
396,180,54695,1,0,0:0:0:0:
424,152,54846,1,0,0:0:0:0:
432,72,55146,5,0,0:0:0:0:
352,72,55447,1,0,0:0:0:0:
296,144,55748,1,0,0:0:0:0:
256,144,55898,1,0,0:0:0:0:
216,144,56049,1,0,0:0:0:0:
152,212,56349,1,0,0:0:0:0:
112,212,56500,1,0,0:0:0:0:
112,292,56800,1,0,0:0:0:0:
152,292,56951,1,0,0:0:0:0:
192,292,57101,1,0,0:0:0:0:
232,292,57252,1,0,0:0:0:0:
312,292,57552,1,0,0:0:0:0:
392,292,57853,1,0,0:0:0:0:
392,212,58154,5,0,0:0:0:0:
392,172,58304,1,0,0:0:0:0:
392,132,58455,1,0,0:0:0:0:
392,52,58755,2,0,L|304:52,1,78.7500030040742
240,80,59357,5,0,0:0:0:0:
208,96,59507,1,0,0:0:0:0:
112,144,59808,1,0,0:0:0:0:
160,224,60109,1,0,0:0:0:0:
176,256,60259,1,0,0:0:0:0:
256,352,60560,6,0,L|304:264,1,52.5000020027161
312,240,60861,1,0,0:0:0:0:
352,224,61011,1,0,0:0:0:0:
368,112,61312,1,0,0:0:0:0:
336,96,61462,1,0,0:0:0:0:
224,160,61763,5,0,0:0:0:0:
288,224,62064,1,0,0:0:0:0:
157,177,62364,1,0,0:0:0:0:
355,207,62665,1,0,0:0:0:0:
99,212,62966,1,0,0:0:0:0:
413,172,63267,1,0,0:0:0:0:
53,263,63567,1,0,0:0:0:0:
459,121,63868,1,0,0:0:0:0:
320,64,64169,5,0,0:0:0:0:
384,208,64470,1,0,0:0:0:0:
375,113,64770,5,0,0:0:0:0:
358,269,65071,1,0,0:0:0:0:
398,183,65372,5,0,0:0:0:0:
305,310,65673,1,0,0:0:0:0:
384,256,65973,5,0,0:0:0:0:
239,319,66274,1,0,0:0:0:0:
176,176,66575,5,0,0:0:0:0:
288,64,66876,1,0,0:0:0:0:
128,32,67176,2,0,P|80:80|80:96,1,52.5000020027161
48,128,67477,1,0,0:0:0:0:
208,112,67778,2,0,P|256:160|256:176,1,52.5000020027161
288,208,68079,1,0,0:0:0:0:
352,256,68229,2,0,P|400:208|400:192,1,52.5000020027161
352,80,68680,5,0,0:0:0:0:
200,36,68981,2,0,P|152:84|152:100,1,52.5000020027161
129,128,69282,1,0,0:0:0:0:
137,196,69432,1,0,0:0:0:0:
172,257,69582,1,0,0:0:0:0:
228,298,69733,2,0,P|289:309|305:302,1,52.5000020027161
346,308,70034,1,0,0:0:0:0:
416,280,70184,2,0,P|449:229|450:221,1,52.5000020027161
464,176,70485,2,0,P|461:112|457:105,1,52.5000020027161
440,64,70785,2,0,P|396:16|388:14,1,52.5000020027161
360,80,71086,1,0,0:0:0:0:
304,136,71237,2,0,L|240:192,2,52.5000020027161
248,80,71688,1,0,0:0:0:0:
96,112,71988,5,0,0:0:0:0:
176,248,72289,2,0,L|248:296,2,52.5000020027161
256,296,72740,1,0,0:0:0:0:
296,312,72891,1,0,0:0:0:0:
336,224,73191,5,0,0:0:0:0:
368,192,73342,1,0,0:0:0:0:
400,72,73643,2,0,P|360:48|352:48,2,52.5000020027161
448,120,74094,1,0,0:0:0:0:
464,184,74244,2,0,P|448:248|416:280,1,105.000004005432
368,312,74695,1,0,0:0:0:0:
288,344,74996,5,0,0:0:0:0:
280,248,75297,1,0,0:0:0:0:
200,320,75597,1,0,0:0:0:0:
192,208,75898,5,0,0:0:0:0:
360,144,76199,1,0,0:0:0:0:
216,32,76500,1,0,0:0:0:0:
208,208,76800,5,0,0:0:0:0:
320,72,77101,1,0,0:0:0:0:
408,232,77402,1,0,0:0:0:0:
256,136,77703,5,0,0:0:0:0:
232,312,78003,1,0,0:0:0:0:
144,160,78304,1,0,0:0:0:0:
288,160,78605,5,0,0:0:0:0:
224,224,78906,1,0,0:0:0:0:
319,160,79206,1,0,0:0:0:0:
192,223,79507,1,0,0:0:0:0:
348,148,79808,1,0,0:0:0:0:
163,235,80109,1,0,0:0:0:0:
369,125,80409,1,0,0:0:0:0:
142,258,80710,1,0,0:0:0:0:
378,96,81011,1,0,0:0:0:0:
133,287,81312,1,0,0:0:0:0:
375,65,81612,1,0,0:0:0:0:
136,318,81913,1,0,0:0:0:0:
240,208,82364,5,0,0:0:0:0:
272,176,82515,1,0,0:0:0:0:
184,128,82816,5,0,0:0:0:0:
316,248,83116,1,0,0:0:0:0:
256,124,83417,5,0,0:0:0:0:
256,252,83718,1,0,0:0:0:0:
128,192,84019,1,0,0:0:0:0:
380,192,84319,1,0,0:0:0:0:
188,192,84620,5,0,0:0:0:0:
316,192,84921,1,0,0:0:0:0:
256,320,85222,1,0,0:0:0:0:
256,68,85522,1,0,0:0:0:0:
32,160,85823,5,0,0:0:0:0:
224,32,86124,1,0,0:0:0:0:
288,32,86425,1,0,0:0:0:0:
480,160,86725,1,0,0:0:0:0:
480,224,87026,1,0,0:0:0:0:
288,352,87327,1,0,0:0:0:0:
224,352,87628,1,0,0:0:0:0:
32,224,87928,1,0,0:0:0:0:
160,160,88229,5,0,0:0:0:0:
320,64,88530,1,0,0:0:0:0:
218,97,88831,5,0,0:0:0:0:
395,158,89132,1,0,0:0:0:0:
160,224,89432,5,0,0:0:0:0:
320,320,89733,1,0,0:0:0:0:
218,286,90034,5,0,0:0:0:0:
395,225,90335,1,0,0:0:0:0:
192,128,90635,5,0,0:0:0:0:
224,256,91086,1,0,0:0:0:0:
352,224,91537,1,0,0:0:0:0:
336,160,91838,1,0,0:0:0:0:
352,224,92289,5,0,0:0:0:0:
192,128,92740,1,0,0:0:0:0:
256,256,93041,5,0,0:0:0:0:
352,160,93342,1,0,0:0:0:0:
448,256,93643,1,0,0:0:0:0:
352,352,93943,1,0,0:0:0:0:
256,256,94244,1,0,0:0:0:0:
160,160,94545,1,0,0:0:0:0:
256,64,94846,1,0,0:0:0:0:
352,160,95146,1,0,0:0:0:0:
160,192,95447,5,0,0:0:0:0:
256,288,95748,1,0,0:0:0:0:
352,192,96049,1,0,0:0:0:0:
256,96,96349,1,0,0:0:0:0:
208,192,96650,5,0,0:0:0:0:
296,192,96800,1,0,0:0:0:0:
304,192,97101,5,0,0:0:0:0:
200,192,97251,1,0,0:0:0:0:
96,320,97552,5,0,0:0:0:0:
256,320,97853,1,0,0:0:0:0:
304,288,98003,1,0,0:0:0:0:
160,96,98304,5,0,0:0:0:0:
320,96,98605,1,0,0:0:0:0:
368,128,98755,1,0,0:0:0:0:
352,288,99056,5,0,0:0:0:0:
224,240,99357,1,0,0:0:0:0:
192,288,99507,1,0,0:0:0:0:
32,224,99808,5,0,0:0:0:0:
64,176,99958,1,0,0:0:0:0:
160,96,100259,1,0,0:0:0:0:
256,64,100560,1,0,0:0:0:0:
352,96,100861,1,0,0:0:0:0:
416,160,101161,1,0,0:0:0:0:
384,224,101462,5,0,0:0:0:0:
448,96,101763,1,0,0:0:0:0:
256,256,102064,1,0,0:0:0:0:
320,128,102364,1,0,0:0:0:0:
352,288,102665,1,0,0:0:0:0:
416,160,102966,1,0,0:0:0:0:
224,320,103267,1,0,0:0:0:0:
288,192,103567,1,0,0:0:0:0:
160,256,103868,5,0,0:0:0:0:
352,128,104169,1,0,0:0:0:0:
320,288,104470,1,0,0:0:0:0:
192,96,104770,1,0,0:0:0:0:
96,320,105372,5,0,0:0:0:0:
96,64,105823,1,0,0:0:0:0:
384,64,106274,1,0,0:0:0:0:
384,320,106725,1,0,0:0:0:0:
256,192,107176,1,0,0:0:0:0:
96,128,107477,5,0,0:0:0:0:
224,160,107778,1,0,0:0:0:0:
288,128,107928,1,0,0:0:0:0:
352,96,108079,1,0,0:0:0:0:
416,64,108229,1,0,0:0:0:0:
416,224,108530,5,0,0:0:0:0:
320,256,108831,1,0,0:0:0:0:
256,224,108981,1,0,0:0:0:0:
192,192,109131,1,0,0:0:0:0:
128,160,109282,1,0,0:0:0:0:
96,224,109432,1,0,0:0:0:0:
160,256,109582,1,0,0:0:0:0:
224,288,109732,1,0,0:0:0:0:
288,320,109883,2,0,L|352:320,1,52.5000020027161
384,224,110334,5,0,0:0:0:0:
352,176,110485,1,0,0:0:0:0:
224,96,110785,1,0,0:0:0:0:
192,256,111086,5,0,0:0:0:0:
224,208,111237,1,0,0:0:0:0:
352,128,111688,1,0,0:0:0:0:
288,96,111988,2,0,P|224:80|160:96,1,105.000004005432
72,192,112740,1,0,0:0:0:0:
192,296,113191,1,0,0:0:0:0:
288,248,113492,1,0,0:0:0:0:
256,112,113793,5,0,0:0:0:0:
336,192,114094,1,0,0:0:0:0:
256,48,114394,5,0,0:0:0:0:
176,128,114695,1,0,0:0:0:0:
256,240,114996,5,0,0:0:0:0:
176,320,115297,1,0,0:0:0:0:
256,176,115597,5,0,0:0:0:0:
336,256,115898,1,0,0:0:0:0:
192,192,116199,5,0,0:0:0:0:
96,144,116500,1,0,0:0:0:0:
192,104,116800,1,0,0:0:0:0:
104,48,117101,1,0,0:0:0:0:
