osu file format v14

[General]
AudioFilename: audio.mp3
AudioLeadIn: 0
PreviewTime: 74581
Countdown: 1
SampleSet: Normal
StackLeniency: 0.7
Mode: 0
LetterboxInBreaks: 1
WidescreenStoryboard: 1

[Editor]
DistanceSpacing: 1.2
BeatDivisor: 4
GridSize: 4
TimelineZoom: 1.2

[Metadata]
Title:Let me hit it
TitleUnicode:Let me hit it
Artist:Sporty-O
ArtistUnicode:Sporty-O
Creator:Elia1995
Version:Not so easy
Source:
Tags:Drop it,meme
BeatmapID:1838580
BeatmapSetID:879157

[Difficulty]
HPDrainRate:5
CircleSize:5
OverallDifficulty:4
ApproachRate:9
SliderMultiplier:1.4
SliderTickRate:1

[Events]
//Background and Video events
//Break Periods
2,105599,108886
2,135598,138066
//Storyboard Layer 0 (Background)
//Storyboard Layer 1 (Fail)
//Storyboard Layer 2 (Pass)
//Storyboard Layer 3 (Foreground)
//Storyboard Layer 4 (Overlay)
//Storyboard Sound Samples

[TimingPoints]
399.177165354331,468.75,4,1,0,100,1,0
74813,-50,4,1,0,100,0,0
74913,-100,4,1,0,100,0,0
75399,-100,4,1,0,100,0,0
76688,-50,4,1,0,100,0,0
79022,-100,4,1,0,100,0,0

[HitObjects]
89,168,399,5,0,0:0:0:0:
276,297,867,1,0,0:0:0:0:
269,57,1336,1,0,0:0:0:0:
428,188,1805,1,0,0:0:0:0:
142,153,2274,5,0,0:0:0:0:
320,87,2742,1,0,0:0:0:0:
223,224,3211,2,0,L|332:125,2,140
242,201,4617,5,0,0:0:0:0:
293,153,5086,2,0,L|188:252,2,140
220,155,6492,5,0,0:0:0:0:
347,45,6961,1,0,0:0:0:0:
255,260,7430,1,0,0:0:0:0:
157,106,7899,1,0,0:0:0:0:
324,103,8367,5,0,0:0:0:0:
204,267,8836,1,0,0:0:0:0:
103,132,9305,1,0,0:0:0:0:
271,127,9774,1,0,0:0:0:0:
409,110,10242,5,0,0:0:0:0:
253,47,10711,1,0,0:0:0:0:
379,158,11180,1,0,0:0:0:0:
102,159,11649,1,0,0:0:0:0:
220,154,12117,6,0,L|344:265,2,140
298,153,13524,2,0,L|178:257,2,140
299,230,14930,2,0,L|166:125,3,140
218,230,16805,2,0,B|329:121|320:132,3,140
239,280,18680,2,0,B|138:172|89:262|-8:133|358:125|460:348,1,560
293,228,21024,2,0,B|130:227|130:127|459:76,1,420
178,260,22899,5,0,0:0:0:0:
323,105,23367,1,0,0:0:0:0:
158,140,23836,1,0,0:0:0:0:
293,239,24305,1,0,0:0:0:0:
274,71,24774,1,0,0:0:0:0:
419,155,25242,1,0,0:0:0:0:
133,150,25711,5,0,0:0:0:0:
274,58,26180,1,0,0:0:0:0:
132,148,26649,1,0,0:0:0:0:
134,315,27117,5,0,0:0:0:0:
307,231,27586,1,0,0:0:0:0:
182,118,28055,1,0,0:0:0:0:
208,226,28524,6,0,L|347:137,3,140
396,208,30399,2,0,P|105:208|172:356,1,560
432,333,32742,1,0,0:0:0:0:
348,249,33211,1,0,0:0:0:0:
211,151,33680,1,0,0:0:0:0:
158,310,34149,1,0,0:0:0:0:
260,176,34617,5,0,0:0:0:0:
392,72,35086,1,0,0:0:0:0:
184,240,35555,2,0,B|20:241|20:326|344:428|461:186,1,560
465,121,37899,2,0,B|310:87|180:90|61:179|380:341,1,560
189,127,40242,2,0,B|188:259|269:304|422:306|479:165|337:56|195:47,1,560
202,151,42586,5,0,0:0:0:0:
306,229,43055,1,0,0:0:0:0:
208,232,43524,1,0,0:0:0:0:
300,147,43992,1,0,0:0:0:0:
131,148,44461,5,0,0:0:0:0:
185,272,44930,1,0,0:0:0:0:
190,103,45399,1,0,0:0:0:0:
304,225,45867,1,0,0:0:0:0:
205,230,47274,6,0,P|302:231|345:216,2,140
302,154,49149,6,0,B|204:156|148:174|143:171,2,140
302,231,51024,6,0,L|167:139,2,140
218,151,52899,6,0,B|215:246|257:240|322:228,1,140
216,147,53836,2,0,P|318:132|360:160,1,140
349,316,54774,2,0,B|272:341|199:310|199:310,1,140
216,147,55711,2,0,P|296:136|356:152,1,140
363,318,56649,2,0,P|292:342|208:330,1,140
214,166,57586,2,0,P|321:172|369:192,1,140
302,299,58524,2,0,P|217:258|322:142,1,280
256,192,59930,2,0,L|408:192,1,140
256,192,60867,5,0,0:0:0:0:
256,192,61336,2,0,L|116:192,1,140
256,192,62274,2,0,L|256:48,1,140
256,192,63211,2,0,L|256:340,1,140
256,192,64149,2,0,L|372:284,1,140
256,192,65086,2,0,L|148:96,1,140
256,192,66024,2,0,L|368:88,1,140
256,192,66961,2,0,L|160:296,1,140
327,319,67899,5,0,0:0:0:0:
201,154,68133,1,0,0:0:0:0:
270,99,68367,1,0,0:0:0:0:
352,116,68602,1,0,0:0:0:0:
392,189,68836,1,0,0:0:0:0:
256,192,69071,1,0,0:0:0:0:
256,192,69305,2,0,P|161:172|159:110,1,140
256,192,70008,1,0,0:0:0:0:
256,191,70242,2,0,P|315:179|319:104,1,140
256,191,70946,1,0,0:0:0:0:
256,192,71180,1,0,0:0:0:0:
256,192,71414,1,0,0:0:0:0:
256,192,71649,2,0,L|292:192,24,35
264,48,74930,6,0,L|260:204,1,140
256,192,75399,1,0,0:0:0:0:
370,68,75867,1,0,0:0:0:0:
201,68,76336,1,0,0:0:0:0:
215,111,76805,2,0,B|95:177|103:225|319:225,1,280
295,225,77508,5,0,0:0:0:0:
295,141,77742,1,0,0:0:0:0:
221,190,77977,1,0,0:0:0:0:
158,123,78211,1,0,0:0:0:0:
98,186,78446,1,0,0:0:0:0:
197,233,78680,1,0,0:0:0:0:
116,300,78914,1,0,0:0:0:0:
179,260,79149,6,0,B|226:216|246:213|262:163|257:138|252:120,3,140
417,104,81024,5,0,0:0:0:0:
336,81,81258,1,0,0:0:0:0:
258,112,81492,1,0,0:0:0:0:
258,196,81727,1,0,0:0:0:0:
195,251,81961,1,0,0:0:0:0:
296,268,82196,1,0,0:0:0:0:
198,165,82430,1,0,0:0:0:0:
301,176,82664,1,0,0:0:0:0:
208,236,82899,6,0,L|328:128,3,140
180,247,84774,5,0,0:0:0:0:
349,141,85242,1,0,0:0:0:0:
363,308,85711,1,0,0:0:0:0:
243,95,86180,1,0,0:0:0:0:
216,152,86649,6,0,P|216:232|272:271,3,140
212,232,88524,5,0,0:0:0:0:
220,228,88758,1,0,0:0:0:0:
296,160,88992,1,0,0:0:0:0:
296,160,89227,1,0,0:0:0:0:
256,188,89461,6,0,L|256:312,2,105
200,124,90399,6,0,B|216:170|228:217|287:234,3,140
216,232,92274,5,0,0:0:0:0:
290,147,92508,1,0,0:0:0:0:
300,239,92742,1,0,0:0:0:0:
207,148,92977,1,0,0:0:0:0:
216,232,93211,1,0,0:0:0:0:
296,232,93446,1,0,0:0:0:0:
250,94,93680,1,0,0:0:0:0:
252,293,93914,1,0,0:0:0:0:
294,134,94149,6,0,B|294:180|259:214|239:240|201:262,3,140
345,85,96024,5,0,0:0:0:0:
340,88,96258,1,0,0:0:0:0:
296,152,96492,1,0,0:0:0:0:
296,152,96727,1,0,0:0:0:0:
216,152,96961,1,0,0:0:0:0:
216,152,97196,1,0,0:0:0:0:
295,231,97430,1,0,0:0:0:0:
295,231,97664,1,0,0:0:0:0:
292,156,97899,6,0,B|232:156|216:184|228:220|256:260|288:280|340:284|372:280|408:260|436:240|440:188|436:144|400:104,1,420
308,144,99774,5,0,0:0:0:0:
391,152,100008,1,0,0:0:0:0:
354,227,100242,1,0,0:0:0:0:
270,217,100477,1,0,0:0:0:0:
166,219,100711,1,0,0:0:0:0:
216,152,100946,1,0,0:0:0:0:
249,229,101180,1,0,0:0:0:0:
374,282,101414,1,0,0:0:0:0:
414,191,101649,6,0,P|342:191|294:115,1,140
300,144,102586,2,0,B|295:201|227:218|185:130|203:114,1,140
256,192,103524,12,0,105399,0:0:0:0:
256,192,110086,5,0,0:0:0:0:
145,65,110555,1,0,0:0:0:0:
89,223,111024,1,0,0:0:0:0:
284,184,111492,1,0,0:0:0:0:
451,197,111961,1,0,0:0:0:0:
355,335,112430,1,0,0:0:0:0:
224,224,112899,1,0,0:0:0:0:
140,183,113602,5,0,0:0:0:0:
321,240,113836,1,0,0:0:0:0:
273,87,114305,1,0,0:0:0:0:
214,244,114774,1,0,0:0:0:0:
359,161,115242,1,0,0:0:0:0:
197,114,115711,1,0,0:0:0:0:
254,271,116180,1,0,0:0:0:0:
292,156,116649,5,0,0:0:0:0:
333,153,116766,1,0,0:0:0:0:
289,100,117000,1,0,0:0:0:0:
232,94,117117,1,0,0:0:0:0:
190,100,117235,1,0,0:0:0:0:
131,133,117469,1,0,0:0:0:0:
140,190,117586,1,0,0:0:0:0:
145,231,117703,1,0,0:0:0:0:
187,232,117821,1,0,0:0:0:0:
256,192,118524,12,0,119930,0:0:0:0:
256,192,120399,6,0,P|277:116|256:48,1,140
256,192,121336,5,0,0:0:0:0:
256,192,121805,2,0,P|235:269|256:344,1,140
256,192,122742,5,0,0:0:0:0:
256,192,123211,1,0,0:0:0:0:
256,192,123680,6,0,P|333:215|396:192,1,140
256,192,124617,1,0,0:0:0:0:
256,192,125086,1,0,0:0:0:0:
256,192,125555,6,0,P|181:168|108:192,1,140
144,192,126141,1,0,0:0:0:0:
180,192,126258,1,0,0:0:0:0:
212,192,126375,1,0,0:0:0:0:
256,192,126492,1,0,0:0:0:0:
292,192,126610,1,0,0:0:0:0:
328,192,126727,1,0,0:0:0:0:
360,192,126844,1,0,0:0:0:0:
392,192,126961,1,0,0:0:0:0:
360,192,127078,1,0,0:0:0:0:
328,192,127196,1,0,0:0:0:0:
292,192,127313,1,0,0:0:0:0:
256,192,127430,2,0,B|280:136|280:136|222:90|222:90|256:48,1,175
256,178,128250,5,0,0:0:0:0:
381,166,128602,1,0,0:0:0:0:
292,103,128836,1,0,0:0:0:0:
212,191,129071,2,0,B|240:219|272:239|318:250|357:252,1,140
343,166,129774,1,0,0:0:0:0:
180,123,130125,1,0,0:0:0:0:
255,85,130477,1,0,0:0:0:0:
331,118,130711,1,0,0:0:0:0:
371,191,130946,1,0,0:0:0:0:
256,192,131180,2,0,L|256:276,4,70
256,188,132586,5,0,0:0:0:0:
256,192,133055,2,0,L|376:96,1,140
361,146,133641,1,0,0:0:0:0:
322,162,133758,5,0,0:0:0:0:
284,142,133875,1,0,0:0:0:0:
260,106,133992,1,0,0:0:0:0:
218,114,134110,5,0,0:0:0:0:
189,145,134227,1,0,0:0:0:0:
180,186,134344,1,0,0:0:0:0:
205,152,134461,1,0,0:0:0:0:
239,128,134578,1,0,0:0:0:0:
280,133,134696,1,0,0:0:0:0:
302,168,134813,1,0,0:0:0:0:
256,192,134930,2,0,B|231:229|298:287|256:336,1,140
257,192,139266,5,0,0:0:0:0:
365,255,139617,1,0,0:0:0:0:
388,174,139852,1,0,0:0:0:0:
313,134,140086,1,0,0:0:0:0:
150,176,140555,1,0,0:0:0:0:
322,192,141024,1,0,0:0:0:0:
226,54,141492,1,0,0:0:0:0:
214,221,141961,1,0,0:0:0:0:
346,118,142430,1,0,0:0:0:0:
64,300,143367,6,0,P|179:219|125:90,1,280
218,63,144539,5,0,0:0:0:0:
51,88,145008,1,0,0:0:0:0:
348,165,145242,1,0,0:0:0:0:
180,172,145711,1,0,0:0:0:0:
261,193,145946,1,0,0:0:0:0:
323,137,146180,1,0,0:0:0:0:
156,117,146649,1,0,0:0:0:0:
261,150,147117,5,0,0:0:0:0:
385,263,147586,1,0,0:0:0:0:
316,214,147821,1,0,0:0:0:0:
222,253,148055,1,0,0:0:0:0:
406,83,148524,1,0,0:0:0:0:
241,113,148992,1,0,0:0:0:0:
311,83,149461,6,0,B|365:108|382:138|358:178|343:216|360:216,1,140
196,133,150399,5,0,0:0:0:0:
195,241,150867,1,0,0:0:0:0:
336,105,151336,1,0,0:0:0:0:
340,257,151805,1,0,0:0:0:0:
171,118,152274,1,0,0:0:0:0:
329,116,152742,1,0,0:0:0:0:
333,273,153211,1,0,0:0:0:0:
161,280,153680,1,0,0:0:0:0:
214,90,154149,5,0,0:0:0:0:
158,192,154617,1,0,0:0:0:0:
257,285,155086,1,0,0:0:0:0:
376,192,155555,1,0,0:0:0:0:
254,189,156024,1,0,0:0:0:0:
254,189,156492,6,0,B|205:233|186:279|212:318|402:257,1,280
377,89,157899,5,0,0:0:0:0:
187,96,158367,1,0,0:0:0:0:
152,254,158836,1,0,0:0:0:0:
382,258,159305,1,0,0:0:0:0:
306,148,159774,1,0,0:0:0:0:
203,147,160242,1,0,0:0:0:0:
212,238,160711,1,0,0:0:0:0:
306,234,161180,1,0,0:0:0:0:
289,170,161649,5,0,0:0:0:0:
222,226,162117,1,0,0:0:0:0:
291,190,162586,1,0,0:0:0:0:
256,165,163055,1,0,0:0:0:0:
225,191,163524,1,0,0:0:0:0:
256,190,163992,1,0,0:0:0:0:
301,232,164461,1,0,0:0:0:0:
201,137,164930,1,0,0:0:0:0:
201,239,165399,5,0,0:0:0:0:
306,147,165867,1,0,0:0:0:0:
185,250,166336,1,0,0:0:0:0:
342,263,166805,1,0,0:0:0:0:
314,129,167274,1,0,0:0:0:0:
197,126,167742,1,0,0:0:0:0:
155,255,168211,1,0,0:0:0:0:
245,258,168680,1,0,0:0:0:0:
347,124,169149,5,0,0:0:0:0:
389,217,169617,1,0,0:0:0:0:
265,146,170086,1,0,0:0:0:0:
187,146,170555,1,0,0:0:0:0:
198,230,171024,1,0,0:0:0:0:
329,243,171492,1,0,0:0:0:0:
402,158,171961,1,0,0:0:0:0:
263,121,172430,1,0,0:0:0:0:
184,217,172899,5,0,0:0:0:0:
332,248,173367,1,0,0:0:0:0:
390,146,173836,1,0,0:0:0:0:
235,111,174305,1,0,0:0:0:0:
171,217,174774,1,0,0:0:0:0:
380,235,175242,1,0,0:0:0:0:
367,135,175711,1,0,0:0:0:0:
241,113,176180,1,0,0:0:0:0:
187,222,176649,5,0,0:0:0:0:
347,148,177117,1,0,0:0:0:0:
199,232,177586,1,0,0:0:0:0:
387,237,178055,1,0,0:0:0:0:
181,228,178524,1,0,0:0:0:0:
388,235,178992,1,0,0:0:0:0:
201,226,179461,1,0,0:0:0:0:
346,141,179930,1,0,0:0:0:0:
184,231,180399,5,0,0:0:0:0:
373,238,180867,1,0,0:0:0:0:
256,192,181571,12,0,191649,0:0:0:0:
256,192,191649,12,0,193524,0:0:0:0:
256,192,193524,12,0,194461,0:0:0:0:
256,52,194930,6,0,L|255:147,1,70
193,151,195399,6,0,B|193:200|220:213|265:242|262:134,4,140
211,229,197508,5,0,0:0:0:0:
301,229,197742,1,0,0:0:0:0:
299,143,197977,1,0,0:0:0:0:
208,150,198211,1,0,0:0:0:0:
215,229,198446,1,0,0:0:0:0:
303,233,198680,1,0,0:0:0:0:
299,149,198914,1,0,0:0:0:0:
253,113,199149,6,0,B|192:126|171:157|163:191|206:222,3,140
315,188,201024,5,0,0:0:0:0:
297,149,201141,1,0,0:0:0:0:
267,119,201258,1,0,0:0:0:0:
227,105,201375,1,0,0:0:0:0:
192,128,201492,1,0,0:0:0:0:
176,167,201610,1,0,0:0:0:0:
171,208,201727,1,0,0:0:0:0:
212,231,201844,1,0,0:0:0:0:
240,200,201961,1,0,0:0:0:0:
230,158,202078,1,0,0:0:0:0:
195,133,202196,1,0,0:0:0:0:
153,131,202313,1,0,0:0:0:0:
119,155,202430,1,0,0:0:0:0:
111,196,202547,1,0,0:0:0:0:
145,220,202664,1,0,0:0:0:0:
212,231,202899,6,0,B|259:236|288:209|295:171|241:123,3,140
259,153,204774,5,0,0:0:0:0:
259,153,205008,1,0,0:0:0:0:
210,239,205242,1,0,0:0:0:0:
210,239,205477,1,0,0:0:0:0:
298,235,205711,1,0,0:0:0:0:
298,235,205946,1,0,0:0:0:0:
302,146,206180,1,0,0:0:0:0:
302,146,206414,1,0,0:0:0:0:
301,133,206649,6,0,B|260:153|223:185|234:214|309:208,4,140
301,133,208641,5,0,0:0:0:0:
323,97,208758,1,0,0:0:0:0:
282,85,208875,1,0,0:0:0:0:
277,126,208992,1,0,0:0:0:0:
241,102,209110,1,0,0:0:0:0:
199,93,209227,1,0,0:0:0:0:
159,105,209344,1,0,0:0:0:0:
154,146,209461,1,0,0:0:0:0:
201,155,209930,6,0,B|216:198|259:199|274:195,1,70
310,135,210399,6,0,B|312:173|291:208|265:246|200:211,4,140
235,95,212508,5,0,0:0:0:0:
195,168,212742,1,0,0:0:0:0:
247,102,212977,1,0,0:0:0:0:
201,172,213211,1,0,0:0:0:0:
257,109,213446,1,0,0:0:0:0:
313,170,213680,1,0,0:0:0:0:
255,109,213914,1,0,0:0:0:0:
255,109,214149,6,0,B|213:109|190:135|201:196|273:193,4,140
296,117,216141,5,0,0:0:0:0:
327,144,216258,1,0,0:0:0:0:
337,184,216375,1,0,0:0:0:0:
313,219,216492,1,0,0:0:0:0:
280,245,216610,1,0,0:0:0:0:
239,257,216727,1,0,0:0:0:0:
200,241,216844,1,0,0:0:0:0:
170,211,216961,1,0,0:0:0:0:
151,173,217078,1,0,0:0:0:0:
151,130,217196,1,0,0:0:0:0:
175,95,217313,1,0,0:0:0:0:
213,78,217430,1,0,0:0:0:0:
249,98,217547,1,0,0:0:0:0:
277,129,217664,1,0,0:0:0:0:
288,169,217781,1,0,0:0:0:0:
277,209,217899,6,0,B|249:241|213:241|171:220|154:171,4,140
285,125,220008,5,0,0:0:0:0:
201,135,220242,1,0,0:0:0:0:
285,135,220477,1,0,0:0:0:0:
201,135,220711,1,0,0:0:0:0:
285,135,220946,1,0,0:0:0:0:
286,218,221180,1,0,0:0:0:0:
285,134,221414,1,0,0:0:0:0:
285,218,221649,6,0,B|230:217|209:201|190:168|211:115,4,140
313,186,223641,5,0,0:0:0:0:
310,144,223758,1,0,0:0:0:0:
281,113,223875,1,0,0:0:0:0:
239,113,223992,1,0,0:0:0:0:
197,122,224110,1,0,0:0:0:0:
162,145,224227,1,0,0:0:0:0:
147,184,224344,1,0,0:0:0:0:
256,39,224930,6,0,L|256:196,1,140
291,214,225867,5,0,0:0:0:0:
289,221,226336,1,0,0:0:0:0:
211,135,226805,1,0,0:0:0:0:
209,138,227274,5,0,0:0:0:0:
376,147,227742,1,0,0:0:0:0:
407,312,228211,1,0,0:0:0:0:
274,209,228680,5,0,0:0:0:0:
254,171,228797,1,0,0:0:0:0:
254,129,228914,1,0,0:0:0:0:
145,101,229149,1,0,0:0:0:0:
182,264,229617,1,0,0:0:0:0:
299,143,230086,1,0,0:0:0:0:
130,141,230555,6,0,B|149:184|174:217|207:228|249:197,1,140
259,173,231141,5,0,0:0:0:0:
285,140,231258,1,0,0:0:0:0:
299,100,231375,1,0,0:0:0:0:
273,66,231492,1,0,0:0:0:0:
230,62,231610,1,0,0:0:0:0:
218,102,231727,1,0,0:0:0:0:
219,143,231844,1,0,0:0:0:0:
238,179,231961,1,0,0:0:0:0:
278,190,232078,1,0,0:0:0:0:
319,182,232196,1,0,0:0:0:0:
352,157,232313,1,0,0:0:0:0:
314,137,232430,2,0,B|286:171|241:175|196:150|173:119,1,140
188,135,233367,5,0,0:0:0:0:
169,302,233836,1,0,0:0:0:0:
337,305,234305,1,0,0:0:0:0:
343,221,234539,2,0,P|306:201|270:217,1,70
338,95,235125,5,0,0:0:0:0:
211,98,235477,1,0,0:0:0:0:
127,94,235711,1,0,0:0:0:0:
193,145,235946,1,0,0:0:0:0:
193,145,236180,6,0,B|204:185|241:206|278:206|302:153,3,140
213,154,237821,5,0,0:0:0:0:
296,147,238055,6,0,B|243:161|234:184|239:230|244:272,1,140
200,258,238641,1,0,0:0:0:0:
160,243,238758,1,0,0:0:0:0:
145,203,238875,1,0,0:0:0:0:
168,167,238992,1,0,0:0:0:0:
194,134,239110,1,0,0:0:0:0:
231,116,239227,1,0,0:0:0:0:
269,100,239344,1,0,0:0:0:0:
255,193,239461,6,0,B|256:142|256:114|256:88|258:48,1,140
93,91,240399,6,0,B|130:126|161:145|204:144|209:73,4,140
94,175,242508,5,0,0:0:0:0:
171,206,242742,1,0,0:0:0:0:
229,145,242977,1,0,0:0:0:0:
285,206,243211,1,0,0:0:0:0:
257,126,243446,1,0,0:0:0:0:
207,193,243680,1,0,0:0:0:0:
152,129,243914,1,0,0:0:0:0:
231,100,244149,6,0,B|239:144|216:175|181:213|123:173,4,140
272,106,246141,5,0,0:0:0:0:
290,143,246258,1,0,0:0:0:0:
293,184,246375,1,0,0:0:0:0:
289,225,246492,1,0,0:0:0:0:
256,251,246610,1,0,0:0:0:0:
214,257,246727,1,0,0:0:0:0:
178,234,246844,1,0,0:0:0:0:
154,198,246961,1,0,0:0:0:0:
161,156,247078,1,0,0:0:0:0:
184,120,247196,1,0,0:0:0:0:
217,94,247313,1,0,0:0:0:0:
254,75,247430,1,0,0:0:0:0:
294,86,247547,1,0,0:0:0:0:
322,116,247664,1,0,0:0:0:0:
332,156,247781,1,0,0:0:0:0:
294,176,247899,6,0,B|258:222|226:219|186:193|234:121,4,140
219,148,250008,5,0,0:0:0:0:
213,231,250242,1,0,0:0:0:0:
221,314,250477,1,0,0:0:0:0:
295,275,250711,1,0,0:0:0:0:
360,221,250946,1,0,0:0:0:0:
304,158,251180,1,0,0:0:0:0:
242,101,251414,1,0,0:0:0:0:
163,130,251649,6,0,P|184:161|268:106,4,140
208,238,253641,5,0,0:0:0:0:
208,238,253758,1,0,0:0:0:0:
208,238,253875,1,0,0:0:0:0:
208,238,253992,1,0,0:0:0:0:
208,238,254110,1,0,0:0:0:0:
208,238,254227,1,0,0:0:0:0:
208,238,254344,1,0,0:0:0:0:
208,238,254461,6,0,P|334:238|339:236,1,105
318,203,254930,2,0,L|318:50,1,140
183,109,255867,5,0,0:0:0:0:
319,244,256336,1,0,0:0:0:0:
316,101,256805,1,0,0:0:0:0:
123,248,257274,1,0,0:0:0:0:
302,144,257742,5,0,0:0:0:0:
148,118,258211,1,0,0:0:0:0:
152,266,258680,1,0,0:0:0:0:
319,256,259149,1,0,0:0:0:0:
313,141,259617,5,0,0:0:0:0:
187,131,260086,1,0,0:0:0:0:
153,266,260555,1,0,0:0:0:0:
325,267,261024,1,0,0:0:0:0:
198,140,261492,5,0,0:0:0:0:
307,239,261961,1,0,0:0:0:0:
305,143,262430,1,0,0:0:0:0:
200,243,262899,1,0,0:0:0:0:
312,239,263367,5,0,0:0:0:0:
209,142,263836,1,0,0:0:0:0:
202,245,264305,1,0,0:0:0:0:
303,142,264774,1,0,0:0:0:0:
257,109,265242,6,0,B|193:137|178:193|227:247|240:236,1,140
256,116,266180,6,0,B|299:140|332:149|315:207|268:247,1,140
256,245,267117,6,0,B|215:233|212:195|223:150|260:113,1,140
255,138,268055,6,0,B|294:164|305:202|297:238|232:259,1,140
180,153,268992,6,0,B|188:194|209:224|245:240|294:163,1,140
289,182,269930,6,0,B|267:220|213:232|182:221|184:149,1,140
299,155,270867,6,0,B|297:109|280:104|247:101|205:101|216:181,1,140
215,227,271805,6,0,B|238:255|280:262|312:233|310:178,1,140
213,151,272742,5,0,0:0:0:0:
308,154,273211,1,0,0:0:0:0:
303,240,273680,1,0,0:0:0:0:
202,238,274149,1,0,0:0:0:0:
202,238,274617,5,0,0:0:0:0:
308,239,275086,1,0,0:0:0:0:
304,148,275555,1,0,0:0:0:0:
209,151,276024,1,0,0:0:0:0:
209,151,276492,5,0,0:0:0:0:
309,240,276961,1,0,0:0:0:0:
302,142,277430,5,0,0:0:0:0:
211,232,277899,1,0,0:0:0:0:
299,233,278367,5,0,0:0:0:0:
208,236,278836,1,0,0:0:0:0:
306,152,279305,1,0,0:0:0:0:
204,145,279774,5,0,0:0:0:0:
212,239,280242,1,0,0:0:0:0:
312,237,280711,1,0,0:0:0:0:
256,93,281180,6,0,B|241:134|251:171|271:206|340:199,3,140
371,193,283055,6,0,B|354:157|296:130|300:46,3,140
257,35,284930,5,0,0:0:0:0:
256,327,285399,1,0,0:0:0:0:
