osu file format v14

[General]
AudioFilename: audio.mp3
AudioLeadIn: 0
PreviewTime: -1
Countdown: 1
SampleSet: None
StackLeniency: 0.7
Mode: 0
LetterboxInBreaks: 0
WidescreenStoryboard: 1

[Editor]
DistanceSpacing: 1.2
BeatDivisor: 4
GridSize: 4
TimelineZoom: 1

[Metadata]
Title:Let me hit it
TitleUnicode:Let me hit it
Artist:Sporty-O
ArtistUnicode:Sporty-O
Creator:Elia1995
Version:A bit easier
Source:
Tags:Drop it,meme
BeatmapID:1891921
BeatmapSetID:879157

[Difficulty]
HPDrainRate:5
CircleSize:5
OverallDifficulty:5
ApproachRate:5
SliderMultiplier:1.4
SliderTickRate:1

[Events]
//Background and Video events
//Break Periods
//Storyboard Layer 0 (Background)
//Storyboard Layer 1 (Fail)
//Storyboard Layer 2 (Pass)
//Storyboard Layer 3 (Foreground)
//Storyboard Sound Samples

[TimingPoints]
399.177165354331,468.75,4,1,0,100,1,0

[HitObjects]
200,147,399,6,0,L|329:228,1,140
398,73,1336,2,0,L|279:166,1,140
120,141,2274,2,0,L|271:140,1,140
367,269,3211,2,0,L|334:120,1,140
336,132,4149,2,0,L|194:120,1,140
196,120,5086,2,0,P|237:198|291:215,1,140
281,214,6024,2,0,B|313:182|320:155|304:116|266:85,1,140
107,110,6961,5,0,0:0:0:0:
271,142,7430,1,0,0:0:0:0:
363,282,7899,1,0,0:0:0:0:
204,227,8367,2,0,L|330:137,1,140
317,145,9305,2,0,L|193:241,1,140
206,230,10242,2,0,L|326:129,1,140
313,139,11180,2,0,L|162:142,1,140
173,141,12117,2,0,L|290:256,1,140
109,279,13055,2,0,L|251:191,2,140
217,150,14461,1,0,0:0:0:0:
347,255,14930,1,0,0:0:0:0:
216,149,15399,1,0,0:0:0:0:
79,246,15867,6,0,B|177:237|233:222|282:180|301:104|219:26|110:11,1,420
129,14,17742,2,0,B|203:41|241:91|263:168|196:246|122:286|31:306,1,420
135,300,19383,2,0,B|227:295|282:271|320:200|302:48,1,350
149,123,21024,1,0,0:0:0:0:
316,126,21492,1,0,0:0:0:0:
312,294,21961,1,0,0:0:0:0:
143,291,22430,1,0,0:0:0:0:
92,130,22899,2,0,B|98:212|142:259|216:295|294:313|367:311|434:296|500:265|463:145,2,560
168,139,28524,2,0,B|250:140|323:140|450:123|477:272|277:262|58:266,1,560
175,144,32274,5,0,0:0:0:0:
186,311,32742,1,0,0:0:0:0:
217,145,33211,1,0,0:0:0:0:
328,270,33680,1,0,0:0:0:0:
141,168,35086,2,0,L|226:278,1,140
226,278,36961,2,0,L|137:156,1,140
309,135,37899,2,0,P|172:224|205:259,1,280
328,260,39774,2,0,L|440:175,1,140
439,175,40711,2,0,L|300:146,1,140
301,146,41649,2,0,L|187:226,2,140
139,100,43055,1,0,0:0:0:0:
270,205,43524,1,0,0:0:0:0:
194,129,44461,6,0,P|278:140|288:76,1,140
127,128,45399,2,0,L|262:204,1,140
204,234,47274,2,0,L|331:135,1,140
314,147,49149,2,0,L|164:146,1,140
174,146,51024,2,0,L|262:267,1,140
256,259,52899,2,0,L|255:114,1,140
255,119,53836,2,0,L|104:122,1,140
115,121,54774,2,0,L|197:268,1,140
192,263,55711,2,0,L|328:159,1,140
448,93,56649,2,0,L|298:170,1,140
172,231,57586,2,0,P|230:151|194:109,1,140
217,127,58524,2,0,P|183:202|234:260,1,140
341,143,59461,2,0,B|317:206|291:229|266:245|235:252,1,140
150,112,60399,5,0,0:0:0:0:
168,278,60867,1,0,0:0:0:0:
252,132,61336,1,0,0:0:0:0:
329,281,61805,1,0,0:0:0:0:
416,137,62274,1,0,0:0:0:0:
256,188,62742,1,0,0:0:0:0:
126,295,63211,1,0,0:0:0:0:
163,131,63680,1,0,0:0:0:0:
296,232,64149,1,0,0:0:0:0:
133,274,64617,1,0,0:0:0:0:
194,117,65086,1,0,0:0:0:0:
158,281,65555,1,0,0:0:0:0:
280,165,66024,1,0,0:0:0:0:
388,36,66492,1,0,0:0:0:0:
350,199,66961,1,0,0:0:0:0:
190,144,67430,1,0,0:0:0:0:
171,311,67899,1,0,0:0:0:0:
177,143,68367,1,0,0:0:0:0:
216,306,68836,1,0,0:0:0:0:
273,148,69305,1,0,0:0:0:0:
108,183,69774,1,0,0:0:0:0:
272,148,70242,1,0,0:0:0:0:
107,183,70711,1,0,0:0:0:0:
271,149,71180,1,0,0:0:0:0:
106,183,71649,1,0,0:0:0:0:
270,149,72117,1,0,0:0:0:0:
105,183,72586,1,0,0:0:0:0:
269,149,73055,1,0,0:0:0:0:
104,184,73524,1,0,0:0:0:0:
268,149,73992,1,0,0:0:0:0:
256,191,74461,1,0,0:0:0:0:
257,22,74930,6,0,L|256:186,1,140
423,149,75867,1,0,0:0:0:0:
304,268,76336,1,0,0:0:0:0:
465,241,76805,1,0,0:0:0:0:
296,269,77274,1,0,0:0:0:0:
465,241,77742,1,0,0:0:0:0:
302,268,78211,1,0,0:0:0:0:
196,138,78680,1,0,0:0:0:0:
356,168,79149,1,0,0:0:0:0:
196,219,79617,1,0,0:0:0:0:
339,125,80086,1,0,0:0:0:0:
193,210,80555,1,0,0:0:0:0:
355,173,81024,1,0,0:0:0:0:
192,213,81492,1,0,0:0:0:0:
358,193,81961,1,0,0:0:0:0:
209,121,82430,1,0,0:0:0:0:
340,217,82899,1,0,0:0:0:0:
178,178,83367,1,0,0:0:0:0:
339,130,83836,1,0,0:0:0:0:
181,178,84305,1,0,0:0:0:0:
339,130,84774,1,0,0:0:0:0:
172,108,85242,1,0,0:0:0:0:
334,86,85711,1,0,0:0:0:0:
169,96,86180,1,0,0:0:0:0:
327,119,86649,1,0,0:0:0:0:
162,116,87117,1,0,0:0:0:0:
328,121,87586,1,0,0:0:0:0:
174,182,88055,1,0,0:0:0:0:
326,111,88524,1,0,0:0:0:0:
215,232,88992,1,0,0:0:0:0:
175,72,89461,1,0,0:0:0:0:
292,196,89930,1,0,0:0:0:0:
257,31,90399,1,0,0:0:0:0:
291,192,90867,1,0,0:0:0:0:
257,33,91336,1,0,0:0:0:0:
351,171,91805,1,0,0:0:0:0:
183,165,92274,1,0,0:0:0:0:
344,152,92742,1,0,0:0:0:0:
177,159,93211,1,0,0:0:0:0:
342,159,93680,1,0,0:0:0:0:
173,167,94149,1,0,0:0:0:0:
315,257,94617,1,0,0:0:0:0:
221,121,95086,1,0,0:0:0:0:
136,268,95555,1,0,0:0:0:0:
271,167,96024,1,0,0:0:0:0:
122,91,96492,1,0,0:0:0:0:
247,202,96961,1,0,0:0:0:0:
82,174,97430,1,0,0:0:0:0:
245,156,97899,1,0,0:0:0:0:
332,292,98367,1,0,0:0:0:0:
218,168,98836,1,0,0:0:0:0:
357,88,99305,1,0,0:0:0:0:
213,173,99774,1,0,0:0:0:0:
366,116,100242,1,0,0:0:0:0:
199,134,100711,1,0,0:0:0:0:
347,207,101180,1,0,0:0:0:0:
188,165,101649,1,0,0:0:0:0:
347,111,102117,1,0,0:0:0:0:
205,195,102586,1,0,0:0:0:0:
368,173,103055,1,0,0:0:0:0:
209,134,103524,1,0,0:0:0:0:
179,303,103992,1,0,0:0:0:0:
270,165,104461,1,0,0:0:0:0:
390,52,104930,1,0,0:0:0:0:
240,127,105399,1,0,0:0:0:0:
