osu file format v14

[General]
AudioFilename: audio.mp3
AudioLeadIn: 0
PreviewTime: 48
Countdown: 0
SampleSet: None
StackLeniency: 0.7
Mode: 0
LetterboxInBreaks: 0
WidescreenStoryboard: 0

[Editor]
Bookmarks: 517,4267,8017,11767,15517,19267,23017,28642,30517
DistanceSpacing: 2.3
BeatDivisor: 4
GridSize: 4
TimelineZoom: 1.5

[Metadata]
Title:Let Me Hit It (Audiostalkers Original Mix)
TitleUnicode:Let Me Hit It (Audiostalkers Original Mix)
Artist:Sporty-O
ArtistUnicode:Sporty-O
Creator:eiri-
Version:Sotarks' Expert
Source:
Tags:Ayyri Benny- Benita BennyBananas Shiinoha Kotone Tomadoi Sotarks Dubstep Drop it Cut Ver illeven eleven illeven:eleven ILL-018
BeatmapID:1655728
BeatmapSetID:788905

[Difficulty]
HPDrainRate:5
CircleSize:3.8
OverallDifficulty:9.2
ApproachRate:8.5
SliderMultiplier:1.92
SliderTickRate:1

[Events]
//Background and Video events
0,0,"Let Me Hit It.jpg",0,0
//Break Periods
//Storyboard Layer 0 (Background)
//Storyboard Layer 1 (Fail)
//Storyboard Layer 2 (Pass)
//Storyboard Layer 3 (Foreground)
//Storyboard Sound Samples

[TimingPoints]
517,468.75,4,3,1,62,1,0
1220,-89.2857142857143,4,3,1,62,0,0
14931,-89.2857142857143,4,3,1,5,0,0
15048,-75.7575757575758,4,3,1,62,0,0
15399,-75.7575757575758,4,3,1,5,0,0
15517,-89.2857142857143,4,3,1,62,0,0

[Colours]
Combo1 : 83,166,166
Combo2 : 0,92,185
Combo3 : 236,236,0
Combo4 : 0,240,240

[HitObjects]
176,196,517,5,4,1:1:0:0:
249,104,751,1,0,0:0:0:0:
376,249,985,1,8,0:2:0:0:
263,188,1220,1,0,0:0:0:0:
411,54,1454,1,0,1:0:0:0:
362,165,1688,1,0,0:0:0:0:
237,23,1923,2,0,L|123:10,1,107.5200013125,8|0,0:2|0:0,0:0:0:0:
52,271,2392,5,0,1:0:0:0:
109,87,2626,1,0,0:0:0:0:
251,302,2860,5,8,0:2:0:0:
194,118,3094,1,0,0:0:0:0:
116,382,3329,5,0,1:0:0:0:
173,198,3563,1,0,0:0:0:0:
391,382,3798,5,8,0:2:0:0:
291,104,4032,1,0,0:0:0:0:
143,285,4267,6,0,P|76:265|34:264,1,107.5200013125,0|0,1:0|0:0,0:0:0:0:
334,198,4735,2,0,P|401:178|443:177,1,107.5200013125,8|0,0:2|0:0,0:0:0:0:
138,91,5204,2,0,P|156:169|161:227,1,107.5200013125,0|0,1:0|0:0,0:0:0:0:
314,18,5673,2,0,P|296:96|291:154,1,107.5200013125,8|0,0:2|0:0,0:0:0:0:
464,294,6142,5,2,1:2:0:0:
416,269,6259,1,2,0:2:0:0:
364,274,6376,1,2,0:2:0:0:
322,307,6493,1,2,0:2:0:0:
294,353,6610,5,10,0:2:0:0:
246,377,6727,1,2,0:2:0:0:
194,372,6844,1,2,0:2:0:0:
152,339,6961,1,2,0:2:0:0:
141,286,7079,5,2,1:2:0:0:
141,286,7196,1,2,0:2:0:0:
141,286,7313,2,0,L|126:216,1,53.76000065625,2|2,0:2|0:2,0:0:0:0:
242,146,7548,5,2,1:2:0:0:
242,146,7665,1,2,0:2:0:0:
243,146,7782,2,0,L|254:93,1,53.76000065625,2|2,0:2|0:2,0:0:0:0:
242,284,8017,6,0,P|311:262|379:255,1,107.5200013125,0|0,1:0|0:0,0:0:0:0:
470,121,8485,1,8,0:2:0:0:
500,251,8720,1,0,0:0:0:0:
359,81,8954,6,0,P|290:59|222:52,1,107.5200013125,0|0,1:0|0:0,0:0:0:0:
113,207,9423,1,8,0:2:0:0:
83,77,9658,1,0,0:0:0:0:
324,227,9892,5,0,1:0:0:0:
156,132,10126,1,0,0:0:0:0:
374,108,10360,5,8,0:2:0:0:
206,203,10594,1,0,0:0:0:0:
459,227,10829,5,0,1:0:0:0:
291,132,11063,1,0,0:0:0:0:
498,111,11298,5,8,0:2:0:0:
242,279,11532,1,0,0:0:0:0:
371,20,11767,6,0,P|387:115|394:167,1,107.5200013125,0|0,1:0|0:0,0:0:0:0:
157,201,12235,2,0,P|165:147|174:94,1,107.5200013125,8|0,0:2|0:0,0:0:0:0:
375,265,12704,2,0,P|448:290|499:298,1,107.5200013125,0|0,1:0|0:0,0:0:0:0:
227,352,13173,2,0,P|154:377|103:385,1,107.5200013125,8|0,0:2|0:0,0:0:0:0:
315,168,13642,5,2,1:2:0:0:
338,121,13759,1,2,0:2:0:0:
325,70,13876,1,2,0:2:0:0:
281,41,13993,1,2,0:2:0:0:
228,40,14110,5,10,0:2:0:0:
184,69,14227,1,2,0:2:0:0:
171,120,14344,1,2,0:2:0:0:
195,167,14461,1,2,0:2:0:0:
229,209,14579,6,0,P|244:277|178:369,1,161.28000196875,2|0,0:2|0:0,0:0:0:0:
149,295,15048,6,0,L|395:252,1,190.079999419922
407,302,15517,5,4,1:1:0:0:
357,179,15751,1,0,0:0:0:0:
230,334,15985,1,8,0:2:0:0:
336,262,16220,1,0,0:0:0:0:
168,142,16454,1,0,1:0:0:0:
244,245,16688,1,0,0:0:0:0:
376,98,16923,2,0,L|497:80,1,107.5200013125,8|0,0:2|0:0,0:0:0:0:
248,48,17392,5,0,1:0:0:0:
331,232,17626,1,0,0:0:0:0:
330,21,17860,5,8,0:2:0:0:
247,205,18094,1,0,0:0:0:0:
248,48,18329,5,0,1:0:0:0:
331,232,18563,1,0,0:0:0:0:
419,31,18798,5,8,0:2:0:0:
188,262,19032,1,0,0:0:0:0:
441,126,19267,6,0,P|459:222|460:262,1,107.5200013125,0|0,1:0|0:0,0:0:0:0:
262,37,19735,2,0,P|244:133|243:173,1,107.5200013125,8|0,0:2|0:0,0:0:0:0:
136,353,20204,2,0,P|123:300|117:247,1,107.5200013125,0|0,1:0|0:0,0:0:0:0:
314,264,20672,2,0,P|326:211|332:158,1,107.5200013125,8|0,0:2|0:0,0:0:0:0:
39,109,21142,5,2,1:2:0:0:
86,85,21259,1,2,0:2:0:0:
138,94,21376,1,2,0:2:0:0:
175,131,21493,1,2,0:2:0:0:
196,181,21610,5,10,0:2:0:0:
243,204,21727,1,2,0:2:0:0:
295,195,21844,1,2,0:2:0:0:
332,158,21961,1,2,0:2:0:0:
333,101,22079,5,2,1:2:0:0:
333,101,22196,1,2,0:2:0:0:
333,101,22313,2,0,P|330:68|320:36,1,53.76000065625,2|2,0:2|0:2,0:0:0:0:
434,200,22548,5,2,1:2:0:0:
434,200,22665,1,2,0:2:0:0:
434,200,22782,2,0,P|436:167|447:135,1,53.76000065625,2|2,0:2|0:2,0:0:0:0:
338,297,23017,5,0,1:0:0:0:
244,203,23251,1,0,0:0:0:0:
114,345,23485,1,8,0:2:0:0:
234,291,23720,1,0,0:0:0:0:
105,143,23954,1,0,1:0:0:0:
133,258,24188,1,0,0:0:0:0:
281,112,24423,1,8,0:2:0:0:
147,158,24657,1,0,0:0:0:0:
414,264,24892,5,0,1:0:0:0:
370,81,25126,1,0,0:0:0:0:
288,292,25360,5,8,0:2:0:0:
451,88,25595,1,0,0:0:0:0:
479,346,25829,5,0,1:0:0:0:
294,107,26063,1,0,0:0:0:0:
219,366,26298,5,8,0:2:0:0:
469,64,26532,1,0,0:0:0:0:
193,242,26767,5,0,1:0:0:0:
399,175,27001,1,0,0:0:0:0:
260,118,27235,1,8,0:2:0:0:
394,310,27470,1,0,0:0:0:0:
491,184,27704,1,0,1:0:0:0:
294,288,27938,1,0,0:0:0:0:
264,140,28173,1,8,0:2:0:0:
410,332,28407,1,0,0:0:0:0:
357,143,28642,6,0,P|379:75|386:64,2,71.680000875,2|2|2,0:2|0:2|0:2,0:0:0:0:
196,204,29110,2,0,P|174:136|167:125,2,71.680000875,2|2|2,0:2|0:2|0:2,0:0:0:0:
426,223,29579,6,0,P|433:258|447:290,2,71.680000875,2|2|2,0:2|0:2|0:2,0:0:0:0:
264,283,30047,2,0,P|256:318|242:350,2,71.680000875,2|2|2,0:2|0:2|0:2,0:0:0:0:
268,64,30517,5,4,0:3:0:0:
