osu file format v14

[General]
AudioFilename: audio.mp3
AudioLeadIn: 0
PreviewTime: 48
Countdown: 0
SampleSet: None
StackLeniency: 0.7
Mode: 2
LetterboxInBreaks: 0
WidescreenStoryboard: 0

[Editor]
Bookmarks: 517,4267,8017,11767,15517,19267,23017,26767,30517
DistanceSpacing: 2.3
BeatDivisor: 4
GridSize: 32
TimelineZoom: 2

[Metadata]
Title:Let Me Hit It (Audiostalkers Original Mix)
TitleUnicode:Let Me Hit It (Audiostalkers Original Mix)
Artist:Sporty-O
ArtistUnicode:Sporty-O
Creator:eiri-
Version:Platter
Source:
Tags:Ayyri Benny- Benita BennyBananas Shiinoha Kotone Tomadoi Sotarks Dubstep Drop it Cut Ver illeven eleven illeven:eleven ILL-018
BeatmapID:1655891
BeatmapSetID:788905

[Difficulty]
HPDrainRate:5
CircleSize:4
OverallDifficulty:8
ApproachRate:8
SliderMultiplier:2
SliderTickRate:1

[Events]
//Background and Video events
0,0,"Let Me Hit It.jpg",0,0
//Break Periods
//Storyboard Layer 0 (Background)
//Storyboard Layer 1 (Fail)
//Storyboard Layer 2 (Pass)
//Storyboard Layer 3 (Foreground)
//Storyboard Sound Samples

[TimingPoints]
517,468.75,4,3,1,75,1,0
14931,-100,4,3,1,5,0,0
15048,-100,4,3,1,75,0,0

[Colours]
Combo1 : 83,166,166
Combo2 : 0,92,185
Combo3 : 236,236,0
Combo4 : 0,240,240

[HitObjects]
76,281,517,6,0,L|86:149,1,100,4|0,1:0|0:0,0:0:0:0:
223,146,985,2,0,L|353:142,1,100,8|0,0:2|0:0,0:0:0:0:
123,230,1454,2,0,L|2:208,1,100,0|0,1:0|0:0,0:0:0:0:
246,343,1923,2,0,L|122:324,1,100,8|0,0:2|0:0,0:0:0:0:
448,286,2392,6,0,L|441:180,1,100,0|0,1:0|0:0,0:0:0:0:
242,234,2860,2,0,L|259:102,1,100,8|0,0:2|0:0,0:0:0:0:
359,84,3329,1,0,1:0:0:0:
463,56,3563,1,0,0:0:0:0:
272,177,3798,1,8,0:2:0:0:
407,137,4032,1,0,0:0:0:0:
90,170,4267,6,0,L|82:45,1,100,0|0,1:0|0:0,0:0:0:0:
274,276,4735,2,0,L|282:151,1,100,8|0,0:2|0:0,0:0:0:0:
83,70,5204,2,0,L|182:65,1,100,0|0,1:0|0:0,0:0:0:0:
360,336,5673,2,0,L|456:288,1,100,8|0,0:2|0:0,0:0:0:0:
248,240,6142,5,2,1:2:0:0:
185,237,6259,1,2,0:2:0:0:
152,184,6376,1,2,0:2:0:0:
176,127,6493,1,2,0:2:0:0:
253,124,6610,1,10,0:2:0:0:
299,113,6727,1,2,0:2:0:0:
311,67,6844,1,2,0:2:0:0:
276,35,6961,1,2,0:2:0:0:
201,87,7079,5,2,1:2:0:0:
250,82,7196,1,2,0:2:0:0:
300,78,7313,1,2,0:2:0:0:
350,74,7430,1,2,0:2:0:0:
430,150,7548,1,2,1:2:0:0:
381,145,7665,1,2,0:2:0:0:
331,141,7782,1,2,0:2:0:0:
27,258,8017,6,0,L|33:135,1,100,0|0,1:0|0:0,0:0:0:0:
208,302,8485,2,0,L|105:313,1,100,8|0,0:2|0:0,0:0:0:0:
305,215,8954,2,0,L|205:205,1,100,0|0,1:0|0:0,0:0:0:0:
39,257,9423,2,0,L|31:153,1,100,8|0,0:2|0:0,0:0:0:0:
342,116,9892,6,0,L|443:106,1,100,0|0,1:0|0:0,0:0:0:0:
276,265,10360,1,8,0:2:0:0:
404,238,10594,1,0,0:0:0:0:
208,188,10830,2,0,L|104:196,1,100,0|0,1:0|0:0,0:0:0:0:
310,90,11298,1,8,0:2:0:0:
182,63,11532,1,0,0:0:0:0:
480,224,11767,6,0,L|482:103,1,100,0|0,1:0|0:0,0:0:0:0:
302,195,12235,2,0,L|310:75,1,100,8|0,0:2|0:0,0:0:0:0:
128,256,12704,2,0,L|15:252,1,100,0|0,1:0|0:0,0:0:0:0:
203,96,13173,2,0,L|90:92,1,100,8|0,0:2|0:0,0:0:0:0:
324,26,13642,5,2,1:2:0:0:
382,46,13759,1,2,0:2:0:0:
379,106,13876,1,2,0:2:0:0:
321,122,13993,1,2,0:2:0:0:
232,136,14110,1,10,0:2:0:0:
174,156,14227,1,2,0:2:0:0:
177,216,14344,1,2,0:2:0:0:
235,232,14461,1,2,0:2:0:0:
328,248,14579,6,0,L|464:168,1,150,2|0,0:2|0:0,0:0:0:0:
504,144,15048,2,0,L|416:96,1,100
110,212,15517,6,0,L|105:84,1,100,4|0,1:0|0:0,0:0:0:0:
264,316,15985,2,0,L|269:188,1,100,8|0,0:2|0:0,0:0:0:0:
463,244,16454,2,0,L|473:136,1,100,0|0,1:0|0:0,0:0:0:0:
311,60,16923,1,8,0:2:0:0:
480,37,17157,1,0,0:0:0:0:
184,64,17392,6,0,L|54:60,1,100,0|0,1:0|0:0,0:0:0:0:
266,210,17860,1,8,0:2:0:0:
86,185,18095,1,0,0:0:0:0:
266,210,18329,2,0,L|396:206,1,100,0|0,1:0|0:0,0:0:0:0:
210,346,18797,1,8,0:2:0:0:
390,321,19032,1,0,0:0:0:0:
60,124,19267,6,0,L|44:2,1,100,0|0,1:0|0:0,0:0:0:0:
255,90,19735,2,0,L|385:86,1,100,8|0,0:2|0:0,0:0:0:0:
148,250,20204,2,0,L|18:246,1,100,0|0,1:0|0:0,0:0:0:0:
255,170,20673,2,0,L|125:166,1,100,8|0,0:2|0:0,0:0:0:0:
368,59,21142,5,2,1:2:0:0:
427,84,21259,1,2,0:2:0:0:
412,147,21376,1,2,0:2:0:0:
348,145,21493,1,2,0:2:0:0:
236,119,21610,1,10,0:2:0:0:
177,93,21727,1,2,0:2:0:0:
192,30,21844,1,2,0:2:0:0:
256,33,21961,1,2,0:2:0:0:
356,90,22079,5,2,1:2:0:0:
291,86,22196,1,2,0:2:0:0:
226,83,22313,1,2,0:2:0:0:
161,79,22430,1,2,0:2:0:0:
53,121,22548,1,2,1:2:0:0:
118,125,22665,1,2,0:2:0:0:
183,128,22782,1,2,0:2:0:0:
499,119,23017,6,0,L|492:12,1,100,0|0,1:0|0:2,0:2:0:0:
288,237,23485,2,0,L|410:225,1,100,8|0,0:2|0:0,0:0:0:0:
233,86,23954,2,0,L|333:76,1,100,0|0,1:0|0:0,0:0:0:0:
140,174,24423,2,0,L|40:164,1,100,8|0,0:2|0:0,0:0:0:0:
392,144,24892,6,0,L|492:154,1,100,0|0,1:0|0:0,0:0:0:0:
288,192,25360,2,0,L|282:291,1,100,8|0,0:2|0:0,0:0:0:0:
456,360,25829,1,0,1:0:0:0:
304,312,26063,1,0,0:0:0:0:
496,248,26298,1,8,0:2:0:0:
336,200,26532,1,0,0:0:0:0:
41,68,26767,6,0,L|48:168,1,100,0|0,1:0|0:0,0:0:0:0:
387,207,27235,2,0,L|395:82,1,100,8|0,0:2|0:0,0:0:0:0:
248,192,27704,2,0,L|145:197,1,100,0|0,1:0|0:0,0:0:0:0:
344,304,28173,2,0,L|447:299,1,100,8|0,0:2|0:0,0:0:0:0:
144,256,28642,6,0,P|102:248|54:259,2,66.6666666666667,2|2|2,0:2|0:2|0:2,0:0:0:0:
256,256,29110,2,0,P|298:248|346:259,2,66.6666666666667,2|2|2,0:2|0:2|0:2,0:0:0:0:
102,109,29579,1,2,0:2:0:0:
188,104,29735,1,2,0:2:0:0:
275,100,29891,1,2,0:2:0:0:
110,76,30048,2,0,L|140:137,1,66.6666666666667,2|2,0:2|0:2,0:0:0:0:
241,184,30360,1,2,0:2:0:0:
455,290,30517,5,4,0:0:0:0:
