osu file format v14

[General]
AudioFilename: audio.mp3
AudioLeadIn: 0
PreviewTime: 48
Countdown: 0
SampleSet: None
StackLeniency: 0.7
Mode: 0
LetterboxInBreaks: 0
WidescreenStoryboard: 0

[Editor]
Bookmarks: 517,4267,8017,11767,15517,19267,23017,26767,30517
DistanceSpacing: 1.2
BeatDivisor: 4
GridSize: 32
TimelineZoom: 1.5

[Metadata]
Title:Let Me Hit It (Audiostalkers Original Mix)
TitleUnicode:Let Me Hit It (Audiostalkers Original Mix)
Artist:Sporty-O
ArtistUnicode:Sporty-O
Creator:eiri-
Version:Hard
Source:
Tags:Ayyri Benny- Benita BennyBananas Shiinoha Kotone Tomadoi Sotarks Dubstep Drop it Cut Ver illeven eleven illeven:eleven ILL-018
BeatmapID:1655721
BeatmapSetID:788905

[Difficulty]
HPDrainRate:5
CircleSize:3.5
OverallDifficulty:6
ApproachRate:7
SliderMultiplier:1.4
SliderTickRate:1

[Events]
//Background and Video events
0,0,"Let Me Hit It.jpg",0,0
//Break Periods
//Storyboard Layer 0 (Background)
//Storyboard Layer 1 (Fail)
//Storyboard Layer 2 (Pass)
//Storyboard Layer 3 (Foreground)
//Storyboard Sound Samples

[TimingPoints]
517,468.75,4,3,1,80,1,0

[Colours]
Combo1 : 83,166,166
Combo2 : 0,92,185
Combo3 : 236,236,0
Combo4 : 0,240,240

[HitObjects]
77,315,517,6,0,P|120:302|148:310,1,70,4|0,1:0|0:0,0:0:0:0:
171,228,985,2,0,P|210:249|224:274,1,70,8|0,0:2|0:0,0:0:0:0:
306,276,1454,2,0,P|294:318|302:346,1,70,0|0,1:0|0:0,0:0:0:0:
384,341,1923,2,0,L|478:338,1,70,8|0,0:2|0:0,0:0:0:0:
505,273,2392,5,0,1:0:0:0:
480,178,2626,1,0,0:0:0:0:
402,212,2860,5,8,0:2:0:0:
427,117,3094,1,0,0:0:0:0:
341,149,3329,6,0,L|248:154,1,70,0|0,1:0|0:0,0:0:0:0:
229,226,3798,2,0,L|322:231,1,70,8|0,0:2|0:0,0:0:0:0:
352,295,4267,6,0,P|306:313|291:338,1,70,0|0,1:0|0:0,0:0:0:0:
214,350,4735,2,0,P|168:332|153:307,1,70,8|0,0:2|0:0,0:0:0:0:
96,257,5204,2,0,L|180:233,1,70,0|0,1:0|0:0,0:0:0:0:
206,165,5673,2,0,B|217:130|217:130|208:85,1,70,8|0,0:2|0:0,0:0:0:0:
264,32,6142,6,0,L|327:24,4,35,2|2|2|2|10,1:2|0:2|0:2|0:2|0:2,0:0:0:0:
210,97,6845,1,2,0:2:0:0:
271,154,7079,2,0,L|263:217,4,35,2|2|2|2|2,1:2|0:2|0:2|0:2|1:2,0:0:0:0:
350,126,7782,1,2,0:2:0:0:
397,195,8017,6,0,L|365:274,1,70,0|0,1:0|0:0,0:0:0:0:
288,275,8485,2,0,P|259:232|217:214,1,70,8|0,0:2|0:0,0:0:0:0:
177,273,8954,2,0,P|161:304|133:326,1,70,0|0,1:0|0:0,0:0:0:0:
66,375,9423,2,0,L|-13:343,1,70,8|0,0:2|0:0,0:0:0:0:
20,262,9892,5,0,1:0:0:0:
111,227,10126,1,0,0:0:0:0:
83,132,10360,5,8,0:2:0:0:
174,167,10595,1,0,0:0:0:0:
185,263,10829,6,0,L|269:251,1,70,0|0,1:0|0:0,0:0:0:0:
335,231,11298,2,0,L|323:315,1,70,8|0,0:2|0:0,0:0:0:0:
398,342,11767,6,0,P|444:333|477:295,1,70,0|0,1:0|0:0,0:0:0:0:
493,241,12235,2,0,P|484:194|446:161,1,70,8|0,0:2|0:0,0:0:0:0:
411,117,12704,2,0,L|357:181,1,70,0|0,1:0|0:0,0:0:0:0:
297,220,13173,2,0,P|259:182|215:177,1,70,8|0,0:2|0:0,0:0:0:0:
160,172,13642,6,0,L|123:129,3,35,2|2|2|2,1:2|0:2|0:2|0:2,0:0:0:0:
103,170,14110,2,0,L|46:165,3,35,10|2|2|2,0:2|0:2|0:2|0:2,0:0:0:0:
36,195,14579,1,2,0:2:0:0:
342,332,15517,6,0,L|356:258,1,70,4|0,1:0|0:0,0:0:0:0:
331,182,15985,2,0,L|405:196,1,70,8|0,0:2|0:0,0:0:0:0:
439,120,16454,2,0,L|365:106,1,70,0|0,1:0|0:0,0:0:0:0:
301,58,16923,2,0,P|266:92|222:91,1,70,8|0,0:2|0:0,0:0:0:0:
162,90,17392,5,0,1:0:0:0:
97,163,17626,1,0,0:0:0:0:
193,181,17860,5,8,0:2:0:0:
128,254,18094,1,0,0:0:0:0:
196,325,18329,6,0,P|241:314|273:327,1,70,0|0,1:0|0:0,0:0:0:0:
291,241,18798,2,0,P|280:196|293:164,1,70,8|0,0:2|0:0,0:0:0:0:
331,102,19267,6,0,L|339:24,1,70,0|0,1:0|0:0,0:0:0:0:
416,61,19735,2,0,L|424:139,1,70,8|0,0:2|0:0,0:0:0:0:
416,214,20204,2,0,P|370:211|337:236,1,70,0|0,1:0|0:0,0:0:0:0:
394,293,20673,2,0,P|440:296|473:271,1,70,8|0,0:2|0:0,0:0:0:0:
497,209,21142,6,0,L|502:172,4,35,2|2|2|2|10,1:2|0:2|0:2|0:2|0:2,0:0:0:0:
459,285,21845,1,2,0:2:0:0:
385,245,22079,2,0,L|348:250,4,35,2|2|2|2|2,1:2|0:2|0:2|0:2|1:2,0:0:0:0:
402,162,22782,1,2,0:2:0:0:
373,82,23017,6,0,L|292:71,1,70,0|0,1:0|0:0,0:0:0:0:
242,129,23485,2,0,P|254:172|289:206,1,70,8|0,0:2|0:0,0:0:0:0:
227,264,23954,2,0,L|238:345,1,70,0|0,1:0|0:0,0:0:0:0:
307,378,24423,2,0,P|336:360|370:354,1,70,8|0,0:2|0:0,0:0:0:0:
451,329,24892,5,0,1:0:0:0:
381,261,25126,1,0,0:0:0:0:
441,178,25361,5,8,0:2:0:0:
344,176,25595,1,0,0:0:0:0:
276,106,25829,6,0,L|352:85,1,70,0|0,1:0|0:0,0:0:0:0:
399,24,26298,2,0,L|323:3,1,70,8|0,0:2|0:0,0:0:0:0:
250,28,26767,6,0,P|203:37|168:27,1,70,0|0,1:0|0:0,0:0:0:0:
102,5,27235,2,0,P|55:-4|20:6,1,70,8|0,0:2|0:0,0:0:0:0:
63,78,27704,2,0,L|77:164,1,70,0|0,1:0|0:0,0:0:0:0:
35,222,28173,2,0,L|21:308,1,70,8|0,0:2|0:0,0:0:0:0:
102,320,28642,6,0,P|107:368|102:389,2,46.6666666666667,2|2|2,0:2|0:2|0:2,0:0:0:0:
135,275,29110,6,0,P|130:227|135:206,2,46.6666666666667,2|2|2,0:2|0:2|0:2,0:0:0:0:
184,301,29579,6,0,P|189:349|184:370,2,46.6666666666667,2|2|2,0:2|0:2|0:2,0:0:0:0:
217,256,30047,6,0,P|212:208|217:187,2,46.6666666666667,2|2|2,0:2|0:2|0:2,0:0:0:0:
265,286,30517,5,4,0:0:0:0:
