osu file format v14

[General]
AudioFilename: audio.mp3
AudioLeadIn: 0
PreviewTime: 48
Countdown: 0
SampleSet: None
StackLeniency: 0.7
Mode: 0
LetterboxInBreaks: 0
WidescreenStoryboard: 0

[Editor]
Bookmarks: 517,4267,8017,11767,15517,19267,23017,26767,30517
DistanceSpacing: 2.3
BeatDivisor: 4
GridSize: 32
TimelineZoom: 1.6

[Metadata]
Title:Let Me Hit It (Audiostalkers Original Mix)
TitleUnicode:Let Me Hit It (Audiostalkers Original Mix)
Artist:Sporty-O
ArtistUnicode:Sporty-O
Creator:eiri-
Version:Extra
Source:
Tags:Ayyri Benny- Benita BennyBananas Shiinoha Kotone Tomadoi Sotarks Dubstep Drop it Cut Ver illeven eleven illeven:eleven ILL-018
BeatmapID:1655719
BeatmapSetID:788905

[Difficulty]
HPDrainRate:6
CircleSize:4
OverallDifficulty:7.5
ApproachRate:8.5
SliderMultiplier:1.8
SliderTickRate:1

[Events]
//Background and Video events
0,0,"Let Me Hit It.jpg",0,0
//Break Periods
//Storyboard Layer 0 (Background)
//Storyboard Layer 1 (Fail)
//Storyboard Layer 2 (Pass)
//Storyboard Layer 3 (Foreground)
//Storyboard Sound Samples

[TimingPoints]
517,468.75,4,3,1,75,1,0
14931,-100,4,3,1,5,0,0
15048,-100,4,3,1,75,0,0
15399,-100,4,3,1,5,0,0
15517,-100,4,3,1,75,0,0

[Colours]
Combo1 : 83,166,166
Combo2 : 0,92,185
Combo3 : 236,236,0
Combo4 : 0,240,240

[HitObjects]
135,289,517,6,0,P|90:303|108:241,1,135,4|0,1:0|0:0,0:0:0:0:
112,268,985,2,0,B|128:229|128:229|108:122,1,135,8|0,0:2|0:0,0:0:0:0:
66,68,1454,2,0,P|131:73|194:38,1,135,0|0,1:0|0:0,0:0:0:0:
278,14,1923,2,0,P|264:70|312:138,1,135,8|0,0:2|0:0,0:0:0:0:
389,184,2392,5,0,1:0:0:0:
461,116,2626,1,0,0:0:0:0:
357,328,2860,5,8,0:2:0:0:
493,260,3094,1,0,0:0:0:0:
301,225,3329,5,0,1:0:0:0:
442,326,3563,1,0,0:0:0:0:
425,195,3798,5,8,0:2:0:0:
284,296,4032,1,0,0:0:0:0:
189,154,4267,6,0,P|184:118|230:162,1,135,0|0,1:0|0:0,0:0:0:0:
215,135,4735,2,0,B|171:60|171:60|100:41,1,135,8|0,0:2|0:0,0:0:0:0:
19,136,5204,2,0,P|79:141|154:224,1,135,0|0,1:0|0:0,0:0:0:0:
166,321,5673,2,0,P|106:316|31:233,1,135,8|0,0:2|0:0,0:0:0:0:
0,196,6142,5,2,1:2:0:0:
44,200,6259,1,2,0:2:0:0:
87,188,6376,1,2,0:2:0:0:
122,160,6493,1,2,0:2:0:0:
194,86,6610,5,10,0:2:0:0:
190,130,6727,1,2,0:2:0:0:
202,173,6844,1,2,0:2:0:0:
230,208,6961,1,2,0:2:0:0:
311,285,7079,5,2,1:2:0:0:
311,285,7196,1,2,0:2:0:0:
311,285,7313,2,0,L|303:340,1,45,2|2,0:2|0:2,0:0:0:0:
401,261,7548,5,2,1:2:0:0:
401,261,7665,1,2,0:2:0:0:
401,261,7782,2,0,L|409:206,1,45,2|2,0:2|0:2,0:0:0:0:
474,335,8017,6,0,P|528:326|488:288,1,135,0|0,1:0|0:0,0:0:0:0:
491,312,8485,2,0,P|468:241|498:166,1,135,8|0,0:2|0:0,0:0:0:0:
508,111,8954,2,0,L|353:100,1,135,0|0,1:0|0:0,0:0:0:0:
288,44,9423,2,0,L|277:199,1,135,8|0,0:2|0:0,0:0:0:0:
329,278,9892,5,0,1:0:0:0:
188,333,10126,1,0,0:0:0:0:
334,348,10360,5,8,0:2:0:0:
171,249,10594,1,0,0:0:0:0:
318,183,10829,5,0,1:0:0:0:
249,360,11063,1,0,0:0:0:0:
248,127,11298,5,8,0:2:0:0:
334,348,11532,1,0,0:0:0:0:
117,258,11767,6,0,P|104:222|142:258,1,135,0|0,1:0|0:0,0:0:0:0:
137,238,12235,2,0,P|190:208|270:231,1,135,8|0,0:2|0:0,0:0:0:0:
336,292,12704,2,0,L|352:135,1,135,0|0,1:0|0:0,0:0:0:0:
435,101,13173,2,0,P|371:81|331:16,1,135,8|0,0:2|0:0,0:0:0:0:
222,29,13642,5,2,1:2:0:0:
224,72,13759,1,2,0:2:0:0:
191,99,13876,1,2,0:2:0:0:
149,87,13993,1,2,0:2:0:0:
59,57,14110,6,0,L|12:27,1,45,10|2,0:2|0:2,0:0:0:0:
50,65,14345,2,0,L|-4:62,1,45,2|2,0:2|0:2,0:0:0:0:
96,184,14579,6,0,P|152:157|95:104,1,135,2|0,0:2|0:0,0:0:0:0:
125,103,15048,6,0,L|171:240,1,135
232,324,15517,6,0,P|245:282|257:338,1,135,4|0,1:0|0:0,0:0:0:0:
259,309,15985,2,0,L|118:298,1,135,8|0,0:2|0:0,0:0:0:0:
91,219,16454,2,0,L|225:208,1,135,0|0,1:0|0:0,0:0:0:0:
304,236,16923,2,0,P|273:182|309:99,1,135,8|0,0:2|0:0,0:0:0:0:
363,42,17392,5,0,1:0:0:0:
438,197,17626,1,0,0:0:0:0:
442,13,17860,5,8,0:2:0:0:
348,206,18094,1,0,0:0:0:0:
263,32,18329,5,0,1:0:0:0:
380,273,18563,1,0,0:0:0:0:
422,88,18798,5,8,0:2:0:0:
305,329,19032,1,0,0:0:0:0:
155,156,19267,6,0,P|157:114|186:169,1,135,0|0,1:0|0:0,0:0:0:0:
184,144,19735,2,0,P|229:175|314:137,1,135,8|0,0:2|0:0,0:0:0:0:
356,69,20204,2,0,P|311:38|226:76,1,135,0|0,1:0|0:0,0:0:0:0:
184,144,20673,2,0,L|36:133,1,135,8|0,0:2|0:0,0:0:0:0:
14,249,21142,5,2,1:2:0:0:
57,238,21259,1,2,0:2:0:0:
102,240,21376,1,2,0:2:0:0:
143,257,21493,1,2,0:2:0:0:
210,335,21610,5,10,0:2:0:0:
253,346,21727,1,2,0:2:0:0:
298,344,21844,1,2,0:2:0:0:
339,327,21961,1,2,0:2:0:0:
424,267,22079,5,2,1:2:0:0:
424,267,22196,1,2,0:2:0:0:
424,267,22313,2,0,L|413:196,1,45,2|2,0:2|0:2,0:0:0:0:
502,164,22548,5,2,1:2:0:0:
502,164,22665,1,2,0:2:0:0:
502,164,22782,2,0,L|513:93,1,45,2|2,0:2|0:2,0:0:0:0:
365,50,23017,6,0,P|330:93|332:35,1,135,0|0,1:0|0:0,0:0:0:0:
340,58,23485,2,0,B|176:47,1,135,8|0,0:2|0:0,0:0:0:0:
91,17,23954,2,0,P|118:70|80:140,1,135,0|0,1:0|0:0,0:0:0:0:
162,204,24423,2,0,P|180:147|256:124,1,135,8|0,0:2|0:0,0:0:0:0:
363,155,24892,5,0,1:0:0:0:
413,318,25126,1,0,0:0:0:0:
459,119,25360,5,8,0:2:0:0:
340,340,25594,1,0,0:0:0:0:
504,192,25829,5,0,1:0:0:0:
203,281,26063,1,0,0:0:0:0:
497,276,26298,5,8,0:2:0:0:
221,126,26532,1,0,0:0:0:0:
463,68,26767,6,0,P|418:89|441:34,1,135,0|0,1:0|0:0,0:0:0:0:
434,63,27235,2,0,P|451:122|421:203,1,135,8|0,0:2|0:0,0:0:0:0:
336,229,27704,2,0,P|272:209|229:158,1,135,0|0,1:0|0:0,0:0:0:0:
184,65,28173,2,0,L|333:54,1,135,8|0,0:2|0:0,0:0:0:0:
478,15,28642,5,2,0:2:0:0:
442,99,28798,2,0,L|452:192,1,60,2|2,0:2|0:2,0:0:0:0:
384,280,29110,5,2,0:2:0:0:
339,175,29266,2,0,L|351:58,1,60,2|2,0:2|0:2,0:0:0:0:
259,32,29579,5,2,0:2:0:0:
223,116,29735,2,0,L|233:209,1,60,2|2,0:2|0:2,0:0:0:0:
165,297,30047,5,2,0:2:0:0:
120,192,30203,2,0,L|132:75,1,60,2|2,0:2|0:2,0:0:0:0:
40,49,30517,5,4,0:0:0:0:
